osu file format v14

[General]
AudioFilename: audio.mp3
AudioLeadIn: 0
PreviewTime: 28268
Countdown: 0
SampleSet: Soft
StackLeniency: 0.7
Mode: 2
LetterboxInBreaks: 0
WidescreenStoryboard: 1

[Editor]
Bookmarks: 63239
DistanceSpacing: 1.1
BeatDivisor: 6
GridSize: 4
TimelineZoom: 2.1

[Metadata]
Title:Hanami ON THE RIFT (PV ver.)
TitleUnicode:花見 ON THE RIFT (PV ver.)
Artist:League of Legends
ArtistUnicode:リーグ・オブ・レジェンド
Creator:Ascendance
Version:Absolute Zero's Platter
Source:League of Legends
Tags:riot games japan dnb drum and bass sakura event jhin sanyi alienflybot absolute zero afk98 californian darknessofblue sinnoh piku p_i_k_u benny- bennybananas ponchiwi celerih hareimu f_d_flourite fdflourite sorcerer tomthewizard spectator kyuare kin kinzo koliron
BeatmapID:1486165
BeatmapSetID:695308

[Difficulty]
HPDrainRate:5
CircleSize:3
OverallDifficulty:8.3
ApproachRate:8.3
SliderMultiplier:1.76
SliderTickRate:2

[Events]
//Background and Video events
0,0,"epksy1ypx5yz.jpg",0,0
//Break Periods
//Storyboard Layer 0 (Background)
//Storyboard Layer 1 (Fail)
//Storyboard Layer 2 (Pass)
//Storyboard Layer 3 (Foreground)
//Storyboard Sound Samples

[TimingPoints]
1460,375,4,2,21,30,1,0
1460,-133.333333333333,4,2,21,30,0,0
13460,-133.333333333333,4,2,21,34,0,0
24006,-100,4,2,21,10,0,0
26960,348.837209302326,4,2,22,38,1,0
27047,-100,4,2,22,40,0,0
27134,-100,4,2,22,42,0,0
27221,-100,4,2,22,44,0,0
27308,-100,4,2,22,46,0,0
27396,-100,4,2,22,48,0,0
27483,-100,4,2,22,50,0,0
27570,-100,4,2,22,52,0,0
27657,-100,4,2,22,54,0,0
27744,-100,4,2,22,56,0,0
27832,-100,4,2,22,58,0,0
27919,-100,4,2,22,60,0,0
28006,-100,4,2,22,62,0,0
28093,-100,4,2,22,64,0,0
28180,-100,4,2,22,66,0,0
28268,-100,4,2,22,68,0,0
28355,-83.3333333333333,4,2,22,70,0,1
29576,-83.3333333333333,4,2,22,70,0,1
29925,-83.3333333333333,4,2,22,70,0,1
31146,-83.3333333333333,4,2,22,70,0,1
31320,-83.3333333333333,4,2,22,70,0,1
32366,-83.3333333333333,4,2,22,70,0,1
32715,-83.3333333333333,4,2,22,70,0,1
32890,-83.3333333333333,4,2,22,70,0,1
35157,-83.3333333333333,4,2,22,70,0,1
35419,-83.3333333333333,4,2,22,70,0,1
36553,-83.3333333333333,4,2,22,70,0,1
36727,-100,4,2,22,74,0,1
37250,-100,4,2,22,74,0,1
37599,-100,4,2,22,70,0,1
37686,-100,4,2,21,5,0,1
37773,-100,4,2,22,78,0,1
38122,-100,4,2,22,60,0,1
38820,-100,4,2,22,70,0,1
39430,-100,4,2,22,70,0,1
39692,-100,4,2,22,60,0,1
39866,-83.3333333333333,4,2,22,70,0,1
40215,-83.3333333333333,4,2,22,70,0,1
40739,-83.3333333333333,4,2,22,70,0,1
41000,-83.3333333333333,4,2,22,70,0,1
42308,-83.3333333333333,4,2,22,70,0,1
42483,-83.3333333333333,4,2,22,70,0,1
43529,-83.3333333333333,4,2,22,70,0,1
43878,-83.3333333333333,4,2,22,70,0,1
45099,-83.3333333333333,4,2,22,70,0,1
45273,-83.3333333333333,4,2,22,70,0,1
46320,-83.3333333333333,4,2,22,70,0,1
46669,-83.3333333333333,4,2,22,70,0,1
47715,-83.3333333333333,4,2,22,74,0,1
48413,-83.3333333333333,4,2,22,74,0,1
48762,-83.3333333333333,4,2,22,70,0,1
48849,-83.3333333333333,4,2,21,5,0,1
48936,-83.3333333333333,4,2,22,78,0,1
49285,-83.3333333333333,4,2,22,70,0,1
50680,-100,4,2,21,40,0,0
51553,-100,4,2,21,40,0,0
51901,-100,4,2,21,40,0,0
53297,-100,4,2,21,40,0,0
54692,-100,4,2,21,40,0,0
56087,-100,4,2,21,40,0,0
57483,-100,4,2,21,40,0,0
60448,-100,4,2,21,40,0,0
61843,-100,4,2,21,40,0,0
63239,-100,4,2,21,40,0,0

[Colours]
Combo1 : 0,128,192
Combo2 : 64,0,255
Combo3 : 255,0,0
Combo4 : 192,192,192

[HitObjects]
144,192,1460,6,0,L|300:192,2,132.000005035401,2|8|8,0:1|0:0|0:0,0:0:0:0:
343,89,2585,2,0,L|399:145,1,66.0000025177003,8|8,0:0|0:0,0:0:0:0:
302,89,2960,6,0,L|160:89,1,132.000005035401,2|8,0:0|0:0,0:0:0:0:
236,170,3522,1,2,0:0:0:0:
386,169,3897,2,0,B|455:205|455:205|398:257,1,132.000005035401,2|0,0:0|0:0,0:0:0:0:
213,245,4460,6,0,L|81:245,1,132.000005035401,2|0,0:0|0:0,0:0:0:0:
176,51,5022,1,0,0:0:0:0:
251,87,5210,1,8,0:0:0:0:
277,169,5397,1,8,0:0:0:0:
204,224,5585,1,2,0:0:0:0:
139,178,5772,1,2,0:0:0:0:
312,124,5960,6,0,L|467:124,1,132.000005035401,8|2,0:0|0:0,0:0:0:0:
203,274,6710,2,0,L|112:274,2,66.0000025177003,8|8|2,0:0|0:0|0:0,0:0:0:0:
474,273,7460,5,2,0:0:0:0:
307,273,7835,2,0,L|214:273,1,66.0000025177003,2|2,0:0|0:0,0:0:0:0:
317,164,8210,2,0,L|406:164,1,66.0000025177003,8|2,0:0|0:0,0:0:0:0:
163,71,8772,1,2,0:0:0:0:
247,72,8960,6,0,L|105:72,1,132.000005035401,8|2,0:0|0:0,0:0:0:0:
323,74,9710,2,0,L|412:74,2,66.0000025177003,2|2|8,0:0|0:0|0:0,0:0:0:0:
66,163,10460,5,8,0:0:0:0:
212,162,10835,2,0,L|290:162,1,66.0000025177003,2|2,0:0|0:0,0:0:0:0:
350,231,11210,2,0,L|275:231,1,66.0000025177003,8|2,0:0|0:0,0:0:0:0:
75,234,11772,1,0,0:0:0:0:
265,78,11960,6,0,L|418:78,1,132.000005035401,2|0,0:0|0:0,0:0:0:0:
329,157,12522,1,2,0:0:0:0:
262,241,12710,2,0,L|463:241,1,198.000007553101,2|0,0:0|0:0,0:0:0:0:
300,128,13460,6,0,L|166:128,2,132.000005035401,2|8|2,0:1|0:0|0:0,0:0:0:0:
200,44,14585,2,0,L|292:44,1,66.0000025177003,2|2,0:0|0:0,0:0:0:0:
420,227,14960,6,0,B|440:161|440:161|347:149,1,132.000005035401,8|8,0:0|0:0,0:0:0:0:
280,144,15522,2,0,L|214:144,1,66.0000025177003,8|0,0:0|0:0,0:0:0:0:
124,144,15897,2,0,P|64:176|88:232,1,132.000005035401,8|0,0:0|0:0,0:0:0:0:
218,224,16460,6,0,L|361:224,1,132.000005035401,2|0,0:0|0:0,0:0:0:0:
266,127,17022,1,0,0:0:0:0:
202,88,17210,1,8,0:0:0:0:
247,35,17397,1,8,0:0:0:0:
408,36,17585,2,0,L|468:84,1,66.0000025177003,2|2,0:0|0:0,0:0:0:0:
255,192,17960,6,0,L|108:192,1,132.000005035401,8|0,0:0|0:0,0:0:0:0:
346,291,18710,1,2,0:0:0:0:
124,294,19085,1,8,0:0:0:0:
442,151,19460,6,0,L|306:151,1,132.000005035401,8|2,0:0|0:0,0:0:0:0:
380,61,20022,1,8,0:0:0:0:
307,253,20210,2,0,L|173:253,1,132.000005035401,8|0,0:0|0:0,0:0:0:0:
439,166,20960,6,0,B|513:124|513:124|458:83,1,132.000005035401,2|8,0:0|0:0,0:0:0:0:
332,112,21710,2,0,B|238:148|238:148|274:194,1,132.000005035401,2|8,0:0|0:0,0:0:0:0:
101,119,22460,6,0,L|181:232,1,132.000005035401,2|8,0:0|0:0,0:0:0:0:
312,104,23210,2,0,L|446:109,1,132.000005035401,2|8,0:0|0:0,0:0:0:0:
178,201,23960,5,6,0:1:0:0:
140,36,24022,6,0,B|-96:124|128:268|144:28|144:28|176:164|248:156|248:156|284:20|388:24|440:40|440:40|328:180|328:180|564:252|348:412|188:360|309:269,1,1378.66666666667,2|0,0:1|1:3,0:0:0:0:
249,74,27047,5,0,1:3:0:0:
208,126,27134,1,0,1:3:0:0:
192,192,27221,1,0,1:3:0:0:
228,252,27308,1,0,1:0:0:0:
284,288,27396,1,0,1:0:0:0:
340,292,27483,1,0,1:0:0:0:
392,156,27570,1,0,1:0:0:0:
376,84,27657,1,0,1:0:0:0:
316,60,27744,1,0,1:0:0:0:
272,108,27832,1,0,1:0:0:0:
312,168,27919,1,0,1:0:0:0:
380,200,28006,1,0,1:0:0:0:
424,156,28093,1,0,1:0:0:0:
452,96,28180,1,0,1:0:0:0:
164,148,28355,6,0,L|80:64,2,105.599996777344,6|2|10,3:2|0:0|0:2,0:0:0:0:
352,260,29053,2,0,B|464:260|464:260|400:192,1,158.399995166016,2|2,3:2|0:2,0:0:0:0:
188,212,29576,2,0,L|104:296,1,105.599996777344,2|0,3:1|0:0,0:0:0:0:
288,192,29925,6,0,L|204:292,1,105.599996777344,2|10,3:2|0:2,0:0:0:0:
52,188,30448,1,2,3:2:0:0:
20,188,30535,1,8,0:2:0:0:
156,188,30710,1,2,0:2:0:0:
188,188,30797,1,8,0:2:0:0:
300,188,30971,1,2,0:2:0:0:
112,64,31146,5,4,3:2:0:0:
28,68,31320,2,0,L|108:144,2,105.599996777344,0|10|2,0:2|0:2|0:2,0:0:0:0:
236,68,31843,2,0,B|340:96|340:96|396:144,1,158.399995166016,2|2,3:2|0:2,0:0:0:0:
420,160,32192,1,8,0:2:0:0:
300,60,32366,2,0,L|100:144,1,211.199993554688,2|2,3:2|3:2,0:0:0:0:
220,132,32890,1,10,0:2:0:0:
408,136,33239,1,10,0:2:0:0:
388,180,33326,1,2,0:2:0:0:
344,200,33413,1,2,3:2:0:0:
164,208,33587,1,0,0:2:0:0:
120,180,33675,1,10,0:2:0:0:
100,136,33762,1,0,0:2:0:0:
356,40,33936,6,0,P|408:72|396:148,2,105.599996777344,6|2|10,3:2|0:2|0:2,0:0:0:0:
180,40,34634,2,0,B|64:40|64:40|24:60,1,158.399995166016,2|2,3:2|0:2,0:0:0:0:
288,108,35157,2,0,L|352:208,1,105.599996777344,2|0,3:1|0:0,0:0:0:0:
54,116,35506,6,0,L|107:209,1,105.599996777344,2|10,3:2|0:2,0:0:0:0:
260,208,36029,1,2,3:2:0:0:
304,208,36116,1,10,0:2:0:0:
152,208,36291,1,2,0:2:0:0:
108,208,36378,1,10,0:2:0:0:
260,208,36553,1,2,3:2:0:0:
432,208,36727,6,0,B|536:120|536:120|488:96,1,176,6|8,3:2|0:2,0:0:0:0:
168,96,37250,2,0,B|84:204|84:204|132:204,1,176,6|10,3:2|0:2,0:0:0:0:
380,204,37773,1,6,3:2:0:0:
192,72,38297,6,0,P|76:64|72:64,1,88,0|10,3:2|0:2,0:0:0:0:
188,168,38646,2,0,L|296:172,2,88,0|0|0,0:2|1:2|1:2,0:0:0:0:
340,96,39169,1,2,1:2:0:0:
372,120,39256,1,2,1:2:0:0:
312,95,39343,6,0,L|124:103,1,176,2|2,1:2|0:2,0:0:0:0:
411,242,39866,2,0,L|435:113,1,105.599996777344,14|2,0:2|0:2,0:0:0:0:
348,64,40215,2,0,P|260:84|228:204,1,211.199993554688,2|8,3:2|0:2,0:0:0:0:
344,192,40739,2,0,L|280:108,1,105.599996777344,2|0,3:1|0:0,0:0:0:0:
40,156,41087,6,0,L|112:60,1,105.599996777344,2|10,3:2|0:2,0:0:0:0:
248,68,41611,1,2,3:2:0:0:
276,68,41698,1,10,0:2:0:0:
140,68,41872,1,2,0:2:0:0:
112,68,41960,1,10,0:2:0:0:
36,68,42134,1,2,0:2:0:0:
300,168,42308,5,6,3:2:0:0:
436,64,42483,2,0,P|480:124|464:164,2,105.599996777344,0|8|2,0:2|0:2|0:2,0:0:0:0:
304,64,43006,2,0,P|240:80|128:156,1,158.399995166016,2|2,3:2|0:2,0:0:0:0:
120,172,43355,1,8,0:2:0:0:
412,64,43529,6,0,P|452:120|404:256,1,211.199993554688,2|2,3:2|3:2,0:0:0:0:
280,136,44053,1,10,0:2:0:0:
122,136,44227,2,0,B|74:172|74:172|150:172,1,105.599996777344,2|10,0:2|0:2,0:0:0:0:
352,172,44663,2,0,P|412:100|396:76,1,105.599996777344,10|10,0:2|0:2,0:0:0:0:
84,64,45099,5,6,3:2:0:0:
260,60,45273,2,0,L|356:132,2,105.599996777344,2|10|2,0:2|0:2|0:2,0:0:0:0:
168,60,45797,2,0,P|120:108|208:200,1,211.199993554688,2|8,3:2|0:2,0:0:0:0:
328,208,46320,2,0,L|408:116,1,105.599996777344,2|0,3:1|0:0,0:0:0:0:
124,208,46669,6,0,L|72:108,1,105.599996777344,0|10,3:2|0:2,0:0:0:0:
352,88,47192,2,0,P|424:112|440:208,2,158.399995166016,2|2|2,3:2|0:2|0:2,0:0:0:0:
108,92,47890,6,0,B|56:144|56:144|160:248,1,211.199993554688,4|10,3:2|0:2,0:0:0:0:
348,248,48413,2,0,B|408:176|408:176|296:72,1,211.199993554688,6|10,3:2|0:2,0:0:0:0:
56,96,48936,1,6,0:2:0:0:
344,88,49285,1,8,0:2:0:0:
76,92,49634,1,8,0:2:0:0:
344,88,49983,1,8,0:2:0:0:
216,96,50244,1,8,0:2:0:0:
176,120,50332,1,0,3:2:0:0:
152,160,50419,1,10,3:2:0:0:
176,200,50506,1,10,0:2:0:0:
360,204,50680,6,0,L|448:160,2,88,6|8|8,3:2|0:0|0:0,0:0:0:0:
228,208,51204,2,0,P|116:216|16:236,1,176,2|2,0:0|0:0,0:0:0:0:
164,300,51727,1,0,3:0:0:0:
284,300,51901,1,2,3:2:0:0:
168,68,52076,5,0,0:0:0:0:
376,68,52425,1,0,0:0:0:0:
288,68,52599,2,0,L|392:68,1,88,0|8,0:0|0:1,0:0:0:0:
224,68,52948,1,0,0:0:0:0:
52,68,53297,1,2,0:0:0:0:
120,152,53471,6,0,L|224:152,2,88,2|8|8,3:2|0:0|0:0,0:0:0:0:
208,252,53994,2,0,P|280:304|312:392,1,176,2|2,0:0|0:0,0:0:0:0:
208,252,54518,2,0,L|92:252,1,88,0|2,3:0|3:2,0:0:0:0:
344,96,55215,6,0,L|432:96,2,88,0|0|8,0:0|0:0|2:1,0:0:0:0:
152,104,55913,2,0,L|60:104,1,88,0|2,0:0|0:0,0:0:0:0:
240,104,56262,6,0,L|316:180,2,88,2|8|8,3:2|0:0|0:0,0:0:0:0:
144,104,56785,2,0,L|8:240,1,176,2|2,0:0|0:0,0:0:0:0:
144,224,57308,1,0,3:0:0:0:
308,224,57483,1,2,3:2:0:0:
192,224,57657,6,0,L|68:224,1,88,0|0,0:0|0:0,0:0:0:0:
336,120,58180,2,0,L|384:120,2,44,2|2|10,0:0|0:0|0:1,0:0:0:0:
212,120,58529,1,2,0:0:0:0:
372,120,58704,2,0,L|468:120,1,88,2|2,0:0|0:0,0:0:0:0:
192,120,59053,5,6,3:1:0:0:
256,192,59401,12,0,63239,0:0:0:0:
