osu file format v14

[General]
AudioFilename: audio.mp3
AudioLeadIn: 0
PreviewTime: 28268
Countdown: 0
SampleSet: Soft
StackLeniency: 0.7
Mode: 2
LetterboxInBreaks: 0
WidescreenStoryboard: 0

[Editor]
DistanceSpacing: 0.8
BeatDivisor: 4
GridSize: 32
TimelineZoom: 1

[Metadata]
Title:Hanami ON THE RIFT (PV ver.)
TitleUnicode:花見 ON THE RIFT (PV ver.)
Artist:League of Legends
ArtistUnicode:リーグ・オブ・レジェンド
Creator:Ascendance
Version:AFB's Platter
Source:League of Legends
Tags:riot games japan dnb drum and bass sakura event jhin sanyi alienflybot absolute zero afk98 californian darknessofblue sinnoh piku p_i_k_u benny- bennybananas ponchiwi celerih hareimu f_d_flourite fdflourite sorcerer tomthewizard spectator kyuare kin kinzo koliron
BeatmapID:1477135
BeatmapSetID:695308

[Difficulty]
HPDrainRate:5
CircleSize:3.5
OverallDifficulty:8
ApproachRate:8
SliderMultiplier:1.81
SliderTickRate:2

[Events]
//Background and Video events
0,0,"epksy1ypx5yz.jpg",0,0
//Break Periods
//Storyboard Layer 0 (Background)
//Storyboard Layer 1 (Fail)
//Storyboard Layer 2 (Pass)
//Storyboard Layer 3 (Foreground)
//Storyboard Sound Samples

[TimingPoints]
1460,375,4,2,21,30,1,0
1460,-133.333333333333,4,2,21,30,0,0
1835,-133.333333333333,4,2,21,25,0,0
2210,-133.333333333333,4,2,21,20,0,0
2772,-133.333333333333,4,2,21,25,0,0
2960,-133.333333333333,4,2,21,30,0,0
3335,-133.333333333333,4,2,21,25,0,0
3522,-133.333333333333,4,2,21,30,0,0
3897,-133.333333333333,4,2,21,25,0,0
4460,-133.333333333333,4,2,21,35,0,0
4835,-133.333333333333,4,2,21,30,0,0
5210,-133.333333333333,4,2,21,25,0,0
5397,-133.333333333333,4,2,21,30,0,0
5585,-133.333333333333,4,2,21,25,0,0
5772,-133.333333333333,4,2,21,30,0,0
5960,-133.333333333333,4,2,21,25,0,0
6897,-133.333333333333,4,2,21,30,0,0
7085,-133.333333333333,4,2,21,35,0,0
7460,-133.333333333333,4,2,21,30,0,0
7835,-133.333333333333,4,2,21,25,0,0
8022,-133.333333333333,4,2,21,30,0,0
8397,-133.333333333333,4,2,21,25,0,0
8772,-133.333333333333,4,2,21,20,0,0
8960,-133.333333333333,4,2,21,35,0,0
9335,-133.333333333333,4,2,21,30,0,0
9710,-133.333333333333,4,2,21,25,0,0
9897,-133.333333333333,4,2,21,30,0,0
10085,-133.333333333333,4,2,21,35,0,0
10460,-133.333333333333,4,2,21,30,0,0
10835,-133.333333333333,4,2,21,25,0,0
11022,-133.333333333333,4,2,21,30,0,0
11397,-133.333333333333,4,2,21,25,0,0
11960,-133.333333333333,4,2,21,30,0,0
12335,-133.333333333333,4,2,21,25,0,0
12710,-133.333333333333,4,2,21,35,0,0
13085,-133.333333333333,4,2,21,30,0,0
13460,-133.333333333333,4,2,21,50,0,0
13835,-133.333333333333,4,2,21,45,0,0
14210,-133.333333333333,4,2,21,50,0,0
14960,-133.333333333333,4,2,21,50,0,0
15335,-133.333333333333,4,2,21,45,0,0
15522,-133.333333333333,4,2,21,50,0,0
15897,-133.333333333333,4,2,21,45,0,0
16460,-133.333333333333,4,2,21,55,0,0
16835,-133.333333333333,4,2,21,50,0,0
17210,-133.333333333333,4,2,21,45,0,0
17397,-133.333333333333,4,2,21,50,0,0
17585,-133.333333333333,4,2,21,45,0,0
17772,-133.333333333333,4,2,21,40,0,0
18147,-133.333333333333,4,2,21,35,0,0
18710,-133.333333333333,4,2,21,40,0,0
19085,-133.333333333333,4,2,21,45,0,0
19460,-133.333333333333,4,2,21,50,0,0
19835,-133.333333333333,4,2,21,45,0,0
20022,-133.333333333333,4,2,21,50,0,0
20210,-133.333333333333,4,2,21,45,0,0
20585,-133.333333333333,4,2,21,40,0,0
20960,-133.333333333333,4,2,21,50,0,0
21335,-133.333333333333,4,2,21,45,0,0
21710,-133.333333333333,4,2,21,50,0,0
22085,-133.333333333333,4,2,21,45,0,0
22272,-133.333333333333,4,2,21,40,0,0
22460,-133.333333333333,4,2,21,55,0,0
22835,-133.333333333333,4,2,21,50,0,0
23210,-133.333333333333,4,2,21,45,0,0
23585,-133.333333333333,4,2,21,50,0,0
23960,-133.333333333333,4,2,21,55,0,0
24710,-133.333333333333,4,2,21,45,0,0
25460,-133.333333333333,4,2,21,38,0,0
26210,-133.333333333333,4,2,21,33,0,0
26585,-133.333333333333,4,2,21,30,0,0
26960,348.837209302326,4,2,22,30,1,0
27308,-100,4,2,22,33,0,0
27657,-100,4,2,22,38,0,0
28006,-100,4,2,22,45,0,0
28355,-100,4,1,0,50,0,1
28529,-100,4,2,22,70,0,1
30448,-100,4,3,21,70,0,1
30797,-100,4,2,22,70,0,1
31146,-100,4,1,0,50,0,1
31320,-100,4,2,22,70,0,1
33936,-100,4,1,0,50,0,1
34111,-100,4,2,22,70,0,1
36029,-100,4,3,21,70,0,1
36378,-100,4,2,22,70,0,1
36727,-100,4,1,0,55,0,1
36901,-100,4,2,22,70,0,1
37250,-100,4,1,0,60,0,1
37424,-100,4,2,22,70,0,1
37773,-100,4,1,0,65,0,1
37947,-100,4,2,22,70,0,1
39518,-100,4,2,22,30,0,1
39866,-100,4,1,0,50,0,1
40040,-100,4,2,22,70,0,1
41611,-100,4,3,21,70,0,1
41960,-100,4,2,22,70,0,1
42308,-100,4,1,0,50,0,1
42482,-100,4,2,22,70,0,1
45099,-100,4,1,0,50,0,1
45273,-100,4,2,22,70,0,1
47192,-100,4,3,21,70,0,1
47541,-100,4,2,22,70,0,1
47890,-100,4,1,0,55,0,1
48064,-100,4,2,22,70,0,1
48413,-100,4,1,0,60,0,1
48587,-100,4,2,22,70,0,1
48936,-100,4,1,0,65,0,1
49110,-100,4,2,22,70,0,1
50680,-100,4,1,0,30,0,0
50855,-100,4,2,21,30,0,0
51378,-100,4,1,21,30,0,0
51727,-100,4,3,21,30,0,0
52076,-100,4,2,21,30,0,0
52773,-100,4,1,21,30,0,0
52948,-100,4,2,21,30,0,0
53471,-100,4,3,21,30,0,0
53820,-100,4,2,21,30,0,0
54169,-100,4,1,21,30,0,0
54518,-100,4,3,21,30,0,0
54867,-100,4,2,21,30,0,0
55564,-100,4,1,21,30,0,0
55739,-100,4,2,21,30,0,0
56262,-100,4,3,21,30,0,0
56611,-100,4,2,21,30,0,0
56960,-100,4,1,21,30,0,0
57308,-100,4,3,21,30,0,0
57657,-100,4,2,21,30,0,0
58355,-100,4,1,21,30,0,0
58530,-100,4,2,21,30,0,0
59053,-100,4,1,21,50,0,0
59750,-100,4,1,21,35,0,0
60448,-100,4,1,21,25,0,0
61146,-100,4,1,21,17,0,0
61843,-100,4,1,21,12,0,0
62541,-100,4,1,21,10,0,0

[Colours]
Combo1 : 0,128,192
Combo2 : 64,0,255
Combo3 : 255,0,0
Combo4 : 192,192,192

[HitObjects]
364,344,1460,6,0,L|500:336,2,135.750005178452,2|0|0,0:0|0:0|0:0,0:0:0:0:
196,292,2585,2,0,L|188:224,1,67.8750025892259
356,172,2960,6,0,P|413:149|392:91,1,135.750005178452,2|0,0:0|0:0,0:0:0:0:
276,40,3522,2,0,L|140:32,1,135.750005178452
500,28,4460,6,0,P|469:121|377:157,1,203.625007767678,2|0,0:0|0:0,0:0:0:0:
200,208,5210,2,0,L|192:276,1,67.8750025892259,0|2,0:0|0:0,0:0:0:0:
308,328,5585,2,0,L|316:260,1,67.8750025892259,0|2,0:0|0:0,0:0:0:0:
200,208,5960,6,0,L|64:200,1,135.750005178452
232,80,6710,1,0,0:0:0:0:
312,72,6897,1,2,0:0:0:0:
392,64,7085,1,2,0:0:0:0:
120,55,7460,6,0,P|61:79|70:142,1,135.750005178452,2|0,0:0|0:0,0:0:0:0:
184,192,8022,2,0,L|320:200,2,135.750005178452
16,300,8960,6,0,P|47:207|139:171,1,203.625007767678
228,148,9710,2,0,L|236:80,1,67.8750025892259,0|2,0:0|0:0,0:0:0:0:
148,56,10085,1,2,0:0:0:0:
420,248,10460,6,0,L|284:256,1,135.750005178452,2|0,0:0|0:0,0:0:0:0:
168,328,11023,2,0,L|304:336,1,135.750005178452
464,244,11960,6,0,P|433:151|341:115,1,203.625007767678,2|0,0:0|0:0,0:0:0:0:
224,64,12710,2,0,L|360:56,1,135.750005178452,2|0,0:0|0:0,0:0:0:0:
88,48,13460,6,0,P|29:72|38:135,1,135.750005178452,2|0,0:0|0:0,0:0:0:0:
180,220,14210,1,2,0:0:0:0:
20,304,14585,2,0,L|87:307,1,67.8750025892259
256,360,14960,6,0,P|313:337|292:279,1,135.750005178452,2|0,0:0|0:0,0:0:0:0:
176,224,15522,2,0,P|119:201|140:143,1,135.750005178452
500,96,16460,6,0,L|296:85,1,203.625007767678,2|0,0:0|0:0,0:0:0:0:
128,32,17210,2,0,L|61:29,2,67.8750025892259,0|2|0,0:0|0:0|0:0,0:0:0:0:
296,160,17772,6,0,P|320:250|234:288,1,203.625007767678
120,200,18710,1,2,0:0:0:0:
288,116,19085,1,2,0:0:0:0:
16,308,19460,6,0,L|0:173,1,135.750005178452
80,164,20022,1,2,0:0:0:0:
160,156,20210,1,0,0:0:0:0:
16,72,20585,1,0,0:0:0:0:
288,264,20960,6,0,L|424:256,1,135.750005178452,2|0,0:0|0:0,0:0:0:0:
264,172,21710,2,0,L|128:164,1,135.750005178452,2|0,0:0|0:0,0:0:0:0:
204,156,22272,1,0,0:0:0:0:
371,104,22460,6,0,P|459:187|372:272,1,271.500010356903,2|0,0:0|0:0,0:0:0:0:
228,188,23585,1,0,0:0:0:0:
500,104,23960,1,2,0:0:0:0:
256,192,24147,12,0,26585,0:0:0:0:
168,352,26960,5,0,0:0:0:0:
136,308,27047,1,0,0:0:0:0:
128,256,27134,1,0,0:0:0:0:
136,204,27221,1,0,0:0:0:0:
168,160,27309,1,0,0:0:0:0:
216,132,27396,1,0,0:0:0:0:
264,124,27483,1,0,0:0:0:0:
216,264,27570,1,0,0:0:0:0:
264,256,27657,5,0,0:0:0:0:
312,228,27744,1,0,0:0:0:0:
344,184,27832,1,0,0:0:0:0:
352,132,27919,1,0,0:0:0:0:
344,80,28006,1,0,0:0:0:0:
312,36,28093,1,0,0:0:0:0:
264,8,28180,1,0,0:0:0:0:
16,320,28355,6,0,L|26:230,1,90.5,4|0,0:0|0:0,0:0:0:0:
116,192,28704,1,8,0:0:0:0:
368,232,29053,2,0,L|187:221,1,181,0|8,0:0|0:0,0:0:0:0:
275,256,29576,6,0,P|322:187|260:131,1,181
172,92,30099,1,8,0:0:0:0:
260,52,30273,1,0,0:0:0:0:
496,220,30448,2,0,L|511:177,2,45.25
384,180,30797,2,0,L|293:174,1,90.5,8|0,0:0|0:0,0:0:0:0:
52,320,31146,5,4,0:0:0:0:
8,264,31320,1,0,0:0:0:0:
0,192,31494,1,8,0:0:0:0:
40,124,31669,1,0,0:0:0:0:
120,88,31843,1,0,0:0:0:0:
288,76,32018,2,0,L|303:33,2,45.25,0|0|8,0:0|0:0|0:0,0:0:0:0:
52,240,32366,6,0,P|5:171|67:115,1,181
155,76,32890,1,8,0:0:0:0:
320,196,33239,2,0,L|456:188,2,135.75,8|8|8,0:0|0:0|0:0,0:0:0:0:
72,316,33936,6,0,L|62:226,1,90.5,4|0,0:0|0:0,0:0:0:0:
152,188,34285,1,8,0:0:0:0:
404,320,34634,2,0,P|451:251|389:195,1,181,0|8,0:0|0:0,0:0:0:0:
304,228,35157,6,0,P|257:159|319:103,1,181
407,64,35680,1,8,0:0:0:0:
319,24,35854,1,0,0:0:0:0:
152,192,36029,2,0,L|133:152,2,45.25
309,256,36378,2,0,L|329:216,2,45.25,8|0|0,0:0|0:0|0:0,0:0:0:0:
72,320,36727,6,0,L|62:230,1,90.5,4|0,0:0|0:0,0:0:0:0:
152,192,37076,1,8,0:0:0:0:
320,180,37250,2,0,L|380:112,1,90.5,4|0,0:0|0:0,0:0:0:0:
288,76,37599,1,0,0:0:0:0:
52,62,37773,6,0,P|4:184|78:291,1,271.5,4|0,0:0|0:0,0:0:0:0:
244,304,38471,1,8,0:0:0:0:
92,344,38820,5,0,0:0:0:0:
100,304,38907,1,0,0:0:0:0:
108,264,38994,1,0,0:0:0:0:
265,200,39169,1,8,0:0:0:0:
257,160,39256,1,0,0:0:0:0:
249,120,39343,1,0,0:0:0:0:
160,80,39518,2,0,L|69:74,1,90.5
352,344,39866,6,0,L|443:338,2,90.5,4|0|0,0:0|0:0|0:0,0:0:0:0:
100,280,40564,1,8,0:0:0:0:
12,240,40739,6,0,P|36:155|116:118,1,181
200,92,41262,1,8,0:0:0:0:
288,68,41436,1,0,0:0:0:0:
52,348,41611,2,0,L|37:305,2,45.25
164,308,41960,2,0,L|255:302,1,90.5,8|0,0:0|0:0,0:0:0:0:
496,348,42308,6,0,L|486:258,1,90.5,4|0,0:0|0:0,0:0:0:0:
340,220,42657,2,0,L|350:130,1,90.5,8|0,0:0|0:0,0:0:0:0:
440,92,43006,1,0,0:0:0:0:
348,52,43180,1,0,0:0:0:0:
304,48,43268,1,0,0:0:0:0:
260,44,43355,1,8,0:0:0:0:
24,268,43529,6,0,P|48:183|128:146,1,181
216,108,44053,1,8,0:0:0:0:
52,344,44401,2,0,L|188:336,2,135.75,8|8|8,0:0|0:0|0:0,0:0:0:0:
300,224,45099,6,0,L|391:230,2,90.5,4|0|8,0:0|0:0|0:0,0:0:0:0:
47,116,45797,2,0,P|71:200|150:237,1,181,0|8,0:0|0:0,0:0:0:0:
236,268,46320,6,0,L|55:279,1,181
140,304,46843,1,8,0:0:0:0:
228,328,47017,1,0,0:0:0:0:
384,276,47192,2,0,L|399:233,2,45.25
228,212,47541,2,0,L|208:172,2,45.25,8|0|0,0:0|0:0|0:0,0:0:0:0:
476,148,47890,6,0,L|486:58,1,90.5,4|0,0:0|0:0,0:0:0:0:
396,20,48239,1,8,0:0:0:0:
228,248,48413,2,0,L|168:180,1,90.5,4|0,0:0|0:0,0:0:0:0:
260,144,48762,1,0,0:0:0:0:
16,372,48936,6,0,P|17:284|80:223,1,181,4|0,0:0|0:0,0:0:0:0:
168,216,49460,1,0,0:0:0:0:
324,124,49634,2,0,L|233:118,1,90.5,8|0,0:0|0:0,0:0:0:0:
64,24,49983,2,0,L|200:16,2,135.75,8|8|8,0:0|0:0|0:0,0:0:0:0:
312,40,50680,6,0,P|391:77|414:161,1,181,4|0,0:0|0:0,0:0:0:0:
324,168,51204,1,0,0:0:0:0:
164,180,51378,1,8,0:0:0:0:
312,340,51727,6,0,L|302:250,1,90.5
212,212,52076,2,0,L|31:201,2,181,0|0|8,0:0|0:0|0:0,0:0:0:0:
428,160,53297,5,0,0:0:0:0:
448,120,53384,1,0,0:0:0:0:
428,80,53471,2,0,L|247:69,1,181
336,64,53994,1,0,0:0:0:0:
496,52,54168,1,8,0:0:0:0:
348,212,54518,6,0,L|257:206,1,90.5
168,280,54866,2,0,L|349:291,2,181,0|0|8,0:0|0:0|0:0,0:0:0:0:
384,140,56087,5,0,0:0:0:0:
428,136,56175,1,0,0:0:0:0:
472,132,56262,2,0,P|449:47|370:9,1,181
280,108,56785,1,0,0:0:0:0:
440,208,56960,1,8,0:0:0:0:
292,308,57308,6,0,L|201:302,1,90.5
100,212,57657,2,0,L|191:206,2,90.5
256,112,58180,6,0,L|271:69,2,45.25,0|0|8,0:0|0:0|0:0,0:0:0:0:
172,148,58529,1,0,0:0:0:0:
140,232,58704,1,0,0:0:0:0:
180,312,58878,1,0,0:0:0:0:
436,360,59053,1,4,0:0:0:0:
256,192,59227,12,0,63239,0:0:0:0:
