osu file format v14

[General]
AudioFilename: audio.mp3
AudioLeadIn: 0
PreviewTime: -1
Countdown: 1
SampleSet: Normal
StackLeniency: 0.7
Mode: 0
LetterboxInBreaks: 0
WidescreenStoryboard: 0

[Editor]
DistanceSpacing: 1
BeatDivisor: 4
GridSize: 4
TimelineZoom: 1

[Metadata]
Title:Edge of Infinity (Minnesota Remix)
TitleUnicode:Edge of Infinity (Minnesota Remix)
Artist:League of Legends
ArtistUnicode:League of Legends
Creator:Cataclysm
Version:Extra
Source:League of Legends
Tags:League of Legends, Minnesota
BeatmapID:1790792
BeatmapSetID:857089

[Difficulty]
HPDrainRate:8
CircleSize:4
OverallDifficulty:8
ApproachRate:9.5
SliderMultiplier:1.4
SliderTickRate:1

[Events]
//Background and Video events
0,0,"1920x1080-black-solid-color-background.jpg",0,0
//Break Periods
2,34990,45376
2,95354,97174
2,103808,162265
//Storyboard Layer 0 (Background)
//Storyboard Layer 1 (Fail)
//Storyboard Layer 2 (Pass)
//Storyboard Layer 3 (Foreground)
//Storyboard Sound Samples

[TimingPoints]
64,363.636363636364,4,1,0,100,1,0
164,-200,4,1,0,100,0,0
34790,363.636363636364,4,1,0,100,1,0
45880,-100,4,1,0,100,0,0

[HitObjects]
162,156,129,5,0,0:0:0:0:
225,68,482,1,0,0:0:0:0:
311,134,836,1,0,0:0:0:0:
247,222,1190,5,0,0:0:0:0:
336,284,1544,1,0,0:0:0:0:
417,212,1895,1,0,0:0:0:0:
417,212,2245,1,0,0:0:0:0:
327,218,2609,1,0,0:0:0:0:
192,184,2973,5,0,0:0:0:0:
253,104,3336,1,0,0:0:0:0:
332,170,3700,1,0,0:0:0:0:
284,275,4064,1,0,0:0:0:0:
112,260,4427,6,0,P|95:194|100:166,1,70
164,184,5154,2,0,P|180:249|176:278,1,70
179,251,5882,5,0,0:0:0:0:
330,201,6245,1,0,0:0:0:0:
288,101,6609,1,0,0:0:0:0:
188,151,6973,5,0,0:0:0:0:
245,244,7336,1,0,0:0:0:0:
363,248,7700,1,0,0:0:0:0:
363,248,8064,1,0,0:0:0:0:
439,183,8427,1,0,0:0:0:0:
320,72,8791,5,0,0:0:0:0:
188,84,9154,1,0,0:0:0:0:
196,200,9518,1,0,0:0:0:0:
296,192,9882,5,0,0:0:0:0:
239,99,10245,1,0,0:0:0:0:
121,95,10609,1,0,0:0:0:0:
121,95,10973,1,0,0:0:0:0:
45,160,11336,1,0,0:0:0:0:
58,170,11518,6,0,B|81:222|159:202|159:202|175:45|358:91|297:145|290:226|326:305,1,490
324,300,14427,2,0,B|409:278|409:278|426:266|338:74|180:70|389:-3|455:142,1,490,0|0,0:3|0:0,0:0:0:0:
452,135,17336,6,0,B|389:31|389:31|145:69|153:272,1,490
152,263,20245,2,0,B|281:272|281:272|392:163|223:49|81:93,1,490
94,89,23154,6,0,B|203:136|203:136|345:121|421:106|434:203|274:289,1,490
282,284,26064,2,0,B|299:165|299:165|281:59|152:81|41:159|52:263,1,490
52,258,28973,2,0,B|168:208|168:208|209:99|364:108|451:212|444:290|413:280,1,490
425,276,31882,2,0,B|319:212|319:212|289:73|85:83|28:204,1,490
256,179,34790,1,0,0:0:0:0:
426,80,46426,5,0,0:0:0:0:
268,36,46790,1,0,0:0:0:0:
152,112,46971,1,0,0:0:0:0:
208,216,47153,1,0,0:0:0:0:
232,240,47244,1,0,0:0:0:0:
256,264,47335,1,0,0:0:0:0:
288,276,47426,1,0,0:0:0:0:
324,276,47517,1,0,0:0:0:0:
440,216,47699,5,0,0:0:0:0:
324,136,47880,1,0,0:0:0:0:
324,136,47971,1,0,0:0:0:0:
324,136,48062,1,0,0:0:0:0:
232,272,48244,2,0,L|180:192,1,70
256,99,48608,1,0,0:0:0:0:
147,28,48790,1,0,0:0:0:0:
166,147,48971,1,0,0:0:0:0:
40,76,49153,1,0,0:0:0:0:
40,76,49335,6,0,P|28:128|48:136,1,70
4,248,49699,1,0,0:0:0:0:
4,248,49790,1,0,0:0:0:0:
4,248,49880,1,0,0:0:0:0:
136,196,50062,1,0,0:0:0:0:
136,196,50153,1,0,0:0:0:0:
116,336,50335,1,0,0:0:0:0:
116,336,50426,1,0,0:0:0:0:
216,312,50608,1,0,0:0:0:0:
244,292,50699,1,0,0:0:0:0:
268,268,50790,1,0,0:0:0:0:
280,236,50880,1,0,0:0:0:0:
280,200,50971,1,0,0:0:0:0:
220,100,51153,5,0,0:0:0:0:
332,28,51335,2,0,B|380:36|388:56|392:60,1,70
392,64,51699,1,0,0:0:0:0:
392,64,51790,1,0,0:0:0:0:
248,120,51971,1,0,0:0:0:0:
388,200,52244,1,0,0:0:0:0:
328,304,52426,2,0,P|268:312|240:292,1,70
144,156,52790,1,0,0:0:0:0:
144,156,52880,5,0,0:0:0:0:
144,156,52971,1,0,0:0:0:0:
196,32,53153,1,0,0:0:0:0:
312,108,53335,1,0,0:0:0:0:
236,264,53517,1,0,0:0:0:0:
236,264,53608,1,0,0:0:0:0:
236,264,53699,1,0,0:0:0:0:
60,152,53880,1,0,0:0:0:0:
216,72,54062,1,0,0:0:0:0:
372,180,54244,1,0,0:0:0:0:
372,180,54335,1,0,0:0:0:0:
372,180,54426,1,0,0:0:0:0:
236,304,54608,1,0,0:0:0:0:
164,240,54790,6,0,P|100:200|100:196,1,70
80,40,55153,5,0,0:0:0:0:
168,320,55335,1,0,0:0:0:0:
296,44,55517,1,0,0:0:0:0:
392,264,55699,1,0,0:0:0:0:
164,80,55880,1,0,0:0:0:0:
404,116,56062,1,0,0:0:0:0:
99,246,56244,1,0,0:0:0:0:
244,263,56426,1,0,0:0:0:0:
244,263,56517,2,0,P|277:309|340:311,1,105
435,274,56971,2,0,P|469:251|466:229,2,35
417,137,57335,5,0,0:0:0:0:
398,106,57426,1,0,0:0:0:0:
374,79,57517,1,0,0:0:0:0:
345,59,57608,1,0,0:0:0:0:
310,53,57699,1,0,0:0:0:0:
185,119,57880,5,0,0:0:0:0:
185,119,57971,1,0,0:0:0:0:
185,119,58062,1,0,0:0:0:0:
67,63,58244,1,0,0:0:0:0:
116,180,58426,1,0,0:0:0:0:
224,104,58608,1,0,0:0:0:0:
224,104,58699,1,0,0:0:0:0:
224,104,58790,1,0,0:0:0:0:
263,219,58971,5,0,0:0:0:0:
260,216,59062,1,0,0:0:0:0:
296,57,59244,1,0,0:0:0:0:
296,57,59335,1,0,0:0:0:0:
437,138,59517,1,0,0:0:0:0:
421,273,59699,2,0,P|370:301|345:288,1,70
217,281,60062,5,0,0:0:0:0:
320,179,60244,1,0,0:0:0:0:
223,73,60426,1,0,0:0:0:0:
223,73,60517,1,0,0:0:0:0:
364,119,60699,1,0,0:0:0:0:
364,119,60790,1,0,0:0:0:0:
380,297,60971,1,0,0:0:0:0:
268,135,61153,1,0,0:0:0:0:
102,173,61335,6,0,P|110:124|112:124,1,35
171,60,61517,1,0,0:0:0:0:
171,60,61608,1,0,0:0:0:0:
171,60,61699,1,0,0:0:0:0:
410,75,61880,1,0,0:0:0:0:
410,75,61971,1,0,0:0:0:0:
289,53,62153,1,0,0:0:0:0:
289,53,62244,1,0,0:0:0:0:
351,203,62426,1,0,0:0:0:0:
439,267,62608,6,0,P|438:310|404:319,1,70
221,286,62971,1,0,0:0:0:0:
221,286,63062,1,0,0:0:0:0:
221,286,63153,1,0,0:0:0:0:
132,66,63335,1,0,0:0:0:0:
132,66,63426,1,0,0:0:0:0:
203,230,63608,1,0,0:0:0:0:
203,230,63699,1,0,0:0:0:0:
316,326,63880,1,0,0:0:0:0:
344,197,64062,6,0,P|354:157|331:141,1,70
303,125,64335,1,0,0:0:0:0:
270,111,64426,1,0,0:0:0:0:
236,102,64517,1,0,0:0:0:0:
201,106,64608,1,0,0:0:0:0:
428,71,64790,1,0,0:0:0:0:
428,71,64880,1,0,0:0:0:0:
259,53,65062,1,0,0:0:0:0:
259,53,65153,1,0,0:0:0:0:
122,132,65335,5,0,0:0:0:0:
257,158,65517,2,0,P|284:192|278:215,1,70
174,236,65880,2,0,P|149:212|152:179,1,70
116,254,66244,1,0,0:0:0:0:
116,254,66335,1,0,0:0:0:0:
216,307,66517,1,0,0:0:0:0:
216,307,66608,1,0,0:0:0:0:
196,129,66790,1,0,0:0:0:0:
404,66,66971,1,0,0:0:0:0:
294,103,67153,1,0,0:0:0:0:
258,218,67335,5,0,0:0:0:0:
258,218,67426,1,0,0:0:0:0:
258,218,67517,1,0,0:0:0:0:
388,82,67699,1,0,0:0:0:0:
388,82,67790,1,0,0:0:0:0:
220,42,67971,1,0,0:0:0:0:
220,42,68062,1,0,0:0:0:0:
55,151,68244,1,0,0:0:0:0:
173,152,68426,2,0,P|157:202|166:217,1,70
265,277,68790,5,0,0:0:0:0:
289,154,68971,1,0,0:0:0:0:
137,284,69153,1,0,0:0:0:0:
137,284,69244,1,0,0:0:0:0:
266,269,69426,1,0,0:0:0:0:
266,269,69517,1,0,0:0:0:0:
411,205,69699,1,0,0:0:0:0:
347,93,69880,2,0,P|295:80|281:90,1,70
291,215,70244,5,0,0:0:0:0:
291,215,70335,1,0,0:0:0:0:
291,215,70426,1,0,0:0:0:0:
192,155,70608,1,0,0:0:0:0:
192,155,70699,1,0,0:0:0:0:
112,47,70881,1,0,0:0:0:0:
112,47,70972,1,0,0:0:0:0:
116,227,71153,1,0,0:0:0:0:
227,164,71335,2,0,P|257:148|298:152,1,70
370,243,71699,1,0,0:0:0:0:
370,243,71790,1,0,0:0:0:0:
370,243,71880,1,0,0:0:0:0:
446,82,72062,1,0,0:0:0:0:
446,82,72153,1,0,0:0:0:0:
407,184,72335,1,0,0:0:0:0:
407,184,72426,1,0,0:0:0:0:
294,313,72608,5,0,0:0:0:0:
158,290,72790,2,0,P|113:280|95:264,1,70
95,264,73153,1,0,0:0:0:0:
47,167,73335,1,0,0:0:0:0:
132,66,73517,1,0,0:0:0:0:
132,66,73608,1,0,0:0:0:0:
203,230,73790,1,0,0:0:0:0:
203,230,73881,1,0,0:0:0:0:
81,116,74062,1,0,0:0:0:0:
229,74,74244,6,0,P|252:128|239:149,1,70
121,208,74608,1,0,0:0:0:0:
291,215,74790,1,0,0:0:0:0:
461,127,74972,1,0,0:0:0:0:
461,127,75062,1,0,0:0:0:0:
273,45,75244,1,0,0:0:0:0:
273,45,75335,1,0,0:0:0:0:
104,80,75517,1,0,0:0:0:0:
210,139,75699,2,0,P|265:165|262:191,1,70
309,282,76062,5,0,0:0:0:0:
389,152,76244,1,0,0:0:0:0:
116,254,76426,1,0,0:0:0:0:
116,254,76517,1,0,0:0:0:0:
279,311,76699,1,0,0:0:0:0:
279,311,76790,1,0,0:0:0:0:
441,246,76971,1,0,0:0:0:0:
401,74,77153,6,0,P|350:50|313:60,1,70
333,207,77517,1,0,0:0:0:0:
333,207,77608,1,0,0:0:0:0:
333,207,77699,1,0,0:0:0:0:
388,82,77881,1,0,0:0:0:0:
388,82,77972,1,0,0:0:0:0:
220,42,78153,1,0,0:0:0:0:
220,42,78244,1,0,0:0:0:0:
309,171,78426,1,0,0:0:0:0:
165,135,78608,6,0,P|140:172|146:200,1,70
306,253,78971,1,0,0:0:0:0:
306,253,79062,1,0,0:0:0:0:
306,253,79153,1,0,0:0:0:0:
114,227,79335,1,0,0:0:0:0:
114,227,79426,1,0,0:0:0:0:
279,331,79608,1,0,0:0:0:0:
279,331,79699,1,0,0:0:0:0:
230,178,79880,1,0,0:0:0:0:
378,78,80062,1,0,0:0:0:0:
378,78,80153,1,0,0:0:0:0:
378,78,80244,1,0,0:0:0:0:
437,178,80608,1,0,0:0:0:0:
377,268,80790,1,0,0:0:0:0:
353,292,80880,1,0,0:0:0:0:
320,304,80971,1,0,0:0:0:0:
201,311,81062,2,0,P|152:311|113:269,1,105,0|0,0:3|0:3,0:3:0:0:
46,175,81517,1,0,0:0:0:0:
91,51,81699,1,0,0:0:0:0:
226,113,81880,1,0,0:0:0:0:
257,98,81971,1,0,0:0:0:0:
291,100,82062,1,0,0:0:0:0:
368,157,82244,2,0,P|375:222|358:242,1,70
187,211,82608,1,0,0:0:0:0:
285,310,82790,2,0,P|351:325|361:317,1,70
348,76,83153,1,0,0:0:0:0:
366,105,83244,1,0,0:0:0:0:
378,137,83335,1,0,0:0:0:0:
383,170,83426,1,0,0:0:0:0:
377,204,83517,1,0,0:0:0:0:
212,229,83699,1,0,0:0:0:0:
97,160,83880,2,0,P|108:127|137:108,2,70
140,273,84790,2,0,P|189:308|206:302,1,70
226,113,85153,1,0,0:0:0:0:
257,98,85244,1,0,0:0:0:0:
291,100,85335,1,0,0:0:0:0:
151,60,86062,1,0,0:0:0:0:
138,92,86153,1,0,0:0:0:0:
142,126,86244,1,0,0:0:0:0:
154,158,86335,1,0,0:0:0:0:
174,186,86426,1,0,0:0:0:0:
348,76,88971,1,0,0:0:0:0:
375,97,89062,1,0,0:0:0:0:
389,129,89153,1,0,0:0:0:0:
379,162,89244,1,0,0:0:0:0:
367,195,89335,1,0,0:0:0:0:
151,60,91880,1,0,0:0:0:0:
138,92,91971,1,0,0:0:0:0:
142,126,92062,1,0,0:0:0:0:
154,158,92153,1,0,0:0:0:0:
174,186,92244,1,0,0:0:0:0:
348,76,94790,1,0,0:0:0:0:
375,97,94881,1,0,0:0:0:0:
389,129,94972,1,0,0:0:0:0:
379,162,95063,1,0,0:0:0:0:
367,195,95154,1,0,0:0:0:0:
151,60,97699,5,0,0:0:0:0:
138,92,97790,1,0,0:0:0:0:
142,126,97881,1,0,0:0:0:0:
154,158,97972,1,0,0:0:0:0:
174,186,98063,1,0,0:0:0:0:
348,76,100608,1,0,0:0:0:0:
375,97,100699,1,0,0:0:0:0:
389,129,100790,1,0,0:0:0:0:
379,162,100881,1,0,0:0:0:0:
367,195,100972,1,0,0:0:0:0:
241,157,103153,5,0,0:0:0:0:
263,183,103244,1,0,0:0:0:0:
297,189,103335,1,0,0:0:0:0:
331,191,103426,1,0,0:0:0:0:
363,177,103517,1,0,0:0:0:0:
383,148,103608,1,0,0:0:0:0:
155,86,162790,5,0,0:0:0:0:
257,144,162971,1,0,0:0:0:0:
155,86,163153,1,0,0:0:0:0:
162,204,163335,1,0,0:0:0:0:
155,86,163517,1,0,0:0:0:0:
53,148,163699,1,0,0:0:0:0:
140,227,163880,1,0,0:0:0:0:
50,148,164062,1,0,0:0:0:0:
140,227,164244,1,0,0:0:0:0:
249,179,164426,1,0,0:0:0:0:
140,227,164608,1,0,0:0:0:0:
241,289,164790,1,0,0:0:0:0:
328,209,164971,1,0,0:0:0:0:
241,289,165153,1,0,0:0:0:0:
358,308,165335,1,0,0:0:0:0:
315,94,165517,1,0,0:0:0:0:
