osu file format v14

[General]
AudioFilename: audio.mp3
AudioLeadIn: 0
PreviewTime: 65459
Countdown: 0
SampleSet: Normal
StackLeniency: 0.7
Mode: 0
LetterboxInBreaks: 0
WidescreenStoryboard: 0

[Editor]
Bookmarks: 82796,84160,90783,91465,92342,93998,94095,94874,94972,95069,95459,95556,95653,96433,96530,96627,97017,97114,97212,98673,98770,100231,100329,101108,101205,101303,102861
DistanceSpacing: 0.9
BeatDivisor: 4
GridSize: 4
TimelineZoom: 1.9

[Metadata]
Title:Burning Bright
TitleUnicode:Burning Bright
Artist:League of Legends
ArtistUnicode:League of Legends
Creator:azer467
Version:Aze
Source:
Tags:
BeatmapID:1102662
BeatmapSetID:518994

[Difficulty]
HPDrainRate:7.3
CircleSize:4
OverallDifficulty:8.1
ApproachRate:9
SliderMultiplier:1.7
SliderTickRate:1

[Events]
//Background and Video events
0,0,"2423424.jpg",0,0
//Break Periods
2,3328,14994
2,65665,74215
2,103067,114735
//Storyboard Layer 0 (Background)
//Storyboard Layer 1 (Fail)
//Storyboard Layer 2 (Pass)
//Storyboard Layer 3 (Foreground)
//Storyboard Sound Samples

[TimingPoints]
1577,389.61038961039,4,2,0,15,1,0
15596,-100,4,2,0,50,0,0
37421,-100,4,2,0,40,0,0
37804,-100,4,2,0,50,0,0
38194,-100,4,2,0,60,0,0
38583,-100,4,2,0,70,0,0
38973,-100,4,3,0,100,0,0
40530,-71.4285714285714,4,1,0,70,0,0
40906,-83.3333333333333,4,1,0,70,0,0
41698,-111.111111111111,4,1,0,70,0,0
42087,-83.3333333333333,4,1,0,70,0,0
43646,-71.4285714285714,4,1,0,70,0,0
44036,-90.9090909090909,4,1,0,70,0,0
44815,-111.111111111111,4,1,0,70,0,0
45205,-99.9999999999999,4,1,0,70,0,0
46179,-83.3333333333333,4,1,0,70,0,0
46763,-76.9230769230769,4,1,0,70,0,0
47348,-100,4,1,0,70,0,0
62348,-100,4,1,0,70,0,0
63906,-100,4,3,0,70,0,0
65465,-100,4,1,0,70,0,0
74815,-100,4,3,0,70,0,0
77932,-100,4,1,0,70,0,0
90400,-142.857142857143,4,1,0,60,0,0
95075,-142.857142857143,4,3,0,70,0,0
96633,-142.857142857143,4,1,0,70,0,0

[HitObjects]
208,152,3128,5,2,0:0:0:0:
396,108,15594,6,0,P|392:184|388:192,1,85
448,244,15984,2,0,P|408:276|356:288,1,85,2|0,0:0|0:0,0:0:0:0:
252,108,16374,6,0,P|256:184|260:192,1,85,0|2,0:0|0:0,0:0:0:0:
200,244,16764,2,0,P|240:276|292:288,1,85
384,144,17153,6,0,P|372:88|252:56,1,170,4|2,0:0|0:0,0:0:0:0:
164,184,17737,2,0,P|188:136|184:96,1,85
128,32,18127,1,2,0:0:0:0:
80,216,18322,2,0,P|96:256|144:280,1,85
372,272,18711,2,0,P|400:224|348:120,1,170,4|2,0:0|0:0,0:0:0:0:
304,200,19296,1,0,0:0:0:0:
472,264,19491,1,0,0:0:0:0:
468,132,19685,1,2,0:0:0:0:
304,200,19880,2,0,P|252:228|232:252,1,85
160,280,20270,2,2,L|172:104,1,170
256,68,20854,1,0,0:0:0:0:
88,136,21049,2,0,L|96:48,1,85,0|2,0:0|0:0,0:0:0:0:
256,232,21439,2,0,L|248:324,1,85
456,60,21828,2,0,P|488:108|488:164,1,85,4|0,0:0|0:0,0:0:0:0:
268,136,22218,2,0,P|277:94|304:61,1,85,2|0,0:0|0:0,0:0:0:0:
432,244,22607,2,0,P|391:255|349:249,1,85,0|2,0:0|0:0,0:0:0:0:
268,220,22997,1,0,0:0:0:0:
208,64,23192,1,0,0:0:0:0:
349,249,23387,6,0,P|333:305|285:317,1,85,4|0,0:0|0:0,0:0:0:0:
304,100,23776,1,2,0:0:0:0:
172,192,23971,2,0,P|116:224|64:208,1,85
348,176,24361,1,2,0:0:0:0:
188,284,24556,1,0,0:0:0:0:
116,72,24750,1,0,0:0:0:0:
116,72,24848,1,0,0:0:0:0:
116,72,24945,6,0,L|208:40,1,85,6|0,0:0|0:0,0:0:0:0:
348,116,25335,1,2,0:0:0:0:
240,128,25530,2,0,L|144:164,1,85
416,232,25919,1,2,0:0:0:0:
248,224,26114,2,0,L|148:260,1,85
128,244,26406,1,0,0:0:0:0:
128,244,26504,6,0,P|100:200|108:152,1,85,2|0,0:0|0:0,0:0:0:0:
136,72,26893,1,2,0:0:0:0:
240,168,27088,1,0,0:0:0:0:
240,168,27185,1,0,0:0:0:0:
240,168,27283,1,0,0:0:0:0:
312,52,27478,1,2,0:0:0:0:
400,156,27672,1,0,0:0:0:0:
488,48,27867,1,2,0:0:0:0:
408,316,28062,6,0,P|358:344|306:345,1,85,4|0,0:0|0:0,0:0:0:0:
81,229,28452,2,0,P|123:234|160:256,1,85,2|0,0:0|0:0,0:0:0:0:
429,228,28841,2,0,P|387:234|352:256,1,85,0|2,0:0|0:0,0:0:0:0:
104,316,29231,2,0,P|153:344|205:345,1,85
352,256,29523,1,0,0:0:0:0:
352,256,29620,6,0,P|380:184|372:144,1,85,4|0,0:0|0:0,0:0:0:0:
272,100,30010,1,2,0:0:0:0:
188,64,30205,2,0,P|146:72|111:95,1,85
152,184,30594,1,2,0:0:0:0:
112,264,30789,2,0,P|128:324|168:352,1,85
376,104,31179,6,0,P|344:64|224:92,1,170,4|2,0:0|0:0,0:0:0:0:
296,196,31763,1,0,0:0:0:0:
384,256,31958,1,0,0:0:0:0:
392,152,32153,1,2,0:0:0:0:
288,296,32348,1,0,0:0:0:0:
200,156,32543,1,0,0:0:0:0:
232,132,32640,1,0,0:0:0:0:
272,120,32737,6,0,P|320:120|356:140,1,85,4|0,0:0|0:0,0:0:0:0:
300,288,33127,1,2,0:0:0:0:
180,252,33322,1,0,0:0:0:0:
260,200,33517,1,0,0:0:0:0:
220,328,33711,1,2,0:0:0:0:
168,152,33906,2,0,P|176:96|200:64,1,85
412,256,34296,6,0,B|392:284|392:284|324:284,1,85,4|0,0:0|0:0,0:0:0:0:
152,248,34685,2,0,P|192:224|236:220,1,85,2|0,0:0|0:0,0:0:0:0:
364,156,35075,1,0,0:0:0:0:
232,296,35270,1,2,0:0:0:0:
196,120,35465,1,0,0:0:0:0:
404,240,35659,1,0,0:0:0:0:
124,176,35854,6,0,P|84:136|76:100,1,85,4|0,0:0|0:0,0:0:0:0:
224,176,36244,2,0,P|256:216|256:264,1,85,2|0,0:0|0:0,0:0:0:0:
180,100,36633,2,0,P|212:73|227:33,1,85,0|2,0:0|0:0,0:0:0:0:
164,252,37023,2,0,P|135:282|128:324,1,85
396,140,37413,6,0,P|364:88|316:72,1,85,4|0,0:0|0:0,0:0:0:0:
304,156,37705,1,0,0:0:0:0:
304,156,37802,2,0,P|253:122|202:128,1,85,8|0,0:0|0:0,0:0:0:0:
220,200,38094,1,0,0:0:0:0:
220,200,38192,2,0,P|159:191|116:217,1,85,8|0,0:0|0:0,0:0:0:0:
176,272,38484,1,0,0:0:0:0:
176,272,38581,2,0,P|117:289|89:331,1,85,8|0,0:0|0:0,0:0:0:0:
88,336,38874,1,0,0:0:0:0:
88,336,38971,5,8,0:0:0:0:
256,304,39166,1,8,0:0:0:0:
48,244,39361,1,0,0:0:0:0:
316,208,39556,1,8,0:0:0:0:
140,128,39750,2,0,P|80:128|48:148,1,85
216,244,40140,1,8,0:0:0:0:
248,36,40335,1,8,0:0:0:0:
88,320,40530,6,0,B|108:344|132:344|132:344|224:344|224:344|268:280,1,178.499994552612,4|0,0:0|0:0,0:0:0:0:
320,216,40919,2,0,P|332:176|312:116,1,101.999996887207,8|0,0:0|0:0,0:0:0:0:
256,40,41309,1,0,0:0:0:0:
196,168,41504,1,0,0:0:0:0:
428,80,41698,2,0,L|328:32,1,76.4999976654053,8|0,0:0|0:0,0:0:0:0:
140,92,42088,6,0,P|100:148|104:216,1,101.999996887207
160,296,42478,1,8,0:0:0:0:
408,144,42672,2,0,P|352:76|328:68,1,101.999996887207
176,96,43062,1,0,0:0:0:0:
412,248,43257,1,8,0:0:0:0:
64,276,43452,5,0,0:0:0:0:
84,252,43549,1,0,0:0:0:0:
108,236,43646,2,0,P|160:220|228:232,1,118.999996368408
424,332,44036,2,0,P|352:316|336:284,1,93.5000028533936,8|0,0:0|0:0,0:0:0:0:
304,144,44426,1,0,0:0:0:0:
160,304,44620,1,0,0:0:0:0:
344,56,44815,6,0,B|377:58|377:58|424:72,1,76.4999976654053,8|0,0:0|0:0,0:0:0:0:
188,136,45205,2,0,B|149:137|149:137|88:160,1,85
356,144,45594,1,8,0:0:0:0:
400,296,45789,2,0,B|440:296|440:296|488:316,1,85,8|0,0:0|0:0,0:0:0:0:
136,236,46179,2,0,L|32:264,1,101.999996887207,8|0,0:0|0:0,0:0:0:0:
340,68,46569,1,8,0:0:0:0:
340,68,46666,1,0,0:0:0:0:
340,68,46763,6,0,P|376:104|324:160,1,110.499994941712,4|0,0:0|0:0,0:0:0:0:
240,76,47153,1,8,0:0:0:0:
448,184,47348,1,0,0:0:0:0:
316,268,47543,1,0,0:0:0:0:
164,216,47737,1,0,0:0:0:0:
136,56,47932,1,2,0:0:0:0:
136,56,48127,1,2,0:0:0:0:
248,200,48322,6,0,P|240:264|208:300,1,85
360,52,48711,1,8,0:0:0:0:
132,144,48906,2,0,P|80:124|52:84,2,85
314,294,49491,1,8,0:0:0:0:
314,294,49588,1,0,0:0:0:0:
314,294,49685,1,0,0:0:0:0:
280,128,49880,6,0,L|316:300,1,170,4|8,0:0|0:0,0:0:0:0:
168,156,50465,2,0,L|184:64,1,85
340,48,50854,1,0,0:0:0:0:
400,132,51049,2,0,L|388:216,1,85,8|0,0:0|0:0,0:0:0:0:
132,312,51439,2,0,L|160:204,1,85
248,92,51828,2,0,P|272:128|272:200,1,85,8|8,0:0|0:0,0:0:0:0:
44,150,52218,1,0,0:0:0:0:
44,150,52413,2,0,P|58:110|88:80,1,85,8|0,0:0|0:0,0:0:0:0:
408,248,52802,5,8,0:0:0:0:
384,272,52900,1,0,0:0:0:0:
352,284,52997,2,0,B|312:272|296:284|296:284|256:272|256:272|184:284,1,170,4|8,0:0|0:0,0:0:0:0:
72,180,53581,1,0,0:0:0:0:
72,180,53679,1,0,0:0:0:0:
72,180,53776,1,0,0:0:0:0:
176,56,53971,1,0,0:0:0:0:
376,116,54166,6,0,P|336:144|300:148,1,85,8|0,0:0|0:0,0:0:0:0:
276,144,54458,1,0,0:0:0:0:
248,128,54556,1,0,0:0:0:0:
328,36,54750,1,0,0:0:0:0:
364,240,54945,6,0,L|384:332,2,85,8|0|0,0:0|0:0|0:0,0:0:0:0:
232,92,55530,2,0,P|192:64|132:64,1,85,0|8,0:0|0:0,0:0:0:0:
200,316,55919,1,0,0:0:0:0:
228,304,56017,1,0,0:0:0:0:
248,284,56114,6,0,P|272:236|260:184,1,85
68,196,56504,1,8,0:0:0:0:
316,100,56698,1,0,0:0:0:0:
172,244,56893,1,0,0:0:0:0:
156,59,57088,1,0,0:0:0:0:
324,184,57283,2,0,P|376:168|392:132,1,85,8|0,0:0|0:0,0:0:0:0:
72,252,57672,6,0,P|52:324|60:356,1,85
244,128,58062,1,8,0:0:0:0:
244,128,58257,2,0,P|260:68|256:24,1,85,8|0,0:0|0:0,0:0:0:0:
408,240,58646,2,0,P|400:296|408:344,1,85,8|0,0:0|0:0,0:0:0:0:
140,48,59036,5,8,0:0:0:0:
152,80,59133,1,0,0:0:0:0:
156,116,59231,2,0,P|156:164|132:212,1,85,4|0,0:0|0:0,0:0:0:0:
300,56,59620,1,8,0:0:0:0:
328,224,59815,1,0,0:0:0:0:
300,240,59913,1,0,0:0:0:0:
268,240,60010,1,0,0:0:0:0:
396,120,60205,1,0,0:0:0:0:
216,160,60400,1,8,0:0:0:0:
420,232,60594,1,0,0:0:0:0:
184,304,60789,6,0,P|124:316|96:300,1,85
128,76,61179,1,8,0:0:0:0:
356,96,61374,2,0,L|416:88,1,42.5
216,188,61569,1,8,0:0:0:0:
416,240,61763,1,0,0:0:0:0:
416,240,61861,1,0,0:0:0:0:
416,240,61958,2,0,L|496:232,1,42.5,8|0,0:0|0:0,0:0:0:0:
200,96,62153,2,0,L|132:100,1,42.5
388,128,62348,6,0,P|408:68|404:32,1,85,4|0,0:0|0:0,0:0:0:0:
248,192,62737,1,8,0:0:0:0:
288,304,62932,1,0,0:0:0:0:
136,128,63127,2,0,P|88:108|36:120,1,85
404,192,63517,2,0,P|444:152|444:96,1,85,8|0,0:0|0:0,0:0:0:0:
208,168,63906,5,2,0:0:0:0:
328,64,64101,1,2,0:0:0:0:
288,256,64296,2,0,L|304:312,1,42.5,8|0,0:0|0:0,0:0:0:0:
156,80,64491,1,2,0:0:0:0:
412,80,64685,1,2,0:0:0:0:
88,180,64880,2,0,L|52:216,1,42.5,8|0,0:0|0:0,0:0:0:0:
236,32,65075,1,8,0:0:0:0:
240,60,65172,1,0,0:0:0:0:
252,88,65270,1,0,0:0:0:0:
268,112,65367,1,0,0:0:0:0:
288,132,65465,1,4,0:0:0:0:
256,216,74815,5,8,0:0:0:0:
256,168,75010,1,0,0:0:0:0:
244,252,75205,1,8,0:0:0:0:
268,132,75400,1,0,0:0:0:0:
224,284,75594,5,8,0:0:0:0:
288,100,75789,1,0,0:0:0:0:
200,316,75984,1,8,0:0:0:0:
312,68,76179,1,0,0:0:0:0:
172,340,76374,5,10,0:0:0:0:
160,96,76569,1,0,0:0:0:0:
312,292,76763,1,0,0:0:0:0:
76,216,76958,1,0,0:0:0:0:
300,132,77153,1,2,0:0:0:0:
216,216,77348,2,0,L|184:276,1,42.5
360,40,77543,1,2,0:0:0:0:
352,248,77737,1,2,0:0:0:0:
172,100,77932,6,0,P|128:76|64:80,1,85,4|0,0:0|0:0,0:0:0:0:
368,168,78322,2,0,P|413:146|447:92,1,85,8|0,0:0|0:0,0:0:0:0:
216,184,78711,1,0,0:0:0:0:
316,292,78906,1,0,0:0:0:0:
88,172,79101,2,0,L|56:76,1,85,8|0,0:0|0:0,0:0:0:0:
334,208,79491,6,0,L|314:300,1,85
216,348,79880,1,8,0:0:0:0:
264,160,80075,2,0,P|308:124|368:132,1,85
88,276,80465,2,0,L|92:172,1,85,0|8,0:0|0:0,0:0:0:0:
172,88,80854,1,0,0:0:0:0:
196,68,80952,1,0,0:0:0:0:
220,56,81049,6,0,P|268:48|312:60,1,85
400,160,81439,1,8,0:0:0:0:
228,224,81633,1,0,0:0:0:0:
228,224,81731,1,0,0:0:0:0:
228,224,81828,1,0,0:0:0:0:
384,312,82023,1,0,0:0:0:0:
284,116,82218,6,0,P|292:52|316:24,1,85,8|8,0:0|0:0,0:0:0:0:
400,160,82510,1,0,0:0:0:0:
400,160,82607,2,0,P|460:144|492:164,1,85,0|8,0:0|0:0,0:0:0:0:
292,276,82997,1,0,0:0:0:0:
184,108,83192,2,8,P|136:80|80:88,2,85,8|0|8,0:0|0:0|0:0,0:0:0:0:
416,292,83776,2,0,L|428:208,1,85,0|8,0:0|0:0,0:0:0:0:
432,188,84069,1,0,0:0:0:0:
436,168,84166,5,4,0:0:0:0:
384,48,84361,1,0,0:0:0:0:
284,232,84556,1,8,0:0:0:0:
192,96,84750,1,0,0:0:0:0:
180,76,84848,1,0,0:0:0:0:
168,60,84945,1,0,0:0:0:0:
84,228,85140,1,0,0:0:0:0:
280,100,85335,6,0,P|304:48|300:16,1,85,8|0,0:0|0:0,0:0:0:0:
384,244,85724,2,0,P|400:304|424:328,1,85
256,184,86114,1,8,0:0:0:0:
148,92,86309,2,0,B|120:68|120:68|64:68,1,85
388,152,86698,2,0,B|436:152|436:152|464:128,1,85,0|8,0:0|0:0,0:0:0:0:
176,228,87088,5,0,0:0:0:0:
148,228,87185,1,0,0:0:0:0:
120,228,87283,1,4,0:0:0:0:
24,136,87478,1,0,0:0:0:0:
172,72,87672,2,0,L|268:72,1,85,8|0,0:0|0:0,0:0:0:0:
388,176,88062,1,0,0:0:0:0:
312,300,88257,1,0,0:0:0:0:
195,166,88452,2,0,P|175:102|187:74,2,85,8|0|0,0:0|0:0|0:0,0:0:0:0:
368,128,89036,1,0,0:0:0:0:
116,252,89231,6,0,L|144:296,1,42.5,8|0,0:0|0:0,0:0:0:0:
228,316,89426,1,8,0:0:0:0:
252,120,89620,1,0,0:0:0:0:
84,152,89815,1,8,0:0:0:0:
308,260,90010,2,0,L|356:284,1,42.5
168,52,90205,2,0,P|132:48|116:52,1,42.5
252,120,90400,6,0,P|300:124|332:112,1,59.4999981842042,4|0,0:0|0:0,0:0:0:0:
388,80,90789,1,0,0:0:0:0:
388,80,90887,1,0,0:0:0:0:
388,80,90984,1,0,0:0:0:0:
440,160,91179,2,0,L|432:224,1,59.4999981842042,8|0,0:0|0:0,0:0:0:0:
412,248,91471,1,0,0:0:0:0:
412,248,91569,1,0,0:0:0:0:
332,304,91763,1,0,0:0:0:0:
256,248,91958,6,0,P|220:244|184:248,1,59.4999981842042
164,264,92250,1,0,0:0:0:0:
164,264,92348,1,0,0:0:0:0:
80,228,92543,1,0,0:0:0:0:
60,140,92737,1,8,0:0:0:0:
112,64,92932,1,0,0:0:0:0:
196,96,93127,2,0,P|224:96|260:88,1,59.4999981842042
244,172,93517,6,0,P|204:196|192:212,1,59.4999981842042
200,288,93906,1,0,0:0:0:0:
200,288,94004,1,0,0:0:0:0:
200,288,94101,1,0,0:0:0:0:
280,328,94296,1,8,0:0:0:0:
352,272,94491,1,0,0:0:0:0:
404,192,94685,2,0,P|404:160|392:136,1,59.4999981842042
364,116,94978,1,0,0:0:0:0:
364,116,95075,5,8,0:0:0:0:
284,152,95270,1,8,0:0:0:0:
216,88,95465,1,8,0:0:0:0:
216,88,95562,1,0,0:0:0:0:
216,88,95659,1,8,0:0:0:0:
148,148,95854,2,0,P|100:144|72:156,1,59.4999981842042,8|0,0:0|0:0,0:0:0:0:
224,212,96244,2,0,P|264:212|296:200,1,59.4999981842042,8|0,0:0|0:0,0:0:0:0:
312,176,96536,1,0,0:0:0:0:
312,176,96633,5,4,0:0:0:0:
316,92,96828,1,0,0:0:0:0:
232,44,97023,1,0,0:0:0:0:
232,44,97120,1,0,0:0:0:0:
232,44,97218,1,0,0:0:0:0:
168,104,97413,2,0,P|140:144|136:164,1,59.4999981842042,8|0,0:0|0:0,0:0:0:0:
136,236,97802,2,0,P|144:268|172:300,1,59.4999981842042
240,320,98192,5,0,0:0:0:0:
328,292,98387,2,0,P|352:272|364:228,1,59.4999981842042
368,212,98679,1,0,0:0:0:0:
368,212,98776,1,0,0:0:0:0:
328,128,98971,1,8,0:0:0:0:
248,88,99166,1,0,0:0:0:0:
156,84,99361,2,0,P|96:100|80:116,1,59.4999981842042
212,168,99750,6,0,P|252:176|276:200,2,59.4999981842042,4|0|0,0:0|0:0|0:0,0:0:0:0:
180,176,100237,1,0,0:0:0:0:
180,176,100335,1,0,0:0:0:0:
112,240,100530,1,8,0:0:0:0:
160,320,100724,1,0,0:0:0:0:
256,312,100919,2,0,P|304:296|324:272,1,59.4999981842042
328,264,101211,1,0,0:0:0:0:
328,264,101309,5,8,0:0:0:0:
312,172,101504,1,0,0:0:0:0:
236,212,101698,1,8,0:0:0:0:
236,104,101893,1,8,0:0:0:0:
136,184,102088,1,0,0:0:0:0:
160,28,102283,5,8,0:0:0:0:
136,184,102478,1,8,0:0:0:0:
304,72,102672,1,8,0:0:0:0:
272,284,102867,1,12,0:0:0:0:
256,192,115335,5,0,0:0:0:0:
