osu file format v14

[General]
AudioFilename: Burning Bright.mp3
AudioLeadIn: 0
PreviewTime: 78022
Countdown: 0
SampleSet: Normal
StackLeniency: 0.7
Mode: 0
LetterboxInBreaks: 0
WidescreenStoryboard: 1

[Editor]
DistanceSpacing: 0.5
BeatDivisor: 4
GridSize: 4
TimelineZoom: 2.750001

[Metadata]
Title:Burning Bright
TitleUnicode:Burning Bright
Artist:League of Legends
ArtistUnicode:League of Legends
Creator:Synk1337
Version:Insane
Source:https://www.youtube.com/watch?v=oorajmbSJUM
Tags:League Of Legends Star Guardian
BeatmapID:1099933
BeatmapSetID:517705

[Difficulty]
HPDrainRate:6
CircleSize:4
OverallDifficulty:6.5
ApproachRate:9
SliderMultiplier:1.4
SliderTickRate:1

[Events]
//Background and Video events
0,0,"BG.jpg",0,0
Video,0,"bg video.mp4"
//Break Periods
2,14325,15084
//Storyboard Layer 0 (Background)
//Storyboard Layer 1 (Fail)
//Storyboard Layer 2 (Pass)
//Storyboard Layer 3 (Foreground)
//Storyboard Sound Samples

[TimingPoints]
100,389.61038961039,4,1,0,40,1,0
3119,-100,4,2,0,20,0,0
3216,-200,4,2,0,25,0,0
39061,-133.333333333333,4,1,0,25,0,0
39450,-117.647058823529,4,1,0,30,0,0
39840,-105.263157894737,4,1,0,35,0,0
40229,-100,4,1,0,40,0,0
40619,-83.3333333333333,4,1,0,45,0,1
65554,-100,4,2,0,25,0,0
76463,-100,4,1,0,30,0,0
76853,-95.2380952380952,4,1,0,35,0,0
77242,-90.9090909090909,4,1,0,40,0,0
77632,-86.9565217391304,4,1,0,45,0,0
78022,-83.3333333333333,4,1,0,50,0,1
102957,-133.333333333333,4,2,0,25,0,0

[Colours]
Combo1 : 187,4,73
Combo2 : 230,230,230
Combo3 : 156,33,239
Combo4 : 0,128,255

[HitObjects]
272,312,3119,6,0,L|260:304,3,8.75
256,288,3216,6,0,B|192:260|192:260|252:108|252:108|256:148|256:148|348:268|348:268|360:296|436:292|408:224|408:224|460:56|380:80|380:80|344:60|344:60|312:64|312:64|272:48|272:48,1,840
256,32,9450,6,0,B|100:108|100:108|100:208|100:208|408:208|408:208|408:312|408:312|256:356,1,840
381,272,15684,6,0,L|359:241,1,35
332,253,16074,2,0,L|310:221,1,35
277,229,16463,2,0,L|255:198,1,35
228,210,16853,2,0,L|206:178,1,35
158,126,17242,6,0,B|191:103|236:105,1,70
294,59,17827,2,0,B|310:54|340:51,1,35
349,32,18216,2,0,B|365:27|395:24,1,35
452,100,18606,2,0,B|463:133|463:133|453:179,1,70
424,272,19190,2,0,P|395:331|322:349,1,140
235,263,20164,5,0,0:0:0:0:
172,338,20359,2,0,L|100:364,1,70
235,263,20944,1,0,0:0:0:0:
312,338,21138,2,0,L|380:360,1,70
216,320,21918,6,0,P|196:300|192:280,1,35
232,196,22307,1,0,0:0:0:0:
372,132,22502,1,0,0:0:0:0:
448,204,22697,2,0,P|456:232|456:252,1,35
352,244,23087,6,0,P|344:215|344:196,1,35
424,144,23476,2,0,P|448:116|456:72,1,70
360,44,24061,2,0,P|340:40|316:44,1,35
224,72,24450,2,0,P|204:78|185:94,1,35,0|0,2:0|2:0,2:0:0:0:
276,152,24840,1,0,0:0:0:0:
276,152,24937,1,0,0:0:0:0:
276,152,25035,1,0,0:0:0:0:
256,192,25424,12,0,27762,0:0:0:0:
160,156,28151,6,0,P|172:140|196:128,1,35
256,88,28541,1,0,0:0:0:0:
313,193,28736,1,0,0:0:0:0:
170,192,28931,2,0,L|122:191,1,35
209,284,29320,6,0,P|228:277|244:262,1,35
276,207,29710,6,0,P|286:191|311:185,1,35
369,197,30100,6,0,B|388:190|401:172|401:172|411:154|412:136,1,70
359,62,30684,2,0,P|322:54|287:46,1,70
148,104,31268,5,0,0:0:0:0:
216,211,31463,1,0,0:0:0:0:
344,147,31658,2,0,L|414:106,1,70
417,253,32632,5,0,0:0:0:0:
319,325,32827,2,0,L|243:336,1,70
417,253,33411,1,0,0:0:0:0:
320,159,33606,2,0,L|245:146,1,70
201,178,34385,5,0,0:0:0:0:
64,134,34580,1,0,0:0:0:0:
167,257,34775,1,0,0:0:0:0:
126,100,34970,1,0,0:0:0:0:
167,257,35164,2,0,B|186:327|186:327|230:336,1,105
307,277,35944,6,0,P|343:259|374:255,1,70
452,203,36528,2,0,L|452:156,1,35
351,134,36918,2,0,L|352:180,1,35
252,202,37307,2,0,L|252:155,1,35
157,130,37697,2,0,B|158:172|158:172|144:216|78:283,1,175
179,332,38866,5,8,0:0:0:0:
234,242,39061,1,8,0:0:0:0:
307,350,39255,5,8,0:0:0:0:
348,207,39450,1,8,0:0:0:0:
179,332,39645,5,8,0:0:0:0:
285,137,39840,1,8,0:0:0:0:
387,346,40035,5,8,0:0:0:0:
439,107,40229,1,8,0:0:0:0:
327,325,40424,5,8,0:0:0:0:
387,36,40619,1,12,0:0:0:0:
326,334,41009,6,0,P|297:297|294:242,1,83.9999974365235
477,164,41398,2,0,P|506:201|509:256,1,83.9999974365235
381,259,41788,1,0,0:0:0:0:
356,50,41983,1,0,0:0:0:0:
428,246,42177,2,0,P|437:293|403:345,1,83.9999974365235
240,220,42567,6,0,P|231:172|265:120,1,83.9999974365235
452,176,42957,2,0,P|461:223|427:275,1,83.9999974365235
245,313,43346,1,0,0:0:0:0:
344,127,43541,1,0,0:0:0:0:
344,127,43638,1,0,0:0:0:0:
344,127,43736,1,0,0:0:0:0:
329,336,44125,6,0,P|287:360|227:346,1,83.9999974365235
123,284,44515,2,0,P|93:247|99:185,1,83.9999974365235
163,59,44905,2,0,P|200:29|262:35,1,83.9999974365235
416,133,45294,1,0,0:0:0:0:
250,263,45489,2,0,P|208:269|165:262,1,83.9999974365235
73,192,45879,6,0,B|41:169|41:169|37:114,1,83.9999974365235
233,37,46268,1,0,0:0:0:0:
366,199,46463,1,0,0:0:0:0:
163,141,46658,1,0,0:0:0:0:
163,141,46755,1,0,0:0:0:0:
163,141,46853,1,0,0:0:0:0:
244,232,47048,5,0,0:0:0:0:
335,144,47242,2,0,P|308:113|270:93,1,83.9999974365235
69,157,47632,2,0,P|57:196|60:239,1,83.9999974365235
261,302,48022,1,0,0:0:0:0:
321,101,48216,1,0,0:0:0:0:
128,186,48411,2,0,P|104:243|114:299,1,83.9999974365235
253,224,48801,6,0,P|282:187|407:152,1,167.999994873047
253,224,49385,1,0,0:0:0:0:
253,224,49483,1,0,0:0:0:0:
253,224,49580,1,0,0:0:0:0:
399,73,49775,1,0,0:0:0:0:
401,283,49970,6,0,P|380:345|301:304,1,167.999994873047
275,185,50554,6,0,P|295:123|375:164,1,167.999994873047
355,363,51138,1,0,0:0:0:0:
470,187,51333,1,0,0:0:0:0:
275,266,51528,6,0,P|212:247|250:166,1,167.999994873047
382,131,52112,2,0,P|444:149|406:230,1,167.999994873047
239,116,52697,1,0,0:0:0:0:
241,326,52892,1,0,0:0:0:0:
241,326,52989,1,0,0:0:0:0:
241,326,53087,1,0,0:0:0:0:
64,212,53476,6,0,B|91:165|208:138|208:138|238:47|377:45,1,335.999989746094
256,192,54450,1,0,0:0:0:0:
448,172,54645,2,0,B|421:219|301:246|301:246|274:337|135:339,1,335.999989746094
100,212,55619,5,0,0:0:0:0:
100,212,55716,1,0,0:0:0:0:
100,212,55814,1,0,0:0:0:0:
290,207,56009,1,0,0:0:0:0:
290,207,56106,1,0,0:0:0:0:
290,207,56203,2,0,L|377:227,1,83.9999974365235
158,175,56593,2,0,B|71:155|71:155|38:78,1,167.999994873047
258,78,57177,2,0,L|357:88,1,83.9999974365235
149,193,57567,1,0,0:0:0:0:
324,209,57762,2,0,L|498:225,1,167.999994873047
338,291,58346,2,0,L|512:307,1,167.999994873047
364,374,58931,5,0,0:0:0:0:
171,273,59125,1,0,0:0:0:0:
389,270,59320,1,0,0:0:0:0:
408,212,59710,6,0,B|268:196|240:225|240:225|212:195|67:214,1,335.999989746094
240,148,60684,1,0,0:0:0:0:
72,84,60879,6,0,B|212:99|240:70|240:70|268:100|413:81,1,335.999989746094
255,266,61853,1,0,0:0:0:0:
255,266,61950,1,0,0:0:0:0:
255,266,62048,1,0,0:0:0:0:
79,189,62242,1,0,0:0:0:0:
224,132,62437,2,0,P|272:147|310:175,1,83.9999974365235
267,321,62827,2,0,P|219:306|181:278,1,83.9999974365235
224,132,63216,2,0,L|340:132,1,83.9999974365235
191,287,63606,5,0,0:0:0:0:
242,126,63801,1,0,0:0:0:0:
394,188,63996,2,0,L|494:238,1,83.9999974365235
364,68,64385,1,0,0:0:0:0:
244,248,64580,2,0,P|252:288|236:244,1,167.999994873047
402,231,65164,5,0,0:0:0:0:
385,270,65262,1,0,0:0:0:0:
343,274,65359,1,0,0:0:0:0:
301,266,65457,1,0,0:0:0:0:
273,226,65554,2,0,B|281:291|389:271|389:271|465:115|233:-5|181:279|33:175|5:15|213:74|213:74|281:37|285:34|285:34|433:26|405:50|405:50|389:74|421:106|473:98|497:166|461:182|461:182|553:414|357:402|157:334,1,1610
120,320,71788,6,0,B|164:232|280:256|360:184|68:160|204:32|360:56|360:60|160:256|392:224|456:208|472:144|420:64|408:4|412:32|412:32|292:44|292:44|268:0|188:100|188:100|112:96|112:96|92:152|92:152|20:132|24:288,1,1120
151,77,76463,5,8,0:0:0:0:
130,215,76658,1,8,0:0:0:0:
243,70,76853,5,8,0:0:0:0:
217,252,77048,1,8,0:0:0:0:
151,31,77242,5,8,0:0:0:0:
119,260,77437,1,8,0:0:0:0:
119,260,77535,1,0,0:0:0:0:
119,260,77632,1,8,0:0:0:0:
254,69,77827,5,8,0:0:0:0:
255,355,78022,1,12,0:0:0:0:
188,200,78411,6,0,P|216:160|268:128,1,83.9999974365235
472,164,78801,1,0,0:0:0:0:
292,304,78996,1,0,0:0:0:0:
384,100,79190,1,0,0:0:0:0:
376,328,79385,1,0,0:0:0:0:
292,116,79580,2,0,L|264:24,1,83.9999974365235
404,220,79970,1,0,0:0:0:0:
364,92,80164,2,0,L|336:0,1,83.9999974365235
264,60,80554,6,0,L|232:144,1,83.9999974365235
408,224,80944,1,0,0:0:0:0:
408,224,81041,1,0,0:0:0:0:
408,224,81138,1,0,0:0:0:0:
396,120,81528,6,0,P|308:104|192:116,1,167.999994873047
428,216,82112,1,0,0:0:0:0:
208,280,82307,6,0,B|296:295|296:295|412:284,1,167.999994873047
428,216,82892,2,0,L|436:132,1,83.9999974365235
380,316,83281,1,0,0:0:0:0:
384,152,83476,1,0,0:0:0:0:
384,152,83574,1,0,0:0:0:0:
384,152,83671,1,0,0:0:0:0:
248,200,83866,1,0,0:0:0:0:
176,108,84061,1,0,0:0:0:0:
176,108,84158,1,0,0:0:0:0:
176,108,84255,1,0,0:0:0:0:
400,144,84450,6,0,P|440:176|460:216,2,83.9999974365235
180,88,85035,1,0,0:0:0:0:
332,252,85229,1,0,0:0:0:0:
140,168,85424,2,0,L|56:128,1,83.9999974365235
64,248,85814,2,0,L|148:288,1,83.9999974365235
139,284,86106,1,0,0:0:0:0:
139,284,86203,1,0,0:0:0:0:
240,224,86398,6,0,L|332:200,1,83.9999974365235
160,316,86788,1,0,0:0:0:0:
288,212,86983,1,0,0:0:0:0:
252,344,87177,1,0,0:0:0:0:
204,260,87372,2,0,B|180:140|180:140|224:152|224:152|352:116|388:232,1,335.999989746094
288,228,88346,5,0,0:0:0:0:
228,76,88541,1,0,0:0:0:0:
372,195,88736,1,0,0:0:0:0:
204,260,88931,2,0,B|180:140|180:140|224:152|224:152|352:116|388:232,1,335.999989746094
108,112,89905,5,0,0:0:0:0:
284,220,90100,1,0,0:0:0:0:
152,176,90294,1,0,0:0:0:0:
368,116,90489,1,0,0:0:0:0:
204,104,90684,1,0,0:0:0:0:
368,248,90879,5,0,0:0:0:0:
368,248,90976,1,0,0:0:0:0:
368,248,91074,1,0,0:0:0:0:
172,192,91268,1,0,0:0:0:0:
368,152,91463,1,0,0:0:0:0:
216,272,91658,5,0,0:0:0:0:
216,272,91755,1,0,0:0:0:0:
216,272,91853,1,0,0:0:0:0:
364,148,92048,2,0,L|452:72,1,83.9999974365235
276,216,92437,5,0,0:0:0:0:
276,216,92535,1,0,0:0:0:0:
276,216,92632,1,0,0:0:0:0:
184,128,92827,2,0,L|124:64,1,83.9999974365235
264,68,93216,6,0,L|320:68,1,41.9999987182618,0|0,3:0|3:0,3:0:0:0:
320,96,93411,2,0,L|368:96,1,41.9999987182618,0|0,3:0|3:0,3:0:0:0:
384,120,93606,1,0,0:0:0:0:
244,196,93801,1,0,0:0:0:0:
328,60,93996,1,0,0:0:0:0:
328,60,94093,1,0,0:0:0:0:
328,60,94190,1,0,0:0:0:0:
328,220,94385,2,0,B|300:260|376:328|312:376,1,167.999994873047
328,220,94970,5,0,0:0:0:0:
328,220,95067,1,0,0:0:0:0:
328,220,95164,1,0,0:0:0:0:
300,368,95359,1,0,0:0:0:0:
300,120,95554,1,0,0:0:0:0:
300,120,95651,1,0,0:0:0:0:
300,120,95749,1,0,0:0:0:0:
180,156,95944,6,0,L|140:184,1,41.9999987182618,0|0,3:0|3:0,3:0:0:0:
148,204,96138,2,0,L|100:240,1,41.9999987182618,0|0,3:0|3:0,3:0:0:0:
136,264,96333,2,0,L|96:292,1,41.9999987182618,0|0,3:0|3:0,3:0:0:0:
104,320,96528,1,0,1:0:0:0:
104,320,96625,1,0,1:0:0:0:
104,320,96723,1,0,1:0:0:0:
168,220,96918,5,0,0:0:0:0:
240,316,97112,5,0,3:0:0:0:
240,316,97210,1,0,3:0:0:0:
240,316,97307,1,0,3:0:0:0:
302,218,97502,2,0,B|373:168|278:90|339:31,2,167.999994873047
191,44,98476,1,0,0:0:0:0:
192,216,98671,1,0,3:0:0:0:
192,236,98768,1,0,3:0:0:0:
192,256,98866,1,0,3:0:0:0:
280,312,99061,2,0,L|112:352,1,167.999994873047
184,216,99645,6,0,L|224:188,1,41.9999987182618,0|0,3:0|3:0,3:0:0:0:
240,204,99840,2,0,L|280:176,1,41.9999987182618,0|0,3:0|3:0,3:0:0:0:
304,184,100035,1,0,0:0:0:0:
352,288,100229,5,0,3:0:0:0:
360,308,100327,1,0,3:0:0:0:
368,328,100424,1,0,3:0:0:0:
184,216,100619,2,0,P|156:180|116:132,1,83.9999974365235
288,176,101009,1,0,0:0:0:0:
164,256,101203,5,0,0:0:0:0:
148,268,101301,1,0,0:0:0:0:
128,280,101398,2,0,L|52:328,1,83.9999974365235
280,312,101788,5,8,0:0:0:0:
0,308,101983,1,8,0:0:0:0:
256,256,102372,1,8,0:0:0:0:
120,224,102567,1,8,0:0:0:0:
304,164,102762,1,8,0:0:0:0:
76,164,102957,1,12,0:0:0:0:
