osu file format v14

[General]
AudioFilename: audio.mp3
AudioLeadIn: 0
PreviewTime: 29234
Countdown: 0
SampleSet: Soft
StackLeniency: 0.7
Mode: 0
LetterboxInBreaks: 0
WidescreenStoryboard: 0

[Editor]
DistanceSpacing: 1.3
BeatDivisor: 4
GridSize: 8
TimelineZoom: 2.899999

[Metadata]
Title:A New Journey (feat. AmaLee)
TitleUnicode:A New Journey (feat. AmaLee)
Artist:League of Legends
ArtistUnicode:League of Legends
Creator:Sotarks
Version:Silver
Source:League of Legends
Tags:english female vocal vocalist riot games game rito season 2019 lol bandai namco arts shingo yamashita p.a works animation Shawn Christmas Freddy van Hoof video game michelle akitoshi corinn -laura- snownino_ smokelind reform kujinn
BeatmapID:1911786
BeatmapSetID:915182

[Difficulty]
HPDrainRate:4
CircleSize:3.5
OverallDifficulty:6
ApproachRate:7.5
SliderMultiplier:1.52
SliderTickRate:1

[Events]
//Background and Video events
0,0,"bg5.jpg",0,0
//Break Periods
2,24325,25895
//Storyboard Layer 0 (Background)
//Storyboard Layer 1 (Fail)
//Storyboard Layer 2 (Pass)
//Storyboard Layer 3 (Foreground)
//Storyboard Sound Samples

[TimingPoints]
775,324.324324324324,4,2,22,62,1,0
3369,-98.0392156862745,4,2,22,82,0,0
8234,-98.0392156862745,4,2,22,62,0,0
8558,-108.695652173913,4,2,22,72,0,0
18937,-121.951219512195,4,2,22,72,0,0
24126,-161.290322580645,4,2,22,52,0,0
26720,-108.695652173913,4,2,22,72,0,0
28991,-81.9672131147541,4,2,22,92,0,0
29315,-98.0392156862745,4,2,22,92,0,0
47477,-89.2857142857143,4,2,22,82,0,0
51207,-138.888888888889,4,2,22,92,0,0
52018,-138.888888888889,4,2,22,32,0,0

[Colours]
Combo1 : 254,196,73
Combo2 : 253,0,0
Combo3 : 141,92,80
Combo4 : 215,210,210

[HitObjects]
256,192,775,12,8,3045,0:2:0:0:
114,113,3369,6,0,P|158:61|253:73,2,155.040000946289,6|8|10,1:2|0:2|0:2,0:0:0:0:
93,204,4180,2,0,P|111:253|116:287,1,77.5200004731445,2|8,1:2|0:2,0:0:0:0:
190,332,4504,1,2,1:2:0:0:
190,332,4666,2,0,B|282:329|230:281|351:269,2,155.040000946289,8|8|10,0:2|0:2|0:2,0:0:0:0:
200,239,5477,1,2,1:2:0:0:
213,147,5639,2,0,P|218:96|224:61,1,77.5200004731445,14|0,0:2|0:2,0:0:0:0:
297,14,5964,6,0,P|346:16|385:114,1,155.040000946289,2|10,1:2|0:2,0:0:0:0:
329,172,6450,1,10,0:2:0:0:
365,257,6612,1,12,0:2:0:0:
365,257,6774,2,0,P|315:267|285:280,1,77.5200004731445,10|6,0:3|0:3,0:0:0:0:
215,332,7099,2,0,P|145:327|122:223,1,155.040000946289,14|10,1:2|1:2,0:0:0:0:
139,169,7585,1,10,1:2:0:0:
30,320,7910,2,0,P|19:247|-1:167,1,155.040000946289,10|2,1:2|0:2,0:0:0:0:
109,41,8558,6,0,P|163:68|196:71,1,69.9199976528321,4|0,1:2|1:2,0:0:0:0:
251,42,8883,2,0,P|332:22|401:24,1,139.839995305664,10|2,0:2|1:2,0:0:0:0:
446,82,9369,2,0,P|434:125|432:165,1,69.9199976528321,2|8,1:2|0:2,0:0:0:0:
444,232,9693,2,0,P|395:241|356:263,1,69.9199976528321,2|0,0:2|1:2,0:0:0:0:
315,306,10018,2,0,P|280:301|247:288,1,69.9199976528321,2|8,1:2|0:2,0:0:0:0:
171,254,10342,2,0,P|157:301|151:340,1,69.9199976528321,2|0,1:2|1:2,0:0:0:0:
72,343,10666,2,0,P|64:308|54:275,1,69.9199976528321,2|8,1:2|0:2,0:0:0:0:
80,195,10991,1,2,0:2:0:0:
80,195,11153,6,0,P|56:159|104:53,2,139.839995305664,0|8|2,1:2|0:2|1:2,0:0:0:0:
150,148,11964,1,2,1:2:0:0:
220,193,12126,1,10,0:2:0:0:
220,193,12288,2,0,P|288:174|302:174,1,69.9199976528321,2|0,0:2|1:2,0:0:0:0:
339,239,12612,2,0,P|407:258|421:258,1,69.9199976528321,2|8,1:2|0:2,0:0:0:0:
461,194,12937,2,0,P|465:134|400:83,1,139.839995305664,2|2,1:2|1:2,0:0:0:0:
327,103,13423,1,8,0:2:0:0:
168,48,13747,6,0,P|157:106|150:206,1,139.839995305664,6|8,1:2|0:2,0:0:0:0:
203,252,14234,1,2,0:2:0:0:
203,252,14396,2,0,P|129:238|79:301,1,139.839995305664,2|8,1:2|0:2,0:0:0:0:
159,317,14883,1,2,1:2:0:0:
159,317,15045,2,0,P|225:302|309:296,1,139.839995305664,2|8,1:2|0:2,0:0:0:0:
371,333,15531,1,2,0:2:0:0:
371,333,15693,2,0,P|423:288|403:201,1,139.839995305664,2|10,1:2|0:2,0:0:0:0:
361,160,16180,1,2,1:2:0:0:
289,204,16342,6,0,P|249:216|200:210,1,69.9199976528321,6|4,0:3|0:3,0:0:0:0:
153,165,16666,1,14,0:2:0:0:
153,165,16829,2,0,P|135:103|56:86,1,139.839995305664,2|6,0:2|0:3,0:0:0:0:
17,148,17315,1,12,0:2:0:0:
44,227,17477,1,10,1:2:0:0:
204,278,17802,1,2,1:2:0:0:
358,213,18126,2,0,P|390:151|234:96,1,279.679990611328,6|0,1:2|0:0,0:0:0:0:
179,124,18937,6,0,P|193:169|192:200,1,62.3200009509277,4|0,1:2|0:2,0:0:0:0:
234,246,19261,2,0,P|222:274|219:305,1,62.3200009509277,2|2,0:2|1:2,0:0:0:0:
274,356,19585,2,0,L|346:341,2,62.3200009509277,10|2|2,0:2|0:2|0:2,0:0:0:0:
200,370,20072,1,0,1:2:0:0:
143,321,20234,1,2,0:2:0:0:
143,321,20396,2,0,P|145:267|106:187,1,124.640001901855,2|2,1:2|1:2,0:0:0:0:
71,143,20883,1,8,0:2:0:0:
71,143,21045,2,0,P|134:166|197:133,1,124.640001901855,2|2,0:2|0:2,0:0:0:0:
226,83,21531,6,0,P|283:62|339:85,1,124.640001901855,4|2,1:2|0:2,0:0:0:0:
391,147,22018,1,2,1:2:0:0:
391,147,22180,2,0,P|378:198|373:271,1,124.640001901855,10|2,0:2|0:2,0:0:0:0:
402,344,22666,2,0,P|357:353|334:364,1,62.3200009509277,2|0,1:2|0:2,0:0:0:0:
281,304,22991,2,0,P|236:295|213:284,1,62.3200009509277,2|0,1:2|0:2,0:0:0:0:
149,326,23315,1,2,1:2:0:0:
93,266,23477,1,8,0:2:0:0:
93,266,23639,2,0,B|109:149|43:214|58:66,1,186.960002852783,2|6,0:2|1:2,0:0:0:0:
416,55,26720,6,0,P|402:101|398:134,1,69.9199976528321,12|4,0:2|0:3,0:0:0:0:
420,204,27045,1,4,0:3:0:0:
360,263,27207,2,0,P|314:269|274:257,1,69.9199976528321,12|4,0:2|0:3,0:0:0:0:
232,204,27531,1,4,0:3:0:0:
178,268,27693,1,12,0:2:0:0:
108,219,27856,2,0,P|91:180|92:132,1,69.9199976528321,12|0,0:2|0:2,0:0:0:0:
129,79,28180,1,0,1:2:0:0:
207,105,28342,2,0,P|257:98|283:79,1,69.9199976528321,12|0,0:2|1:2,0:0:0:0:
327,24,28666,1,12,0:3:0:0:
420,226,28991,1,12,0:2:0:0:
271,338,29315,6,0,P|194:288|115:283,1,155.040000946289,6|8,1:2|0:2,0:0:0:0:
44,311,29802,1,0,0:2:0:0:
44,311,29883,1,8,0:2:0:0:
44,311,29964,2,0,P|30:263|34:227,1,77.5200004731445,2|0,1:2|1:2,0:0:0:0:
117,200,30288,2,0,P|131:152|127:116,1,77.5200004731445,8|0,0:2|0:2,0:0:0:0:
74,50,30612,6,0,P|136:44|235:15,1,155.040000946289,2|8,1:2|0:2,0:0:0:0:
296,78,31099,1,0,0:2:0:0:
296,78,31180,1,8,0:2:0:0:
296,78,31261,2,0,P|312:124|316:158,1,77.5200004731445,2|0,1:2|1:2,0:0:0:0:
391,206,31585,2,0,P|397:167|410:131,1,77.5200004731445,10|0,0:2|0:2,0:0:0:0:
471,60,31910,6,0,P|501:126|510:238,1,155.040000946289,6|10,1:2|0:2,0:0:0:0:
471,290,32396,2,0,L|479:340,2,38.7600002365723,2|8|0,0:2|0:2|1:2,0:0:0:0:
382,253,32720,2,0,P|334:238|294:244,1,77.5200004731445,2|8,1:2|0:2,0:0:0:0:
243,308,33045,6,0,P|195:323|155:317,1,77.5200004731445,2|4,0:2|1:2,0:0:0:0:
106,251,33369,2,0,P|112:197|97:149,1,77.5200004731445,2|8,1:2|0:2,0:0:0:0:
53,99,33693,1,2,1:2:0:0:
53,99,33774,1,8,0:2:0:0:
53,99,33856,2,0,P|103:72|144:74,1,77.5200004731445,8|6,0:3|0:3,0:0:0:0:
203,116,34180,1,8,0:2:0:0:
276,58,34342,1,8,0:2:0:0:
276,58,34423,1,8,0:2:0:0:
276,58,34504,6,0,L|363:47,1,77.5200004731445,4|4,0:3|0:3,0:0:0:0:
445,35,34829,2,0,L|435:194,1,155.040000946289,14|4,0:2|0:3,0:0:0:0:
424,282,35315,1,4,0:3:0:0:
347,229,35477,2,0,P|253:204|192:240,1,155.040000946289,14|4,0:2|0:3,0:0:0:0:
141,296,35964,1,4,0:3:0:0:
56,257,36126,2,0,P|70:195|67:78,1,155.040000946289,14|4,0:2|0:3,0:0:0:0:
34,18,36612,1,4,0:3:0:0:
108,73,36774,2,0,P|165:86|200:75,1,77.5200004731445,14|0,0:2|0:2,0:0:0:0:
257,26,37099,6,0,L|271:118,1,77.5200004731445,10|2,0:2|1:2,0:0:0:0:
233,188,37423,1,2,1:2:0:0:
292,259,37585,1,10,0:2:0:0:
355,191,37747,2,0,L|366:114,1,77.5200004731445,2|10,1:2|0:2,0:0:0:0:
449,71,38072,1,2,1:2:0:0:
476,159,38234,2,0,P|458:215|458:249,1,77.5200004731445,6|0,1:2|0:2,0:0:0:0:
471,325,38558,2,0,P|417:317|363:340,1,77.5200004731445,2|8,1:2|0:2,0:0:0:0:
311,364,38883,2,0,P|236:360|189:284,1,155.040000946289,2|10,1:2|0:3,0:0:0:0:
183,207,39369,1,8,0:2:0:0:
266,247,39531,1,0,1:2:0:0:
266,247,39612,1,0,1:2:0:0:
266,247,39693,6,0,P|325:201|415:209,1,155.040000946289,6|8,1:2|0:2,0:0:0:0:
481,253,40180,1,0,0:2:0:0:
481,253,40261,1,8,0:2:0:0:
481,253,40342,2,0,P|462:197|461:157,1,77.5200004731445,2|0,1:2|1:2,0:0:0:0:
391,116,40666,2,0,P|405:80|411:42,1,77.5200004731445,8|0,0:2|0:2,0:0:0:0:
319,56,40991,6,0,B|222:78|269:17|149:44,1,155.040000946289,2|8,1:2|0:2,0:0:0:0:
88,85,41477,1,0,0:2:0:0:
88,85,41558,1,8,0:2:0:0:
88,85,41639,2,0,P|104:133|110:169,1,77.5200004731445,2|0,1:2|1:2,0:0:0:0:
197,189,41964,2,0,P|181:237|175:273,1,77.5200004731445,10|0,0:2|0:2,0:0:0:0:
218,346,42288,6,0,P|293:355|344:268,1,155.040000946289,6|10,1:2|0:2,0:0:0:0:
332,207,42774,2,0,L|287:189,2,38.7600002365723,2|8|0,0:2|0:2|1:2,0:0:0:0:
417,244,43099,2,0,P|433:195|431:157,1,77.5200004731445,2|8,1:2|0:2,0:0:0:0:
410,79,43423,2,0,P|356:95|325:96,1,77.5200004731445,2|4,0:2|1:2,0:0:0:0:
245,72,43747,2,0,P|191:56|160:55,1,77.5200004731445,2|8,1:2|0:2,0:0:0:0:
85,93,44072,2,0,P|121:137|129:250,1,155.040000946289,2|6,1:2|0:3,0:0:0:0:
82,309,44558,1,8,0:2:0:0:
155,365,44720,1,8,0:2:0:0:
155,365,44802,1,8,0:2:0:0:
155,365,44883,6,0,P|209:332|311:347,1,155.040000946289,6|8,1:2|0:2,0:0:0:0:
383,375,45369,1,2,1:2:0:0:
383,375,45531,2,0,P|403:331|401:300,1,77.5200004731445,10|0,0:2|1:2,0:0:0:0:
339,232,45856,1,10,0:2:0:0:
339,232,46018,2,0,P|319:188|321:157,1,77.5200004731445,2|8,1:2|0:2,0:0:0:0:
365,78,46342,1,2,1:2:0:0:
365,78,46504,2,0,P|309:67|266:60,1,77.5200004731445,10|0,0:2|1:2,0:0:0:0:
219,126,46829,2,0,P|163:137|120:144,1,77.5200004731445,10|0,0:2|1:2,0:0:0:0:
67,86,47153,1,12,0:2:0:0:
121,282,47477,5,6,1:2:0:0:
311,207,47802,1,2,1:2:0:0:
465,340,48126,1,2,1:2:0:0:
290,233,48450,1,2,1:2:0:0:
438,93,48774,1,4,3:2:0:0:
256,192,48856,12,6,50072,1:2:0:0:
256,192,50396,5,6,0:3:0:0:
256,192,50558,2,0,P|186:164|70:189,1,170.240002078125,14|6,0:2|0:3,0:0:0:0:
46,267,51045,1,6,0:3:0:0:
46,267,51207,2,0,B|208:252|115:353|314:344,1,273.600006679688,14|0,0:2|0:2,0:0:0:0:
