osu file format v14

[General]
AudioFilename: audio.mp3
AudioLeadIn: 0
PreviewTime: 30052
Countdown: 0
SampleSet: Soft
StackLeniency: 0.2
Mode: 0
LetterboxInBreaks: 0
WidescreenStoryboard: 0

[Editor]
DistanceSpacing: 0.8
BeatDivisor: 4
GridSize: 4
TimelineZoom: 2.2

[Metadata]
Title:A New Journey (feat. AmaLee)
TitleUnicode:A New Journey (feat. AmaLee)
Artist:League of Legends
ArtistUnicode:League of Legends
Creator:Pappy
Version:Master
Source:League of Legends
Tags:video game english pop TheKoala Sylas Riot Games Season 2019 BANDAI NAMCO Arts Shawn Christmas Freddy van Hoof
BeatmapID:1911033
BeatmapSetID:915042

[Difficulty]
HPDrainRate:5
CircleSize:4
OverallDifficulty:8
ApproachRate:9.4
SliderMultiplier:1.76
SliderTickRate:1

[Events]
//Background and Video events
0,0,"notitle.png",0,0
//Break Periods
//Storyboard Layer 0 (Background)
//Storyboard Layer 1 (Fail)
//Storyboard Layer 2 (Pass)
//Storyboard Layer 3 (Foreground)
//Storyboard Sound Samples

[TimingPoints]
1674,324.324324324324,4,2,1,69,1,0
4268,-100,4,2,1,69,0,0
6782,-100,4,2,1,9,0,0
6863,-100,4,2,1,69,0,0
7998,-76.9230769230769,4,2,1,69,0,0
8241,-76.9230769230769,4,2,1,9,0,0
8322,-76.9230769230769,4,2,1,69,0,0
8728,-76.9230769230769,4,2,1,9,0,0
8809,-76.9230769230769,4,2,1,69,0,0
9415,-100,4,2,1,69,0,0
19025,-400,4,2,1,69,0,0
19673,-400,4,2,1,9,0,0
19836,-125,4,2,1,69,0,0
24358,-166.666666666667,4,2,1,69,0,0
24863,-166.666666666667,4,2,1,9,0,0
25025,-166.666666666667,4,2,1,69,0,0
25330,-166.666666666667,4,2,1,30,0,0
27598,-111.111111111111,4,2,1,80,0,0
28733,-100,4,2,1,80,0,0
29867,-50,4,2,1,80,0,0
30214,-83.3333333333333,4,2,1,80,0,1
40552,-83.3333333333333,4,2,1,80,0,0
40592,-83.3333333333333,4,2,1,80,0,1
48376,-71.4285714285714,4,2,1,80,0,1
48619,-71.4285714285714,4,2,1,10,0,1
48701,-71.4285714285714,4,2,1,80,0,1
48944,-71.4285714285714,4,2,1,10,0,1
49025,-71.4285714285714,4,2,1,80,0,1
49268,-71.4285714285714,4,2,1,10,0,1
49349,-71.4285714285714,4,2,1,80,0,1
49592,-71.4285714285714,4,2,1,10,0,1
49673,-71.4285714285714,4,2,1,50,0,1
50322,-71.4285714285714,4,2,1,70,0,1
50971,-71.4285714285714,4,2,1,60,0,1
52065,-100,4,2,1,60,0,0

[Colours]
Combo1 : 255,0,255
Combo2 : 255,128,0
Combo3 : 128,0,255
Combo4 : 0,255,255

[HitObjects]
256,192,1673,12,0,3618,0:0:0:0:
19,175,3944,5,0,0:0:0:0:
19,175,4268,6,0,L|193:155,1,176,12|8,0:0|0:0,0:0:0:0:
121,277,4755,1,2,0:0:0:0:
121,277,4917,2,0,L|33:286,1,88,10|2,0:0|0:0,0:0:0:0:
102,129,5241,2,0,L|92:41,1,88,10|0,0:0|0:0,0:0:0:0:
282,102,5565,6,0,P|294:143|291:187,1,88,8|0,0:0|0:0,0:0:0:0:
222,332,5890,2,0,P|209:290|212:246,1,88,10|2,0:0|0:0,0:0:0:0:
377,249,6214,1,10,0:0:0:0:
197,157,6376,1,2,0:0:0:0:
367,47,6538,2,0,L|498:61,1,132,14|0,0:0|0:0,0:0:0:0:
436,184,6863,6,0,L|428:97,1,88,10|0,0:0|0:0,0:0:0:0:
385,283,7187,1,8,0:0:0:0:
273,100,7349,2,0,L|281:12,1,88,8|0,0:0|0:0,0:0:0:0:
194,171,7674,1,8,0:0:0:0:
372,21,7836,1,8,0:0:0:0:
313,370,7998,6,0,L|142:348,1,171.599992144776,14|0,0:0|0:0,0:0:0:0:
97,339,8322,1,8,0:0:0:0:
254,152,8484,2,0,L|232:323,1,171.599992144776,8|0,0:0|0:0,0:0:0:0:
204,233,8809,5,6,0:0:0:0:
204,233,9457,6,0,P|161:235|120:250,1,88,6|0,0:0|0:0,0:0:0:0:
93,332,9782,2,0,P|136:331|178:316,1,88,8|0,0:0|0:0,0:0:0:0:
64,183,10106,1,0,0:0:0:0:
35,266,10268,1,2,0:0:0:0:
204,233,10430,1,8,0:0:0:0:
147,167,10592,1,0,0:0:0:0:
93,332,10755,5,2,0:0:0:0:
93,332,10917,1,0,0:0:0:0:
204,233,11079,2,0,L|290:246,1,88,8|0,0:0|0:0,0:0:0:0:
333,253,11322,1,0,0:0:0:0:
333,253,11403,1,0,0:0:0:0:
419,266,11565,1,2,0:0:0:0:
342,63,11728,1,8,0:0:0:0:
287,132,11890,1,0,0:0:0:0:
428,76,12052,6,0,L|237:47,1,176,2|8,0:0|0:0,0:0:0:0:
167,36,12538,1,0,0:0:0:0:
198,117,12701,1,0,0:0:0:0:
82,23,12863,1,2,0:0:0:0:
253,49,13025,1,8,0:0:0:0:
112,103,13187,6,0,L|97:189,1,88,2|0,0:0|0:0,0:0:0:0:
198,117,13511,2,0,L|241:192,1,88,2|8,0:0|0:0,0:0:0:0:
253,49,13836,2,0,L|328:92,1,88,2|0,0:0|0:0,0:0:0:0:
402,140,14160,2,0,P|412:97|402:54,1,88,2|8,0:0|0:0,0:0:0:0:
335,218,14484,1,0,0:0:0:0:
334,361,14646,6,0,P|376:371|419:361,1,88,6|0,0:0|0:0,0:0:0:0:
377,284,14971,2,0,P|334:273|291:283,1,88,8|0,0:0|0:0,0:0:0:0:
246,363,15295,1,0,0:0:0:0:
465,282,15457,1,2,0:0:0:0:
246,363,15619,2,0,B|200:357|200:357|158:329,1,88,8|0,0:0|0:0,0:0:0:0:
116,196,15944,6,0,B|162:202|162:202|197:226,1,88,2|0,0:0|0:0,0:0:0:0:
64,125,16268,2,0,B|35:161|35:161|-1:180,1,88,8|0,0:0|0:0,0:0:0:0:
153,115,16592,2,0,B|135:72|135:72|138:31,1,88,0|2,0:0|0:0,0:0:0:0:
44,255,16917,1,8,0:0:0:0:
3,54,17079,1,0,0:0:0:0:
197,226,17241,6,0,L|284:215,1,88,2|0,0:0|0:0,0:0:0:0:
372,203,17565,1,8,0:0:0:0:
232,142,17728,2,0,L|221:54,1,88,2|0,0:0|0:0,0:0:0:0:
139,294,18052,2,0,L|149:381,1,88,2|8,0:0|0:0,0:0:0:0:
459,192,18376,5,14,0:0:0:0:
372,203,18701,1,10,0:0:0:0:
284,215,19025,2,0,L|197:226,1,88,2|0,0:0|0:0,0:0:0:0:
179,330,19836,6,0,L|248:321,1,70.4,6|0,0:0|0:0,0:0:0:0:
98,263,20160,1,2,0:0:0:0:
98,263,20322,1,2,0:0:0:0:
69,384,20484,2,0,L|0:375,1,70.4,8|0,0:0|0:0,0:0:0:0:
179,330,20809,1,2,0:0:0:0:
109,151,20971,6,0,P|74:153|42:166,1,70.4,8|0,0:0|0:0,0:0:0:0:
102,268,21295,2,0,P|121:297|148:319,1,70.4,8|0,0:0|0:0,0:0:0:0:
206,216,21619,1,2,0:0:0:0:
206,216,21782,2,0,P|221:184|227:150,1,70.4,8|0,0:0|0:0,0:0:0:0:
186,6,22106,2,0,P|170:37|165:72,1,70.4
0,173,22430,6,0,L|139:155,1,140.8,2|0,0:0|0:0,0:0:0:0:
87,285,22917,1,2,0:0:0:0:
87,285,23079,2,0,L|78:215,1,70.4,8|0,0:0|0:0,0:0:0:0:
7,347,23403,1,2,0:0:0:0:
182,315,23565,6,0,L|173:245,1,70.4,8|0,0:0|0:0,0:0:0:0:
285,215,23890,2,0,L|277:285,1,70.4,8|0,0:0|0:0,0:0:0:0:
255,381,24214,1,2,0:0:0:0:
87,285,24376,6,0,L|107:127,1,158.399995166016,8|0,0:0|0:0,0:0:0:0:
117,48,25025,5,6,0:0:0:0:
185,217,25349,1,2,0:0:0:0:
185,217,25511,2,0,L|132:210,1,52.7999983886719,2|0,0:0|2:0,2:0:0:0:
270,172,25836,2,0,L|302:130,1,52.7999983886719,2|0,2:0|2:0,2:0:0:0:
266,268,26160,1,2,0:0:0:0:
148,305,26322,6,0,L|95:298,1,52.7999983886719,2|2,2:0|2:0,2:0:0:0:
132,210,26646,2,0,L|111:161,1,52.7999983886719,2|2,2:0|2:0,2:0:0:0:
206,148,26971,2,0,L|238:106,1,52.7999983886719,2|2,2:0|2:0,2:0:0:0:
296,181,27295,1,0,0:0:0:0:
296,181,27619,6,0,L|301:260,1,79.1999975830079,14|0,0:0|0:0,0:0:0:0:
398,65,27944,1,2,0:0:0:0:
448,211,28106,2,0,L|453:290,1,79.1999975830079,10|0,0:0|0:0,0:0:0:0:
181,227,28430,1,2,0:0:0:0:
386,384,28592,1,10,0:0:0:0:
120,305,28755,6,0,P|81:229|118:153,1,176,14|0,0:0|0:0,0:0:0:0:
367,158,29241,1,10,0:0:0:0:
181,227,29403,1,0,0:0:0:0:
147,53,29565,2,0,L|234:57,1,88,10|0,0:0|0:0,0:0:0:0:
498,69,29890,5,8,0:1:0:0:
498,69,30214,6,0,B|493:122|493:122|456:160,1,105.599996777344,6|0,0:0|0:0,0:0:0:0:
387,225,30538,1,8,0:0:0:0:
264,140,30701,1,0,0:0:0:0:
264,140,30782,1,0,0:0:0:0:
264,140,30863,2,0,B|312:118|312:118|363:130,1,105.599996777344,2|0,0:0|0:0,0:0:0:0:
252,290,31187,2,0,L|155:333,1,105.599996777344,8|0,0:0|0:0,0:0:0:0:
11,242,31511,5,2,0:0:0:0:
181,261,31674,1,0,0:0:0:0:
5,384,31836,2,0,P|0:331|0:278,1,105.599996777344,8|0,0:0|0:0,0:0:0:0:
11,242,32079,1,0,0:0:0:0:
11,242,32160,1,2,0:0:0:0:
91,384,32322,1,0,0:0:0:0:
105,194,32484,2,0,P|126:145|152:99,1,105.599996777344,8|0,0:0|0:0,0:0:0:0:
297,35,32809,6,0,L|308:139,1,105.599996777344,6|0,0:0|0:0,0:0:0:0:
319,243,33133,1,8,0:0:0:0:
510,63,33295,1,0,0:0:0:0:
510,63,33376,1,0,0:0:0:0:
510,63,33457,2,0,L|405:74,1,105.599996777344,2|0,0:0|0:0,0:0:0:0:
179,261,33782,2,0,L|283:249,1,105.599996777344,8|0,0:0|0:0,0:0:0:0:
450,170,34106,5,2,0:0:0:0:
238,153,34268,1,0,0:0:0:0:
348,64,34430,1,8,0:0:0:0:
136,81,34592,2,0,L|61:88,1,52.7999983886719
235,25,34755,5,8,0:0:0:0:
182,269,34917,1,8,0:3:0:0:
333,109,35079,1,8,0:3:0:0:
306,231,35241,1,8,0:0:0:0:
315,246,35322,1,8,0:0:0:0:
324,259,35403,6,0,L|429:249,1,105.599996777344,6|0,0:0|0:0,0:0:0:0:
224,177,35728,1,8,0:0:0:0:
202,304,35890,1,2,0:0:0:0:
333,109,36052,2,0,L|438:99,1,105.599996777344,2|0,0:0|0:0,0:0:0:0:
246,50,36376,1,8,0:0:0:0:
224,177,36538,1,0,0:0:0:0:
368,6,36701,5,2,0:0:0:0:
224,177,36863,1,0,0:0:0:0:
124,94,37025,1,12,0:0:0:0:
346,132,37187,1,0,0:0:0:0:
102,220,37349,5,0,0:0:0:0:
246,50,37511,1,0,3:0:0:0:
246,50,37592,1,0,3:0:0:0:
246,50,37674,1,8,0:0:0:0:
202,302,37836,1,8,0:3:0:0:
346,132,37998,5,14,0:0:0:0:
302,384,38160,1,0,0:0:0:0:
102,220,38322,1,0,0:0:0:0:
325,260,38484,1,10,0:0:0:0:
202,302,38646,1,0,0:0:0:0:
246,50,38809,1,10,0:0:0:0:
123,92,38971,1,0,0:0:0:0:
448,218,39133,5,6,0:0:0:0:
448,218,39457,1,0,0:0:0:0:
374,322,39619,1,8,0:0:0:0:
248,309,39782,1,0,0:0:0:0:
196,192,39944,2,0,P|222:185|248:184,1,52.7999983886719,8|0,0:0|3:0,0:0:0:0:
271,91,40106,2,0,P|289:108|304:131,1,52.7999983886719,0|0,3:0|3:0,0:0:0:0:
374,322,40268,1,8,0:0:0:0:
120,295,40430,1,0,3:0:0:0:
114,279,40511,1,0,3:0:0:0:
106,264,40592,6,0,B|86:197|86:197|95:162,1,105.599996777344,6|0,0:0|0:0,0:0:0:0:
120,35,40917,2,0,P|68:34|21:58,1,105.599996777344,8|0,0:0|0:0,0:0:0:0:
212,123,41160,1,0,0:0:0:0:
212,123,41241,2,0,P|264:122|311:99,1,105.599996777344,2|0,0:0|0:0,0:0:0:0:
429,54,41565,2,0,L|418:176,1,105.599996777344,8|0,0:0|0:0,0:0:0:0:
300,328,41890,5,2,0:0:0:0:
310,223,42052,1,0,0:0:0:0:
495,263,42214,2,0,P|447:283|395:283,1,105.599996777344,8|0,0:0|0:0,0:0:0:0:
215,268,42457,1,0,0:0:0:0:
215,268,42538,5,2,0:0:0:0:
310,223,42701,1,0,0:0:0:0:
205,373,42863,5,8,0:0:0:0:
119,314,43025,1,0,0:0:0:0:
221,77,43187,6,0,L|231:182,1,105.599996777344,6|0,0:0|0:0,0:0:0:0:
120,84,43511,1,10,0:0:0:0:
324,119,43674,1,0,0:0:0:0:
324,119,43755,1,0,0:0:0:0:
324,119,43836,2,0,L|429:108,1,105.599996777344,2|0,0:0|0:0,0:0:0:0:
146,255,44160,1,8,0:0:0:0:
220,76,44322,1,0,0:0:0:0:
338,229,44484,5,2,0:0:0:0:
249,296,44646,1,0,0:0:0:0:
128,138,44809,1,8,0:0:0:0:
231,182,44971,1,0,3:0:0:0:
231,182,45052,1,0,3:0:0:0:
231,182,45133,1,8,0:0:0:0:
146,255,45295,1,0,0:0:0:0:
220,76,45457,1,0,0:0:0:0:
249,296,45619,2,0,L|253:348,1,52.7999983886719
434,135,45782,5,14,0:0:0:0:
359,312,45944,1,0,0:0:0:0:
339,95,46106,5,10,0:0:0:0:
492,221,46268,1,0,0:0:0:0:
289,16,46430,5,10,0:0:0:0:
232,252,46592,1,0,0:0:0:0:
208,60,46755,5,10,0:0:0:0:
338,213,46917,1,0,0:0:0:0:
259,123,47079,5,10,0:0:0:0:
151,318,47241,1,0,0:0:0:0:
223,13,47403,5,10,0:0:0:0:
299,259,47565,1,0,0:0:0:0:
475,71,47728,5,10,0:0:0:0:
195,157,47890,1,0,0:0:0:0:
410,357,48052,1,10,0:0:0:0:
410,357,48376,6,0,L|245:272,1,184.799994360352,14|0,0:0|0:0,0:0:0:0:
325,189,48701,2,0,L|408:354,1,184.799994360352,10|0,0:0|0:0,0:0:0:0:
295,372,49025,2,0,L|324:189,1,184.799994360352,10|0,0:0|0:0,0:0:0:0:
428,242,49349,2,0,L|296:371,1,184.799994360352,10|0,0:0|0:0,0:0:0:0:
245,271,49674,5,8,0:0:0:0:
226,246,49755,1,8,0:0:0:0:
214,218,49836,1,8,0:0:0:0:
210,187,49917,1,8,0:0:0:0:
215,157,49998,1,8,0:0:0:0:
227,129,50079,1,8,0:0:0:0:
246,105,50160,1,8,0:0:0:0:
271,87,50241,1,8,0:0:0:0:
300,76,50322,6,8,P|330:70|360:72,1,61.5999981201172
507,112,50484,2,8,P|486:134|459:150,1,61.5999981201172
318,203,50646,2,8,P|321:173|333:144,1,61.5999981201172
417,19,50809,2,8,P|431:45|439:75,1,61.5999981201172
446,226,50971,5,14,0:0:0:0:
300,76,51133,1,2,0:0:0:0:
507,112,51295,1,2,0:0:0:0:
318,203,51457,1,8,0:0:0:0:
417,19,51782,5,2,0:0:0:0:
507,112,51944,1,2,0:0:0:0:
300,76,52106,1,8,0:0:0:0:
