osu file format v14

[General]
AudioFilename: audio.mp3
AudioLeadIn: 0
PreviewTime: 30052
Countdown: 0
SampleSet: Soft
StackLeniency: 0.2
Mode: 0
LetterboxInBreaks: 0
WidescreenStoryboard: 1

[Editor]
Bookmarks: 18701
DistanceSpacing: 1.3
BeatDivisor: 8
GridSize: 4
TimelineZoom: 2.2

[Metadata]
Title:A New Journey (feat. AmaLee)
TitleUnicode:A New Journey (feat. AmaLee)
Artist:League of Legends
ArtistUnicode:League of Legends
Creator:Pappy
Version:Gold
Source:League of Legends
Tags:video game english pop TheKoala Sylas Riot Games Season 2019 BANDAI NAMCO Arts Shawn Christmas Freddy van Hoof
BeatmapID:1911897
BeatmapSetID:915042

[Difficulty]
HPDrainRate:3.5
CircleSize:3
OverallDifficulty:4.7
ApproachRate:5.7
SliderMultiplier:1.24
SliderTickRate:1

[Events]
//Background and Video events
0,0,"notitle.png",0,0
//Break Periods
2,25224,26419
//Storyboard Layer 0 (Background)
//Storyboard Layer 1 (Fail)
//Storyboard Layer 2 (Pass)
//Storyboard Layer 3 (Foreground)
//Storyboard Sound Samples

[TimingPoints]
1674,324.324324324324,4,2,1,69,1,0
4268,-100,4,2,1,69,0,0
7998,-100,4,2,1,69,0,0
9415,-100,4,2,1,69,0,0
19025,-100,4,2,1,69,0,0
19836,-125,4,2,1,69,0,0
24358,-142.857142857143,4,2,1,69,0,0
25330,-166.666666666667,4,2,1,30,0,0
27598,-100,4,2,1,80,0,0
28733,-100,4,2,1,80,0,0
29867,-50,4,2,1,80,0,0
30214,-100,4,2,1,80,0,1
40511,-83.3333333333333,4,2,1,80,0,0
40592,-100,4,2,1,80,0,1
48376,-100,4,2,1,80,0,1
49673,-100,4,2,1,50,0,1
50322,-76.9230769230769,4,2,1,70,0,1
50971,-100,4,2,1,90,0,1
52146,-100,4,2,1,80,0,0

[Colours]
Combo1 : 255,0,255
Combo2 : 255,128,0
Combo3 : 128,0,255
Combo4 : 0,255,255

[HitObjects]
256,192,1674,12,0,3619,0:0:0:0:
112,82,4268,6,0,L|235:70,1,124,12|8,0:0|0:0,0:0:0:0:
313,241,4917,2,0,L|252:236,2,62,10|2|10,0:0|0:0|0:0,0:0:0:0:
469,203,5565,2,0,L|512:328,1,124,8|10,0:0|0:0,0:0:0:0:
455,380,6052,1,2,0:0:0:0:
380,351,6214,2,0,P|351:343|320:343,2,62,10|2|14,0:0|0:0|0:0,0:0:0:0:
256,248,6863,6,0,P|194:251|145:287,1,124,10|8,0:0|0:0,0:0:0:0:
80,335,7349,2,0,P|107:280|101:219,1,124,8|8,0:0|0:0,0:0:0:0:
44,159,7836,2,0,P|70:143|100:136,1,62,8|14,0:0|0:0,0:0:0:0:
247,71,8322,2,0,P|220:54|190:47,1,62,8|8,0:0|0:0,0:0:0:0:
30,24,8809,1,6,0:0:0:0:
214,288,9457,6,0,L|201:164,1,124,6|8,0:0|0:0,0:0:0:0:
354,216,10106,2,0,L|366:339,1,124,0|8,0:0|0:0,0:0:0:0:
445,353,10592,2,0,P|486:308|490:247,1,124,0|0,0:0|0:0,0:0:0:0:
449,177,11079,1,8,0:0:0:0:
400,111,11241,2,0,P|358:155|354:216,1,124,0|2,0:0|0:0,0:0:0:0:
321,289,11728,2,0,L|327:350,1,62,8|0,0:0|0:0,0:0:0:0:
247,362,12052,6,0,L|123:375,1,124,2|8,0:0|0:0,0:0:0:0:
189,227,12701,2,0,L|182:165,2,62,0|2|8,0:0|0:0|0:0,0:0:0:0:
180,307,13187,1,2,0:0:0:0:
18,306,13511,1,2,0:0:0:0:
100,166,13836,2,0,P|90:84|63:39,2,124,2|2|0,0:0|0:0|0:0,0:0:0:0:
56,233,14646,6,0,L|239:203,1,186,6|0,0:0|0:0,0:0:0:0:
318,183,15295,2,0,B|333:238|287:273|287:273|266:312|288:353,1,186,0|0,0:0|0:0,0:0:0:0:
359,314,15944,2,0,B|481:335|481:335|516:283,1,186,2|0,0:0|0:0,0:0:0:0:
444,246,16592,2,0,P|426:187|443:128,1,124,0|8,0:0|0:0,0:0:0:0:
492,63,17079,1,0,0:0:0:0:
411,53,17241,6,0,B|368:50|368:50|336:68|336:68|292:63,1,124,2|8,0:0|0:0,0:0:0:0:
212,73,17728,2,0,P|196:132|212:191,1,124,2|2,0:0|0:0,0:0:0:0:
255,259,18214,1,8,0:0:0:0:
299,191,18376,2,0,L|422:208,2,124,14|10|2,0:0|0:0|0:0,0:0:0:0:
60,79,19836,6,0,P|126:47|198:60,1,148.8,6|2,0:0|0:0,0:0:0:0:
254,92,20484,1,8,0:0:0:0:
141,156,20809,1,2,0:0:0:0:
93,199,20971,2,0,L|100:297,2,99.2,8|8|2,0:0|0:0|0:0,0:0:0:0:
141,156,21782,2,0,L|137:106,2,49.6,8|0|0,0:0|0:0|0:0,0:0:0:0:
260,116,22430,6,0,L|358:108,1,99.2,2|0,0:0|0:0,0:0:0:0:
423,104,22917,1,2,0:0:0:0:
484,121,23079,2,0,P|471:169|446:212,1,99.2,8|2,0:0|0:0,0:0:0:0:
401,255,23565,2,0,P|400:304|413:352,2,99.2,8|8|2,0:0|0:0|0:0,0:0:0:0:
435,201,24376,6,0,L|411:11,1,173.599994702149,8|6,0:0|0:0,0:0:0:0:
382,121,27619,6,0,P|329:137|253:129,1,124,14|2,0:0|0:0,0:0:0:0:
192,90,28106,2,0,P|130:83|71:101,1,124,10|2,0:0|0:0,0:0:0:0:
143,245,28755,1,14,0:0:0:0:
261,132,29079,1,0,0:0:0:0:
337,107,29241,2,0,B|430:92|430:92|458:99,2,124,10|10|8,0:0|0:0|0:1,0:0:0:0:
345,269,30214,6,0,L|222:289,1,124,6|8,0:0|0:0,0:0:0:0:
65,253,30863,2,0,P|54:192|65:131,1,124,2|8,0:0|0:0,0:0:0:0:
215,190,31511,2,0,L|338:170,1,124,2|8,0:0|0:0,0:0:0:0:
493,211,32160,1,2,0:0:0:0:
450,56,32484,1,8,0:0:0:0:
336,170,32809,6,0,P|321:229|326:291,1,124,6|8,0:0|0:0,0:0:0:0:
348,368,33295,2,0,P|304:324|248:298,1,124,0|0,0:0|0:0,0:0:0:0:
207,228,33782,1,8,0:0:0:0:
173,155,33944,2,0,P|113:171|62:206,2,124,0|0|0,0:0|0:0|0:0,0:0:0:0:
228,95,34755,2,0,L|289:103,1,62,8|8,0:0|0:3,0:0:0:0:
354,150,35079,1,8,3:3:0:0:
481,96,35403,6,0,P|495:154|463:205,1,124,6|8,0:0|0:0,0:0:0:0:
393,248,35890,1,2,0:0:0:0:
393,248,36052,2,0,P|361:299|376:357,1,124,2|8,0:0|0:0,0:0:0:0:
300,380,36538,1,0,0:0:0:0:
300,380,36701,2,0,L|160:360,1,124,2|8,0:0|0:0,0:0:0:0:
101,333,37187,1,0,0:0:0:0:
28,298,37349,1,8,0:0:0:0:
4,138,37673,1,8,0:0:0:0:
156,197,37998,6,0,L|279:189,1,124,6|2,0:0|0:0,0:0:0:0:
240,32,38646,2,0,L|178:36,1,62,2|10,0:0|0:0,0:0:0:0:
164,115,38971,1,2,0:0:0:0:
156,197,39133,2,0,B|144:236|144:236|168:315,1,124,6|0,0:0|0:0,0:0:0:0:
247,330,39619,1,8,0:0:0:0:
326,347,39782,2,0,B|338:308|338:308|313:228,1,124,0|0,0:0|3:0,0:0:0:0:
286,152,40268,1,8,0:0:0:0:
132,103,40592,6,0,P|122:163|140:222,1,124,6|8,0:0|0:0,0:0:0:0:
286,152,41241,2,0,P|295:91|277:32,1,124,2|8,0:0|0:0,0:0:0:0:
116,11,41890,1,2,0:0:0:0:
6,128,42214,2,0,B|-10:170|-10:170|14:245,2,124,8|0|8,0:0|0:0|0:0,0:0:0:0:
138,222,43187,6,0,L|261:232,1,124,6|8,0:0|0:0,0:0:0:0:
314,169,43673,2,0,L|260:56,1,124,0|0,0:0|0:0,0:0:0:0:
182,45,44160,1,8,0:0:0:0:
182,45,44322,2,0,L|111:146,1,124,0|0,0:0|0:0,0:0:0:0:
120,226,44809,1,8,0:0:0:0:
136,306,44971,2,0,P|195:322|256:315,1,124,0|8,3:0|0:3,0:0:0:0:
330,284,45457,2,0,P|360:282|390:292,1,62,8|0,0:3|0:0,0:0:0:0:
448,348,45782,6,0,L|431:187,1,124,14|10,0:0|0:0,0:0:0:0:
417,69,46430,1,10,0:0:0:0:
292,162,46755,1,10,0:0:0:0:
207,24,47079,2,0,L|83:37,1,124,10|10,0:0|0:0,0:0:0:0:
168,175,47728,2,0,L|291:161,1,124,10|10,0:0|0:0,0:0:0:0:
248,317,48376,6,0,P|310:326|367:350,2,124,14|10|10,0:0|0:0|0:0,0:0:0:0:
352,192,49349,2,0,P|374:134|382:73,1,124,10|8,0:0|0:0,0:0:0:0:
222,94,49998,2,8,P|199:151|191:212,1,124
256,192,50971,12,10,52106,0:0:0:0:
