osu file format v14

[General]
AudioFilename: audio.mp3
AudioLeadIn: 0
PreviewTime: 30052
Countdown: 0
SampleSet: Soft
StackLeniency: 0.2
Mode: 0
LetterboxInBreaks: 0
WidescreenStoryboard: 1

[Editor]
Bookmarks: 18701
DistanceSpacing: 1
BeatDivisor: 8
GridSize: 4
TimelineZoom: 2.2

[Metadata]
Title:A New Journey (feat. AmaLee)
TitleUnicode:A New Journey (feat. AmaLee)
Artist:League of Legends
ArtistUnicode:League of Legends
Creator:Pappy
Version:Diamond
Source:League of Legends
Tags:video game english pop TheKoala Sylas Riot Games Season 2019 BANDAI NAMCO Arts Shawn Christmas Freddy van Hoof
BeatmapID:1911130
BeatmapSetID:915042

[Difficulty]
HPDrainRate:5
CircleSize:4
OverallDifficulty:7.6
ApproachRate:8.6
SliderMultiplier:1.6
SliderTickRate:1

[Events]
//Background and Video events
0,0,"notitle.png",0,0
//Break Periods
2,25225,26960
//Storyboard Layer 0 (Background)
//Storyboard Layer 1 (Fail)
//Storyboard Layer 2 (Pass)
//Storyboard Layer 3 (Foreground)
//Storyboard Sound Samples

[TimingPoints]
1674,324.324324324324,4,2,1,69,1,0
4268,-100,4,2,1,69,0,0
7998,-100,4,2,1,69,0,0
9415,-100,4,2,1,69,0,0
19025,-100,4,2,1,69,0,0
19836,-125,4,2,1,69,0,0
24358,-166.666666666667,4,2,1,69,0,0
25330,-166.666666666667,4,2,1,30,0,0
27598,-111.111111111111,4,2,1,80,0,0
29867,-50,4,2,1,80,0,0
30214,-83.3333333333333,4,2,1,80,0,1
40552,-83.3333333333333,4,2,1,80,0,0
40592,-83.3333333333333,4,2,1,80,0,1
48376,-100,4,2,1,80,0,1
49673,-100,4,2,1,50,0,1
50322,-76.9230769230769,4,2,1,70,0,1
50971,-100,4,2,1,90,0,1
52187,-100,4,2,1,80,0,0

[Colours]
Combo1 : 255,0,255
Combo2 : 255,128,0
Combo3 : 128,0,255
Combo4 : 0,255,255

[HitObjects]
256,192,1674,12,0,3944,0:0:0:0:
103,126,4268,6,0,P|138:107|178:105,1,80,12|0,0:0|0:0,0:0:0:0:
277,89,4592,2,0,P|274:128|256:164,1,80,8|2,0:0|0:0,0:0:0:0:
222,258,4917,1,10,0:0:0:0:
167,203,5079,1,2,0:0:0:0:
306,254,5241,2,0,L|385:246,1,80,10|0,0:0|0:0,0:0:0:0:
267,328,5565,6,0,L|187:335,1,80,8|0,0:0|0:0,0:0:0:0:
333,384,5890,2,0,L|412:376,1,80,10|2,0:0|0:0,0:0:0:0:
445,303,6214,1,10,0:0:0:0:
437,223,6376,1,2,0:0:0:0:
259,248,6538,2,0,L|266:327,1,80,14|0,0:0|0:0,0:0:0:0:
175,294,6863,6,0,P|137:286|105:262,1,80,10|0,0:0|0:0,0:0:0:0:
176,199,7187,1,8,0:0:0:0:
176,199,7349,2,0,P|164:161|168:121,1,80,8|0,0:0|0:0,0:0:0:0:
259,151,7673,1,8,0:0:0:0:
342,198,7836,1,8,0:0:0:0:
175,294,7998,6,0,L|16:313,1,160,14|8,0:0|0:0,0:0:0:0:
79,220,8484,2,0,L|0:229,1,80,8|0,0:0|0:0,0:0:0:0:
99,343,8809,1,6,0:0:0:0:
227,118,9133,5,0,0:0:0:0:
227,118,9457,5,6,0:0:0:0:
249,41,9619,1,0,0:0:0:0:
305,99,9782,2,0,P|306:138|288:174,1,80,8|0,0:0|0:0,0:0:0:0:
267,251,10106,2,0,P|232:232|210:199,1,80,2|2,0:0|0:0,0:0:0:0:
348,229,10430,1,8,0:0:0:0:
326,310,10592,6,0,L|311:388,1,80,2|0,0:0|0:0,0:0:0:0:
406,289,10917,2,0,L|467:340,1,80,2|8,0:0|0:0,0:0:0:0:
427,209,11241,2,0,L|502:182,1,80,2|0,0:0|0:0,0:0:0:0:
434,22,11565,1,2,0:0:0:0:
367,71,11728,2,0,P|361:110|368:150,1,80,8|0,0:0|0:0,0:0:0:0:
427,209,12052,6,0,L|279:150,1,160,2|8,0:0|0:0,0:0:0:0:
204,120,12538,1,0,0:0:0:0:
216,198,12701,2,0,L|186:272,1,80,2|2,0:0|0:0,0:0:0:0:
204,120,13025,1,10,0:0:0:0:
102,264,13187,6,0,L|131:338,1,80,2|0,0:0|0:0,0:0:0:0:
186,272,13511,2,0,L|215:346,1,80,2|8,0:0|0:0,0:0:0:0:
270,280,13836,2,0,L|299:354,1,80,2|0,0:0|0:0,0:0:0:0:
376,374,14160,1,0,0:0:0:0:
215,346,14322,1,8,0:0:0:0:
319,212,14484,1,0,0:0:0:0:
382,368,14646,6,0,P|419:381|459:377,1,80,6|0,0:0|0:0,0:0:0:0:
430,296,14971,2,0,P|393:283|354:288,1,80,8|2,0:0|0:0,0:0:0:0:
493,371,15295,2,0,L|474:204,1,160,2|8,0:0|0:0,0:0:0:0:
455,53,15782,1,2,0:0:0:0:
390,102,15944,6,0,L|399:189,1,80,2|0,0:0|0:0,0:0:0:0:
328,242,16268,2,0,L|247:206,1,80,8|2,0:0|0:0,0:0:0:0:
237,117,16592,2,0,L|307:64,1,80,2|2,0:0|0:0,0:0:0:0:
318,154,16917,1,8,0:0:0:0:
256,295,17079,1,2,0:0:0:0:
164,169,17241,6,0,P|149:133|151:94,1,80,2|0,0:0|0:0,0:0:0:0:
208,38,17565,1,10,0:0:0:0:
237,117,17728,2,0,L|172:278,1,160,2|2,0:0|0:0,0:0:0:0:
144,338,18214,1,8,0:0:0:0:
263,288,18376,6,0,P|265:249|250:213,1,80,14|0,0:0|0:0,0:0:0:0:
83,197,18701,2,0,P|80:236|96:272,1,80,10|0,0:0|0:0,0:0:0:0:
229,374,19025,2,0,B|266:288|334:260|334:260|412:253|482:310,1,320,10|0,0:0|0:0,0:0:0:0:
482,310,19836,6,0,L|494:182,1,128,6|2,0:0|0:0,0:0:0:0:
463,112,20322,1,2,0:0:0:0:
463,112,20484,2,0,P|400:109|345:139,1,128,10|0,0:0|0:0,0:0:0:0:
392,77,20971,2,0,L|378:14,1,64,10|0,0:0|0:0,0:0:0:0:
279,91,21295,2,0,L|265:153,1,64,10|0,0:0|0:0,0:0:0:0:
166,105,21619,1,2,0:0:0:0:
166,105,21782,2,0,L|152:42,1,64,8|0,0:0|0:0,0:0:0:0:
19,169,22106,1,0,0:0:0:0:
92,192,22268,1,0,0:0:0:0:
27,301,22430,6,0,L|0:175,1,128,2|0,0:0|0:0,0:0:0:0:
109,275,22917,1,2,0:0:0:0:
109,275,23079,2,0,P|139:264|171:264,1,64,10|0,0:0|0:0,0:0:0:0:
245,279,23403,1,2,0:0:0:0:
320,293,23565,6,0,P|351:293|382:283,1,64,10|0,0:0|0:0,0:0:0:0:
361,158,23890,2,0,P|346:186|340:218,1,64,10|0,0:0|0:0,0:0:0:0:
444,333,24214,1,2,0:0:0:0:
444,333,24376,2,0,P|460:265|416:211,1,143.999995605469,10|0,0:0|0:0,0:0:0:0:
440,134,25025,5,6,0:0:0:0:
319,242,27619,5,14,0:0:0:0:
361,158,27782,2,0,L|432:149,1,71.9999978027344
267,163,28106,1,10,0:0:0:0:
309,79,28269,2,0,L|380:70,1,71.9999978027344
403,242,28592,1,10,0:0:0:0:
267,163,28755,6,0,L|195:154,1,71.9999978027344,14|0,0:0|0:0,0:0:0:0:
309,247,29079,1,2,0:0:0:0:
215,242,29241,2,0,L|143:233,1,71.9999978027344,10|0,0:0|0:0,0:0:0:0:
28,139,29565,2,0,L|99:147,1,71.9999978027344,10|0,0:0|0:0,0:0:0:0:
151,68,29890,1,8,0:1:0:0:
151,68,30214,6,0,P|227:12|315:48,1,191.999994140625,6|8,0:0|0:0,0:0:0:0:
252,202,30701,1,0,0:0:0:0:
252,202,30863,2,0,L|240:107,1,95.9999970703126,2|0,0:0|0:0,0:0:0:0:
331,136,31187,2,0,L|343:231,1,95.9999970703126,8|0,0:0|0:0,0:0:0:0:
272,296,31511,5,2,0:0:0:0:
363,325,31673,1,0,0:0:0:0:
202,361,31836,2,0,L|91:348,1,95.9999970703126,8|0,0:0|0:0,0:0:0:0:
127,185,32160,2,0,L|166:274,1,95.9999970703126,2|0,0:0|0:0,0:0:0:0:
13,337,32484,2,0,L|70:260,1,95.9999970703126,10|0,0:0|0:0,0:0:0:0:
184,110,32809,5,6,0:0:0:0:
166,274,32971,1,0,0:0:0:0:
127,185,33133,1,8,0:0:0:0:
223,199,33295,2,0,L|317:215,1,95.9999970703126,2|0,0:0|0:0,0:0:0:0:
413,229,33619,1,2,0:0:0:0:
356,304,33782,1,8,0:0:0:0:
375,140,33944,6,0,P|421:132|466:148,1,95.9999970703126,2|0,0:0|0:0,0:0:0:0:
508,240,34268,2,0,P|492:284|455:315,1,95.9999970703126,2|8,0:0|0:0,0:0:0:0:
356,304,34592,1,2,0:0:0:0:
356,304,34755,2,0,P|325:267|316:221,1,95.9999970703126,8|8,0:0|0:3,0:0:0:0:
375,140,35079,1,10,0:3:0:0:
334,50,35241,1,8,0:0:0:0:
334,50,35322,1,8,0:0:0:0:
334,50,35403,6,0,L|240:67,1,95.9999970703126,6|0,0:0|0:0,0:0:0:0:
144,83,35728,1,8,0:0:0:0:
144,83,35890,1,2,0:0:0:0:
173,249,36052,2,0,L|205:159,1,95.9999970703126,2|0,0:0|0:0,0:0:0:0:
239,67,36377,1,8,0:0:0:0:
144,83,36538,1,2,0:0:0:0:
17,188,36701,6,0,P|64:191|109:174,1,95.9999970703126,2|0,0:0|0:0,0:0:0:0:
144,83,37025,1,12,0:0:0:0:
49,99,37187,1,2,0:0:0:0:
277,219,37349,2,0,P|321:201|368:204,1,95.9999970703126,2|0,0:0|3:0,0:0:0:0:
368,204,37592,1,0,3:0:0:0:
368,204,37673,1,8,0:0:0:0:
336,293,37836,1,8,0:3:0:0:
205,158,37998,5,14,0:0:0:0:
150,299,38160,1,2,0:0:0:0:
276,217,38322,1,0,0:0:0:0:
243,305,38484,1,10,0:0:0:0:
126,208,38646,1,0,0:0:0:0:
182,68,38809,1,10,0:0:0:0:
205,158,38971,1,0,0:0:0:0:
90,63,39133,6,0,L|-12:59,1,95.9999970703126,6|0,0:0|0:0,0:0:0:0:
126,208,39457,2,0,L|24:204,1,95.9999970703126,2|8,0:0|0:0,0:0:0:0:
162,353,39782,1,2,0:0:0:0:
200,265,39944,2,0,L|247:266,3,47.9999985351563,8|0|0|0,0:0|3:0|3:0|3:0,0:0:0:0:
295,270,40268,2,0,P|366:259|394:238,1,95.9999970703126,8|0,0:0|3:0,0:0:0:0:
417,211,40511,1,0,3:0:0:0:
417,211,40592,6,0,L|395:20,1,191.999994140625,6|8,0:0|0:0,0:0:0:0:
290,127,41079,1,0,0:0:0:0:
290,127,41241,2,0,L|386:116,1,95.9999970703126,2|0,0:0|0:0,0:0:0:0:
325,216,41565,2,0,L|229:227,1,95.9999970703126,8|0,0:0|0:0,0:0:0:0:
147,311,41890,6,0,P|110:226|150:142,1,191.999994140625,2|8,0:0|0:0,0:0:0:0:
215,71,42376,1,0,0:0:0:0:
243,162,42538,1,2,0:0:0:0:
122,51,42701,1,0,0:0:0:0:
308,91,42863,2,0,L|407:80,1,95.9999970703126,10|0,0:0|0:0,0:0:0:0:
150,142,43187,6,0,L|51:131,1,95.9999970703126,6|0,0:0|0:0,0:0:0:0:
243,162,43511,1,8,0:0:0:0:
178,233,43673,2,0,L|79:222,1,95.9999970703126,2|0,0:0|0:0,0:0:0:0:
336,182,43998,2,0,L|435:171,1,95.9999970703126,2|8,0:0|0:0,0:0:0:0:
290,344,44322,6,0,P|272:300|270:253,1,95.9999970703126,2|0,0:0|0:0,0:0:0:0:
440,216,44646,2,0,P|411:254|371:279,1,95.9999970703126,2|8,0:0|0:0,0:0:0:0:
254,150,44971,2,0,P|301:156|343:178,1,95.9999970703126,2|8,0:0|0:0,0:0:0:0:
270,253,45295,1,8,0:3:0:0:
189,69,45457,2,0,P|233:50|280:49,1,95.9999970703126,10|0,0:3|0:0,0:0:0:0:
82,101,45782,6,0,L|96:7,2,95.9999970703126,14|0|10,0:0|0:0|0:0,0:0:0:0:
21,175,46268,1,0,0:0:0:0:
130,283,46430,2,0,L|116:189,1,95.9999970703126,10|0,0:0|0:0,0:0:0:0:
21,175,46755,2,0,L|35:269,1,95.9999970703126,10|0,0:0|0:0,0:0:0:0:
71,359,47079,5,10,0:0:0:0:
224,296,47241,1,0,0:0:0:0:
115,188,47403,2,0,L|129:94,1,95.9999970703126,10|0,0:0|0:0,0:0:0:0:
224,106,47728,2,0,L|210:200,1,95.9999970703126,10|0,0:0|0:0,0:0:0:0:
34,78,48052,2,0,L|128:92,1,95.9999970703126,10|0,0:0|0:0,0:0:0:0:
303,214,48376,5,12,0:0:0:0:
189,17,48701,1,8,0:0:0:0:
75,215,49025,1,8,0:0:0:0:
303,214,49349,1,8,0:0:0:0:
417,16,49673,6,0,L|421:56,3,40,8|8|8|8,0:0|0:0|0:0|0:0,0:0:0:0:
491,115,49998,2,0,L|487:155,3,40,8|8|8|8,0:0|0:0|0:0|0:0,0:0:0:0:
376,220,50322,6,8,L|391:269,3,51.999997619629
512,275,50646,2,8,L|496:324,3,51.999997619629
398,384,50971,6,0,P|359:373|320:367,1,80,14|2,0:0|0:0,0:0:0:0:
208,358,51295,1,2,0:0:0:0:
264,259,51457,2,0,B|258:203|258:203|229:161|229:161|224:108,1,160,10|2,0:0|0:0,0:0:0:0:
336,122,51944,1,2,0:0:0:0:
152,245,52106,1,10,0:0:0:0:
