osu file format v14

[General]
AudioFilename: audio.mp3
AudioLeadIn: 0
PreviewTime: -1
Countdown: 1
SampleSet: Soft
StackLeniency: 0.7
Mode: 0
LetterboxInBreaks: 0
WidescreenStoryboard: 0

[Editor]
DistanceSpacing: 1
BeatDivisor: 16
GridSize: 4
TimelineZoom: 4.799998

[Metadata]
Title:Star Guardian 2017
TitleUnicode:Star Guardian 2017
Artist:League of Legend
ArtistUnicode:英雄联盟
Creator:blueloniess
Version:Bluelon
Source:
Tags:Bluelon Star Guardian 2017 League of Legend Sorka
BeatmapID:1927810
BeatmapSetID:923161

[Difficulty]
HPDrainRate:5
CircleSize:5
OverallDifficulty:8
ApproachRate:9
SliderMultiplier:1.6
SliderTickRate:1

[Events]
//Background and Video events
0,0,"6af15161a8157eac2eae3bdb54683555.jpeg",0,0
//Break Periods
2,75183,104952
//Storyboard Layer 0 (Background)
//Storyboard Layer 1 (Fail)
//Storyboard Layer 2 (Pass)
//Storyboard Layer 3 (Foreground)
//Storyboard Sound Samples

[TimingPoints]
178,389.61038961039,4,2,0,100,1,0
178,-133.333333333333,4,2,0,100,0,0
5048,-100,4,2,0,100,0,0
6411,-83.3333333333333,4,2,0,100,0,0
12645,-66.6666666666667,4,2,0,100,0,0
34463,-100,4,2,0,100,0,0
35048,-90.9090909090909,4,2,0,100,0,0
36022,-83.3333333333333,4,2,0,100,0,0
36606,-76.9230769230769,4,2,0,100,0,0
37580,-66.6666666666667,4,2,0,100,0,0
48684,-50,4,2,0,100,0,0
49074,-40,4,2,0,100,0,0
49463,-33.3333333333333,4,2,0,100,0,0
50048,-100,4,2,0,100,0,0
62515,-83.3333333333333,4,2,0,100,0,0
70502,-71.4285714285714,4,2,0,100,0,0
70892,-83.3333333333333,4,2,0,100,0,0
71087,-100,4,2,0,100,0,0
71866,-83.3333333333333,4,2,0,100,0,0
74983,-200,4,2,0,100,0,0
106152,-100,4,2,0,100,0,0
124853,-66.6666666666667,4,2,0,100,0,0
125048,-100,4,2,0,100,0,0
125242,-83.3333333333333,4,2,0,100,0,0
125437,-66.6666666666667,4,2,0,100,0,0
125827,-100,4,2,0,100,0,0
126411,-133.333333333333,4,2,0,100,0,0
127580,-100,4,2,0,100,0,0
131087,-66.6666666666667,4,2,0,100,0,0
140437,-50,4,2,0,100,0,0
143554,-100,4,2,0,100,0,0
145113,-66.6666666666667,4,2,0,100,0,0
156022,-62.5,4,2,0,100,0,0
168489,-50,4,2,0,100,0,0
169074,-40,4,2,0,100,0,0
169658,-33.3333333333333,4,2,0,100,0,0

[HitObjects]
458,95,178,5,0,0:0:0:0:
406,22,372,1,0,0:0:0:0:
320,50,567,1,0,0:0:0:0:
320,140,762,1,0,0:0:0:0:
406,168,957,1,0,0:0:0:0:
478,225,1152,1,0,0:0:0:0:
444,308,1347,1,0,0:0:0:0:
353,304,1542,1,0,0:0:0:0:
330,215,1736,5,0,0:0:0:0:
330,215,2320,5,0,0:0:0:0:
406,168,2514,1,0,0:0:0:0:
478,225,2710,1,0,0:0:0:0:
444,308,2905,1,0,0:0:0:0:
353,304,3100,1,0,0:0:0:0:
330,215,3294,5,0,0:0:0:0:
272,146,3488,1,0,0:0:0:0:
186,178,3684,1,0,0:0:0:0:
192,268,3879,1,0,0:0:0:0:
280,292,4074,1,0,0:0:0:0:
330,215,4268,5,0,0:0:0:0:
272,146,4462,1,0,0:0:0:0:
186,178,4658,1,0,0:0:0:0:
100,210,4853,1,0,0:0:0:0:
42,141,5047,5,0,0:0:0:0:
186,178,5242,2,0,L|186:288,1,80
128,29,5632,5,0,0:0:0:0:
272,66,5827,2,0,L|272:176,1,80
186,258,6216,1,0,0:0:0:0:
280,292,6411,6,0,P|357:301|426:263,1,143.999995605469
453,243,6801,1,0,0:0:0:0:
404,70,6996,6,0,P|395:147|433:216,1,143.999995605469
453,243,7386,1,0,0:0:0:0:
492,55,7580,1,0,0:0:0:0:
492,55,7970,5,0,0:0:0:0:
260,109,8165,1,0,0:0:0:0:
492,55,8359,5,0,0:0:0:0:
422,205,8554,1,0,0:0:0:0:
292,312,8749,2,0,P|316:251|342:222,1,95.9999970703126
164,226,9139,2,0,P|208:203|289:196,1,95.9999970703126
17,308,9528,6,0,P|93:299|176:336,1,143.999995605469
194,350,9918,1,0,0:0:0:0:
32,102,10113,6,0,P|102:132|155:205,1,143.999995605469
164,226,10503,1,0,0:0:0:0:
201,20,10697,6,0,P|246:81|256:171,1,143.999995605469
253,194,11087,5,0,0:0:0:0:
145,182,11281,1,0,0:0:0:0:
201,20,11476,1,0,0:0:0:0:
362,137,11671,1,0,0:0:0:0:
145,182,11866,1,0,0:0:0:0:
316,18,12061,5,0,0:0:0:0:
270,300,12255,1,0,0:0:0:0:
75,47,12450,1,0,0:0:0:0:
22,211,12645,6,0,B|117:218|117:218|163:187|163:187|274:195,1,240.000009155274
471,208,13229,1,0,0:0:0:0:
366,383,13424,2,0,P|347:331|374:253,1,120.000004577637
247,80,13814,2,0,P|266:132|239:210,1,120.000004577637
129,39,14203,5,0,0:0:0:0:
247,80,14398,1,0,0:0:0:0:
53,132,14593,1,0,0:0:0:0:
144,20,14788,5,0,0:0:0:0:
268,91,14983,1,0,0:0:0:0:
34,122,15178,1,0,0:0:0:0:
156,3,15372,5,0,0:0:0:0:
284,100,15567,1,0,0:0:0:0:
9,106,15762,6,0,B|67:229|-26:212|41:351,1,240.000009155274
35,338,16346,1,0,0:0:0:0:
205,266,16541,2,0,P|145:247|81:277,1,120.000004577637
147,358,16931,1,0,0:0:0:0:
283,318,17126,1,0,0:0:0:0:
152,166,17320,5,0,0:0:0:0:
161,368,17515,1,0,0:0:0:0:
298,318,17710,1,0,0:0:0:0:
146,175,17905,5,0,0:0:0:0:
170,377,18100,1,0,0:0:0:0:
312,317,18294,1,0,0:0:0:0:
159,159,18489,5,0,0:0:0:0:
176,384,18684,1,0,0:0:0:0:
312,317,18879,6,0,B|409:333|373:292|474:303|474:303|412:308|406:377,1,240.000009155274
312,317,19463,1,0,0:0:0:0:
474,372,19658,1,0,0:0:0:0:
335,225,19853,1,0,0:0:0:0:
166,264,20048,2,0,L|177:405,1,120.000004577637
312,317,20437,5,0,0:0:0:0:
160,112,20632,1,0,0:0:0:0:
17,336,20827,1,0,0:0:0:0:
166,264,21022,1,0,0:0:0:0:
205,53,21216,2,0,P|142:41|88:88,1,120.000004577637
30,209,21606,1,0,0:0:0:0:
265,195,21801,1,0,0:0:0:0:
265,195,21898,1,0,0:0:0:0:
265,195,21996,5,0,0:0:0:0:
205,53,22190,1,0,0:0:0:0:
443,132,22385,1,0,0:0:0:0:
238,295,22580,1,0,0:0:0:0:
322,88,22775,1,0,0:0:0:0:
424,341,22970,1,0,0:0:0:0:
265,195,23165,1,0,0:0:0:0:
305,369,23359,1,0,0:0:0:0:
437,246,23554,5,0,0:0:0:0:
265,195,23749,1,0,0:0:0:0:
78,237,23944,1,0,0:0:0:0:
157,141,24139,1,0,0:0:0:0:
38,373,24333,5,0,0:0:0:0:
187,245,24528,1,0,0:0:0:0:
438,353,24723,1,0,0:0:0:0:
293,377,24918,1,0,0:0:0:0:
304,167,25113,6,0,B|395:198|372:143|471:167|471:167|416:162|394:232,1,240.000009155274
187,245,25697,1,0,0:0:0:0:
480,346,25892,2,0,P|493:288|466:236,1,120.000004577637
304,167,26281,1,0,0:0:0:0:
268,369,26476,1,0,0:0:0:0:
56,300,26671,6,0,L|41:169,1,120.000004577637
188,48,27061,1,0,0:0:0:0:
159,147,27255,1,0,0:0:0:0:
58,38,27450,5,0,0:0:0:0:
304,167,27645,1,0,0:0:0:0:
268,369,27840,1,0,0:0:0:0:
56,300,28035,1,0,0:0:0:0:
171,96,28229,6,0,B|268:78|231:130|330:95|330:95|308:129|301:183,1,240.000009155274
219,351,28814,1,0,0:0:0:0:
204,292,28911,1,0,0:0:0:0:
190,233,29009,1,0,0:0:0:0:
391,334,29203,1,0,0:0:0:0:
219,351,29398,2,0,L|85:353,1,120.000004577637
0,167,29788,5,0,0:0:0:0:
190,233,29983,1,0,0:0:0:0:
99,352,30178,1,0,0:0:0:0:
91,65,30372,1,0,0:0:0:0:
0,167,30567,5,0,0:0:0:0:
51,273,30762,1,0,0:0:0:0:
303,166,30957,1,0,0:0:0:0:
256,67,31152,1,0,0:0:0:0:
169,117,31346,6,0,B|213:203|127:203|183:331,1,180.000006866455
299,347,31736,2,0,P|289:288|204:250,1,120.000004577637
243,252,32028,1,0,0:0:0:0:
243,252,32126,1,0,0:0:0:0:
51,273,32320,1,0,0:0:0:0:
225,329,32515,1,0,0:0:0:0:
461,273,32710,1,0,0:0:0:0:
313,131,32905,5,0,0:0:0:0:
225,329,33100,1,0,0:0:0:0:
461,273,33294,1,0,0:0:0:0:
302,122,33489,5,0,0:0:0:0:
238,335,33684,1,0,0:0:0:0:
475,264,33879,1,0,0:0:0:0:
292,114,34074,1,0,0:0:0:0:
248,342,34268,1,0,0:0:0:0:
488,257,34463,5,0,0:0:0:0:
408,35,34658,1,0,0:0:0:0:
408,35,34755,1,0,0:0:0:0:
408,35,34853,1,0,0:0:0:0:
215,167,35048,2,0,L|231:280,1,88.000002685547
248,342,35437,1,0,0:0:0:0:
125,152,35632,1,0,0:0:0:0:
227,254,35827,1,0,0:0:0:0:
124,334,36022,6,0,P|102:294|106:222,1,95.9999970703126
204,156,36411,1,0,0:0:0:0:
204,156,36606,2,0,P|226:196|222:268,1,103.999995239258
29,318,36996,1,0,0:0:0:0:
74,344,37093,1,0,0:0:0:0:
124,334,37190,1,0,0:0:0:0:
148,287,37288,1,0,0:0:0:0:
174,243,37385,1,0,0:0:0:0:
226,253,37483,1,0,0:0:0:0:
296,290,37580,6,0,P|350:298|432:270,1,120.000004577637
477,216,37872,1,0,0:0:0:0:
477,216,37970,1,0,0:0:0:0:
352,383,38165,1,0,0:0:0:0:
352,185,38359,2,0,B|354:50|354:50|399:105,1,180.000006866455
477,216,38749,1,0,0:0:0:0:
296,290,38944,1,0,0:0:0:0:
213,181,39139,6,0,B|140:215|123:149|36:193|36:193|77:174|131:234,1,240.000009155274
170,117,39723,1,0,0:0:0:0:
56,255,39918,2,0,P|55:318|78:374,1,120.000004577637
158,346,40210,1,0,0:0:0:0:
158,346,40307,1,0,0:0:0:0:
90,199,40502,1,0,0:0:0:0:
0,325,40697,5,0,0:0:0:0:
147,263,40892,2,0,B|245:227|245:308|327:267|327:267|314:279|260:279,1,240.000009155274
158,346,41476,1,0,0:0:0:0:
281,189,41671,1,0,0:0:0:0:
433,221,41866,2,0,P|438:293|411:345,1,120.000004577637
350,374,42158,1,0,0:0:0:0:
350,374,42255,5,0,0:0:0:0:
281,189,42450,1,0,0:0:0:0:
350,10,42645,1,0,0:0:0:0:
485,151,42840,1,0,0:0:0:0:
485,151,43035,2,0,P|421:139|368:165,1,120.000004577637
119,239,43424,1,0,0:0:0:0:
251,359,43619,1,0,0:0:0:0:
281,189,43814,6,0,B|254:203|246:247|246:247|209:148|270:59,1,240.000009155274
372,160,44398,1,0,0:0:0:0:
381,322,44593,2,0,P|313:297|406:272,1,240.000009155274
381,322,45178,1,0,0:0:0:0:
251,359,45372,6,0,L|107:368,1,120.000004577637
0,231,45762,2,0,L|119:239,1,120.000004577637
246,245,46152,1,0,0:0:0:0:
131,366,46346,1,0,0:0:0:0:
106,109,46541,2,0,L|225:116,1,120.000004577637
0,231,46931,5,0,0:0:0:0:
225,116,47126,1,0,0:0:0:0:
106,109,47320,1,0,0:0:0:0:
246,245,47515,1,0,0:0:0:0:
471,360,47710,5,0,0:0:0:0:
246,245,47905,1,0,0:0:0:0:
365,238,48099,1,0,0:0:0:0:
225,374,48294,1,0,0:0:0:0:
58,279,48684,6,0,P|136:202|264:300,1,240
498,263,49074,2,0,P|351:320|226:177,1,300
146,72,49463,1,0,0:0:0:0:
146,72,49561,1,0,0:0:0:0:
146,72,49658,2,0,L|322:64,1,120.000004577637
464,175,49853,2,0,L|288:167,1,120.000004577637
157,158,50048,5,0,0:0:0:0:
144,353,50242,2,0,P|161:312|151:261,1,80
344,169,50632,2,0,P|280:200|264:284,1,160
327,353,51216,2,0,B|391:377|383:329|459:360|459:360|443:353|426:353|426:353|430:336|471:297|436:206,1,320
409,133,52190,1,0,0:0:0:0:
344,86,52385,1,0,0:0:0:0:
264,80,52580,5,0,0:0:0:0:
196,123,52775,1,0,0:0:0:0:
156,129,52970,1,0,0:0:0:0:
139,128,53165,2,0,P|119:173|156:268,1,120
156,272,53554,1,0,0:0:0:0:
309,268,53749,2,0,P|258:249|167:265,1,120
156,272,54139,2,0,L|167:368,1,80
309,268,54528,1,0,0:0:0:0:
193,253,54723,1,0,0:0:0:0:
386,355,54918,5,0,0:0:0:0:
336,199,55113,2,0,P|306:243|311:274,1,80
450,199,55502,1,0,0:0:0:0:
450,199,55697,2,0,P|448:159|422:130,1,80
308,101,56087,1,0,0:0:0:0:
511,38,56281,6,0,L|422:63,1,80
433,59,56574,1,0,0:0:0:0:
433,59,56671,1,0,0:0:0:0:
303,247,56866,2,0,P|333:171|308:111,1,120
308,101,57255,1,0,0:0:0:0:
155,114,57450,2,0,L|165:253,1,120
169,273,57840,5,0,0:0:0:0:
80,338,58229,1,0,0:0:0:0:
80,338,58424,5,0,0:0:0:0:
169,273,58619,1,0,0:0:0:0:
333,289,58814,5,0,0:0:0:0:
244,354,59009,1,0,0:0:0:0:
256,192,59203,5,0,0:0:0:0:
438,175,59398,2,0,L|431:272,1,80
429,294,59690,1,0,0:0:0:0:
429,294,59788,1,0,0:0:0:0:
233,109,59983,2,0,B|278:108|278:108|306:120|306:120|366:121,1,120
390,124,60372,1,0,0:0:0:0:
297,271,60567,2,0,P|242:280|182:240,1,120
164,216,60957,5,0,0:0:0:0:
164,216,61152,1,0,0:0:0:0:
94,176,61346,1,0,0:0:0:0:
40,231,61541,1,0,0:0:0:0:
71,304,61736,1,0,0:0:0:0:
150,293,61931,1,0,0:0:0:0:
158,254,62028,1,0,0:0:0:0:
164,216,62126,1,0,0:0:0:0:
170,176,62223,1,0,0:0:0:0:
176,136,62320,1,0,0:0:0:0:
182,96,62418,1,0,0:0:0:0:
190,49,62515,5,0,0:0:0:0:
297,234,62710,1,0,0:0:0:0:
150,293,62905,2,0,L|30:293,1,95.9999970703126
232,175,63294,2,0,B|215:240|215:240|231:291|231:291|209:370,1,191.999994140625
150,293,63879,1,0,0:0:0:0:
297,234,64074,5,0,0:0:0:0:
211,359,64268,1,0,0:0:0:0:
176,136,64463,1,0,0:0:0:0:
301,114,64658,1,0,0:0:0:0:
297,234,64853,5,0,0:0:0:0:
150,293,65048,1,0,0:0:0:0:
40,231,65242,1,0,0:0:0:0:
301,114,65437,1,0,0:0:0:0:
150,293,65632,6,0,L|150:179,1,95.9999970703126
301,18,66022,2,0,L|301:114,1,95.9999970703126
302,323,66411,1,0,0:0:0:0:
150,197,66606,1,0,0:0:0:0:
301,114,66801,1,0,0:0:0:0:
456,218,66996,1,0,0:0:0:0:
227,258,67190,5,0,0:0:0:0:
381,163,67385,1,0,0:0:0:0:
383,274,67580,1,0,0:0:0:0:
226,158,67775,1,0,0:0:0:0:
453,106,67970,5,0,0:0:0:0:
383,274,68165,1,0,0:0:0:0:
227,258,68359,5,0,0:0:0:0:
381,163,68554,1,0,0:0:0:0:
285,328,68749,6,0,B|242:364|242:364|85:364,1,191.999994140625
47,194,69333,2,0,B|90:158|90:158|225:158,1,191.999994140625
381,163,69918,2,0,P|390:218|379:271,1,95.9999970703126
285,328,70307,5,0,0:0:0:0:
63,258,70502,2,0,P|151:227|217:277,1,167.999994873047
285,328,70892,2,0,L|284:420,1,47.9999985351563
209,264,71087,2,0,P|278:218|378:363,1,280
387,340,71866,6,0,P|381:266|390:217,1,95.9999970703126
477,170,72255,1,0,0:0:0:0:
401,73,72450,2,0,P|359:140|386:248,1,191.999994140625
477,170,73035,1,0,0:0:0:0:
401,73,73229,2,0,B|354:47|354:47|207:47,1,191.999994140625
40,140,73814,2,0,L|158:141,1,95.9999970703126
304,148,74203,5,0,0:0:0:0:
131,290,74398,1,0,0:0:0:0:
135,140,74593,1,0,0:0:0:0:
169,107,74690,1,0,0:0:0:0:
213,87,74788,1,0,0:0:0:0:
260,84,74885,1,0,0:0:0:0:
279,88,74983,5,0,0:0:0:0:
279,88,106152,5,0,0:0:0:0:
231,23,106346,1,0,0:0:0:0:
155,47,106542,1,0,0:0:0:0:
155,127,106736,1,0,0:0:0:0:
231,152,106931,1,0,0:0:0:0:
279,88,107126,5,0,0:0:0:0:
327,23,107320,1,0,0:0:0:0:
403,47,107516,1,0,0:0:0:0:
403,127,107710,1,0,0:0:0:0:
327,152,107905,2,0,L|326:241,1,80
279,88,108294,1,0,0:0:0:0:
155,127,108489,2,0,L|153:295,1,160
277,245,109268,5,0,0:0:0:0:
229,310,109462,1,0,0:0:0:0:
153,286,109658,1,0,0:0:0:0:
153,206,109852,1,0,0:0:0:0:
229,181,110047,1,0,0:0:0:0:
277,245,110242,5,0,0:0:0:0:
325,310,110436,1,0,0:0:0:0:
401,286,110632,1,0,0:0:0:0:
401,206,110826,1,0,0:0:0:0:
325,181,111021,2,0,L|324:92,1,80
277,245,111410,1,0,0:0:0:0:
153,206,111606,2,0,L|153:98,1,80
324,101,111996,1,0,0:0:0:0:
277,245,112190,1,0,0:0:0:0:
153,206,112385,6,0,L|74:207,1,80
229,310,112775,1,0,0:0:0:0:
159,127,112970,2,0,L|-15:129,1,160
277,245,113554,2,0,L|356:244,1,80
159,127,113944,5,0,0:0:0:0:
161,316,114139,2,0,P|214:321|272:214,1,160
199,240,114723,1,0,0:0:0:0:
82,236,114918,2,0,L|3:237,1,80
161,316,115307,1,0,0:0:0:0:
161,316,115697,5,0,0:0:0:0:
199,240,115892,1,0,0:0:0:0:
151,175,116087,1,0,0:0:0:0:
186,103,116281,1,0,0:0:0:0:
264,151,116476,1,0,0:0:0:0:
199,240,116671,1,0,0:0:0:0:
82,205,116866,1,0,0:0:0:0:
186,103,117061,6,0,B|292:128|237:69|354:94,1,160
340,91,117645,1,0,0:0:0:0:
316,237,117840,2,0,P|302:182|313:138,1,80
196,25,118229,2,0,P|198:64|185:102,1,80
82,205,118619,5,0,0:0:0:0:
93,112,118814,1,0,0:0:0:0:
185,102,119009,1,0,0:0:0:0:
305,159,119203,5,0,0:0:0:0:
381,58,119398,1,0,0:0:0:0:
185,102,119593,1,0,0:0:0:0:
285,235,119788,2,0,P|303:184|301:125,1,80
203,248,120178,6,0,B|203:291|248:291|248:344,1,80
170,347,120567,1,0,0:0:0:0:
285,235,120762,1,0,0:0:0:0:
340,372,120957,1,0,0:0:0:0:
362,285,121152,1,0,0:0:0:0:
170,347,121346,2,0,P|210:340|269:356,1,80
424,346,121736,5,0,0:0:0:0:
340,372,121931,1,0,0:0:0:0:
314,287,122126,1,0,0:0:0:0:
399,265,122320,1,0,0:0:0:0:
373,180,122515,5,0,0:0:0:0:
348,99,122710,1,0,0:0:0:0:
263,121,122904,1,0,0:0:0:0:
289,206,123099,1,0,0:0:0:0:
418,140,123294,6,0,P|426:80|389:27,1,120
395,31,123684,2,0,P|346:45|284:27,1,80
152,97,124074,5,0,0:0:0:0:
239,97,124268,1,0,0:0:0:0:
181,30,124463,5,0,0:0:0:0:
94,30,124657,1,0,0:0:0:0:
159,213,124853,2,0,P|220:200|229:85,1,180.000006866455
72,151,125242,1,0,0:0:0:0:
72,151,125437,2,0,P|67:272|194:315,1,240.000009155274
236,214,126022,2,0,P|185:205|134:228,1,80
63,265,126411,5,0,0:0:0:0:
63,265,126801,1,0,0:0:0:0:
160,321,126996,1,0,0:0:0:0:
236,214,127190,5,0,0:0:0:0:
140,201,127385,1,0,0:0:0:0:
63,265,127580,5,0,0:0:0:0:
236,214,127775,1,0,0:0:0:0:
236,214,127872,1,0,0:0:0:0:
236,214,127970,2,0,L|210:37,1,160
212,55,128554,1,0,0:0:0:0:
371,92,128749,2,0,P|318:116|281:106,1,80
313,19,129139,1,0,0:0:0:0:
225,136,129333,1,0,0:0:0:0:
337,267,129528,6,0,P|336:227|315:194,1,80
225,136,129918,1,0,0:0:0:0:
249,252,130113,1,0,0:0:0:0:
371,92,130307,1,0,0:0:0:0:
262,15,130502,1,0,0:0:0:0:
222,19,130599,1,0,0:0:0:0:
182,24,130696,1,0,0:0:0:0:
142,29,130794,1,0,0:0:0:0:
103,34,130891,1,0,0:0:0:0:
63,39,130989,1,0,0:0:0:0:
23,44,131087,6,0,B|24:140|108:142|108:314,1,240.000009155274
4,323,131671,1,0,0:0:0:0:
68,153,131866,2,0,P|166:184|105:266,1,240.000009155274
23,44,132450,1,0,0:0:0:0:
263,146,132645,2,0,P|269:205|250:261,1,120.000004577637
374,384,133035,2,0,P|367:324|386:268,1,120.000004577637
467,335,133424,1,0,0:0:0:0:
170,195,133619,1,0,0:0:0:0:
463,48,133814,2,0,P|406:29|347:35,1,120.000004577637
263,146,134203,6,0,P|371:171|384:98,1,180.000006866455
274,61,134593,2,0,P|196:85|182:162,1,120.000004577637
139,276,134983,2,0,P|224:276|244:123,1,240.000009155274
180,191,135567,1,0,0:0:0:0:
27,226,135762,6,0,P|14:287|41:343,1,120.000004577637
241,368,136152,2,0,P|263:313|250:255,1,120.000004577637
134,100,136541,1,0,0:0:0:0:
27,226,136736,1,0,0:0:0:0:
241,368,136931,1,0,0:0:0:0:
348,242,137126,1,0,0:0:0:0:
287,81,137320,6,0,B|216:118|192:45|94:89|94:89|153:95|161:133,1,240.000009155274
245,16,137905,1,0,0:0:0:0:
348,143,138100,2,0,P|374:82|349:20,1,120.000004577637
192,175,138489,1,0,0:0:0:0:
280,212,138684,2,0,B|400:287|383:153|512:225,1,240.000009155274
445,281,139268,1,0,0:0:0:0:
348,143,139463,1,0,0:0:0:0:
192,175,139658,2,0,P|177:232|203:285,1,120.000004577637
39,210,140048,1,0,0:0:0:0:
132,360,140242,1,0,0:0:0:0:
203,285,140437,6,0,L|304:285,3,80
340,229,140827,2,0,L|411:157,3,80
378,109,141216,2,0,L|378:8,3,80
313,55,141606,2,0,L|241:-16,3,80
258,118,141996,5,0,0:0:0:0:
72,131,142190,2,0,P|64:33|126:137,1,320
56,211,142775,1,0,0:0:0:0:
237,215,142970,5,0,0:0:0:0:
313,55,143165,1,0,0:0:0:0:
326,117,143262,1,0,0:0:0:0:
338,179,143359,1,0,0:0:0:0:
352,241,143457,1,0,0:0:0:0:
366,311,143554,6,0,P|253:350|196:330,1,160
133,254,144139,1,0,0:0:0:0:
25,305,144333,2,0,P|11:355|26:403,1,80
237,215,144723,2,0,P|241:175|227:138,1,80
64,10,145113,5,0,0:0:0:0:
3,199,145307,1,0,0:0:0:0:
227,138,145502,1,0,0:0:0:0:
59,6,145697,5,0,0:0:0:0:
7,206,145892,1,0,0:0:0:0:
232,132,146087,1,0,0:0:0:0:
169,44,146281,1,0,0:0:0:0:
133,254,146476,1,0,0:0:0:0:
249,312,146671,6,0,P|319:327|423:204,1,240.000009155274
354,49,147255,1,0,0:0:0:0:
306,139,147450,2,0,P|363:150|417:126,1,120.000004577637
168,43,147840,2,0,P|110:32|57:56,1,120.000004577637
120,133,148229,5,0,0:0:0:0:
354,49,148424,1,0,0:0:0:0:
321,245,148619,1,0,0:0:0:0:
168,43,148814,1,0,0:0:0:0:
417,126,149009,5,0,0:0:0:0:
57,55,149203,1,0,0:0:0:0:
120,133,149398,5,0,0:0:0:0:
480,62,149592,1,0,0:0:0:0:
286,152,149788,6,0,B|200:157|119:133|119:133|171:143|207:220,1,240.000009155274
321,245,150372,1,0,0:0:0:0:
354,49,150567,2,0,P|287:58|230:50,1,120.000004577637
62,272,150957,2,0,P|129:263|186:271,1,120.000004577637
443,336,151346,5,0,0:0:0:0:
196,364,151541,1,0,0:0:0:0:
361,172,151736,1,0,0:0:0:0:
440,348,151931,5,0,0:0:0:0:
276,272,152126,1,0,0:0:0:0:
270,92,152320,1,0,0:0:0:0:
434,19,152515,1,0,0:0:0:0:
361,172,152710,1,0,0:0:0:0:
248,182,152905,6,0,B|187:222|128:179|128:179|52:138|-5:216,1,240.000009155274
68,353,153489,1,0,0:0:0:0:
68,353,153684,2,0,L|80:220,1,120.000004577637
178,17,154074,1,0,0:0:0:0:
188,136,154268,1,0,0:0:0:0:
188,136,154366,1,0,0:0:0:0:
188,136,154463,5,0,0:0:0:0:
45,50,154658,1,0,0:0:0:0:
340,97,154853,1,0,0:0:0:0:
340,97,154950,1,0,0:0:0:0:
340,97,155048,1,0,0:0:0:0:
272,225,155242,1,0,0:0:0:0:
428,130,155437,5,0,0:0:0:0:
426,71,155534,1,0,0:0:0:0:
391,23,155631,1,0,0:0:0:0:
334,6,155729,1,0,0:0:0:0:
279,26,155826,1,0,0:0:0:0:
245,74,155924,1,0,0:0:0:0:
212,165,156022,6,0,B|201:240|201:240|228:284|228:284|215:368,1,192
159,298,156411,1,0,0:0:0:0:
272,225,156606,2,0,P|348:215|413:240,1,128
218,347,156996,1,0,0:0:0:0:
212,165,157190,2,0,P|136:175|71:150,1,128
266,43,157580,5,0,0:0:0:0:
440,142,157775,1,0,0:0:0:0:
272,225,157970,1,0,0:0:0:0:
399,28,158165,1,0,0:0:0:0:
440,142,158359,5,0,0:0:0:0:
408,266,158554,1,0,0:0:0:0:
293,323,158749,1,0,0:0:0:0:
166,303,158944,1,0,0:0:0:0:
148,72,159139,6,0,P|67:84|44:243,1,256
166,303,159723,1,0,0:0:0:0:
119,171,159918,1,0,0:0:0:0:
91,352,160113,2,0,P|172:391|229:239,1,256
166,95,160697,5,0,0:0:0:0:
44,135,160892,1,0,0:0:0:0:
44,263,161087,1,0,0:0:0:0:
166,303,161281,1,0,0:0:0:0:
241,199,161476,5,0,0:0:0:0:
44,135,161671,1,0,0:0:0:0:
166,303,161866,1,0,0:0:0:0:
166,95,162061,1,0,0:0:0:0:
44,263,162255,5,0,0:0:0:0:
250,274,162450,1,0,0:0:0:0:
166,95,162645,2,0,P|129:174|136:223,1,128
250,274,163035,1,0,0:0:0:0:
455,235,163229,2,0,P|376:198|327:205,1,128
250,274,163619,1,0,0:0:0:0:
377,378,163814,5,0,0:0:0:0:
377,378,164009,2,0,B|418:344|446:312|412:240|377:218|310:251|323:325|363:332|375:286,1,256
466,376,164593,2,0,P|485:301|344:190,1,256
368,188,165178,1,0,0:0:0:0:
35,318,165372,5,0,0:0:0:0:
107,212,165567,2,0,L|124:73,1,128
283,159,165957,2,0,P|302:262|153:318,1,256
227,76,166541,2,0,P|304:62|359:96,1,128
384,134,166833,1,0,0:0:0:0:
384,134,166931,5,0,0:0:0:0:
197,222,167126,1,0,0:0:0:0:
426,301,167320,1,0,0:0:0:0:
128,133,167515,1,0,0:0:0:0:
315,222,167710,5,0,0:0:0:0:
86,301,167904,1,0,0:0:0:0:
327,350,168100,1,0,0:0:0:0:
321,286,168197,1,0,0:0:0:0:
315,222,168294,1,0,0:0:0:0:
308,157,168392,1,0,0:0:0:0:
301,77,168489,6,0,L|269:80,1,20
56,87,168879,2,0,L|92:92,1,20
187,24,169074,6,0,L|150:28,1,25
93,200,169463,6,0,L|53:204,1,25
253,202,169658,6,0,L|221:197,1,30.0000011444092
