osu file format v14

[General]
AudioFilename: audio.mp3
AudioLeadIn: 0
PreviewTime: 49726
Countdown: 0
SampleSet: Normal
StackLeniency: 0.7
Mode: 3
LetterboxInBreaks: 0
SpecialStyle: 0
WidescreenStoryboard: 0

[Editor]
DistanceSpacing: 1.7
BeatDivisor: 12
GridSize: 8
TimelineZoom: 2.800006

[Metadata]
Title:Ka
TitleUnicode:彁
Artist:LeaF
ArtistUnicode:LeaF
Creator:gogozzzx
Version:Ka
Source:太鼓の達人
Tags:か electronic instrumental video arcade game taiko no tatsujin April 2022 Edition April Fools polyrhythm bandai namco Original Fiz ニジイロver. nijiiro ver
BeatmapID:2930984
BeatmapSetID:1423264

[Difficulty]
HPDrainRate:8.8
CircleSize:4
OverallDifficulty:7
ApproachRate:5
SliderMultiplier:1.4
SliderTickRate:1

[Events]
//Background and Video events
0,0,"456456.jpg",0,0
//Break Periods
//Storyboard Layer 0 (Background)
//Storyboard Layer 1 (Fail)
//Storyboard Layer 2 (Pass)
//Storyboard Layer 3 (Foreground)
//Storyboard Layer 4 (Overlay)
//Storyboard Sound Samples

[TimingPoints]
2006,480,4,1,1,35,1,0

[HitObjects]
320,192,2006,5,0,0:0:0:0:
192,192,2006,1,0,0:0:0:0:
448,192,2006,128,0,2406:0:0:0:0:
64,192,2166,1,0,0:0:0:0:
192,192,2246,1,0,0:0:0:0:
192,192,2326,1,0,0:0:0:0:
64,192,2406,1,0,0:0:0:0:
448,192,2486,1,0,0:0:0:0:
192,192,2566,1,0,0:0:0:0:
448,192,2586,1,0,0:0:0:0:
64,192,2646,1,0,0:0:0:0:
192,192,2699,1,0,0:0:0:0:
64,192,2752,1,0,0:0:0:0:
448,192,2806,1,0,0:0:0:0:
448,192,2886,1,0,0:0:0:0:
192,192,2966,1,0,0:0:0:0:
64,192,2966,1,0,0:0:0:0:
320,192,3046,1,0,0:0:0:0:
448,192,3126,1,0,0:0:0:0:
64,192,3126,1,0,0:0:0:0:
320,192,3206,1,0,0:0:0:0:
192,192,3206,1,0,0:0:0:0:
448,192,3286,1,0,0:0:0:0:
192,192,3366,1,0,0:0:0:0:
448,192,3446,1,0,0:0:0:0:
320,192,3499,1,0,0:0:0:0:
448,192,3552,1,0,0:0:0:0:
64,192,3606,1,0,0:0:0:0:
192,192,3686,1,0,0:0:0:0:
320,192,3766,1,0,0:0:0:0:
448,192,3792,1,0,0:0:0:0:
64,192,3846,1,0,0:0:0:0:
192,192,3872,1,0,0:0:0:0:
320,192,3899,1,0,0:0:0:0:
448,192,3926,1,0,0:0:0:0:
64,192,3926,128,0,4112:0:0:0:0:
192,192,4112,1,0,0:0:0:0:
320,192,4166,1,0,0:0:0:0:
448,192,4166,1,0,0:0:0:0:
64,192,4214,1,0,0:0:0:0:
192,192,4262,1,0,0:0:0:0:
320,192,4310,1,0,0:0:0:0:
448,192,4406,1,0,0:0:0:0:
320,192,4502,1,0,0:0:0:0:
192,192,4550,1,0,0:0:0:0:
64,192,4598,1,0,0:0:0:0:
320,192,4694,1,0,0:0:0:0:
192,192,4790,1,0,0:0:0:0:
64,192,4871,1,0,0:0:0:0:
448,192,4886,1,0,0:0:0:0:
320,192,4886,128,0,5046:0:0:0:0:
64,192,5078,1,0,0:0:0:0:
192,192,5102,1,0,0:0:0:0:
448,192,5126,1,0,0:0:0:0:
320,192,5126,1,0,0:0:0:0:
64,192,5222,1,0,0:0:0:0:
192,192,5366,1,0,0:0:0:0:
320,192,5510,1,0,0:0:0:0:
448,192,5558,1,0,0:0:0:0:
320,192,5654,1,0,0:0:0:0:
192,192,5702,1,0,0:0:0:0:
64,192,5739,1,0,0:0:0:0:
448,192,5766,1,0,0:0:0:0:
320,192,5819,1,0,0:0:0:0:
192,192,5846,128,0,6086:0:0:0:0:
64,192,5846,1,0,0:0:0:0:
448,192,6006,1,0,0:0:0:0:
320,192,6086,1,0,0:0:0:0:
320,192,6166,1,0,0:0:0:0:
448,192,6246,1,0,0:0:0:0:
64,192,6326,128,0,6432:0:0:0:0:
192,192,6379,128,0,6406:0:0:0:0:
448,192,6406,128,0,6459:0:0:0:0:
320,192,6486,128,0,6539:0:0:0:0:
192,192,6566,128,0,6619:0:0:0:0:
64,192,6646,128,0,6699:0:0:0:0:
448,192,6726,128,0,6779:0:0:0:0:
192,192,6806,1,0,0:0:0:0:
64,192,6806,1,0,0:0:0:0:
320,192,6830,1,0,0:0:0:0:
448,192,6854,1,0,0:0:0:0:
192,192,6902,1,0,0:0:0:0:
448,192,6966,1,0,0:0:0:0:
64,192,6966,1,0,0:0:0:0:
320,192,7046,1,0,0:0:0:0:
320,192,7126,1,0,0:0:0:0:
64,192,7206,1,0,0:0:0:0:
192,192,7232,1,0,0:0:0:0:
448,192,7286,1,0,0:0:0:0:
320,192,7366,1,0,0:0:0:0:
448,192,7446,1,0,0:0:0:0:
64,192,7446,1,0,0:0:0:0:
192,192,7526,1,0,0:0:0:0:
448,192,7606,1,0,0:0:0:0:
320,192,7686,1,0,0:0:0:0:
64,192,7686,1,0,0:0:0:0:
192,192,7766,1,0,0:0:0:0:
320,192,7766,128,0,7958:0:0:0:0:
64,192,7958,1,0,0:0:0:0:
320,192,8006,1,0,0:0:0:0:
192,192,8006,1,0,0:0:0:0:
448,192,8054,1,0,0:0:0:0:
192,192,8102,1,0,0:0:0:0:
320,192,8150,1,0,0:0:0:0:
192,192,8342,1,0,0:0:0:0:
64,192,8534,128,0,8630:0:0:0:0:
448,192,8534,128,0,8630:0:0:0:0:
192,192,8726,128,0,8774:0:0:0:0:
64,192,8726,128,0,8774:0:0:0:0:
448,192,8726,128,0,8774:0:0:0:0:
192,192,8846,128,0,8886:0:0:0:0:
192,192,8966,1,0,0:0:0:0:
64,192,8966,1,0,0:0:0:0:
448,192,9014,1,0,0:0:0:0:
64,192,9110,1,0,0:0:0:0:
320,192,9206,1,0,0:0:0:0:
320,192,9350,128,0,9590:0:0:0:0:
448,192,9398,128,0,9542:0:0:0:0:
64,192,9494,128,0,9590:0:0:0:0:
192,192,9542,128,0,9638:0:0:0:0:
448,192,9590,1,0,0:0:0:0:
320,192,9638,1,0,0:0:0:0:
64,192,9686,1,0,0:0:0:0:
192,192,9686,128,0,9926:0:0:0:0:
448,192,9846,1,0,0:0:0:0:
320,192,9926,1,0,0:0:0:0:
320,192,10006,1,0,0:0:0:0:
448,192,10086,1,0,0:0:0:0:
192,192,10166,1,0,0:0:0:0:
64,192,10246,128,0,10406:0:0:0:0:
320,192,10326,1,0,0:0:0:0:
320,192,10406,1,0,0:0:0:0:
192,192,10486,128,0,10646:0:0:0:0:
320,192,10646,1,0,0:0:0:0:
448,192,10646,1,0,0:0:0:0:
192,192,10748,1,0,0:0:0:0:
64,192,10817,1,0,0:0:0:0:
320,192,10886,1,0,0:0:0:0:
192,192,10934,1,0,0:0:0:0:
320,192,10982,1,0,0:0:0:0:
192,192,11030,1,0,0:0:0:0:
448,192,11126,128,0,11286:0:0:0:0:
64,192,11286,1,0,0:0:0:0:
320,192,11286,1,0,0:0:0:0:
192,192,11366,1,0,0:0:0:0:
448,192,11366,1,0,0:0:0:0:
64,192,11446,1,0,0:0:0:0:
320,192,11526,1,0,0:0:0:0:
64,192,11606,1,0,0:0:0:0:
192,192,11606,128,0,11798:0:0:0:0:
448,192,11798,1,0,0:0:0:0:
320,192,11846,1,0,0:0:0:0:
192,192,11846,1,0,0:0:0:0:
64,192,11894,1,0,0:0:0:0:
320,192,11942,1,0,0:0:0:0:
192,192,11990,1,0,0:0:0:0:
448,192,12182,1,0,0:0:0:0:
320,192,12278,1,0,0:0:0:0:
192,192,12374,1,0,0:0:0:0:
448,192,12470,1,0,0:0:0:0:
64,192,12566,1,0,0:0:0:0:
192,192,12566,128,0,12638:0:0:0:0:
320,192,12614,128,0,12710:0:0:0:0:
448,192,12710,1,0,0:0:0:0:
448,192,12758,1,0,0:0:0:0:
192,192,12806,1,0,0:0:0:0:
64,192,12806,1,0,0:0:0:0:
320,192,12902,1,0,0:0:0:0:
64,192,12998,1,0,0:0:0:0:
448,192,13046,1,0,0:0:0:0:
192,192,13190,128,0,13430:0:0:0:0:
64,192,13238,128,0,13382:0:0:0:0:
448,192,13334,128,0,13430:0:0:0:0:
320,192,13382,128,0,13478:0:0:0:0:
64,192,13430,1,0,0:0:0:0:
192,192,13478,1,0,0:0:0:0:
320,192,13526,128,0,13686:0:0:0:0:
448,192,13526,1,0,0:0:0:0:
64,192,13686,1,0,0:0:0:0:
320,192,13766,1,0,0:0:0:0:
192,192,13766,1,0,0:0:0:0:
448,192,13846,1,0,0:0:0:0:
448,192,13926,1,0,0:0:0:0:
192,192,14006,128,0,14086:0:0:0:0:
448,192,14086,128,0,14139:0:0:0:0:
320,192,14166,128,0,14219:0:0:0:0:
192,192,14246,128,0,14299:0:0:0:0:
64,192,14326,128,0,14486:0:0:0:0:
320,192,14486,1,0,0:0:0:0:
448,192,14486,1,0,0:0:0:0:
192,192,14566,1,0,0:0:0:0:
64,192,14646,1,0,0:0:0:0:
448,192,14646,1,0,0:0:0:0:
320,192,14726,1,0,0:0:0:0:
192,192,14726,1,0,0:0:0:0:
64,192,14806,1,0,0:0:0:0:
448,192,14886,1,0,0:0:0:0:
320,192,14966,1,0,0:0:0:0:
192,192,15014,1,0,0:0:0:0:
64,192,15062,1,0,0:0:0:0:
448,192,15110,1,0,0:0:0:0:
320,192,15206,1,0,0:0:0:0:
448,192,15302,1,0,0:0:0:0:
64,192,15302,1,0,0:0:0:0:
192,192,15377,1,0,0:0:0:0:
448,192,15446,1,0,0:0:0:0:
320,192,15446,128,0,15638:0:0:0:0:
64,192,15638,1,0,0:0:0:0:
320,192,15686,1,0,0:0:0:0:
192,192,15686,1,0,0:0:0:0:
448,192,15734,1,0,0:0:0:0:
192,192,15782,1,0,0:0:0:0:
320,192,15830,1,0,0:0:0:0:
64,192,16022,1,0,0:0:0:0:
192,192,16214,128,0,16406:0:0:0:0:
448,192,16406,1,0,0:0:0:0:
320,192,16406,128,0,16550:0:0:0:0:
64,192,16646,1,0,0:0:0:0:
448,192,16646,1,0,0:0:0:0:
448,192,16790,1,0,0:0:0:0:
320,192,16838,1,0,0:0:0:0:
192,192,16886,1,0,0:0:0:0:
320,192,17030,128,0,17270:0:0:0:0:
448,192,17078,128,0,17222:0:0:0:0:
64,192,17174,128,0,17270:0:0:0:0:
192,192,17222,128,0,17318:0:0:0:0:
448,192,17270,1,0,0:0:0:0:
320,192,17318,1,0,0:0:0:0:
64,192,17366,1,0,0:0:0:0:
192,192,17366,128,0,17606:0:0:0:0:
320,192,17606,128,0,17666:0:0:0:0:
64,192,17750,1,0,0:0:0:0:
448,192,17846,128,0,17906:0:0:0:0:
192,192,18086,1,0,0:0:0:0:
64,192,18134,128,0,18278:0:0:0:0:
320,192,18326,128,0,18386:0:0:0:0:
192,192,18566,128,0,18779:0:0:0:0:
448,192,18806,128,0,18950:0:0:0:0:
64,192,19006,1,0,0:0:0:0:
192,192,19046,1,0,0:0:0:0:
320,192,19086,1,0,0:0:0:0:
448,192,19126,1,0,0:0:0:0:
192,192,19166,1,0,0:0:0:0:
320,192,19206,1,0,0:0:0:0:
448,192,19286,1,0,0:0:0:0:
192,192,19286,128,0,19646:0:0:0:0:
64,192,19286,128,0,19646:0:0:0:0:
448,192,19526,1,0,0:0:0:0:
448,192,19646,1,0,0:0:0:0:
192,192,19766,1,0,0:0:0:0:
320,192,19826,1,0,0:0:0:0:
448,192,19826,128,0,20126:0:0:0:0:
192,192,20006,1,0,0:0:0:0:
64,192,20126,1,0,0:0:0:0:
320,192,20246,128,0,20383:0:0:0:0:
448,192,20246,1,0,0:0:0:0:
448,192,20383,1,0,0:0:0:0:
192,192,20383,128,0,20537:0:0:0:0:
64,192,20537,128,0,20640:0:0:0:0:
448,192,20606,1,0,0:0:0:0:
448,192,20726,1,0,0:0:0:0:
320,192,20726,128,0,20863:0:0:0:0:
64,192,20863,1,0,0:0:0:0:
192,192,20966,1,0,0:0:0:0:
320,192,20992,1,0,0:0:0:0:
64,192,21026,1,0,0:0:0:0:
192,192,21072,1,0,0:0:0:0:
448,192,21086,1,0,0:0:0:0:
448,192,21206,1,0,0:0:0:0:
320,192,21206,1,0,0:0:0:0:
192,192,21326,1,0,0:0:0:0:
64,192,21356,1,0,0:0:0:0:
320,192,21386,1,0,0:0:0:0:
448,192,21480,1,0,0:0:0:0:
320,192,21499,1,0,0:0:0:0:
448,192,21548,1,0,0:0:0:0:
64,192,21566,1,0,0:0:0:0:
192,192,21686,1,0,0:0:0:0:
64,192,21686,1,0,0:0:0:0:
320,192,21806,1,0,0:0:0:0:
192,192,21926,1,0,0:0:0:0:
448,192,21926,1,0,0:0:0:0:
64,192,22046,1,0,0:0:0:0:
64,192,22166,1,0,0:0:0:0:
192,192,22166,128,0,22371:0:0:0:0:
64,192,22406,1,0,0:0:0:0:
192,192,22446,1,0,0:0:0:0:
320,192,22486,1,0,0:0:0:0:
64,192,22526,1,0,0:0:0:0:
448,192,22526,1,0,0:0:0:0:
192,192,22586,1,0,0:0:0:0:
320,192,22646,128,0,22851:0:0:0:0:
448,192,22646,1,0,0:0:0:0:
448,192,22886,1,0,0:0:0:0:
192,192,22886,1,0,0:0:0:0:
64,192,22946,1,0,0:0:0:0:
192,192,22976,1,0,0:0:0:0:
448,192,23006,1,0,0:0:0:0:
320,192,23036,1,0,0:0:0:0:
192,192,23066,1,0,0:0:0:0:
64,192,23096,1,0,0:0:0:0:
320,192,23126,128,0,23414:0:0:0:0:
448,192,23126,128,0,23414:0:0:0:0:
64,192,23318,1,0,0:0:0:0:
192,192,23414,1,0,0:0:0:0:
64,192,23510,128,0,23798:0:0:0:0:
320,192,23510,1,0,0:0:0:0:
192,192,23510,128,0,23798:0:0:0:0:
448,192,23702,1,0,0:0:0:0:
320,192,23798,1,0,0:0:0:0:
448,192,23894,128,0,23990:0:0:0:0:
320,192,23894,128,0,23990:0:0:0:0:
64,192,23894,1,0,0:0:0:0:
448,192,24086,128,0,24182:0:0:0:0:
64,192,24086,128,0,24182:0:0:0:0:
192,192,24182,1,0,0:0:0:0:
320,192,24278,1,0,0:0:0:0:
64,192,24278,128,0,24374:0:0:0:0:
192,192,24278,128,0,24374:0:0:0:0:
448,192,24470,128,0,24566:0:0:0:0:
64,192,24470,128,0,24662:0:0:0:0:
320,192,24566,1,0,0:0:0:0:
448,192,24662,128,0,24854:0:0:0:0:
192,192,24662,1,0,0:0:0:0:
320,192,24662,128,0,24854:0:0:0:0:
64,192,24854,1,0,0:0:0:0:
192,192,24950,1,0,0:0:0:0:
64,192,25046,128,0,25334:0:0:0:0:
320,192,25046,1,0,0:0:0:0:
192,192,25046,128,0,25334:0:0:0:0:
448,192,25238,1,0,0:0:0:0:
320,192,25334,1,0,0:0:0:0:
448,192,25430,128,0,25622:0:0:0:0:
320,192,25430,128,0,25622:0:0:0:0:
64,192,25430,1,0,0:0:0:0:
192,192,25622,1,0,0:0:0:0:
448,192,25718,1,0,0:0:0:0:
64,192,25814,128,0,25958:0:0:0:0:
320,192,25814,1,0,0:0:0:0:
192,192,25814,128,0,25958:0:0:0:0:
320,192,26006,128,0,26246:0:0:0:0:
448,192,26006,1,0,0:0:0:0:
64,192,26006,128,0,26246:0:0:0:0:
64,192,26280,128,0,26417:0:0:0:0:
192,192,26417,128,0,26554:0:0:0:0:
448,192,26451,1,0,0:0:0:0:
320,192,26486,1,0,0:0:0:0:
448,192,26554,128,0,26691:0:0:0:0:
320,192,26828,128,0,26966:0:0:0:0:
192,192,26966,128,0,27146:0:0:0:0:
64,192,26966,128,0,27146:0:0:0:0:
448,192,27103,128,0,27206:0:0:0:0:
64,192,27206,1,0,0:0:0:0:
64,192,27326,128,0,27446:0:0:0:0:
192,192,27386,128,0,27506:0:0:0:0:
320,192,27446,1,0,0:0:0:0:
448,192,27446,1,0,0:0:0:0:
448,192,27506,128,0,27866:0:0:0:0:
64,192,27651,128,0,27788:0:0:0:0:
448,192,27926,1,0,0:0:0:0:
320,192,27926,128,0,28303:0:0:0:0:
192,192,28063,1,0,0:0:0:0:
64,192,28200,128,0,28337:0:0:0:0:
448,192,28303,1,0,0:0:0:0:
320,192,28406,1,0,0:0:0:0:
448,192,28406,1,0,0:0:0:0:
192,192,28611,1,0,0:0:0:0:
320,192,28646,1,0,0:0:0:0:
320,192,28714,1,0,0:0:0:0:
192,192,28783,1,0,0:0:0:0:
448,192,28886,1,0,0:0:0:0:
320,192,28886,128,0,29126:0:0:0:0:
64,192,29126,1,0,0:0:0:0:
192,192,29160,1,0,0:0:0:0:
64,192,29246,1,0,0:0:0:0:
320,192,29366,1,0,0:0:0:0:
448,192,29366,128,0,29537:0:0:0:0:
64,192,29606,1,0,0:0:0:0:
448,192,29606,1,0,0:0:0:0:
64,192,29726,1,0,0:0:0:0:
448,192,29846,1,0,0:0:0:0:
320,192,29846,128,0,30051:0:0:0:0:
448,192,30086,1,0,0:0:0:0:
320,192,30126,1,0,0:0:0:0:
192,192,30166,1,0,0:0:0:0:
448,192,30206,1,0,0:0:0:0:
64,192,30206,1,0,0:0:0:0:
320,192,30266,1,0,0:0:0:0:
64,192,30326,1,0,0:0:0:0:
192,192,30326,128,0,30531:0:0:0:0:
64,192,30566,1,0,0:0:0:0:
320,192,30566,1,0,0:0:0:0:
448,192,30626,1,0,0:0:0:0:
320,192,30656,1,0,0:0:0:0:
64,192,30686,1,0,0:0:0:0:
192,192,30716,1,0,0:0:0:0:
320,192,30746,1,0,0:0:0:0:
448,192,30776,1,0,0:0:0:0:
192,192,30806,128,0,31094:0:0:0:0:
64,192,30806,128,0,31094:0:0:0:0:
448,192,30998,1,0,0:0:0:0:
320,192,31094,1,0,0:0:0:0:
448,192,31190,128,0,31478:0:0:0:0:
192,192,31190,1,0,0:0:0:0:
320,192,31190,128,0,31478:0:0:0:0:
64,192,31382,1,0,0:0:0:0:
192,192,31478,1,0,0:0:0:0:
64,192,31574,128,0,31670:0:0:0:0:
192,192,31574,128,0,31670:0:0:0:0:
448,192,31574,1,0,0:0:0:0:
64,192,31766,128,0,31862:0:0:0:0:
448,192,31766,128,0,31862:0:0:0:0:
320,192,31862,1,0,0:0:0:0:
192,192,31958,1,0,0:0:0:0:
448,192,31958,128,0,32054:0:0:0:0:
320,192,31958,128,0,32054:0:0:0:0:
64,192,32150,128,0,32246:0:0:0:0:
448,192,32150,128,0,32342:0:0:0:0:
192,192,32246,1,0,0:0:0:0:
64,192,32342,128,0,32534:0:0:0:0:
320,192,32342,1,0,0:0:0:0:
192,192,32342,128,0,32534:0:0:0:0:
448,192,32534,1,0,0:0:0:0:
320,192,32630,1,0,0:0:0:0:
448,192,32726,128,0,33014:0:0:0:0:
192,192,32726,1,0,0:0:0:0:
320,192,32726,128,0,33014:0:0:0:0:
64,192,32918,1,0,0:0:0:0:
192,192,33014,1,0,0:0:0:0:
64,192,33110,128,0,33302:0:0:0:0:
192,192,33110,128,0,33302:0:0:0:0:
448,192,33110,1,0,0:0:0:0:
320,192,33302,1,0,0:0:0:0:
64,192,33398,1,0,0:0:0:0:
448,192,33494,128,0,33638:0:0:0:0:
192,192,33494,1,0,0:0:0:0:
320,192,33494,128,0,33638:0:0:0:0:
192,192,33686,128,0,33926:0:0:0:0:
64,192,33686,1,0,0:0:0:0:
448,192,33686,128,0,33926:0:0:0:0:
448,192,33960,128,0,34097:0:0:0:0:
320,192,34097,128,0,34234:0:0:0:0:
64,192,34234,128,0,34371:0:0:0:0:
448,192,34440,1,0,0:0:0:0:
320,192,34474,1,0,0:0:0:0:
64,192,34508,128,0,34577:0:0:0:0:
192,192,34543,1,0,0:0:0:0:
320,192,34577,1,0,0:0:0:0:
448,192,34616,128,0,35006:0:0:0:0:
64,192,34646,128,0,34946:0:0:0:0:
192,192,34646,128,0,34946:0:0:0:0:
64,192,35006,1,0,0:0:0:0:
64,192,35126,1,0,0:0:0:0:
448,192,35228,128,0,35366:0:0:0:0:
192,192,35246,1,0,0:0:0:0:
192,192,35366,1,0,0:0:0:0:
320,192,35486,1,0,0:0:0:0:
448,192,35606,1,0,0:0:0:0:
192,192,35640,128,0,35726:0:0:0:0:
448,192,35726,1,0,0:0:0:0:
64,192,35777,128,0,35966:0:0:0:0:
320,192,35846,1,0,0:0:0:0:
320,192,35966,1,0,0:0:0:0:
192,192,36086,1,0,0:0:0:0:
64,192,36206,1,0,0:0:0:0:
64,192,36326,1,0,0:0:0:0:
320,192,36326,128,0,36497:0:0:0:0:
192,192,36446,1,0,0:0:0:0:
448,192,36566,1,0,0:0:0:0:
320,192,36686,1,0,0:0:0:0:
192,192,36806,1,0,0:0:0:0:
64,192,36874,128,0,37046:0:0:0:0:
320,192,36926,1,0,0:0:0:0:
448,192,37046,1,0,0:0:0:0:
192,192,37166,1,0,0:0:0:0:
64,192,37286,1,0,0:0:0:0:
64,192,37406,1,0,0:0:0:0:
448,192,37423,128,0,37646:0:0:0:0:
192,192,37526,1,0,0:0:0:0:
192,192,37646,1,0,0:0:0:0:
320,192,37766,1,0,0:0:0:0:
448,192,37886,1,0,0:0:0:0:
64,192,37937,128,0,38126:0:0:0:0:
320,192,38006,1,0,0:0:0:0:
192,192,38126,1,0,0:0:0:0:
64,192,38246,128,0,38426:0:0:0:0:
320,192,38276,128,0,38486:0:0:0:0:
448,192,38314,128,0,38486:0:0:0:0:
192,192,38486,128,0,38666:0:0:0:0:
64,192,38486,128,0,38606:0:0:0:0:
320,192,38606,1,0,0:0:0:0:
448,192,38726,1,0,0:0:0:0:
320,192,38846,1,0,0:0:0:0:
192,192,38966,1,0,0:0:0:0:
448,192,39034,128,0,39257:0:0:0:0:
320,192,39034,1,0,0:0:0:0:
64,192,39086,1,0,0:0:0:0:
64,192,39206,1,0,0:0:0:0:
192,192,39326,1,0,0:0:0:0:
320,192,39446,1,0,0:0:0:0:
448,192,39566,1,0,0:0:0:0:
64,192,39583,128,0,39806:0:0:0:0:
192,192,39583,1,0,0:0:0:0:
448,192,39686,1,0,0:0:0:0:
320,192,39806,1,0,0:0:0:0:
192,192,39926,1,0,0:0:0:0:
64,192,40046,1,0,0:0:0:0:
448,192,40131,128,0,40337:0:0:0:0:
320,192,40131,1,0,0:0:0:0:
64,192,40166,1,0,0:0:0:0:
192,192,40286,1,0,0:0:0:0:
320,192,40406,128,0,40446:0:0:0:0:
448,192,40406,128,0,40446:0:0:0:0:
448,192,40526,1,0,0:0:0:0:
320,192,40646,1,0,0:0:0:0:
192,192,40680,128,0,40886:0:0:0:0:
64,192,40680,1,0,0:0:0:0:
320,192,40766,1,0,0:0:0:0:
448,192,40886,1,0,0:0:0:0:
192,192,40966,1,0,0:0:0:0:
320,192,41006,1,0,0:0:0:0:
64,192,41126,1,0,0:0:0:0:
320,192,41228,128,0,41417:0:0:0:0:
448,192,41228,1,0,0:0:0:0:
192,192,41246,1,0,0:0:0:0:
192,192,41366,1,0,0:0:0:0:
320,192,41486,1,0,0:0:0:0:
448,192,41606,1,0,0:0:0:0:
448,192,41726,1,0,0:0:0:0:
64,192,41777,128,0,41966:0:0:0:0:
192,192,41777,1,0,0:0:0:0:
320,192,41846,1,0,0:0:0:0:
320,192,41966,1,0,0:0:0:0:
192,192,42086,1,0,0:0:0:0:
448,192,42326,128,0,42617:0:0:0:0:
64,192,42326,1,0,0:0:0:0:
320,192,42326,128,0,42366:0:0:0:0:
64,192,42446,1,0,0:0:0:0:
192,192,42566,1,0,0:0:0:0:
320,192,42686,1,0,0:0:0:0:
320,192,42806,1,0,0:0:0:0:
192,192,42874,128,0,43217:0:0:0:0:
64,192,42874,1,0,0:0:0:0:
448,192,42926,1,0,0:0:0:0:
448,192,43046,1,0,0:0:0:0:
320,192,43166,1,0,0:0:0:0:
192,192,43286,1,0,0:0:0:0:
64,192,43406,1,0,0:0:0:0:
320,192,43423,128,0,43697:0:0:0:0:
448,192,43423,1,0,0:0:0:0:
64,192,43526,1,0,0:0:0:0:
192,192,43646,1,0,0:0:0:0:
320,192,43766,1,0,0:0:0:0:
448,192,43886,1,0,0:0:0:0:
192,192,43971,1,0,0:0:0:0:
64,192,43971,128,0,44177:0:0:0:0:
448,192,44006,1,0,0:0:0:0:
320,192,44126,1,0,0:0:0:0:
192,192,44246,128,0,44286:0:0:0:0:
64,192,44246,128,0,44286:0:0:0:0:
64,192,44366,1,0,0:0:0:0:
64,192,44486,1,0,0:0:0:0:
448,192,44520,128,0,44726:0:0:0:0:
320,192,44520,1,0,0:0:0:0:
192,192,44606,1,0,0:0:0:0:
192,192,44726,1,0,0:0:0:0:
448,192,44806,1,0,0:0:0:0:
320,192,44846,1,0,0:0:0:0:
448,192,44966,1,0,0:0:0:0:
192,192,45068,128,0,45257:0:0:0:0:
64,192,45068,1,0,0:0:0:0:
448,192,45086,1,0,0:0:0:0:
320,192,45206,1,0,0:0:0:0:
192,192,45326,1,0,0:0:0:0:
64,192,45446,1,0,0:0:0:0:
64,192,45566,1,0,0:0:0:0:
448,192,45617,128,0,45857:0:0:0:0:
320,192,45617,1,0,0:0:0:0:
192,192,45686,1,0,0:0:0:0:
192,192,45806,1,0,0:0:0:0:
320,192,45926,128,0,45966:0:0:0:0:
64,192,46166,128,0,46440:0:0:0:0:
192,192,46166,1,0,0:0:0:0:
320,192,46440,1,0,0:0:0:0:
448,192,46714,128,0,46988:0:0:0:0:
64,192,46714,1,0,0:0:0:0:
320,192,46988,1,0,0:0:0:0:
192,192,47263,128,0,47606:0:0:0:0:
448,192,47263,1,0,0:0:0:0:
320,192,47537,1,0,0:0:0:0:
64,192,47811,128,0,48086:0:0:0:0:
192,192,47811,1,0,0:0:0:0:
320,192,48086,1,0,0:0:0:0:
64,192,48360,1,0,0:0:0:0:
448,192,48360,128,0,48634:0:0:0:0:
192,192,48634,1,0,0:0:0:0:
448,192,48908,1,0,0:0:0:0:
192,192,48908,128,0,49148:0:0:0:0:
448,192,49486,128,0,49659:0:0:0:0:
320,192,49526,128,0,49659:0:0:0:0:
64,192,49659,1,0,0:0:0:0:
192,192,49659,1,0,0:0:0:0:
192,192,49726,128,0,49966:0:0:0:0:
64,192,49726,128,0,49966:0:0:0:0:
320,192,49736,128,0,49946:0:0:0:0:
64,192,50006,5,0,0:0:0:0:
448,192,50006,1,0,0:0:0:0:
320,192,50006,1,0,0:0:0:0:
192,192,50074,1,0,0:0:0:0:
320,192,50143,1,0,0:0:0:0:
448,192,50211,1,0,0:0:0:0:
192,192,50280,1,0,0:0:0:0:
320,192,50348,1,0,0:0:0:0:
64,192,50417,1,0,0:0:0:0:
192,192,50554,1,0,0:0:0:0:
448,192,50554,1,0,0:0:0:0:
320,192,50623,1,0,0:0:0:0:
64,192,50691,1,0,0:0:0:0:
192,192,50760,1,0,0:0:0:0:
320,192,50828,1,0,0:0:0:0:
64,192,50828,1,0,0:0:0:0:
448,192,50897,1,0,0:0:0:0:
192,192,50966,1,0,0:0:0:0:
64,192,50966,1,0,0:0:0:0:
448,192,51103,1,0,0:0:0:0:
64,192,51103,1,0,0:0:0:0:
320,192,51171,1,0,0:0:0:0:
192,192,51240,1,0,0:0:0:0:
320,192,51308,1,0,0:0:0:0:
448,192,51377,1,0,0:0:0:0:
64,192,51446,1,0,0:0:0:0:
448,192,51514,1,0,0:0:0:0:
64,192,51651,1,0,0:0:0:0:
192,192,51720,1,0,0:0:0:0:
320,192,51788,1,0,0:0:0:0:
64,192,51857,1,0,0:0:0:0:
320,192,51926,1,0,0:0:0:0:
448,192,51926,1,0,0:0:0:0:
64,192,51994,1,0,0:0:0:0:
192,192,52063,1,0,0:0:0:0:
320,192,52131,1,0,0:0:0:0:
64,192,52166,1,0,0:0:0:0:
192,192,52200,1,0,0:0:0:0:
448,192,52268,1,0,0:0:0:0:
320,192,52337,1,0,0:0:0:0:
192,192,52406,1,0,0:0:0:0:
448,192,52474,1,0,0:0:0:0:
320,192,52543,1,0,0:0:0:0:
64,192,52611,1,0,0:0:0:0:
192,192,52748,1,0,0:0:0:0:
448,192,52748,1,0,0:0:0:0:
64,192,52817,1,0,0:0:0:0:
320,192,52886,1,0,0:0:0:0:
448,192,52886,1,0,0:0:0:0:
192,192,52954,1,0,0:0:0:0:
320,192,53023,1,0,0:0:0:0:
64,192,53091,1,0,0:0:0:0:
192,192,53126,1,0,0:0:0:0:
448,192,53160,1,0,0:0:0:0:
192,192,53228,1,0,0:0:0:0:
448,192,53297,1,0,0:0:0:0:
64,192,53297,1,0,0:0:0:0:
320,192,53366,1,0,0:0:0:0:
192,192,53434,1,0,0:0:0:0:
448,192,53503,1,0,0:0:0:0:
320,192,53571,1,0,0:0:0:0:
64,192,53640,1,0,0:0:0:0:
320,192,53708,1,0,0:0:0:0:
448,192,53777,1,0,0:0:0:0:
192,192,53846,1,0,0:0:0:0:
64,192,53846,1,0,0:0:0:0:
64,192,53942,1,0,0:0:0:0:
320,192,53942,1,0,0:0:0:0:
192,192,53990,1,0,0:0:0:0:
448,192,54038,1,0,0:0:0:0:
320,192,54134,1,0,0:0:0:0:
64,192,54134,1,0,0:0:0:0:
448,192,54230,1,0,0:0:0:0:
64,192,54230,1,0,0:0:0:0:
64,192,54422,1,0,0:0:0:0:
320,192,54422,1,0,0:0:0:0:
448,192,54518,1,0,0:0:0:0:
64,192,54518,1,0,0:0:0:0:
320,192,54566,1,0,0:0:0:0:
192,192,54614,1,0,0:0:0:0:
64,192,54710,1,0,0:0:0:0:
320,192,54710,1,0,0:0:0:0:
448,192,54806,1,0,0:0:0:0:
64,192,54806,1,0,0:0:0:0:
192,192,54806,1,0,0:0:0:0:
192,192,54998,1,0,0:0:0:0:
448,192,54998,1,0,0:0:0:0:
320,192,55046,1,0,0:0:0:0:
64,192,55080,1,0,0:0:0:0:
192,192,55114,1,0,0:0:0:0:
320,192,55148,1,0,0:0:0:0:
448,192,55190,1,0,0:0:0:0:
64,192,55238,1,0,0:0:0:0:
320,192,55286,1,0,0:0:0:0:
192,192,55382,1,0,0:0:0:0:
64,192,55478,1,0,0:0:0:0:
448,192,55478,1,0,0:0:0:0:
192,192,55574,1,0,0:0:0:0:
448,192,55574,1,0,0:0:0:0:
64,192,55670,1,0,0:0:0:0:
320,192,55670,1,0,0:0:0:0:
320,192,55766,1,0,0:0:0:0:
448,192,55766,1,0,0:0:0:0:
64,192,55862,1,0,0:0:0:0:
448,192,55862,1,0,0:0:0:0:
320,192,55958,1,0,0:0:0:0:
192,192,56006,1,0,0:0:0:0:
64,192,56006,1,0,0:0:0:0:
448,192,56054,1,0,0:0:0:0:
64,192,56150,1,0,0:0:0:0:
448,192,56246,1,0,0:0:0:0:
192,192,56246,1,0,0:0:0:0:
320,192,56342,1,0,0:0:0:0:
64,192,56342,1,0,0:0:0:0:
192,192,56438,1,0,0:0:0:0:
320,192,56534,1,0,0:0:0:0:
192,192,56630,1,0,0:0:0:0:
64,192,56630,1,0,0:0:0:0:
320,192,56726,128,0,56822:0:0:0:0:
448,192,56726,128,0,56870:0:0:0:0:
64,192,56822,1,0,0:0:0:0:
192,192,56870,1,0,0:0:0:0:
320,192,56918,1,0,0:0:0:0:
448,192,56966,1,0,0:0:0:0:
64,192,56966,1,0,0:0:0:0:
192,192,57014,1,0,0:0:0:0:
320,192,57062,1,0,0:0:0:0:
64,192,57110,1,0,0:0:0:0:
448,192,57206,1,0,0:0:0:0:
192,192,57206,1,0,0:0:0:0:
320,192,57302,1,0,0:0:0:0:
64,192,57302,1,0,0:0:0:0:
192,192,57398,1,0,0:0:0:0:
320,192,57398,1,0,0:0:0:0:
448,192,57494,1,0,0:0:0:0:
64,192,57494,1,0,0:0:0:0:
192,192,57590,1,0,0:0:0:0:
448,192,57590,1,0,0:0:0:0:
448,192,57686,5,0,0:0:0:0:
64,192,57686,1,0,0:0:0:0:
192,192,57686,1,0,0:0:0:0:
320,192,57754,1,0,0:0:0:0:
192,192,57823,1,0,0:0:0:0:
64,192,57891,1,0,0:0:0:0:
320,192,57960,1,0,0:0:0:0:
192,192,58028,1,0,0:0:0:0:
448,192,58097,1,0,0:0:0:0:
320,192,58234,1,0,0:0:0:0:
64,192,58234,1,0,0:0:0:0:
192,192,58303,1,0,0:0:0:0:
448,192,58371,1,0,0:0:0:0:
320,192,58440,1,0,0:0:0:0:
192,192,58508,1,0,0:0:0:0:
448,192,58508,1,0,0:0:0:0:
64,192,58577,1,0,0:0:0:0:
320,192,58646,1,0,0:0:0:0:
448,192,58646,1,0,0:0:0:0:
64,192,58783,1,0,0:0:0:0:
448,192,58783,1,0,0:0:0:0:
192,192,58851,1,0,0:0:0:0:
320,192,58920,1,0,0:0:0:0:
192,192,58988,1,0,0:0:0:0:
64,192,59057,1,0,0:0:0:0:
448,192,59126,1,0,0:0:0:0:
64,192,59194,1,0,0:0:0:0:
448,192,59331,1,0,0:0:0:0:
320,192,59400,1,0,0:0:0:0:
192,192,59468,1,0,0:0:0:0:
448,192,59537,1,0,0:0:0:0:
192,192,59606,1,0,0:0:0:0:
64,192,59606,1,0,0:0:0:0:
448,192,59674,1,0,0:0:0:0:
320,192,59743,1,0,0:0:0:0:
192,192,59811,1,0,0:0:0:0:
448,192,59846,1,0,0:0:0:0:
320,192,59880,1,0,0:0:0:0:
64,192,59948,1,0,0:0:0:0:
192,192,60017,1,0,0:0:0:0:
320,192,60086,1,0,0:0:0:0:
448,192,60154,1,0,0:0:0:0:
64,192,60154,1,0,0:0:0:0:
192,192,60223,1,0,0:0:0:0:
320,192,60291,1,0,0:0:0:0:
320,192,60428,1,0,0:0:0:0:
64,192,60428,1,0,0:0:0:0:
448,192,60497,1,0,0:0:0:0:
192,192,60566,1,0,0:0:0:0:
64,192,60566,1,0,0:0:0:0:
320,192,60634,1,0,0:0:0:0:
192,192,60703,1,0,0:0:0:0:
448,192,60771,1,0,0:0:0:0:
320,192,60806,1,0,0:0:0:0:
64,192,60840,1,0,0:0:0:0:
320,192,60908,1,0,0:0:0:0:
64,192,60977,1,0,0:0:0:0:
448,192,60977,1,0,0:0:0:0:
192,192,61046,1,0,0:0:0:0:
320,192,61114,1,0,0:0:0:0:
64,192,61183,1,0,0:0:0:0:
192,192,61251,1,0,0:0:0:0:
448,192,61320,1,0,0:0:0:0:
192,192,61388,1,0,0:0:0:0:
64,192,61457,1,0,0:0:0:0:
320,192,61526,1,0,0:0:0:0:
448,192,61526,1,0,0:0:0:0:
448,192,61622,1,0,0:0:0:0:
192,192,61622,1,0,0:0:0:0:
320,192,61670,1,0,0:0:0:0:
64,192,61718,1,0,0:0:0:0:
192,192,61814,1,0,0:0:0:0:
448,192,61814,1,0,0:0:0:0:
64,192,61910,1,0,0:0:0:0:
448,192,61910,1,0,0:0:0:0:
64,192,62102,1,0,0:0:0:0:
320,192,62102,1,0,0:0:0:0:
64,192,62198,1,0,0:0:0:0:
448,192,62198,1,0,0:0:0:0:
192,192,62246,1,0,0:0:0:0:
320,192,62294,1,0,0:0:0:0:
448,192,62390,1,0,0:0:0:0:
192,192,62390,1,0,0:0:0:0:
64,192,62486,1,0,0:0:0:0:
448,192,62486,1,0,0:0:0:0:
320,192,62486,1,0,0:0:0:0:
192,192,62678,1,0,0:0:0:0:
448,192,62678,1,0,0:0:0:0:
320,192,62726,1,0,0:0:0:0:
64,192,62760,1,0,0:0:0:0:
192,192,62794,1,0,0:0:0:0:
320,192,62828,1,0,0:0:0:0:
448,192,62870,1,0,0:0:0:0:
64,192,62918,1,0,0:0:0:0:
320,192,62966,1,0,0:0:0:0:
192,192,63062,1,0,0:0:0:0:
64,192,63158,1,0,0:0:0:0:
448,192,63158,1,0,0:0:0:0:
320,192,63254,1,0,0:0:0:0:
64,192,63254,1,0,0:0:0:0:
448,192,63350,1,0,0:0:0:0:
192,192,63350,1,0,0:0:0:0:
320,192,63446,1,0,0:0:0:0:
192,192,63446,1,0,0:0:0:0:
64,192,63446,1,0,0:0:0:0:
64,192,63542,1,0,0:0:0:0:
448,192,63542,1,0,0:0:0:0:
192,192,63638,1,0,0:0:0:0:
320,192,63686,1,0,0:0:0:0:
448,192,63686,1,0,0:0:0:0:
64,192,63734,1,0,0:0:0:0:
448,192,63830,1,0,0:0:0:0:
64,192,63926,1,0,0:0:0:0:
320,192,63926,1,0,0:0:0:0:
192,192,64022,1,0,0:0:0:0:
448,192,64022,1,0,0:0:0:0:
320,192,64118,1,0,0:0:0:0:
192,192,64214,1,0,0:0:0:0:
64,192,64214,1,0,0:0:0:0:
320,192,64310,1,0,0:0:0:0:
448,192,64310,1,0,0:0:0:0:
192,192,64406,1,0,0:0:0:0:
64,192,64406,1,0,0:0:0:0:
448,192,64474,1,0,0:0:0:0:
64,192,64543,1,0,0:0:0:0:
448,192,64543,1,0,0:0:0:0:
192,192,64611,1,0,0:0:0:0:
320,192,64611,1,0,0:0:0:0:
64,192,64680,1,0,0:0:0:0:
448,192,64680,1,0,0:0:0:0:
192,192,64817,1,0,0:0:0:0:
320,192,64817,1,0,0:0:0:0:
64,192,64817,1,0,0:0:0:0:
448,192,64886,1,0,0:0:0:0:
320,192,64954,1,0,0:0:0:0:
64,192,64954,1,0,0:0:0:0:
448,192,65023,1,0,0:0:0:0:
64,192,65023,1,0,0:0:0:0:
192,192,65160,1,0,0:0:0:0:
448,192,65160,1,0,0:0:0:0:
448,192,65228,1,0,0:0:0:0:
64,192,65228,1,0,0:0:0:0:
192,192,65297,1,0,0:0:0:0:
320,192,65366,1,0,0:0:0:0:
448,192,65366,1,0,0:0:0:0:
192,192,65434,1,0,0:0:0:0:
320,192,65503,1,0,0:0:0:0:
448,192,65571,1,0,0:0:0:0:
192,192,65640,1,0,0:0:0:0:
320,192,65708,1,0,0:0:0:0:
64,192,65777,1,0,0:0:0:0:
192,192,65914,1,0,0:0:0:0:
448,192,65914,1,0,0:0:0:0:
320,192,65983,1,0,0:0:0:0:
64,192,66051,1,0,0:0:0:0:
192,192,66120,1,0,0:0:0:0:
320,192,66188,1,0,0:0:0:0:
64,192,66188,1,0,0:0:0:0:
448,192,66257,1,0,0:0:0:0:
192,192,66326,1,0,0:0:0:0:
64,192,66326,1,0,0:0:0:0:
448,192,66463,1,0,0:0:0:0:
64,192,66463,1,0,0:0:0:0:
320,192,66531,1,0,0:0:0:0:
192,192,66600,1,0,0:0:0:0:
320,192,66668,1,0,0:0:0:0:
448,192,66737,1,0,0:0:0:0:
64,192,66806,1,0,0:0:0:0:
448,192,66874,1,0,0:0:0:0:
64,192,67011,1,0,0:0:0:0:
192,192,67080,1,0,0:0:0:0:
320,192,67148,1,0,0:0:0:0:
64,192,67217,1,0,0:0:0:0:
320,192,67286,1,0,0:0:0:0:
448,192,67286,1,0,0:0:0:0:
64,192,67354,1,0,0:0:0:0:
448,192,67388,1,0,0:0:0:0:
320,192,67388,1,0,0:0:0:0:
192,192,67423,1,0,0:0:0:0:
448,192,67478,1,0,0:0:0:0:
320,192,67526,1,0,0:0:0:0:
64,192,67574,1,0,0:0:0:0:
192,192,67594,1,0,0:0:0:0:
448,192,67628,1,0,0:0:0:0:
64,192,67697,1,0,0:0:0:0:
320,192,67766,1,0,0:0:0:0:
448,192,67766,1,0,0:0:0:0:
64,192,67862,1,0,0:0:0:0:
320,192,67910,1,0,0:0:0:0:
448,192,67958,1,0,0:0:0:0:
64,192,67958,1,0,0:0:0:0:
448,192,68054,1,0,0:0:0:0:
64,192,68054,1,0,0:0:0:0:
448,192,68150,1,0,0:0:0:0:
64,192,68150,1,0,0:0:0:0:
320,192,68246,128,0,68348:0:0:0:0:
192,192,68246,128,0,68314:0:0:0:0:
64,192,68390,1,0,0:0:0:0:
192,192,68438,1,0,0:0:0:0:
320,192,68534,1,0,0:0:0:0:
448,192,68534,1,0,0:0:0:0:
192,192,68582,1,0,0:0:0:0:
320,192,68630,1,0,0:0:0:0:
320,192,68678,1,0,0:0:0:0:
64,192,68794,1,0,0:0:0:0:
64,192,68870,1,0,0:0:0:0:
192,192,68906,1,0,0:0:0:0:
448,192,68931,1,0,0:0:0:0:
320,192,68966,1,0,0:0:0:0:
64,192,69014,1,0,0:0:0:0:
192,192,69110,128,0,69206:0:0:0:0:
448,192,69206,128,0,69343:0:0:0:0:
320,192,69206,128,0,69274:0:0:0:0:
64,192,69274,1,0,0:0:0:0:
192,192,69343,1,0,0:0:0:0:
320,192,69411,1,0,0:0:0:0:
192,192,69446,128,0,69638:0:0:0:0:
64,192,69446,128,0,69638:0:0:0:0:
448,192,69590,1,0,0:0:0:0:
192,192,69734,128,0,69878:0:0:0:0:
64,192,69734,128,0,69878:0:0:0:0:
64,192,69974,1,0,0:0:0:0:
320,192,70022,128,0,70118:0:0:0:0:
448,192,70022,128,0,70118:0:0:0:0:
320,192,70166,128,0,70262:0:0:0:0:
192,192,70166,128,0,70262:0:0:0:0:
448,192,70310,128,0,70550:0:0:0:0:
192,192,70310,128,0,70406:0:0:0:0:
64,192,70406,128,0,70502:0:0:0:0:
64,192,70550,1,0,0:0:0:0:
448,192,70598,128,0,70790:0:0:0:0:
320,192,70598,128,0,70790:0:0:0:0:
192,192,70598,1,0,0:0:0:0:
192,192,70886,1,0,0:0:0:0:
64,192,70886,1,0,0:0:0:0:
448,192,70886,128,0,71126:0:0:0:0:
320,192,70934,128,0,71126:0:0:0:0:
64,192,71126,1,0,0:0:0:0:
192,192,71126,1,0,0:0:0:0:
192,192,71222,1,0,0:0:0:0:
64,192,71222,1,0,0:0:0:0:
320,192,71318,1,0,0:0:0:0:
448,192,71318,1,0,0:0:0:0:
64,192,71366,1,0,0:0:0:0:
192,192,71366,1,0,0:0:0:0:
448,192,71414,1,0,0:0:0:0:
320,192,71414,1,0,0:0:0:0:
192,192,71510,1,0,0:0:0:0:
64,192,71510,1,0,0:0:0:0:
448,192,71654,1,0,0:0:0:0:
64,192,71654,1,0,0:0:0:0:
192,192,71702,1,0,0:0:0:0:
320,192,71702,1,0,0:0:0:0:
320,192,71798,1,0,0:0:0:0:
192,192,71798,1,0,0:0:0:0:
448,192,71894,1,0,0:0:0:0:
64,192,71894,1,0,0:0:0:0:
320,192,71942,128,0,72086:0:0:0:0:
64,192,72086,1,0,0:0:0:0:
192,192,72086,128,0,72223:0:0:0:0:
448,192,72223,128,0,72308:0:0:0:0:
64,192,72274,128,0,72308:0:0:0:0:
192,192,72308,128,0,72360:0:0:0:0:
448,192,72360,128,0,72446:0:0:0:0:
64,192,72411,128,0,72446:0:0:0:0:
192,192,72446,128,0,72497:0:0:0:0:
448,192,72497,128,0,72583:0:0:0:0:
64,192,72548,128,0,72583:0:0:0:0:
192,192,72583,128,0,72634:0:0:0:0:
448,192,72634,128,0,72720:0:0:0:0:
64,192,72686,128,0,72720:0:0:0:0:
192,192,72720,128,0,72771:0:0:0:0:
448,192,72771,128,0,72857:0:0:0:0:
64,192,72823,128,0,72857:0:0:0:0:
192,192,72857,128,0,72908:0:0:0:0:
448,192,72908,128,0,72994:0:0:0:0:
64,192,72960,128,0,72994:0:0:0:0:
192,192,72994,128,0,73046:0:0:0:0:
320,192,73046,1,0,0:0:0:0:
448,192,73046,1,0,0:0:0:0:
192,192,73114,1,0,0:0:0:0:
320,192,73183,1,0,0:0:0:0:
448,192,73251,1,0,0:0:0:0:
192,192,73320,1,0,0:0:0:0:
320,192,73388,1,0,0:0:0:0:
64,192,73457,1,0,0:0:0:0:
448,192,73594,1,0,0:0:0:0:
192,192,73594,1,0,0:0:0:0:
320,192,73663,1,0,0:0:0:0:
64,192,73731,1,0,0:0:0:0:
192,192,73800,1,0,0:0:0:0:
64,192,73868,1,0,0:0:0:0:
320,192,73868,1,0,0:0:0:0:
448,192,73937,1,0,0:0:0:0:
64,192,74006,1,0,0:0:0:0:
192,192,74006,1,0,0:0:0:0:
448,192,74143,1,0,0:0:0:0:
320,192,74211,1,0,0:0:0:0:
64,192,74246,1,0,0:0:0:0:
192,192,74280,1,0,0:0:0:0:
320,192,74348,1,0,0:0:0:0:
64,192,74417,1,0,0:0:0:0:
192,192,74486,1,0,0:0:0:0:
448,192,74554,1,0,0:0:0:0:
64,192,74691,1,0,0:0:0:0:
192,192,74760,1,0,0:0:0:0:
320,192,74828,1,0,0:0:0:0:
64,192,74897,1,0,0:0:0:0:
320,192,74966,1,0,0:0:0:0:
448,192,74966,1,0,0:0:0:0:
64,192,75034,1,0,0:0:0:0:
448,192,75062,1,0,0:0:0:0:
320,192,75062,1,0,0:0:0:0:
192,192,75103,1,0,0:0:0:0:
448,192,75158,1,0,0:0:0:0:
192,192,75206,1,0,0:0:0:0:
64,192,75206,1,0,0:0:0:0:
448,192,75254,1,0,0:0:0:0:
64,192,75302,1,0,0:0:0:0:
448,192,75350,1,0,0:0:0:0:
64,192,75446,1,0,0:0:0:0:
448,192,75494,1,0,0:0:0:0:
64,192,75590,1,0,0:0:0:0:
448,192,75638,1,0,0:0:0:0:
64,192,75734,1,0,0:0:0:0:
448,192,75782,1,0,0:0:0:0:
64,192,75830,1,0,0:0:0:0:
448,192,75878,1,0,0:0:0:0:
192,192,75926,128,0,75979:0:0:0:0:
64,192,75926,1,0,0:0:0:0:
320,192,75979,128,0,76032:0:0:0:0:
64,192,76070,1,0,0:0:0:0:
448,192,76118,1,0,0:0:0:0:
320,192,76139,128,0,76358:0:0:0:0:
64,192,76262,128,0,76358:0:0:0:0:
448,192,76358,1,0,0:0:0:0:
64,192,76406,1,0,0:0:0:0:
320,192,76454,1,0,0:0:0:0:
192,192,76502,1,0,0:0:0:0:
448,192,76550,1,0,0:0:0:0:
320,192,76598,1,0,0:0:0:0:
64,192,76694,1,0,0:0:0:0:
192,192,76742,1,0,0:0:0:0:
320,192,76790,1,0,0:0:0:0:
64,192,76838,1,0,0:0:0:0:
448,192,76886,128,0,77023:0:0:0:0:
192,192,76886,128,0,76954:0:0:0:0:
192,192,77023,128,0,77194:0:0:0:0:
64,192,77023,128,0,77194:0:0:0:0:
64,192,77297,128,0,77400:0:0:0:0:
192,192,77318,1,0,0:0:0:0:
320,192,77318,1,0,0:0:0:0:
64,192,77462,1,0,0:0:0:0:
192,192,77552,1,0,0:0:0:0:
320,192,77558,128,0,77846:0:0:0:0:
448,192,77558,1,0,0:0:0:0:
64,192,77846,128,0,77990:0:0:0:0:
192,192,77846,128,0,77990:0:0:0:0:
192,192,78038,1,0,0:0:0:0:
64,192,78038,1,0,0:0:0:0:
64,192,78134,128,0,78518:0:0:0:0:
192,192,78154,1,0,0:0:0:0:
448,192,78154,1,0,0:0:0:0:
448,192,78278,1,0,0:0:0:0:
192,192,78512,1,0,0:0:0:0:
448,192,78518,1,0,0:0:0:0:
320,192,78518,1,0,0:0:0:0:
448,192,78614,1,0,0:0:0:0:
192,192,78710,1,0,0:0:0:0:
64,192,78710,1,0,0:0:0:0:
320,192,78806,128,0,78854:0:0:0:0:
448,192,78806,1,0,0:0:0:0:
192,192,78854,128,0,78902:0:0:0:0:
448,192,78902,128,0,78998:0:0:0:0:
64,192,78998,1,0,0:0:0:0:
192,192,79046,1,0,0:0:0:0:
320,192,79094,128,0,79190:0:0:0:0:
64,192,79190,128,0,79334:0:0:0:0:
320,192,79353,128,0,79478:0:0:0:0:
64,192,79382,128,0,79478:0:0:0:0:
448,192,79478,1,0,0:0:0:0:
320,192,79526,1,0,0:0:0:0:
192,192,79574,1,0,0:0:0:0:
320,192,79622,1,0,0:0:0:0:
64,192,79663,128,0,79766:0:0:0:0:
448,192,79663,128,0,79766:0:0:0:0:
320,192,79766,1,0,0:0:0:0:
192,192,79766,1,0,0:0:0:0:
448,192,79886,128,0,79920:0:0:0:0:
320,192,79920,128,0,79971:0:0:0:0:
64,192,79971,128,0,80057:0:0:0:0:
448,192,80023,128,0,80057:0:0:0:0:
320,192,80057,128,0,80108:0:0:0:0:
64,192,80108,128,0,80194:0:0:0:0:
448,192,80160,128,0,80194:0:0:0:0:
320,192,80194,128,0,80246:0:0:0:0:
64,192,80246,128,0,80331:0:0:0:0:
448,192,80297,128,0,80331:0:0:0:0:
320,192,80331,128,0,80383:0:0:0:0:
64,192,80383,128,0,80468:0:0:0:0:
448,192,80434,128,0,80468:0:0:0:0:
320,192,80468,128,0,80520:0:0:0:0:
64,192,80520,128,0,80606:0:0:0:0:
448,192,80571,128,0,80606:0:0:0:0:
320,192,80606,128,0,80657:0:0:0:0:
64,192,80657,128,0,80726:0:0:0:0:
192,192,80726,1,0,0:0:0:0:
320,192,80766,1,0,0:0:0:0:
448,192,80806,128,0,82686:0:0:0:0:
64,192,80828,1,0,0:0:0:0:
192,192,80863,1,0,0:0:0:0:
192,192,81706,1,0,0:0:0:0:
320,192,81946,1,0,0:0:0:0:
192,192,82186,1,0,0:0:0:0:
64,192,82426,1,0,0:0:0:0:
64,192,82606,1,0,0:0:0:0:
192,192,82646,1,0,0:0:0:0:
320,192,82686,1,0,0:0:0:0:
64,192,82966,128,0,83211:0:0:0:0:
192,192,83126,1,0,0:0:0:0:
320,192,83166,1,0,0:0:0:0:
448,192,83206,1,0,0:0:0:0:
192,192,83211,128,0,83743:0:0:0:0:
320,192,83246,128,0,83743:0:0:0:0:
448,192,83743,128,0,83828:0:0:0:0:
64,192,83794,128,0,83828:0:0:0:0:
192,192,83828,128,0,83880:0:0:0:0:
448,192,83880,128,0,83966:0:0:0:0:
64,192,83931,128,0,83966:0:0:0:0:
192,192,83966,128,0,84017:0:0:0:0:
448,192,84017,128,0,84103:0:0:0:0:
64,192,84068,128,0,84103:0:0:0:0:
192,192,84103,128,0,84154:0:0:0:0:
448,192,84154,128,0,84240:0:0:0:0:
64,192,84206,128,0,84240:0:0:0:0:
192,192,84240,128,0,84291:0:0:0:0:
448,192,84291,128,0,84377:0:0:0:0:
64,192,84343,128,0,84377:0:0:0:0:
192,192,84377,128,0,84428:0:0:0:0:
448,192,84428,128,0,84514:0:0:0:0:
64,192,84480,128,0,84514:0:0:0:0:
192,192,84514,128,0,84566:0:0:0:0:
320,192,84566,128,0,84703:0:0:0:0:
448,192,84586,1,0,0:0:0:0:
64,192,84840,128,0,84977:0:0:0:0:
448,192,85114,128,0,85251:0:0:0:0:
320,192,85183,1,0,0:0:0:0:
64,192,85388,128,0,85526:0:0:0:0:
192,192,85628,1,0,0:0:0:0:
320,192,85663,128,0,85800:0:0:0:0:
64,192,85697,1,0,0:0:0:0:
448,192,85937,128,0,86074:0:0:0:0:
64,192,86211,128,0,86348:0:0:0:0:
320,192,86246,1,0,0:0:0:0:
192,192,86486,128,0,86623:0:0:0:0:
64,192,86691,1,0,0:0:0:0:
320,192,86760,128,0,86897:0:0:0:0:
448,192,87034,128,0,87171:0:0:0:0:
64,192,87274,128,0,87411:0:0:0:0:
448,192,87308,1,0,0:0:0:0:
192,192,87583,128,0,87720:0:0:0:0:
64,192,87857,1,0,0:0:0:0:
448,192,87891,128,0,88028:0:0:0:0:
320,192,88131,128,0,88268:0:0:0:0:
448,192,88406,128,0,88646:0:0:0:0:
64,192,88406,128,0,88714:0:0:0:0:
320,192,88440,128,0,88680:0:0:0:0:
192,192,88474,128,0,88783:0:0:0:0:
448,192,88954,128,0,89263:0:0:0:0:
64,192,88954,128,0,89194:0:0:0:0:
192,192,88988,128,0,89228:0:0:0:0:
320,192,89023,128,0,89331:0:0:0:0:
64,192,89503,128,0,89743:0:0:0:0:
320,192,89503,128,0,89811:0:0:0:0:
192,192,89537,128,0,89777:0:0:0:0:
448,192,89571,128,0,89880:0:0:0:0:
448,192,90051,128,0,90291:0:0:0:0:
192,192,90051,128,0,90360:0:0:0:0:
320,192,90086,128,0,90326:0:0:0:0:
64,192,90120,128,0,90428:0:0:0:0:
64,192,90600,128,0,90840:0:0:0:0:
320,192,90600,128,0,90908:0:0:0:0:
192,192,90634,128,0,90874:0:0:0:0:
448,192,90668,128,0,90977:0:0:0:0:
448,192,91148,128,0,91388:0:0:0:0:
192,192,91148,128,0,91457:0:0:0:0:
320,192,91183,128,0,91423:0:0:0:0:
64,192,91217,128,0,91526:0:0:0:0:
448,192,91697,128,0,92006:0:0:0:0:
64,192,91697,128,0,91937:0:0:0:0:
192,192,91731,128,0,91971:0:0:0:0:
320,192,91766,128,0,92074:0:0:0:0:
64,192,92246,1,0,0:0:0:0:
192,192,92246,1,0,0:0:0:0:
448,192,92246,128,0,92486:0:0:0:0:
64,192,92486,1,0,0:0:0:0:
192,192,92486,1,0,0:0:0:0:
320,192,92794,128,0,93034:0:0:0:0:
192,192,93034,1,0,0:0:0:0:
448,192,93068,1,0,0:0:0:0:
192,192,93206,1,0,0:0:0:0:
64,192,93206,1,0,0:0:0:0:
320,192,93343,128,0,93583:0:0:0:0:
192,192,93446,1,0,0:0:0:0:
64,192,93446,1,0,0:0:0:0:
448,192,93617,1,0,0:0:0:0:
320,192,93857,128,0,93926:0:0:0:0:
192,192,93891,128,0,94166:0:0:0:0:
64,192,94131,1,0,0:0:0:0:
320,192,94166,1,0,0:0:0:0:
448,192,94166,1,0,0:0:0:0:
64,192,94406,1,0,0:0:0:0:
192,192,94406,128,0,94611:0:0:0:0:
320,192,94440,128,0,94543:0:0:0:0:
448,192,94466,128,0,94726:0:0:0:0:
64,192,94988,128,0,95194:0:0:0:0:
192,192,95023,128,0,95228:0:0:0:0:
320,192,95091,128,0,95297:0:0:0:0:
64,192,95537,128,0,95606:0:0:0:0:
192,192,95558,128,0,95702:0:0:0:0:
320,192,95606,128,0,95811:0:0:0:0:
448,192,95674,128,0,95811:0:0:0:0:
64,192,95743,1,0,0:0:0:0:
192,192,95811,1,0,0:0:0:0:
448,192,95880,128,0,96086:0:0:0:0:
320,192,95948,128,0,96086:0:0:0:0:
64,192,96086,128,0,96246:0:0:0:0:
192,192,96086,128,0,96246:0:0:0:0:
320,192,96246,1,0,0:0:0:0:
448,192,96326,1,0,0:0:0:0:
64,192,96326,1,0,0:0:0:0:
448,192,96406,1,0,0:0:0:0:
192,192,96406,1,0,0:0:0:0:
320,192,96486,1,0,0:0:0:0:
192,192,96566,1,0,0:0:0:0:
64,192,96566,1,0,0:0:0:0:
320,192,96646,1,0,0:0:0:0:
64,192,96726,1,0,0:0:0:0:
448,192,96726,1,0,0:0:0:0:
192,192,96806,1,0,0:0:0:0:
320,192,96886,1,0,0:0:0:0:
64,192,96966,1,0,0:0:0:0:
320,192,97046,1,0,0:0:0:0:
448,192,97046,1,0,0:0:0:0:
192,192,97126,1,0,0:0:0:0:
64,192,97206,1,0,0:0:0:0:
448,192,97206,1,0,0:0:0:0:
192,192,97286,1,0,0:0:0:0:
64,192,97286,1,0,0:0:0:0:
320,192,97366,1,0,0:0:0:0:
64,192,97446,1,0,0:0:0:0:
448,192,97446,1,0,0:0:0:0:
192,192,97526,1,0,0:0:0:0:
320,192,97606,1,0,0:0:0:0:
448,192,97686,1,0,0:0:0:0:
64,192,97766,1,0,0:0:0:0:
192,192,97846,1,0,0:0:0:0:
320,192,97926,1,0,0:0:0:0:
192,192,98006,1,0,0:0:0:0:
64,192,98006,128,0,98166:0:0:0:0:
448,192,98166,1,0,0:0:0:0:
320,192,98246,1,0,0:0:0:0:
192,192,98246,1,0,0:0:0:0:
320,192,98326,1,0,0:0:0:0:
64,192,98326,1,0,0:0:0:0:
64,192,98406,1,0,0:0:0:0:
448,192,98406,1,0,0:0:0:0:
192,192,98486,1,0,0:0:0:0:
320,192,98566,1,0,0:0:0:0:
448,192,98646,1,0,0:0:0:0:
192,192,98646,1,0,0:0:0:0:
64,192,98726,1,0,0:0:0:0:
448,192,98726,1,0,0:0:0:0:
320,192,98806,1,0,0:0:0:0:
192,192,98886,1,0,0:0:0:0:
320,192,98966,1,0,0:0:0:0:
448,192,98966,1,0,0:0:0:0:
64,192,99046,1,0,0:0:0:0:
192,192,99126,1,0,0:0:0:0:
448,192,99126,1,0,0:0:0:0:
320,192,99206,1,0,0:0:0:0:
448,192,99206,1,0,0:0:0:0:
192,192,99286,1,0,0:0:0:0:
64,192,99366,1,0,0:0:0:0:
448,192,99366,1,0,0:0:0:0:
320,192,99446,1,0,0:0:0:0:
192,192,99526,1,0,0:0:0:0:
448,192,99606,1,0,0:0:0:0:
64,192,99606,1,0,0:0:0:0:
320,192,99686,1,0,0:0:0:0:
64,192,99686,1,0,0:0:0:0:
192,192,99766,128,0,99926:0:0:0:0:
320,192,99926,128,0,100086:0:0:0:0:
64,192,99926,1,0,0:0:0:0:
448,192,99926,128,0,100166:0:0:0:0:
64,192,100086,1,0,0:0:0:0:
192,192,100086,1,0,0:0:0:0:
64,192,100166,1,0,0:0:0:0:
192,192,100246,1,0,0:0:0:0:
320,192,100246,1,0,0:0:0:0:
192,192,100326,1,0,0:0:0:0:
448,192,100326,1,0,0:0:0:0:
320,192,100406,1,0,0:0:0:0:
192,192,100486,1,0,0:0:0:0:
64,192,100566,1,0,0:0:0:0:
320,192,100646,1,0,0:0:0:0:
192,192,100726,128,0,100886:0:0:0:0:
320,192,100886,1,0,0:0:0:0:
448,192,100886,1,0,0:0:0:0:
320,192,100966,1,0,0:0:0:0:
64,192,100966,1,0,0:0:0:0:
448,192,101046,1,0,0:0:0:0:
64,192,101046,1,0,0:0:0:0:
192,192,101126,1,0,0:0:0:0:
320,192,101126,1,0,0:0:0:0:
448,192,101206,1,0,0:0:0:0:
64,192,101286,1,0,0:0:0:0:
320,192,101366,1,0,0:0:0:0:
448,192,101366,1,0,0:0:0:0:
192,192,101446,1,0,0:0:0:0:
448,192,101526,1,0,0:0:0:0:
448,192,101606,1,0,0:0:0:0:
64,192,101606,1,0,0:0:0:0:
320,192,101686,1,0,0:0:0:0:
64,192,101686,1,0,0:0:0:0:
192,192,101766,1,0,0:0:0:0:
320,192,101846,1,0,0:0:0:0:
448,192,101846,1,0,0:0:0:0:
192,192,101926,1,0,0:0:0:0:
64,192,102006,1,0,0:0:0:0:
448,192,102006,1,0,0:0:0:0:
320,192,102086,1,0,0:0:0:0:
64,192,102086,1,0,0:0:0:0:
192,192,102166,1,0,0:0:0:0:
192,192,102246,1,0,0:0:0:0:
448,192,102246,1,0,0:0:0:0:
320,192,102326,1,0,0:0:0:0:
64,192,102406,1,0,0:0:0:0:
448,192,102406,1,0,0:0:0:0:
192,192,102486,1,0,0:0:0:0:
192,192,102566,1,0,0:0:0:0:
64,192,102646,1,0,0:0:0:0:
448,192,102646,128,0,102806:0:0:0:0:
192,192,102806,1,0,0:0:0:0:
64,192,102806,1,0,0:0:0:0:
320,192,102886,1,0,0:0:0:0:
64,192,102966,1,0,0:0:0:0:
448,192,102966,1,0,0:0:0:0:
192,192,103046,1,0,0:0:0:0:
320,192,103046,1,0,0:0:0:0:
448,192,103126,1,0,0:0:0:0:
64,192,103206,1,0,0:0:0:0:
320,192,103286,1,0,0:0:0:0:
192,192,103366,1,0,0:0:0:0:
64,192,103446,1,0,0:0:0:0:
448,192,103446,1,0,0:0:0:0:
320,192,103526,1,0,0:0:0:0:
192,192,103606,1,0,0:0:0:0:
64,192,103686,1,0,0:0:0:0:
320,192,103766,128,0,103926:0:0:0:0:
448,192,103766,128,0,103926:0:0:0:0:
192,192,103926,1,0,0:0:0:0:
320,192,104006,1,0,0:0:0:0:
448,192,104006,1,0,0:0:0:0:
320,192,104086,1,0,0:0:0:0:
64,192,104086,1,0,0:0:0:0:
64,192,104166,1,0,0:0:0:0:
448,192,104166,1,0,0:0:0:0:
192,192,104246,1,0,0:0:0:0:
448,192,104326,1,0,0:0:0:0:
64,192,104406,1,0,0:0:0:0:
320,192,104486,1,0,0:0:0:0:
64,192,104566,1,0,0:0:0:0:
448,192,104566,1,0,0:0:0:0:
192,192,104646,1,0,0:0:0:0:
320,192,104726,1,0,0:0:0:0:
448,192,104726,1,0,0:0:0:0:
64,192,104806,1,0,0:0:0:0:
448,192,104886,1,0,0:0:0:0:
320,192,104966,1,0,0:0:0:0:
192,192,104966,1,0,0:0:0:0:
320,192,105046,1,0,0:0:0:0:
64,192,105046,1,0,0:0:0:0:
448,192,105126,1,0,0:0:0:0:
64,192,105206,1,0,0:0:0:0:
192,192,105206,1,0,0:0:0:0:
320,192,105286,1,0,0:0:0:0:
64,192,105366,1,0,0:0:0:0:
448,192,105446,1,0,0:0:0:0:
192,192,105446,1,0,0:0:0:0:
320,192,105526,128,0,105686:0:0:0:0:
192,192,105686,128,0,105846:0:0:0:0:
64,192,105686,128,0,105846:0:0:0:0:
448,192,105846,1,0,0:0:0:0:
192,192,105926,1,0,0:0:0:0:
320,192,105926,1,0,0:0:0:0:
64,192,106006,1,0,0:0:0:0:
320,192,106006,1,0,0:0:0:0:
192,192,106086,1,0,0:0:0:0:
320,192,106166,1,0,0:0:0:0:
64,192,106246,1,0,0:0:0:0:
192,192,106326,1,0,0:0:0:0:
448,192,106326,1,0,0:0:0:0:
192,192,106406,1,0,0:0:0:0:
320,192,106406,1,0,0:0:0:0:
448,192,106486,1,0,0:0:0:0:
64,192,106566,1,0,0:0:0:0:
320,192,106646,1,0,0:0:0:0:
64,192,106646,1,0,0:0:0:0:
192,192,106726,1,0,0:0:0:0:
448,192,106806,1,0,0:0:0:0:
320,192,106886,1,0,0:0:0:0:
192,192,106886,1,0,0:0:0:0:
320,192,106966,1,0,0:0:0:0:
64,192,106966,1,0,0:0:0:0:
64,192,107046,1,0,0:0:0:0:
448,192,107126,1,0,0:0:0:0:
192,192,107126,1,0,0:0:0:0:
320,192,107206,1,0,0:0:0:0:
192,192,107286,1,0,0:0:0:0:
320,192,107366,1,0,0:0:0:0:
64,192,107366,1,0,0:0:0:0:
448,192,107446,1,0,0:0:0:0:
64,192,107526,1,0,0:0:0:0:
320,192,107606,1,0,0:0:0:0:
448,192,107606,1,0,0:0:0:0:
192,192,107606,128,0,107766:0:0:0:0:
320,192,107766,1,0,0:0:0:0:
448,192,107846,1,0,0:0:0:0:
192,192,107846,1,0,0:0:0:0:
448,192,107926,1,0,0:0:0:0:
64,192,107926,1,0,0:0:0:0:
320,192,108006,1,0,0:0:0:0:
192,192,108086,1,0,0:0:0:0:
320,192,108166,1,0,0:0:0:0:
448,192,108246,1,0,0:0:0:0:
64,192,108326,1,0,0:0:0:0:
448,192,108406,1,0,0:0:0:0:
192,192,108406,128,0,108566:0:0:0:0:
320,192,108566,1,0,0:0:0:0:
448,192,108566,1,0,0:0:0:0:
192,192,108646,1,0,0:0:0:0:
64,192,108726,1,0,0:0:0:0:
448,192,108726,1,0,0:0:0:0:
320,192,108806,1,0,0:0:0:0:
192,192,108806,1,0,0:0:0:0:
448,192,108886,1,0,0:0:0:0:
64,192,108886,1,0,0:0:0:0:
192,192,108966,1,0,0:0:0:0:
320,192,109046,1,0,0:0:0:0:
448,192,109046,1,0,0:0:0:0:
192,192,109126,1,0,0:0:0:0:
448,192,109206,1,0,0:0:0:0:
64,192,109206,1,0,0:0:0:0:
320,192,109286,1,0,0:0:0:0:
64,192,109286,1,0,0:0:0:0:
192,192,109366,128,0,109526:0:0:0:0:
320,192,109526,128,0,109686:0:0:0:0:
448,192,109526,128,0,109686:0:0:0:0:
192,192,109686,1,0,0:0:0:0:
64,192,109686,1,0,0:0:0:0:
320,192,109766,1,0,0:0:0:0:
448,192,109846,1,0,0:0:0:0:
192,192,109846,1,0,0:0:0:0:
64,192,109926,1,0,0:0:0:0:
448,192,109926,1,0,0:0:0:0:
320,192,110006,1,0,0:0:0:0:
192,192,110086,1,0,0:0:0:0:
448,192,110166,1,0,0:0:0:0:
64,192,110166,1,0,0:0:0:0:
320,192,110246,1,0,0:0:0:0:
192,192,110326,1,0,0:0:0:0:
64,192,110326,1,0,0:0:0:0:
448,192,110406,1,0,0:0:0:0:
320,192,110486,1,0,0:0:0:0:
192,192,110486,1,0,0:0:0:0:
320,192,110566,1,0,0:0:0:0:
64,192,110566,1,0,0:0:0:0:
448,192,110646,1,0,0:0:0:0:
64,192,110646,1,0,0:0:0:0:
192,192,110726,1,0,0:0:0:0:
320,192,110806,1,0,0:0:0:0:
64,192,110886,1,0,0:0:0:0:
320,192,110966,1,0,0:0:0:0:
192,192,110966,1,0,0:0:0:0:
448,192,111046,1,0,0:0:0:0:
64,192,111126,1,0,0:0:0:0:
192,192,111206,1,0,0:0:0:0:
448,192,111206,1,0,0:0:0:0:
320,192,111286,1,0,0:0:0:0:
64,192,111366,1,0,0:0:0:0:
448,192,111446,128,0,111606:0:0:0:0:
320,192,111446,128,0,111632:0:0:0:0:
192,192,111446,128,0,111632:0:0:0:0:
320,192,111686,1,0,0:0:0:0:
192,192,111686,1,0,0:0:0:0:
320,192,112006,128,0,112192:0:0:0:0:
192,192,112406,1,0,0:0:0:0:
320,192,112421,1,0,0:0:0:0:
192,192,112539,128,0,112779:0:0:0:0:
320,192,113099,128,0,113366:0:0:0:0:
192,192,113366,1,0,0:0:0:0:
64,192,113366,1,0,0:0:0:0:
448,192,113392,1,0,0:0:0:0:
192,192,113462,1,0,0:0:0:0:
64,192,113462,1,0,0:0:0:0:
448,192,113558,1,0,0:0:0:0:
192,192,113606,1,0,0:0:0:0:
64,192,113606,1,0,0:0:0:0:
320,192,113654,1,0,0:0:0:0:
64,192,113702,1,0,0:0:0:0:
448,192,113750,1,0,0:0:0:0:
320,192,113846,1,0,0:0:0:0:
192,192,113846,1,0,0:0:0:0:
64,192,113942,1,0,0:0:0:0:
448,192,113990,1,0,0:0:0:0:
64,192,114038,1,0,0:0:0:0:
448,192,114134,1,0,0:0:0:0:
192,192,114230,1,0,0:0:0:0:
64,192,114326,128,0,114422:0:0:0:0:
320,192,114326,128,0,114379:0:0:0:0:
448,192,114346,1,0,0:0:0:0:
192,192,114422,1,0,0:0:0:0:
448,192,114470,1,0,0:0:0:0:
320,192,114518,1,0,0:0:0:0:
64,192,114614,1,0,0:0:0:0:
448,192,114614,1,0,0:0:0:0:
192,192,114710,1,0,0:0:0:0:
64,192,114758,128,0,114902:0:0:0:0:
448,192,114854,128,0,114902:0:0:0:0:
64,192,114950,128,0,115046:0:0:0:0:
448,192,114998,128,0,115046:0:0:0:0:
320,192,115046,1,0,0:0:0:0:
64,192,115094,128,0,115238:0:0:0:0:
320,192,115142,128,0,115286:0:0:0:0:
448,192,115190,128,0,115286:0:0:0:0:
64,192,115286,1,0,0:0:0:0:
192,192,115286,128,0,115526:0:0:0:0:
64,192,115526,1,0,0:0:0:0:
320,192,115834,128,0,116108:0:0:0:0:
320,192,116383,128,0,116657:0:0:0:0:
448,192,116931,128,0,117206:0:0:0:0:
192,192,117206,1,0,0:0:0:0:
64,192,117206,1,0,0:0:0:0:
320,192,117232,1,0,0:0:0:0:
64,192,117302,1,0,0:0:0:0:
192,192,117302,1,0,0:0:0:0:
448,192,117398,1,0,0:0:0:0:
320,192,117446,1,0,0:0:0:0:
64,192,117494,1,0,0:0:0:0:
448,192,117542,1,0,0:0:0:0:
64,192,117590,1,0,0:0:0:0:
448,192,117686,1,0,0:0:0:0:
64,192,117734,1,0,0:0:0:0:
448,192,117830,1,0,0:0:0:0:
64,192,117878,1,0,0:0:0:0:
448,192,117974,1,0,0:0:0:0:
320,192,118022,1,0,0:0:0:0:
192,192,118070,1,0,0:0:0:0:
64,192,118118,1,0,0:0:0:0:
448,192,118166,128,0,118262:0:0:0:0:
192,192,118166,128,0,118262:0:0:0:0:
320,192,118262,1,0,0:0:0:0:
64,192,118310,1,0,0:0:0:0:
448,192,118358,128,0,118550:0:0:0:0:
320,192,118376,128,0,118571:0:0:0:0:
192,192,118502,128,0,118598:0:0:0:0:
64,192,118577,128,0,118611:0:0:0:0:
64,192,118646,128,0,118976:0:0:0:0:
192,192,119006,128,0,119036:0:0:0:0:
320,192,119021,128,0,119066:0:0:0:0:
448,192,119096,128,0,119606:0:0:0:0:
64,192,119126,128,0,119194:0:0:0:0:
192,192,119126,128,0,119194:0:0:0:0:
64,192,119263,1,0,0:0:0:0:
192,192,119400,1,0,0:0:0:0:
320,192,119537,1,0,0:0:0:0:
64,192,119674,1,0,0:0:0:0:
448,192,119686,128,0,119726:0:0:0:0:
448,192,119766,128,0,119806:0:0:0:0:
448,192,119846,128,0,119886:0:0:0:0:
448,192,119926,128,0,119956:0:0:0:0:
320,192,120006,128,0,120036:0:0:0:0:
64,192,120086,128,0,120120:0:0:0:0:
192,192,120086,128,0,120120:0:0:0:0:
448,192,120166,1,0,0:0:0:0:
64,192,120246,1,0,0:0:0:0:
192,192,120386,1,0,0:0:0:0:
448,192,120406,1,0,0:0:0:0:
320,192,120512,128,0,120752:0:0:0:0:
448,192,120646,128,0,120779:0:0:0:0:
64,192,120806,128,0,121019:0:0:0:0:
192,192,120836,128,0,121046:0:0:0:0:
448,192,121046,128,0,121256:0:0:0:0:
320,192,121046,128,0,121151:0:0:0:0:
64,192,121286,1,0,0:0:0:0:
192,192,121286,128,0,121320:0:0:0:0:
448,192,121301,128,0,121366:0:0:0:0:
320,192,121366,1,0,0:0:0:0:
64,192,121419,128,0,121499:0:0:0:0:
192,192,121472,128,0,121526:0:0:0:0:
448,192,121526,128,0,121846:0:0:0:0:
320,192,121686,128,0,121739:0:0:0:0:
192,192,121712,128,0,121872:0:0:0:0:
64,192,121846,128,0,122006:0:0:0:0:
448,192,121899,128,0,122006:0:0:0:0:
192,192,122006,1,0,0:0:0:0:
320,192,122006,1,0,0:0:0:0:
192,192,122102,1,0,0:0:0:0:
320,192,122102,1,0,0:0:0:0:
448,192,122198,1,0,0:0:0:0:
192,192,122246,1,0,0:0:0:0:
64,192,122246,1,0,0:0:0:0:
320,192,122294,1,0,0:0:0:0:
64,192,122342,1,0,0:0:0:0:
448,192,122390,1,0,0:0:0:0:
64,192,122438,1,0,0:0:0:0:
320,192,122486,1,0,0:0:0:0:
448,192,122582,1,0,0:0:0:0:
64,192,122630,1,0,0:0:0:0:
448,192,122678,1,0,0:0:0:0:
64,192,122774,1,0,0:0:0:0:
320,192,122870,1,0,0:0:0:0:
192,192,122966,1,0,0:0:0:0:
64,192,122966,1,0,0:0:0:0:
448,192,123062,1,0,0:0:0:0:
64,192,123158,1,0,0:0:0:0:
448,192,123206,1,0,0:0:0:0:
320,192,123206,1,0,0:0:0:0:
192,192,123254,1,0,0:0:0:0:
448,192,123302,1,0,0:0:0:0:
64,192,123350,1,0,0:0:0:0:
320,192,123446,1,0,0:0:0:0:
192,192,123446,1,0,0:0:0:0:
448,192,123542,1,0,0:0:0:0:
64,192,123590,1,0,0:0:0:0:
448,192,123638,1,0,0:0:0:0:
64,192,123734,1,0,0:0:0:0:
320,192,123830,1,0,0:0:0:0:
192,192,123926,1,0,0:0:0:0:
64,192,123926,1,0,0:0:0:0:
448,192,124022,1,0,0:0:0:0:
64,192,124118,1,0,0:0:0:0:
320,192,124166,1,0,0:0:0:0:
448,192,124166,1,0,0:0:0:0:
192,192,124214,1,0,0:0:0:0:
448,192,124310,1,0,0:0:0:0:
448,192,124406,1,0,0:0:0:0:
64,192,124502,1,0,0:0:0:0:
448,192,124550,1,0,0:0:0:0:
64,192,124646,1,0,0:0:0:0:
448,192,124694,1,0,0:0:0:0:
192,192,124742,1,0,0:0:0:0:
320,192,124790,1,0,0:0:0:0:
64,192,124838,1,0,0:0:0:0:
320,192,124886,1,0,0:0:0:0:
448,192,124886,1,0,0:0:0:0:
192,192,124982,1,0,0:0:0:0:
448,192,125078,1,0,0:0:0:0:
192,192,125126,1,0,0:0:0:0:
64,192,125126,1,0,0:0:0:0:
320,192,125174,1,0,0:0:0:0:
64,192,125222,1,0,0:0:0:0:
448,192,125270,1,0,0:0:0:0:
64,192,125366,1,0,0:0:0:0:
448,192,125414,1,0,0:0:0:0:
192,192,125462,1,0,0:0:0:0:
320,192,125510,1,0,0:0:0:0:
64,192,125558,1,0,0:0:0:0:
192,192,125606,1,0,0:0:0:0:
320,192,125654,1,0,0:0:0:0:
448,192,125702,1,0,0:0:0:0:
192,192,125750,1,0,0:0:0:0:
64,192,125750,1,0,0:0:0:0:
448,192,125846,128,0,125891:0:0:0:0:
64,192,125846,128,0,125942:0:0:0:0:
320,192,125866,1,0,0:0:0:0:
192,192,125942,1,0,0:0:0:0:
448,192,125990,1,0,0:0:0:0:
64,192,126038,128,0,126230:0:0:0:0:
192,192,126056,128,0,126266:0:0:0:0:
320,192,126176,128,0,126326:0:0:0:0:
448,192,126278,1,0,0:0:0:0:
64,192,126374,1,0,0:0:0:0:
192,192,126422,1,0,0:0:0:0:
320,192,126470,1,0,0:0:0:0:
448,192,126518,1,0,0:0:0:0:
64,192,126566,1,0,0:0:0:0:
192,192,126614,1,0,0:0:0:0:
64,192,126662,1,0,0:0:0:0:
192,192,126710,1,0,0:0:0:0:
320,192,126758,1,0,0:0:0:0:
448,192,126806,128,0,126902:0:0:0:0:
64,192,126806,128,0,126902:0:0:0:0:
192,192,126966,1,0,0:0:0:0:
64,192,127046,1,0,0:0:0:0:
192,192,127046,1,0,0:0:0:0:
320,192,127099,1,0,0:0:0:0:
448,192,127232,1,0,0:0:0:0:
64,192,127366,1,0,0:0:0:0:
448,192,127366,1,0,0:0:0:0:
192,192,127499,1,0,0:0:0:0:
320,192,127659,1,0,0:0:0:0:
192,192,127766,1,0,0:0:0:0:
64,192,127766,1,0,0:0:0:0:
448,192,127766,1,0,0:0:0:0:
192,192,127846,1,0,0:0:0:0:
64,192,127926,1,0,0:0:0:0:
320,192,128006,1,0,0:0:0:0:
448,192,128006,1,0,0:0:0:0:
192,192,128059,1,0,0:0:0:0:
320,192,128192,1,0,0:0:0:0:
448,192,128326,1,0,0:0:0:0:
64,192,128459,128,0,128672:0:0:0:0:
448,192,128459,128,0,128672:0:0:0:0:
64,192,128726,1,0,0:0:0:0:
192,192,128726,1,0,0:0:0:0:
320,192,128752,1,0,0:0:0:0:
64,192,128832,1,0,0:0:0:0:
192,192,128886,1,0,0:0:0:0:
320,192,128966,1,0,0:0:0:0:
448,192,128966,1,0,0:0:0:0:
64,192,128992,128,0,129072:0:0:0:0:
448,192,129019,1,0,0:0:0:0:
192,192,129046,128,0,129126:0:0:0:0:
448,192,129126,128,0,129286:0:0:0:0:
320,192,129179,1,0,0:0:0:0:
192,192,129286,1,0,0:0:0:0:
64,192,129419,128,0,129526:0:0:0:0:
192,192,129526,1,0,0:0:0:0:
320,192,129552,1,0,0:0:0:0:
448,192,129579,128,0,129686:0:0:0:0:
192,192,129686,1,0,0:0:0:0:
64,192,129686,1,0,0:0:0:0:
320,192,129712,1,0,0:0:0:0:
192,192,129782,1,0,0:0:0:0:
64,192,129782,1,0,0:0:0:0:
448,192,129878,1,0,0:0:0:0:
192,192,129926,1,0,0:0:0:0:
64,192,129926,1,0,0:0:0:0:
320,192,129974,1,0,0:0:0:0:
320,192,130070,1,0,0:0:0:0:
192,192,130166,1,0,0:0:0:0:
64,192,130166,1,0,0:0:0:0:
448,192,130262,1,0,0:0:0:0:
64,192,130310,1,0,0:0:0:0:
320,192,130358,1,0,0:0:0:0:
192,192,130406,1,0,0:0:0:0:
448,192,130454,1,0,0:0:0:0:
64,192,130502,1,0,0:0:0:0:
448,192,130550,1,0,0:0:0:0:
320,192,130646,1,0,0:0:0:0:
192,192,130646,1,0,0:0:0:0:
64,192,130742,1,0,0:0:0:0:
448,192,130838,1,0,0:0:0:0:
192,192,130886,1,0,0:0:0:0:
64,192,130886,1,0,0:0:0:0:
320,192,130934,1,0,0:0:0:0:
64,192,131030,1,0,0:0:0:0:
448,192,131078,1,0,0:0:0:0:
192,192,131126,1,0,0:0:0:0:
448,192,131222,1,0,0:0:0:0:
64,192,131270,1,0,0:0:0:0:
320,192,131318,1,0,0:0:0:0:
320,192,131414,1,0,0:0:0:0:
320,192,131510,1,0,0:0:0:0:
64,192,131606,1,0,0:0:0:0:
192,192,131606,1,0,0:0:0:0:
448,192,131702,1,0,0:0:0:0:
448,192,131798,1,0,0:0:0:0:
192,192,131846,1,0,0:0:0:0:
64,192,131846,1,0,0:0:0:0:
320,192,131894,1,0,0:0:0:0:
64,192,131942,1,0,0:0:0:0:
448,192,132038,1,0,0:0:0:0:
64,192,132086,1,0,0:0:0:0:
448,192,132182,1,0,0:0:0:0:
64,192,132230,1,0,0:0:0:0:
448,192,132326,1,0,0:0:0:0:
64,192,132374,1,0,0:0:0:0:
192,192,132422,1,0,0:0:0:0:
320,192,132470,1,0,0:0:0:0:
448,192,132518,1,0,0:0:0:0:
192,192,132566,1,0,0:0:0:0:
64,192,132566,1,0,0:0:0:0:
320,192,132662,1,0,0:0:0:0:
64,192,132758,1,0,0:0:0:0:
320,192,132806,1,0,0:0:0:0:
448,192,132806,1,0,0:0:0:0:
192,192,132854,1,0,0:0:0:0:
448,192,132902,1,0,0:0:0:0:
64,192,132950,1,0,0:0:0:0:
448,192,133046,1,0,0:0:0:0:
64,192,133094,1,0,0:0:0:0:
320,192,133142,1,0,0:0:0:0:
192,192,133190,1,0,0:0:0:0:
448,192,133238,1,0,0:0:0:0:
64,192,133286,1,0,0:0:0:0:
448,192,133334,1,0,0:0:0:0:
192,192,133382,1,0,0:0:0:0:
320,192,133430,1,0,0:0:0:0:
64,192,133526,128,0,133574:0:0:0:0:
448,192,133526,128,0,133622:0:0:0:0:
192,192,133546,1,0,0:0:0:0:
320,192,133622,1,0,0:0:0:0:
64,192,133670,1,0,0:0:0:0:
448,192,133718,128,0,133910:0:0:0:0:
320,192,133736,128,0,133946:0:0:0:0:
64,192,133958,1,0,0:0:0:0:
192,192,134054,1,0,0:0:0:0:
64,192,134102,1,0,0:0:0:0:
320,192,134150,1,0,0:0:0:0:
192,192,134198,1,0,0:0:0:0:
448,192,134246,1,0,0:0:0:0:
320,192,134294,1,0,0:0:0:0:
64,192,134342,1,0,0:0:0:0:
192,192,134390,1,0,0:0:0:0:
320,192,134438,1,0,0:0:0:0:
448,192,134486,128,0,134678:0:0:0:0:
64,192,134534,128,0,134726:0:0:0:0:
192,192,135068,128,0,135343:0:0:0:0:
192,192,135583,128,0,135857:0:0:0:0:
320,192,136166,128,0,136406:0:0:0:0:
448,192,136200,128,0,136851:0:0:0:0:
192,192,136680,128,0,136920:0:0:0:0:
64,192,136817,128,0,137126:0:0:0:0:
448,192,136920,128,0,137091:0:0:0:0:
192,192,137126,128,0,137194:0:0:0:0:
448,192,137174,128,0,137222:0:0:0:0:
64,192,137228,128,0,137331:0:0:0:0:
192,192,137263,1,0,0:0:0:0:
448,192,137331,1,0,0:0:0:0:
320,192,137366,1,0,0:0:0:0:
64,192,137434,1,0,0:0:0:0:
320,192,137468,1,0,0:0:0:0:
192,192,137503,1,0,0:0:0:0:
448,192,137571,1,0,0:0:0:0:
192,192,137640,1,0,0:0:0:0:
320,192,137674,1,0,0:0:0:0:
64,192,137708,1,0,0:0:0:0:
192,192,137743,1,0,0:0:0:0:
320,192,137811,1,0,0:0:0:0:
192,192,137846,1,0,0:0:0:0:
448,192,137880,1,0,0:0:0:0:
320,192,137914,1,0,0:0:0:0:
64,192,137983,1,0,0:0:0:0:
448,192,138017,1,0,0:0:0:0:
192,192,138051,1,0,0:0:0:0:
320,192,138086,1,0,0:0:0:0:
64,192,138120,1,0,0:0:0:0:
192,192,138154,1,0,0:0:0:0:
320,192,138223,1,0,0:0:0:0:
192,192,138291,1,0,0:0:0:0:
320,192,138360,1,0,0:0:0:0:
