osu file format v14

[General]
AudioFilename: audio.mp3
AudioLeadIn: 0
PreviewTime: 49726
Countdown: 0
SampleSet: Normal
StackLeniency: 0.7
Mode: 3
LetterboxInBreaks: 0
SpecialStyle: 0
WidescreenStoryboard: 1

[Editor]
Bookmarks: 91585
DistanceSpacing: 1.7
BeatDivisor: 6
GridSize: 8
TimelineZoom: 4.199998

[Metadata]
Title:Ka
TitleUnicode:彁
Artist:LeaF
ArtistUnicode:LeaF
Creator:gogozzzx
Version:Advanced
Source:太鼓の達人
Tags:か electronic instrumental video arcade game taiko no tatsujin April 2022 Edition April Fools polyrhythm bandai namco Original Fiz ニジイロver. nijiiro ver
BeatmapID:4081417
BeatmapSetID:1423264

[Difficulty]
HPDrainRate:7
CircleSize:4
OverallDifficulty:7
ApproachRate:5
SliderMultiplier:1.4
SliderTickRate:1

[Events]
//Background and Video events
0,0,"456456.jpg",0,0
//Break Periods
//Storyboard Layer 0 (Background)
//Storyboard Layer 1 (Fail)
//Storyboard Layer 2 (Pass)
//Storyboard Layer 3 (Foreground)
//Storyboard Layer 4 (Overlay)
//Storyboard Sound Samples

[TimingPoints]
2006,480,4,1,1,35,1,0

[HitObjects]
320,192,2006,5,0,0:0:0:0:
448,192,2006,128,0,2326:0:0:0:0:
192,192,2166,1,0,0:0:0:0:
320,192,2326,1,0,0:0:0:0:
64,192,2486,1,0,0:0:0:0:
192,192,2566,1,0,0:0:0:0:
320,192,2646,1,0,0:0:0:0:
64,192,2806,1,0,0:0:0:0:
448,192,2886,1,0,0:0:0:0:
192,192,2966,1,0,0:0:0:0:
64,192,3126,1,0,0:0:0:0:
320,192,3206,1,0,0:0:0:0:
448,192,3366,1,0,0:0:0:0:
192,192,3446,128,0,3606:0:0:0:0:
448,192,3606,1,0,0:0:0:0:
320,192,3686,1,0,0:0:0:0:
192,192,3766,1,0,0:0:0:0:
64,192,3846,1,0,0:0:0:0:
448,192,3926,1,0,0:0:0:0:
320,192,3926,128,0,4166:0:0:0:0:
192,192,4166,1,0,0:0:0:0:
320,192,4310,1,0,0:0:0:0:
448,192,4406,1,0,0:0:0:0:
64,192,4502,1,0,0:0:0:0:
448,192,4598,1,0,0:0:0:0:
320,192,4694,1,0,0:0:0:0:
192,192,4790,1,0,0:0:0:0:
64,192,4886,128,0,5126:0:0:0:0:
448,192,4886,1,0,0:0:0:0:
192,192,5126,1,0,0:0:0:0:
320,192,5222,1,0,0:0:0:0:
448,192,5366,1,0,0:0:0:0:
320,192,5510,1,0,0:0:0:0:
192,192,5654,1,0,0:0:0:0:
320,192,5750,1,0,0:0:0:0:
64,192,5846,1,0,0:0:0:0:
448,192,5846,128,0,6006:0:0:0:0:
192,192,6006,1,0,0:0:0:0:
320,192,6086,1,0,0:0:0:0:
64,192,6166,1,0,0:0:0:0:
448,192,6246,1,0,0:0:0:0:
192,192,6326,128,0,6646:0:0:0:0:
320,192,6646,128,0,6806:0:0:0:0:
64,192,6806,1,0,0:0:0:0:
448,192,6886,1,0,0:0:0:0:
64,192,6966,1,0,0:0:0:0:
320,192,7046,1,0,0:0:0:0:
192,192,7126,1,0,0:0:0:0:
320,192,7206,1,0,0:0:0:0:
64,192,7286,1,0,0:0:0:0:
448,192,7446,1,0,0:0:0:0:
64,192,7606,1,0,0:0:0:0:
192,192,7686,1,0,0:0:0:0:
320,192,7766,1,0,0:0:0:0:
448,192,7766,1,0,0:0:0:0:
448,192,7958,128,0,8150:0:0:0:0:
320,192,8150,1,0,0:0:0:0:
192,192,8342,1,0,0:0:0:0:
320,192,8534,128,0,8726:0:0:0:0:
192,192,8726,1,0,0:0:0:0:
64,192,8726,1,0,0:0:0:0:
448,192,8846,1,0,0:0:0:0:
192,192,8966,1,0,0:0:0:0:
448,192,9126,1,0,0:0:0:0:
64,192,9206,1,0,0:0:0:0:
320,192,9350,128,0,9686:0:0:0:0:
448,192,9350,128,0,9686:0:0:0:0:
192,192,9686,1,0,0:0:0:0:
64,192,9686,128,0,9846:0:0:0:0:
320,192,9846,1,0,0:0:0:0:
192,192,9926,1,0,0:0:0:0:
448,192,10006,1,0,0:0:0:0:
320,192,10086,1,0,0:0:0:0:
192,192,10166,1,0,0:0:0:0:
448,192,10246,1,0,0:0:0:0:
448,192,10406,1,0,0:0:0:0:
192,192,10486,128,0,10646:0:0:0:0:
64,192,10646,1,0,0:0:0:0:
320,192,10646,1,0,0:0:0:0:
192,192,10766,1,0,0:0:0:0:
320,192,10886,128,0,11030:0:0:0:0:
64,192,11030,1,0,0:0:0:0:
192,192,11126,128,0,11286:0:0:0:0:
448,192,11286,1,0,0:0:0:0:
320,192,11366,1,0,0:0:0:0:
64,192,11446,1,0,0:0:0:0:
192,192,11526,1,0,0:0:0:0:
320,192,11606,128,0,11846:0:0:0:0:
64,192,11846,128,0,11990:0:0:0:0:
192,192,11990,1,0,0:0:0:0:
320,192,12182,1,0,0:0:0:0:
448,192,12278,1,0,0:0:0:0:
64,192,12374,1,0,0:0:0:0:
320,192,12566,128,0,12806:0:0:0:0:
192,192,12806,1,0,0:0:0:0:
64,192,12902,1,0,0:0:0:0:
320,192,13046,1,0,0:0:0:0:
192,192,13238,128,0,13526:0:0:0:0:
320,192,13526,1,0,0:0:0:0:
448,192,13526,128,0,13686:0:0:0:0:
64,192,13686,1,0,0:0:0:0:
192,192,13766,1,0,0:0:0:0:
320,192,13846,1,0,0:0:0:0:
448,192,13926,1,0,0:0:0:0:
192,192,14006,1,0,0:0:0:0:
64,192,14086,128,0,14326:0:0:0:0:
192,192,14326,128,0,14486:0:0:0:0:
320,192,14486,1,0,0:0:0:0:
64,192,14646,1,0,0:0:0:0:
320,192,14726,1,0,0:0:0:0:
448,192,14886,1,0,0:0:0:0:
64,192,14966,1,0,0:0:0:0:
192,192,15046,1,0,0:0:0:0:
320,192,15126,1,0,0:0:0:0:
448,192,15206,1,0,0:0:0:0:
192,192,15286,1,0,0:0:0:0:
64,192,15366,1,0,0:0:0:0:
192,192,15446,128,0,15686:0:0:0:0:
448,192,15686,128,0,15830:0:0:0:0:
320,192,15830,1,0,0:0:0:0:
192,192,16022,1,0,0:0:0:0:
320,192,16214,128,0,16406:0:0:0:0:
64,192,16406,1,0,0:0:0:0:
448,192,16406,128,0,16646:0:0:0:0:
192,192,16646,1,0,0:0:0:0:
448,192,16790,1,0,0:0:0:0:
320,192,16886,1,0,0:0:0:0:
192,192,17030,128,0,17366:0:0:0:0:
448,192,17366,1,0,0:0:0:0:
320,192,17366,128,0,17606:0:0:0:0:
192,192,17606,1,0,0:0:0:0:
448,192,17750,1,0,0:0:0:0:
64,192,17846,1,0,0:0:0:0:
320,192,18086,1,0,0:0:0:0:
192,192,18326,1,0,0:0:0:0:
320,192,18566,128,0,18806:0:0:0:0:
448,192,18806,128,0,18966:0:0:0:0:
64,192,18966,1,0,0:0:0:0:
192,192,19046,1,0,0:0:0:0:
320,192,19126,1,0,0:0:0:0:
448,192,19206,1,0,0:0:0:0:
64,192,19286,128,0,19646:0:0:0:0:
192,192,19286,1,0,0:0:0:0:
64,192,19766,1,0,0:0:0:0:
448,192,19766,128,0,20126:0:0:0:0:
448,192,20246,1,0,0:0:0:0:
64,192,20246,128,0,20383:0:0:0:0:
320,192,20383,128,0,20537:0:0:0:0:
192,192,20537,128,0,20726:0:0:0:0:
448,192,20726,128,0,20966:0:0:0:0:
64,192,20726,1,0,0:0:0:0:
192,192,20966,1,0,0:0:0:0:
448,192,21086,1,0,0:0:0:0:
64,192,21206,1,0,0:0:0:0:
320,192,21206,128,0,21480:0:0:0:0:
448,192,21480,1,0,0:0:0:0:
64,192,21548,1,0,0:0:0:0:
192,192,21686,1,0,0:0:0:0:
448,192,21686,1,0,0:0:0:0:
320,192,21806,1,0,0:0:0:0:
64,192,21926,1,0,0:0:0:0:
448,192,22046,1,0,0:0:0:0:
64,192,22166,1,0,0:0:0:0:
320,192,22166,128,0,22406:0:0:0:0:
64,192,22406,1,0,0:0:0:0:
192,192,22486,1,0,0:0:0:0:
320,192,22566,1,0,0:0:0:0:
448,192,22646,128,0,22886:0:0:0:0:
192,192,22886,1,0,0:0:0:0:
64,192,23006,128,0,23126:0:0:0:0:
320,192,23126,1,0,0:0:0:0:
448,192,23126,128,0,23318:0:0:0:0:
64,192,23318,1,0,0:0:0:0:
192,192,23414,1,0,0:0:0:0:
448,192,23510,1,0,0:0:0:0:
320,192,23510,128,0,23702:0:0:0:0:
192,192,23702,1,0,0:0:0:0:
320,192,23798,1,0,0:0:0:0:
64,192,23894,1,0,0:0:0:0:
448,192,23894,128,0,24086:0:0:0:0:
320,192,24086,1,0,0:0:0:0:
192,192,24182,1,0,0:0:0:0:
448,192,24278,1,0,0:0:0:0:
64,192,24278,128,0,24470:0:0:0:0:
448,192,24470,1,0,0:0:0:0:
320,192,24566,1,0,0:0:0:0:
192,192,24662,128,0,24854:0:0:0:0:
64,192,24662,1,0,0:0:0:0:
320,192,24854,1,0,0:0:0:0:
448,192,24950,1,0,0:0:0:0:
192,192,25046,1,0,0:0:0:0:
64,192,25046,128,0,25238:0:0:0:0:
448,192,25238,1,0,0:0:0:0:
320,192,25334,1,0,0:0:0:0:
64,192,25430,1,0,0:0:0:0:
192,192,25430,128,0,25622:0:0:0:0:
448,192,25622,1,0,0:0:0:0:
192,192,25718,1,0,0:0:0:0:
64,192,25814,1,0,0:0:0:0:
448,192,25814,128,0,26006:0:0:0:0:
192,192,26006,128,0,26280:0:0:0:0:
320,192,26006,1,0,0:0:0:0:
448,192,26280,128,0,26417:0:0:0:0:
320,192,26417,128,0,26554:0:0:0:0:
192,192,26554,128,0,26691:0:0:0:0:
64,192,26828,128,0,26966:0:0:0:0:
448,192,26966,128,0,27326:0:0:0:0:
320,192,26966,1,0,0:0:0:0:
448,192,27446,1,0,0:0:0:0:
64,192,27446,128,0,27806:0:0:0:0:
64,192,27926,1,0,0:0:0:0:
448,192,27926,128,0,28063:0:0:0:0:
192,192,28063,128,0,28234:0:0:0:0:
320,192,28234,128,0,28406:0:0:0:0:
64,192,28406,128,0,28646:0:0:0:0:
448,192,28406,1,0,0:0:0:0:
320,192,28646,1,0,0:0:0:0:
64,192,28766,1,0,0:0:0:0:
448,192,28886,1,0,0:0:0:0:
192,192,28886,128,0,29126:0:0:0:0:
320,192,29126,1,0,0:0:0:0:
192,192,29246,1,0,0:0:0:0:
64,192,29366,1,0,0:0:0:0:
448,192,29366,128,0,29606:0:0:0:0:
192,192,29606,1,0,0:0:0:0:
320,192,29726,1,0,0:0:0:0:
448,192,29846,1,0,0:0:0:0:
64,192,29846,128,0,30086:0:0:0:0:
448,192,30086,1,0,0:0:0:0:
320,192,30166,1,0,0:0:0:0:
192,192,30246,1,0,0:0:0:0:
64,192,30326,128,0,30566:0:0:0:0:
320,192,30566,1,0,0:0:0:0:
448,192,30686,128,0,30806:0:0:0:0:
192,192,30806,1,0,0:0:0:0:
64,192,30806,128,0,30998:0:0:0:0:
448,192,30998,1,0,0:0:0:0:
320,192,31094,1,0,0:0:0:0:
64,192,31190,1,0,0:0:0:0:
192,192,31190,128,0,31382:0:0:0:0:
320,192,31382,1,0,0:0:0:0:
192,192,31478,1,0,0:0:0:0:
448,192,31574,1,0,0:0:0:0:
64,192,31574,128,0,31766:0:0:0:0:
192,192,31766,1,0,0:0:0:0:
320,192,31862,1,0,0:0:0:0:
64,192,31958,1,0,0:0:0:0:
448,192,31958,128,0,32150:0:0:0:0:
64,192,32150,1,0,0:0:0:0:
192,192,32246,1,0,0:0:0:0:
320,192,32342,128,0,32534:0:0:0:0:
448,192,32342,1,0,0:0:0:0:
192,192,32534,1,0,0:0:0:0:
64,192,32630,1,0,0:0:0:0:
320,192,32726,1,0,0:0:0:0:
448,192,32726,128,0,32918:0:0:0:0:
64,192,32918,1,0,0:0:0:0:
192,192,33014,1,0,0:0:0:0:
448,192,33110,1,0,0:0:0:0:
320,192,33110,128,0,33302:0:0:0:0:
64,192,33302,1,0,0:0:0:0:
320,192,33398,1,0,0:0:0:0:
448,192,33494,1,0,0:0:0:0:
64,192,33494,128,0,33686:0:0:0:0:
320,192,33686,128,0,33960:0:0:0:0:
64,192,33960,128,0,34097:0:0:0:0:
192,192,34097,128,0,34234:0:0:0:0:
320,192,34234,128,0,34371:0:0:0:0:
448,192,34508,128,0,34646:0:0:0:0:
64,192,34646,1,0,0:0:0:0:
192,192,34646,128,0,35006:0:0:0:0:
320,192,35006,1,0,0:0:0:0:
64,192,35126,1,0,0:0:0:0:
448,192,35246,1,0,0:0:0:0:
320,192,35366,1,0,0:0:0:0:
192,192,35486,1,0,0:0:0:0:
64,192,35606,1,0,0:0:0:0:
448,192,35726,1,0,0:0:0:0:
64,192,35846,1,0,0:0:0:0:
192,192,35966,1,0,0:0:0:0:
320,192,36086,1,0,0:0:0:0:
448,192,36206,1,0,0:0:0:0:
64,192,36326,1,0,0:0:0:0:
192,192,36446,1,0,0:0:0:0:
448,192,36566,1,0,0:0:0:0:
320,192,36686,1,0,0:0:0:0:
192,192,36806,1,0,0:0:0:0:
64,192,36926,1,0,0:0:0:0:
448,192,37046,1,0,0:0:0:0:
320,192,37166,1,0,0:0:0:0:
64,192,37286,1,0,0:0:0:0:
192,192,37406,1,0,0:0:0:0:
320,192,37526,1,0,0:0:0:0:
448,192,37646,1,0,0:0:0:0:
192,192,37766,1,0,0:0:0:0:
64,192,37886,1,0,0:0:0:0:
448,192,38006,1,0,0:0:0:0:
320,192,38126,1,0,0:0:0:0:
192,192,38246,128,0,38486:0:0:0:0:
64,192,38486,1,0,0:0:0:0:
320,192,38486,128,0,38966:0:0:0:0:
448,192,39086,1,0,0:0:0:0:
64,192,39086,1,0,0:0:0:0:
192,192,39206,1,0,0:0:0:0:
320,192,39326,1,0,0:0:0:0:
192,192,39446,1,0,0:0:0:0:
448,192,39566,1,0,0:0:0:0:
64,192,39566,1,0,0:0:0:0:
320,192,39686,1,0,0:0:0:0:
192,192,39806,1,0,0:0:0:0:
64,192,39926,1,0,0:0:0:0:
448,192,40046,1,0,0:0:0:0:
320,192,40166,1,0,0:0:0:0:
64,192,40166,1,0,0:0:0:0:
192,192,40286,1,0,0:0:0:0:
320,192,40406,128,0,40646:0:0:0:0:
448,192,40646,1,0,0:0:0:0:
64,192,40646,1,0,0:0:0:0:
192,192,40766,1,0,0:0:0:0:
320,192,40886,1,0,0:0:0:0:
448,192,41006,1,0,0:0:0:0:
64,192,41126,1,0,0:0:0:0:
192,192,41246,1,0,0:0:0:0:
448,192,41246,1,0,0:0:0:0:
320,192,41366,1,0,0:0:0:0:
192,192,41486,1,0,0:0:0:0:
64,192,41606,1,0,0:0:0:0:
448,192,41726,1,0,0:0:0:0:
64,192,41846,1,0,0:0:0:0:
320,192,41846,1,0,0:0:0:0:
192,192,41966,1,0,0:0:0:0:
320,192,42086,1,0,0:0:0:0:
448,192,42326,1,0,0:0:0:0:
64,192,42326,1,0,0:0:0:0:
320,192,42446,1,0,0:0:0:0:
192,192,42566,1,0,0:0:0:0:
320,192,42686,1,0,0:0:0:0:
64,192,42806,1,0,0:0:0:0:
192,192,42926,1,0,0:0:0:0:
448,192,42926,1,0,0:0:0:0:
320,192,43046,1,0,0:0:0:0:
192,192,43166,1,0,0:0:0:0:
64,192,43286,1,0,0:0:0:0:
448,192,43406,1,0,0:0:0:0:
192,192,43406,1,0,0:0:0:0:
320,192,43526,1,0,0:0:0:0:
192,192,43646,1,0,0:0:0:0:
64,192,43766,1,0,0:0:0:0:
448,192,43886,1,0,0:0:0:0:
320,192,44006,1,0,0:0:0:0:
64,192,44006,1,0,0:0:0:0:
192,192,44126,1,0,0:0:0:0:
320,192,44246,128,0,44486:0:0:0:0:
64,192,44486,1,0,0:0:0:0:
448,192,44486,1,0,0:0:0:0:
192,192,44606,1,0,0:0:0:0:
320,192,44726,1,0,0:0:0:0:
448,192,44846,1,0,0:0:0:0:
64,192,44966,1,0,0:0:0:0:
192,192,45086,1,0,0:0:0:0:
448,192,45086,1,0,0:0:0:0:
320,192,45206,1,0,0:0:0:0:
192,192,45326,1,0,0:0:0:0:
64,192,45446,1,0,0:0:0:0:
448,192,45566,1,0,0:0:0:0:
320,192,45686,1,0,0:0:0:0:
64,192,45686,1,0,0:0:0:0:
192,192,45806,1,0,0:0:0:0:
320,192,45926,1,0,0:0:0:0:
192,192,46166,128,0,46268:0:0:0:0:
64,192,46714,128,0,46817:0:0:0:0:
448,192,47263,128,0,47366:0:0:0:0:
320,192,47811,128,0,47914:0:0:0:0:
192,192,48360,128,0,48463:0:0:0:0:
64,192,48908,128,0,49046:0:0:0:0:
448,192,49486,128,0,49659:0:0:0:0:
64,192,49659,1,0,0:0:0:0:
320,192,49726,128,0,50006:0:0:0:0:
64,192,50006,1,0,0:0:0:0:
192,192,50006,1,0,0:0:0:0:
320,192,50143,1,0,0:0:0:0:
192,192,50280,1,0,0:0:0:0:
448,192,50417,1,0,0:0:0:0:
64,192,50554,1,0,0:0:0:0:
320,192,50691,1,0,0:0:0:0:
448,192,50828,1,0,0:0:0:0:
64,192,50966,1,0,0:0:0:0:
192,192,50966,1,0,0:0:0:0:
448,192,51103,1,0,0:0:0:0:
192,192,51240,1,0,0:0:0:0:
320,192,51377,1,0,0:0:0:0:
64,192,51514,1,0,0:0:0:0:
448,192,51651,1,0,0:0:0:0:
320,192,51788,1,0,0:0:0:0:
448,192,51926,1,0,0:0:0:0:
64,192,51926,1,0,0:0:0:0:
192,192,52063,1,0,0:0:0:0:
448,192,52200,1,0,0:0:0:0:
320,192,52337,1,0,0:0:0:0:
64,192,52474,1,0,0:0:0:0:
320,192,52611,1,0,0:0:0:0:
192,192,52748,1,0,0:0:0:0:
448,192,52886,1,0,0:0:0:0:
320,192,52886,1,0,0:0:0:0:
64,192,53023,1,0,0:0:0:0:
320,192,53160,1,0,0:0:0:0:
448,192,53297,1,0,0:0:0:0:
192,192,53434,1,0,0:0:0:0:
64,192,53571,1,0,0:0:0:0:
320,192,53708,1,0,0:0:0:0:
448,192,53846,1,0,0:0:0:0:
64,192,53846,1,0,0:0:0:0:
192,192,53942,1,0,0:0:0:0:
320,192,54038,1,0,0:0:0:0:
192,192,54134,1,0,0:0:0:0:
448,192,54230,1,0,0:0:0:0:
64,192,54230,1,0,0:0:0:0:
320,192,54422,1,0,0:0:0:0:
192,192,54518,1,0,0:0:0:0:
320,192,54614,1,0,0:0:0:0:
64,192,54710,1,0,0:0:0:0:
448,192,54710,1,0,0:0:0:0:
320,192,54806,1,0,0:0:0:0:
192,192,54806,1,0,0:0:0:0:
448,192,54998,1,0,0:0:0:0:
192,192,55094,1,0,0:0:0:0:
320,192,55190,1,0,0:0:0:0:
64,192,55286,1,0,0:0:0:0:
320,192,55382,1,0,0:0:0:0:
448,192,55478,1,0,0:0:0:0:
64,192,55478,1,0,0:0:0:0:
192,192,55574,1,0,0:0:0:0:
320,192,55670,1,0,0:0:0:0:
64,192,55766,1,0,0:0:0:0:
448,192,55766,1,0,0:0:0:0:
192,192,55862,1,0,0:0:0:0:
448,192,55958,1,0,0:0:0:0:
320,192,56054,1,0,0:0:0:0:
192,192,56150,1,0,0:0:0:0:
448,192,56246,1,0,0:0:0:0:
64,192,56246,1,0,0:0:0:0:
320,192,56342,1,0,0:0:0:0:
192,192,56438,1,0,0:0:0:0:
64,192,56534,1,0,0:0:0:0:
320,192,56630,1,0,0:0:0:0:
192,192,56726,1,0,0:0:0:0:
64,192,56726,1,0,0:0:0:0:
448,192,56870,1,0,0:0:0:0:
64,192,56966,1,0,0:0:0:0:
320,192,56966,1,0,0:0:0:0:
192,192,57086,1,0,0:0:0:0:
320,192,57206,1,0,0:0:0:0:
64,192,57302,1,0,0:0:0:0:
448,192,57398,1,0,0:0:0:0:
192,192,57398,1,0,0:0:0:0:
320,192,57494,1,0,0:0:0:0:
448,192,57590,1,0,0:0:0:0:
192,192,57686,1,0,0:0:0:0:
64,192,57686,1,0,0:0:0:0:
320,192,57823,1,0,0:0:0:0:
192,192,57960,1,0,0:0:0:0:
448,192,58097,1,0,0:0:0:0:
64,192,58234,1,0,0:0:0:0:
320,192,58371,1,0,0:0:0:0:
448,192,58508,1,0,0:0:0:0:
192,192,58646,1,0,0:0:0:0:
64,192,58646,1,0,0:0:0:0:
448,192,58783,1,0,0:0:0:0:
192,192,58920,1,0,0:0:0:0:
320,192,59057,1,0,0:0:0:0:
64,192,59194,1,0,0:0:0:0:
448,192,59331,1,0,0:0:0:0:
320,192,59468,1,0,0:0:0:0:
64,192,59606,1,0,0:0:0:0:
448,192,59606,1,0,0:0:0:0:
192,192,59743,1,0,0:0:0:0:
448,192,59880,1,0,0:0:0:0:
320,192,60017,1,0,0:0:0:0:
64,192,60154,1,0,0:0:0:0:
320,192,60291,1,0,0:0:0:0:
192,192,60428,1,0,0:0:0:0:
320,192,60566,1,0,0:0:0:0:
448,192,60566,1,0,0:0:0:0:
64,192,60703,1,0,0:0:0:0:
320,192,60840,1,0,0:0:0:0:
448,192,60977,1,0,0:0:0:0:
192,192,61114,1,0,0:0:0:0:
64,192,61251,1,0,0:0:0:0:
320,192,61388,1,0,0:0:0:0:
64,192,61526,1,0,0:0:0:0:
448,192,61526,1,0,0:0:0:0:
320,192,61622,1,0,0:0:0:0:
192,192,61718,1,0,0:0:0:0:
320,192,61814,1,0,0:0:0:0:
64,192,61910,1,0,0:0:0:0:
448,192,61910,1,0,0:0:0:0:
192,192,62102,1,0,0:0:0:0:
320,192,62198,1,0,0:0:0:0:
192,192,62294,1,0,0:0:0:0:
448,192,62390,1,0,0:0:0:0:
64,192,62390,1,0,0:0:0:0:
192,192,62486,1,0,0:0:0:0:
320,192,62486,1,0,0:0:0:0:
64,192,62678,1,0,0:0:0:0:
320,192,62774,1,0,0:0:0:0:
192,192,62870,1,0,0:0:0:0:
448,192,62966,1,0,0:0:0:0:
192,192,63062,1,0,0:0:0:0:
64,192,63158,1,0,0:0:0:0:
448,192,63158,1,0,0:0:0:0:
320,192,63254,1,0,0:0:0:0:
192,192,63350,1,0,0:0:0:0:
448,192,63446,1,0,0:0:0:0:
64,192,63446,1,0,0:0:0:0:
320,192,63542,1,0,0:0:0:0:
64,192,63638,1,0,0:0:0:0:
192,192,63734,1,0,0:0:0:0:
320,192,63830,1,0,0:0:0:0:
64,192,63926,1,0,0:0:0:0:
448,192,63926,1,0,0:0:0:0:
192,192,64022,1,0,0:0:0:0:
320,192,64118,1,0,0:0:0:0:
448,192,64214,1,0,0:0:0:0:
192,192,64310,1,0,0:0:0:0:
320,192,64406,1,0,0:0:0:0:
448,192,64406,1,0,0:0:0:0:
192,192,64543,1,0,0:0:0:0:
448,192,64680,1,0,0:0:0:0:
64,192,64680,1,0,0:0:0:0:
320,192,64817,1,0,0:0:0:0:
192,192,64954,1,0,0:0:0:0:
448,192,65023,1,0,0:0:0:0:
64,192,65023,1,0,0:0:0:0:
192,192,65160,1,0,0:0:0:0:
320,192,65228,1,0,0:0:0:0:
64,192,65366,1,0,0:0:0:0:
192,192,65366,1,0,0:0:0:0:
320,192,65503,1,0,0:0:0:0:
192,192,65640,1,0,0:0:0:0:
448,192,65777,1,0,0:0:0:0:
64,192,65914,1,0,0:0:0:0:
320,192,66051,1,0,0:0:0:0:
448,192,66188,1,0,0:0:0:0:
192,192,66326,1,0,0:0:0:0:
64,192,66326,1,0,0:0:0:0:
448,192,66463,1,0,0:0:0:0:
192,192,66600,1,0,0:0:0:0:
320,192,66737,1,0,0:0:0:0:
64,192,66874,1,0,0:0:0:0:
448,192,67011,1,0,0:0:0:0:
192,192,67148,1,0,0:0:0:0:
320,192,67286,1,0,0:0:0:0:
448,192,67286,1,0,0:0:0:0:
192,192,67388,1,0,0:0:0:0:
64,192,67491,1,0,0:0:0:0:
448,192,67594,1,0,0:0:0:0:
192,192,67766,1,0,0:0:0:0:
64,192,67766,1,0,0:0:0:0:
448,192,67862,1,0,0:0:0:0:
192,192,67958,1,0,0:0:0:0:
320,192,68054,1,0,0:0:0:0:
192,192,68150,1,0,0:0:0:0:
448,192,68246,1,0,0:0:0:0:
320,192,68246,128,0,68438:0:0:0:0:
64,192,68438,1,0,0:0:0:0:
192,192,68534,1,0,0:0:0:0:
448,192,68630,1,0,0:0:0:0:
192,192,68774,1,0,0:0:0:0:
448,192,68870,1,0,0:0:0:0:
320,192,68966,1,0,0:0:0:0:
192,192,69110,1,0,0:0:0:0:
448,192,69206,128,0,69446:0:0:0:0:
64,192,69206,1,0,0:0:0:0:
192,192,69446,128,0,69734:0:0:0:0:
320,192,69734,128,0,70022:0:0:0:0:
64,192,70022,1,0,0:0:0:0:
192,192,70166,1,0,0:0:0:0:
448,192,70166,1,0,0:0:0:0:
320,192,70310,128,0,70598:0:0:0:0:
64,192,70598,128,0,70886:0:0:0:0:
448,192,70886,128,0,71126:0:0:0:0:
192,192,71126,1,0,0:0:0:0:
64,192,71126,1,0,0:0:0:0:
320,192,71222,1,0,0:0:0:0:
64,192,71318,1,0,0:0:0:0:
192,192,71414,1,0,0:0:0:0:
320,192,71510,1,0,0:0:0:0:
192,192,71654,1,0,0:0:0:0:
320,192,71798,1,0,0:0:0:0:
64,192,71894,1,0,0:0:0:0:
448,192,71990,128,0,72086:0:0:0:0:
192,192,72086,1,0,0:0:0:0:
64,192,72223,128,0,72360:0:0:0:0:
320,192,72360,128,0,72497:0:0:0:0:
64,192,72497,128,0,72634:0:0:0:0:
320,192,72634,128,0,72771:0:0:0:0:
64,192,72771,128,0,72908:0:0:0:0:
320,192,72908,128,0,73046:0:0:0:0:
64,192,73046,1,0,0:0:0:0:
448,192,73046,1,0,0:0:0:0:
192,192,73183,1,0,0:0:0:0:
320,192,73320,1,0,0:0:0:0:
64,192,73457,1,0,0:0:0:0:
448,192,73594,1,0,0:0:0:0:
192,192,73731,1,0,0:0:0:0:
64,192,73868,1,0,0:0:0:0:
448,192,74006,1,0,0:0:0:0:
320,192,74006,1,0,0:0:0:0:
64,192,74143,1,0,0:0:0:0:
320,192,74280,1,0,0:0:0:0:
192,192,74417,1,0,0:0:0:0:
448,192,74554,1,0,0:0:0:0:
64,192,74691,1,0,0:0:0:0:
320,192,74828,1,0,0:0:0:0:
192,192,74966,1,0,0:0:0:0:
64,192,74966,1,0,0:0:0:0:
320,192,75062,1,0,0:0:0:0:
64,192,75158,1,0,0:0:0:0:
192,192,75254,1,0,0:0:0:0:
448,192,75350,1,0,0:0:0:0:
192,192,75446,1,0,0:0:0:0:
320,192,75590,1,0,0:0:0:0:
64,192,75734,1,0,0:0:0:0:
192,192,75830,1,0,0:0:0:0:
320,192,75926,1,0,0:0:0:0:
448,192,75926,128,0,76118:0:0:0:0:
64,192,76118,128,0,76358:0:0:0:0:
320,192,76358,1,0,0:0:0:0:
192,192,76502,1,0,0:0:0:0:
448,192,76598,1,0,0:0:0:0:
320,192,76694,1,0,0:0:0:0:
192,192,76790,1,0,0:0:0:0:
64,192,76886,128,0,77030:0:0:0:0:
448,192,77030,1,0,0:0:0:0:
64,192,77126,1,0,0:0:0:0:
192,192,77318,1,0,0:0:0:0:
320,192,77318,1,0,0:0:0:0:
64,192,77558,1,0,0:0:0:0:
448,192,77558,128,0,77846:0:0:0:0:
320,192,77846,1,0,0:0:0:0:
192,192,77846,1,0,0:0:0:0:
64,192,78038,1,0,0:0:0:0:
192,192,78134,1,0,0:0:0:0:
448,192,78278,128,0,78518:0:0:0:0:
320,192,78518,1,0,0:0:0:0:
64,192,78518,1,0,0:0:0:0:
448,192,78710,1,0,0:0:0:0:
192,192,78806,1,0,0:0:0:0:
64,192,78806,1,0,0:0:0:0:
320,192,78902,128,0,78998:0:0:0:0:
192,192,78998,1,0,0:0:0:0:
448,192,79094,128,0,79190:0:0:0:0:
64,192,79190,128,0,79382:0:0:0:0:
448,192,79382,128,0,79478:0:0:0:0:
192,192,79478,128,0,79670:0:0:0:0:
448,192,79670,128,0,79766:0:0:0:0:
192,192,79766,1,0,0:0:0:0:
64,192,79766,1,0,0:0:0:0:
448,192,79903,128,0,80040:0:0:0:0:
192,192,80040,128,0,80177:0:0:0:0:
448,192,80177,128,0,80314:0:0:0:0:
192,192,80314,128,0,80451:0:0:0:0:
448,192,80451,128,0,80588:0:0:0:0:
192,192,80588,128,0,80726:0:0:0:0:
320,192,80726,1,0,0:0:0:0:
448,192,80726,1,0,0:0:0:0:
64,192,80806,128,0,81706:0:0:0:0:
192,192,81706,1,0,0:0:0:0:
320,192,81946,1,0,0:0:0:0:
448,192,82186,1,0,0:0:0:0:
64,192,82426,1,0,0:0:0:0:
192,192,82606,1,0,0:0:0:0:
320,192,82646,128,0,82946:0:0:0:0:
64,192,82946,128,0,83206:0:0:0:0:
320,192,83206,1,0,0:0:0:0:
192,192,83206,128,0,83606:0:0:0:0:
448,192,83743,128,0,83880:0:0:0:0:
64,192,83880,128,0,84017:0:0:0:0:
448,192,84017,128,0,84154:0:0:0:0:
64,192,84154,128,0,84291:0:0:0:0:
448,192,84291,128,0,84428:0:0:0:0:
64,192,84428,128,0,84566:0:0:0:0:
320,192,84566,1,0,0:0:0:0:
192,192,84840,1,0,0:0:0:0:
448,192,85114,1,0,0:0:0:0:
320,192,85183,1,0,0:0:0:0:
64,192,85388,1,0,0:0:0:0:
192,192,85628,1,0,0:0:0:0:
448,192,85697,1,0,0:0:0:0:
64,192,85937,1,0,0:0:0:0:
192,192,86211,1,0,0:0:0:0:
448,192,86246,1,0,0:0:0:0:
320,192,86486,1,0,0:0:0:0:
192,192,86691,1,0,0:0:0:0:
448,192,86760,1,0,0:0:0:0:
64,192,87034,1,0,0:0:0:0:
192,192,87274,1,0,0:0:0:0:
448,192,87308,1,0,0:0:0:0:
320,192,87583,1,0,0:0:0:0:
64,192,87857,1,0,0:0:0:0:
448,192,87891,1,0,0:0:0:0:
320,192,88131,1,0,0:0:0:0:
192,192,88406,128,0,88714:0:0:0:0:
64,192,88406,128,0,88646:0:0:0:0:
448,192,88954,128,0,89194:0:0:0:0:
320,192,88954,128,0,89263:0:0:0:0:
320,192,89503,128,0,89743:0:0:0:0:
192,192,89503,128,0,89811:0:0:0:0:
192,192,90051,128,0,90291:0:0:0:0:
64,192,90051,128,0,90360:0:0:0:0:
320,192,90600,128,0,90840:0:0:0:0:
448,192,90600,128,0,90908:0:0:0:0:
320,192,91148,128,0,91388:0:0:0:0:
192,192,91148,128,0,91457:0:0:0:0:
320,192,91697,128,0,91937:0:0:0:0:
64,192,91697,128,0,92006:0:0:0:0:
448,192,92246,128,0,92486:0:0:0:0:
320,192,92794,128,0,93068:0:0:0:0:
192,192,93343,128,0,93583:0:0:0:0:
64,192,93891,128,0,94166:0:0:0:0:
192,192,94406,128,0,94543:0:0:0:0:
448,192,94474,128,0,94646:0:0:0:0:
64,192,94988,128,0,95126:0:0:0:0:
320,192,95057,128,0,95263:0:0:0:0:
64,192,95552,128,0,95659:0:0:0:0:
192,192,95606,128,0,95798:0:0:0:0:
320,192,95798,1,0,0:0:0:0:
192,192,95894,128,0,95990:0:0:0:0:
64,192,95990,128,0,96086:0:0:0:0:
320,192,96086,128,0,96246:0:0:0:0:
448,192,96086,128,0,96246:0:0:0:0:
64,192,96246,1,0,0:0:0:0:
192,192,96326,1,0,0:0:0:0:
320,192,96406,1,0,0:0:0:0:
448,192,96486,1,0,0:0:0:0:
192,192,96566,1,0,0:0:0:0:
320,192,96646,1,0,0:0:0:0:
64,192,96726,1,0,0:0:0:0:
192,192,96806,1,0,0:0:0:0:
448,192,96886,1,0,0:0:0:0:
192,192,97046,1,0,0:0:0:0:
64,192,97046,1,0,0:0:0:0:
320,192,97206,1,0,0:0:0:0:
64,192,97286,1,0,0:0:0:0:
448,192,97366,1,0,0:0:0:0:
64,192,97446,1,0,0:0:0:0:
192,192,97526,1,0,0:0:0:0:
320,192,97606,1,0,0:0:0:0:
448,192,97686,1,0,0:0:0:0:
64,192,97766,1,0,0:0:0:0:
192,192,97926,1,0,0:0:0:0:
320,192,98006,1,0,0:0:0:0:
448,192,98006,1,0,0:0:0:0:
192,192,98166,1,0,0:0:0:0:
448,192,98246,1,0,0:0:0:0:
320,192,98326,1,0,0:0:0:0:
64,192,98406,1,0,0:0:0:0:
192,192,98486,1,0,0:0:0:0:
320,192,98566,1,0,0:0:0:0:
448,192,98646,1,0,0:0:0:0:
64,192,98726,1,0,0:0:0:0:
192,192,98806,1,0,0:0:0:0:
448,192,98966,1,0,0:0:0:0:
320,192,98966,1,0,0:0:0:0:
64,192,99126,1,0,0:0:0:0:
448,192,99206,1,0,0:0:0:0:
192,192,99286,1,0,0:0:0:0:
64,192,99366,1,0,0:0:0:0:
448,192,99446,1,0,0:0:0:0:
192,192,99606,1,0,0:0:0:0:
320,192,99686,1,0,0:0:0:0:
64,192,99766,1,0,0:0:0:0:
192,192,99926,1,0,0:0:0:0:
448,192,99926,128,0,100166:0:0:0:0:
320,192,100166,1,0,0:0:0:0:
192,192,100246,1,0,0:0:0:0:
448,192,100326,1,0,0:0:0:0:
320,192,100406,1,0,0:0:0:0:
192,192,100486,1,0,0:0:0:0:
64,192,100646,1,0,0:0:0:0:
192,192,100726,128,0,100886:0:0:0:0:
320,192,100886,1,0,0:0:0:0:
448,192,100886,1,0,0:0:0:0:
64,192,101046,1,0,0:0:0:0:
448,192,101126,1,0,0:0:0:0:
192,192,101286,1,0,0:0:0:0:
448,192,101366,1,0,0:0:0:0:
64,192,101366,1,0,0:0:0:0:
320,192,101446,1,0,0:0:0:0:
192,192,101526,1,0,0:0:0:0:
448,192,101606,1,0,0:0:0:0:
320,192,101686,1,0,0:0:0:0:
192,192,101846,1,0,0:0:0:0:
64,192,101846,1,0,0:0:0:0:
448,192,102006,1,0,0:0:0:0:
320,192,102086,1,0,0:0:0:0:
192,192,102166,1,0,0:0:0:0:
64,192,102246,1,0,0:0:0:0:
448,192,102326,1,0,0:0:0:0:
320,192,102406,1,0,0:0:0:0:
192,192,102486,1,0,0:0:0:0:
64,192,102566,1,0,0:0:0:0:
448,192,102646,128,0,102806:0:0:0:0:
192,192,102806,1,0,0:0:0:0:
64,192,102806,1,0,0:0:0:0:
448,192,102966,1,0,0:0:0:0:
64,192,103046,1,0,0:0:0:0:
320,192,103126,1,0,0:0:0:0:
448,192,103206,1,0,0:0:0:0:
64,192,103286,1,0,0:0:0:0:
192,192,103446,1,0,0:0:0:0:
320,192,103526,1,0,0:0:0:0:
448,192,103606,128,0,103766:0:0:0:0:
192,192,103766,128,0,103926:0:0:0:0:
64,192,103766,128,0,103926:0:0:0:0:
448,192,103926,1,0,0:0:0:0:
320,192,104006,1,0,0:0:0:0:
192,192,104086,1,0,0:0:0:0:
64,192,104166,1,0,0:0:0:0:
320,192,104246,1,0,0:0:0:0:
192,192,104326,1,0,0:0:0:0:
448,192,104406,1,0,0:0:0:0:
320,192,104486,1,0,0:0:0:0:
64,192,104566,1,0,0:0:0:0:
320,192,104726,1,0,0:0:0:0:
448,192,104726,1,0,0:0:0:0:
192,192,104886,1,0,0:0:0:0:
448,192,104966,1,0,0:0:0:0:
64,192,105046,1,0,0:0:0:0:
448,192,105126,1,0,0:0:0:0:
320,192,105206,1,0,0:0:0:0:
192,192,105286,1,0,0:0:0:0:
64,192,105366,1,0,0:0:0:0:
448,192,105446,1,0,0:0:0:0:
320,192,105606,1,0,0:0:0:0:
192,192,105686,1,0,0:0:0:0:
64,192,105686,1,0,0:0:0:0:
320,192,105846,1,0,0:0:0:0:
64,192,105926,1,0,0:0:0:0:
192,192,106006,1,0,0:0:0:0:
448,192,106086,1,0,0:0:0:0:
320,192,106166,1,0,0:0:0:0:
192,192,106246,1,0,0:0:0:0:
64,192,106326,1,0,0:0:0:0:
448,192,106406,1,0,0:0:0:0:
320,192,106486,1,0,0:0:0:0:
64,192,106646,1,0,0:0:0:0:
192,192,106646,1,0,0:0:0:0:
448,192,106806,1,0,0:0:0:0:
64,192,106886,1,0,0:0:0:0:
320,192,106966,1,0,0:0:0:0:
448,192,107046,1,0,0:0:0:0:
64,192,107126,1,0,0:0:0:0:
320,192,107286,1,0,0:0:0:0:
192,192,107366,1,0,0:0:0:0:
448,192,107446,1,0,0:0:0:0:
320,192,107606,1,0,0:0:0:0:
64,192,107606,128,0,107846:0:0:0:0:
192,192,107846,1,0,0:0:0:0:
320,192,107926,1,0,0:0:0:0:
64,192,108006,1,0,0:0:0:0:
192,192,108086,1,0,0:0:0:0:
320,192,108166,1,0,0:0:0:0:
448,192,108326,1,0,0:0:0:0:
320,192,108406,128,0,108566:0:0:0:0:
192,192,108566,1,0,0:0:0:0:
64,192,108566,1,0,0:0:0:0:
448,192,108726,1,0,0:0:0:0:
64,192,108806,1,0,0:0:0:0:
320,192,108966,1,0,0:0:0:0:
64,192,109046,1,0,0:0:0:0:
448,192,109046,1,0,0:0:0:0:
192,192,109126,1,0,0:0:0:0:
320,192,109206,1,0,0:0:0:0:
64,192,109286,1,0,0:0:0:0:
192,192,109366,1,0,0:0:0:0:
448,192,109526,1,0,0:0:0:0:
320,192,109526,1,0,0:0:0:0:
64,192,109686,1,0,0:0:0:0:
192,192,109766,1,0,0:0:0:0:
320,192,109846,1,0,0:0:0:0:
448,192,109926,1,0,0:0:0:0:
64,192,110006,1,0,0:0:0:0:
192,192,110086,1,0,0:0:0:0:
320,192,110166,1,0,0:0:0:0:
448,192,110246,1,0,0:0:0:0:
64,192,110326,128,0,110486:0:0:0:0:
320,192,110486,1,0,0:0:0:0:
448,192,110486,1,0,0:0:0:0:
64,192,110646,1,0,0:0:0:0:
448,192,110726,1,0,0:0:0:0:
192,192,110806,1,0,0:0:0:0:
64,192,110886,1,0,0:0:0:0:
448,192,110966,1,0,0:0:0:0:
320,192,111126,1,0,0:0:0:0:
192,192,111206,1,0,0:0:0:0:
64,192,111286,128,0,111446:0:0:0:0:
320,192,111446,128,0,111686:0:0:0:0:
448,192,111446,128,0,111686:0:0:0:0:
192,192,112006,128,0,112166:0:0:0:0:
192,192,112539,128,0,112699:0:0:0:0:
64,192,113099,128,0,113366:0:0:0:0:
320,192,113366,1,0,0:0:0:0:
448,192,113366,1,0,0:0:0:0:
192,192,113462,1,0,0:0:0:0:
448,192,113558,1,0,0:0:0:0:
320,192,113654,1,0,0:0:0:0:
192,192,113750,1,0,0:0:0:0:
64,192,113846,1,0,0:0:0:0:
448,192,113942,1,0,0:0:0:0:
192,192,114038,1,0,0:0:0:0:
448,192,114134,1,0,0:0:0:0:
192,192,114230,1,0,0:0:0:0:
320,192,114326,128,0,114518:0:0:0:0:
192,192,114518,1,0,0:0:0:0:
448,192,114614,1,0,0:0:0:0:
320,192,114758,1,0,0:0:0:0:
64,192,114854,1,0,0:0:0:0:
448,192,114950,128,0,115094:0:0:0:0:
192,192,115094,1,0,0:0:0:0:
448,192,115190,128,0,115286:0:0:0:0:
320,192,115286,1,0,0:0:0:0:
64,192,115286,128,0,115526:0:0:0:0:
192,192,115834,128,0,116006:0:0:0:0:
192,192,116383,128,0,116623:0:0:0:0:
320,192,116931,128,0,117206:0:0:0:0:
192,192,117206,1,0,0:0:0:0:
64,192,117206,1,0,0:0:0:0:
448,192,117302,1,0,0:0:0:0:
320,192,117398,1,0,0:0:0:0:
192,192,117494,1,0,0:0:0:0:
448,192,117590,1,0,0:0:0:0:
64,192,117686,1,0,0:0:0:0:
320,192,117830,1,0,0:0:0:0:
64,192,117974,1,0,0:0:0:0:
192,192,118070,1,0,0:0:0:0:
448,192,118166,128,0,118310:0:0:0:0:
192,192,118358,128,0,118646:0:0:0:0:
64,192,118646,128,0,119126:0:0:0:0:
192,192,118988,128,0,119126:0:0:0:0:
320,192,119126,1,0,0:0:0:0:
448,192,119126,128,0,119686:0:0:0:0:
320,192,119686,1,0,0:0:0:0:
192,192,119766,1,0,0:0:0:0:
64,192,119846,1,0,0:0:0:0:
448,192,119926,1,0,0:0:0:0:
320,192,120006,1,0,0:0:0:0:
192,192,120086,1,0,0:0:0:0:
64,192,120166,1,0,0:0:0:0:
64,192,120406,1,0,0:0:0:0:
320,192,120512,128,0,120806:0:0:0:0:
192,192,120806,128,0,121046:0:0:0:0:
64,192,121046,1,0,0:0:0:0:
448,192,121046,128,0,121286:0:0:0:0:
320,192,121286,128,0,121406:0:0:0:0:
192,192,121406,128,0,121526:0:0:0:0:
64,192,121526,128,0,122006:0:0:0:0:
192,192,121886,128,0,122006:0:0:0:0:
320,192,122006,1,0,0:0:0:0:
448,192,122006,1,0,0:0:0:0:
192,192,122102,1,0,0:0:0:0:
448,192,122198,1,0,0:0:0:0:
320,192,122294,1,0,0:0:0:0:
192,192,122390,1,0,0:0:0:0:
320,192,122486,1,0,0:0:0:0:
64,192,122582,1,0,0:0:0:0:
192,192,122678,1,0,0:0:0:0:
320,192,122774,1,0,0:0:0:0:
448,192,122870,1,0,0:0:0:0:
192,192,122966,1,0,0:0:0:0:
64,192,122966,1,0,0:0:0:0:
448,192,123062,1,0,0:0:0:0:
320,192,123158,1,0,0:0:0:0:
192,192,123254,1,0,0:0:0:0:
64,192,123350,1,0,0:0:0:0:
320,192,123446,1,0,0:0:0:0:
448,192,123446,1,0,0:0:0:0:
64,192,123542,1,0,0:0:0:0:
192,192,123638,1,0,0:0:0:0:
320,192,123734,1,0,0:0:0:0:
448,192,123830,1,0,0:0:0:0:
192,192,123926,1,0,0:0:0:0:
64,192,123926,1,0,0:0:0:0:
448,192,124022,1,0,0:0:0:0:
320,192,124118,1,0,0:0:0:0:
64,192,124214,1,0,0:0:0:0:
448,192,124310,1,0,0:0:0:0:
192,192,124406,1,0,0:0:0:0:
320,192,124502,1,0,0:0:0:0:
64,192,124646,1,0,0:0:0:0:
192,192,124742,128,0,124886:0:0:0:0:
320,192,124886,1,0,0:0:0:0:
448,192,124886,1,0,0:0:0:0:
64,192,124982,1,0,0:0:0:0:
192,192,125078,1,0,0:0:0:0:
448,192,125174,1,0,0:0:0:0:
320,192,125270,1,0,0:0:0:0:
192,192,125366,1,0,0:0:0:0:
448,192,125462,1,0,0:0:0:0:
320,192,125558,1,0,0:0:0:0:
192,192,125654,1,0,0:0:0:0:
64,192,125750,1,0,0:0:0:0:
320,192,125846,128,0,126038:0:0:0:0:
448,192,126038,128,0,126278:0:0:0:0:
64,192,126278,1,0,0:0:0:0:
192,192,126374,1,0,0:0:0:0:
320,192,126470,1,0,0:0:0:0:
448,192,126566,1,0,0:0:0:0:
192,192,126662,128,0,126806:0:0:0:0:
320,192,126806,1,0,0:0:0:0:
448,192,126806,128,0,126966:0:0:0:0:
64,192,126966,1,0,0:0:0:0:
192,192,127099,1,0,0:0:0:0:
320,192,127232,1,0,0:0:0:0:
448,192,127366,1,0,0:0:0:0:
192,192,127499,1,0,0:0:0:0:
320,192,127659,1,0,0:0:0:0:
64,192,127766,1,0,0:0:0:0:
192,192,127766,1,0,0:0:0:0:
448,192,127926,1,0,0:0:0:0:
64,192,128006,1,0,0:0:0:0:
320,192,128059,1,0,0:0:0:0:
192,192,128192,1,0,0:0:0:0:
448,192,128326,1,0,0:0:0:0:
64,192,128459,128,0,128726:0:0:0:0:
320,192,128726,1,0,0:0:0:0:
448,192,128726,1,0,0:0:0:0:
192,192,128886,1,0,0:0:0:0:
448,192,128966,128,0,129126:0:0:0:0:
320,192,129126,128,0,129552:0:0:0:0:
64,192,129552,128,0,129686:0:0:0:0:
320,192,129686,1,0,0:0:0:0:
448,192,129686,1,0,0:0:0:0:
192,192,129782,1,0,0:0:0:0:
448,192,129878,1,0,0:0:0:0:
320,192,129974,1,0,0:0:0:0:
64,192,130070,1,0,0:0:0:0:
320,192,130166,1,0,0:0:0:0:
448,192,130166,1,0,0:0:0:0:
64,192,130262,1,0,0:0:0:0:
448,192,130358,1,0,0:0:0:0:
192,192,130454,1,0,0:0:0:0:
320,192,130550,1,0,0:0:0:0:
192,192,130646,1,0,0:0:0:0:
64,192,130646,1,0,0:0:0:0:
448,192,130742,1,0,0:0:0:0:
64,192,130838,1,0,0:0:0:0:
192,192,130934,1,0,0:0:0:0:
320,192,131030,1,0,0:0:0:0:
448,192,131126,1,0,0:0:0:0:
192,192,131222,1,0,0:0:0:0:
64,192,131318,1,0,0:0:0:0:
320,192,131414,1,0,0:0:0:0:
192,192,131510,1,0,0:0:0:0:
320,192,131606,1,0,0:0:0:0:
448,192,131606,1,0,0:0:0:0:
64,192,131702,1,0,0:0:0:0:
192,192,131798,1,0,0:0:0:0:
320,192,131942,1,0,0:0:0:0:
192,192,132038,1,0,0:0:0:0:
448,192,132182,1,0,0:0:0:0:
64,192,132326,1,0,0:0:0:0:
192,192,132422,128,0,132566:0:0:0:0:
320,192,132566,1,0,0:0:0:0:
448,192,132566,1,0,0:0:0:0:
64,192,132662,1,0,0:0:0:0:
192,192,132758,1,0,0:0:0:0:
448,192,132854,1,0,0:0:0:0:
64,192,132950,1,0,0:0:0:0:
448,192,133046,1,0,0:0:0:0:
192,192,133142,1,0,0:0:0:0:
320,192,133238,1,0,0:0:0:0:
64,192,133334,1,0,0:0:0:0:
192,192,133430,1,0,0:0:0:0:
448,192,133526,128,0,133718:0:0:0:0:
320,192,133718,128,0,133958:0:0:0:0:
64,192,133958,1,0,0:0:0:0:
192,192,134054,1,0,0:0:0:0:
320,192,134150,1,0,0:0:0:0:
448,192,134246,128,0,134390:0:0:0:0:
320,192,134390,1,0,0:0:0:0:
64,192,134486,128,0,134726:0:0:0:0:
192,192,135068,128,0,135206:0:0:0:0:
320,192,135583,128,0,135720:0:0:0:0:
448,192,136166,128,0,136303:0:0:0:0:
192,192,136646,128,0,136817:0:0:0:0:
320,192,136920,128,0,137126:0:0:0:0:
192,192,137270,1,0,0:0:0:0:
320,192,137366,1,0,0:0:0:0:
64,192,137434,1,0,0:0:0:0:
320,192,137503,1,0,0:0:0:0:
192,192,137571,1,0,0:0:0:0:
448,192,137640,1,0,0:0:0:0:
320,192,137743,1,0,0:0:0:0:
192,192,137811,1,0,0:0:0:0:
448,192,137880,1,0,0:0:0:0:
320,192,137983,1,0,0:0:0:0:
192,192,138086,1,0,0:0:0:0:
320,192,138154,1,0,0:0:0:0:
64,192,138223,1,0,0:0:0:0:
320,192,138291,1,0,0:0:0:0:
