osu file format v14

[General]
AudioFilename: audio.mp3
AudioLeadIn: 0
PreviewTime: -1
Countdown: 1
SampleSet: Normal
StackLeniency: 0.7
Mode: 2
LetterboxInBreaks: 0
WidescreenStoryboard: 1

[Editor]
DistanceSpacing: 0.7
BeatDivisor: 1
GridSize: 32
TimelineZoom: 1

[Metadata]
Title:Doppelganger
TitleUnicode:Doppelganger
Artist:Leaf
ArtistUnicode:Leaf
Creator:gaaraati
Version:Easy
Source:BMS
Tags:
BeatmapID:1066178
BeatmapSetID:499157

[Difficulty]
HPDrainRate:0
CircleSize:2
OverallDifficulty:6
ApproachRate:6
SliderMultiplier:0.999999999999999
SliderTickRate:1

[Events]
//Background and Video events
0,0,"Leafdopple.jpg",0,0
//Break Periods
//Storyboard Layer 0 (Background)
//Storyboard Layer 1 (Fail)
//Storyboard Layer 2 (Pass)
//Storyboard Layer 3 (Foreground)
//Storyboard Sound Samples

[TimingPoints]
791,214.285714285714,4,1,1,50,1,0
791,-100,4,1,1,50,0,1
4219,-100,4,1,1,50,0,0
37648,-100,4,1,1,50,0,1
53933,-100,4,1,1,50,0,0
109648,-100,4,1,1,60,0,0
116505,-100,4,1,1,5,0,0
122505,-100,4,1,1,50,0,1
144790,-100,4,1,1,50,0,0

[Colours]
Combo1 : 24,164,21
Combo2 : 255,128,0
Combo3 : 255,255,128
Combo4 : 252,46,123
Combo5 : 255,65,55
Combo6 : 26,251,0

[HitObjects]
288,192,791,6,0,L|64:192,1,200
32,128,1648,2,0,L|320:128,1,200
384,128,2505,1,0,0:0:0:0:
384,160,2719,6,0,B|192:224|64:320|64:320|64:160,1,500
160,192,4219,1,0,0:0:0:0:
256,192,4648,5,0,0:0:0:0:
352,192,5076,1,0,0:0:0:0:
288,192,5505,1,0,0:0:0:0:
352,192,5933,1,0,0:0:0:0:
224,192,6362,1,0,0:0:0:0:
192,192,6790,1,0,0:0:0:0:
96,192,7219,1,0,0:0:0:0:
0,192,7648,5,0,0:0:0:0:
128,192,8076,1,0,0:0:0:0:
256,192,8505,1,0,0:0:0:0:
160,192,8933,1,0,0:0:0:0:
96,192,9362,6,0,L|352:192,1,200
320,160,10219,2,0,L|96:160,1,200
0,160,11076,1,0,0:0:0:0:
128,160,11505,1,0,0:0:0:0:
256,160,11933,5,0,0:0:0:0:
384,160,12362,1,0,0:0:0:0:
320,192,12790,2,0,P|160:192|160:160,1,200
96,192,13648,2,0,P|192:256|256:192,1,200
128,192,14505,6,0,B|160:96|416:128|416:128|128:224,1,599.999999999999
128,192,16219,6,0,L|352:192,1,200
352,256,17076,2,0,L|96:256,1,200
256,192,17933,12,0,18790,0:0:0:0:
96,192,19648,5,0,0:0:0:0:
224,192,20505,1,0,0:0:0:0:
352,192,21362,1,0,0:0:0:0:
448,192,21790,1,0,0:0:0:0:
352,192,22219,1,0,0:0:0:0:
256,192,22648,1,0,0:0:0:0:
160,192,23076,1,0,0:0:0:0:
64,192,23505,5,0,0:0:0:0:
192,192,23933,1,0,0:0:0:0:
320,192,24362,1,0,0:0:0:0:
448,192,24790,1,0,0:0:0:0:
320,192,25219,1,0,0:0:0:0:
192,192,25648,1,0,0:0:0:0:
64,192,26076,1,0,0:0:0:0:
192,192,26505,5,0,0:0:0:0:
320,192,26933,1,0,0:0:0:0:
448,192,27362,1,0,0:0:0:0:
320,192,27790,1,0,0:0:0:0:
192,192,28219,1,0,0:0:0:0:
256,192,28648,1,0,0:0:0:0:
352,160,29076,2,0,L|64:160,1,200
152,160,29933,5,0,0:0:0:0:
256,160,30362,1,0,0:0:0:0:
256,160,30576,1,0,0:0:0:0:
256,160,30790,1,0,0:0:0:0:
384,160,31219,1,0,0:0:0:0:
224,160,31648,2,0,L|352:160,2,99.9999999999999
288,96,32505,6,0,L|64:96,2,200
448,160,33790,1,0,0:0:0:0:
352,224,34219,6,0,L|96:224,3,200
256,192,35933,12,0,36790,0:0:0:0:
384,192,37648,6,0,L|160:192,1,200
64,192,38505,2,0,P|128:288|224:192,1,200
288,192,39362,2,0,L|32:192,1,200
0,160,40219,2,0,L|128:160,1,99.9999999999999
100,160,40648,6,0,L|228:160,3,99.9999999999999
32,96,41933,2,0,B|160:96|160:96|192:160|192:192|192:288,1,300
288,288,42790,2,0,L|288:64,2,200
256,192,44076,5,0,0:0:0:0:
384,192,44505,1,0,0:0:0:0:
512,192,44933,1,0,0:0:0:0:
384,192,45362,1,0,0:0:0:0:
256,192,45790,1,0,0:0:0:0:
128,192,46219,1,0,0:0:0:0:
0,192,46648,1,0,0:0:0:0:
128,192,47076,5,0,0:0:0:0:
256,192,47505,2,0,L|384:192,2,99.9999999999999
128,128,48362,2,0,L|352:128,1,200
416,256,49219,6,0,L|192:256,1,200
128,160,50076,2,0,L|288:160,2,99.9999999999999
384,0,50933,2,0,L|128:0,2,200
256,192,52219,12,0,53505,0:0:0:0:
256,192,53933,6,0,L|128:192,2,99.9999999999999
384,192,54790,1,0,0:0:0:0:
256,192,55219,1,0,0:0:0:0:
128,192,55648,1,0,0:0:0:0:
256,192,56076,1,0,0:0:0:0:
384,192,56505,5,0,0:0:0:0:
512,192,56933,1,0,0:0:0:0:
384,192,57362,1,0,0:0:0:0:
256,192,57790,1,0,0:0:0:0:
384,192,58219,1,0,0:0:0:0:
256,192,58648,1,0,0:0:0:0:
128,192,59076,5,0,0:0:0:0:
32,192,59505,2,0,L|192:192,1,99.9999999999999
132,192,59933,1,0,0:0:0:0:
256,192,60362,1,0,0:0:0:0:
384,192,60790,2,0,L|128:192,1,200
32,192,61648,6,0,L|288:192,2,200
96,192,62719,2,0,L|384:192,1,200
352,192,63362,2,0,P|160:160|224:96,1,400
320,160,64648,5,0,0:0:0:0:
256,192,65076,12,0,67648,0:0:0:0:
256,192,68505,5,0,0:0:0:0:
256,192,68933,1,0,0:0:0:0:
128,192,69362,2,0,P|224:128|288:224,1,200
279,169,70219,2,0,B|64:160|160:160|160:160|320:128,1,300
352,160,71076,5,0,0:0:0:0:
480,192,71505,1,0,0:0:0:0:
320,256,71933,1,0,0:0:0:0:
128,192,72362,1,0,0:0:0:0:
0,192,72790,2,0,L|256:192,1,200
352,192,73648,6,0,L|96:192,1,200
32,128,74505,2,0,L|256:128,1,200
352,160,75362,1,0,0:0:0:0:
224,160,75790,1,0,0:0:0:0:
96,160,76219,5,0,0:0:0:0:
224,160,76648,1,0,0:0:0:0:
352,160,77076,1,0,0:0:0:0:
480,96,77505,1,0,0:0:0:0:
352,160,77933,1,0,0:0:0:0:
256,64,78362,1,0,0:0:0:0:
160,160,78790,1,0,0:0:0:0:
64,64,79219,5,0,0:0:0:0:
0,192,79648,1,0,0:0:0:0:
64,320,80076,1,0,0:0:0:0:
128,192,80505,1,0,0:0:0:0:
192,320,80933,1,0,0:0:0:0:
256,192,81362,12,0,82219,0:0:0:0:
256,192,83076,5,0,0:0:0:0:
128,192,83505,1,0,0:0:0:0:
256,192,83933,1,0,0:0:0:0:
384,192,84362,1,0,0:0:0:0:
256,192,84790,1,0,0:0:0:0:
128,192,85219,1,0,0:0:0:0:
256,192,85648,6,0,L|416:192,2,99.9999999999999
256,192,86505,1,0,0:0:0:0:
128,192,86933,2,0,P|192:96|352:256,1,400
224,256,88219,1,0,0:0:0:0:
96,192,88648,6,0,L|320:192,2,200
224,192,89933,1,0,0:0:0:0:
352,192,90362,1,0,0:0:0:0:
224,192,90790,1,0,0:0:0:0:
96,192,91219,1,0,0:0:0:0:
224,192,91648,1,0,0:0:0:0:
352,192,92076,1,0,0:0:0:0:
224,192,92505,5,0,0:0:0:0:
96,192,92933,1,0,0:0:0:0:
224,192,93362,1,0,0:0:0:0:
352,192,93790,6,0,P|96:192|128:96,2,400
128,192,96148,2,0,L|256:192,1,99.9999999999999
256,192,96576,1,0,0:0:0:0:
320,192,96790,1,0,0:0:0:0:
448,192,97219,6,0,P|192:192|32:256,1,400
256,192,98505,12,0,100648,0:0:0:0:
256,192,101076,5,0,0:0:0:0:
256,192,101290,2,0,B|128:192|192:160|192:160,1,400
320,96,102576,2,0,L|0:96,1,300
256,192,103648,12,0,105362,0:0:0:0:
256,192,106433,5,0,0:0:0:0:
256,192,106862,1,0,0:0:0:0:
256,192,107076,1,0,0:0:0:0:
128,192,107505,1,0,0:0:0:0:
256,192,107933,1,0,0:0:0:0:
384,192,108362,1,0,0:0:0:0:
256,192,108790,6,0,L|32:192,2,200
384,192,110076,1,0,0:0:0:0:
256,192,110505,1,0,0:0:0:0:
32,192,111148,1,0,0:0:0:0:
96,192,111362,1,0,0:0:0:0:
224,192,111790,1,0,0:0:0:0:
352,192,112219,1,0,0:0:0:0:
224,192,112648,5,0,0:0:0:0:
96,192,113076,1,0,0:0:0:0:
224,192,113505,1,0,0:0:0:0:
352,192,113933,1,0,0:0:0:0:
480,192,114362,1,0,0:0:0:0:
480,192,114576,1,0,0:0:0:0:
416,192,114790,1,0,0:0:0:0:
288,192,115219,5,0,0:0:0:0:
160,192,115648,1,0,0:0:0:0:
32,192,116076,1,0,0:0:0:0:
160,192,116505,1,0,0:0:0:0:
96,192,117362,5,0,0:0:0:0:
224,192,118219,1,0,0:0:0:0:
352,192,119076,1,0,0:0:0:0:
448,192,119504,1,0,0:0:0:0:
352,192,119933,1,0,0:0:0:0:
256,192,120362,1,0,0:0:0:0:
160,192,120790,1,0,0:0:0:0:
64,192,121219,5,0,0:0:0:0:
192,192,121647,1,0,0:0:0:0:
320,192,122076,1,0,0:0:0:0:
