osu file format v14

[General]
AudioFilename: audio.mp3
AudioLeadIn: 0
PreviewTime: -1
Countdown: 0
SampleSet: None
StackLeniency: 0.7
Mode: 0
LetterboxInBreaks: 0
WidescreenStoryboard: 1

[Editor]
DistanceSpacing: 1
BeatDivisor: 4
GridSize: 4
TimelineZoom: 1.8

[Metadata]
Title:Aleph-o
TitleUnicode:Aleph-o
Artist:LeaF
ArtistUnicode:LeaF
Creator:WhiteWolf286
Version:Normal
Source:
Tags:leaf o aleph-o aleph god speed of infinite over
BeatmapID:1716399
BeatmapSetID:818020

[Difficulty]
HPDrainRate:3
CircleSize:3
OverallDifficulty:4
ApproachRate:6
SliderMultiplier:1.4
SliderTickRate:1

[Events]
//Background and Video events
0,0,"aleph-o.jpg",0,0
//Break Periods
2,39868,45053
2,123584,130014
//Storyboard Layer 0 (Background)
//Storyboard Layer 1 (Fail)
//Storyboard Layer 2 (Pass)
//Storyboard Layer 3 (Foreground)
//Storyboard Sound Samples

[TimingPoints]
8199,240,4,1,0,100,1,0
25954,428.571428571429,4,1,0,100,1,0
46103,240,4,1,0,100,1,0
48863,-50,4,1,0,100,0,0
49883,218.181818181818,4,1,0,100,1,0
53373,206.896551724138,4,1,0,100,1,0
56683,200,4,1,0,100,1,0
59833,187.5,4,1,0,100,1,0
62833,179.10447761194,4,1,0,100,1,0
65692.7800818647,166.666666666667,4,1,0,100,1,0
68359,164.383561643836,4,1,0,100,1,0
74271,-1000,4,1,0,100,0,0
76771,-100,4,1,0,100,0,0
76809,150,4,1,0,100,1,0
81125.9734420666,240,4,1,0,100,1,0
81225.9734420666,-1000,4,1,0,100,0,0
92643,480,4,1,0,100,1,0
108003,120,4,1,0,100,1,0
109923,480,4,1,0,100,1,0
110904,120,4,1,0,100,1,0
114744,480,4,1,0,100,1,0
115704,120,4,1,0,100,1,0
117624,480,4,1,0,100,1,0
118584,120,4,1,0,100,1,0
122424,480,4,1,0,100,1,0
122524,-200,4,1,0,100,0,0

[Colours]
Combo1 : 0,128,255
Combo2 : 0,255,0

[HitObjects]
259,190,5805,5,0,0:0:0:0:
135,121,8201,5,0,0:0:0:0:
259,279,8679,1,0,0:0:0:0:
389,198,9159,2,0,P|362:104|218:151,1,280
247,239,10119,1,0,0:0:0:0:
195,139,10599,6,0,B|244:-72|302:333|369:81,1,280
396,234,11559,1,0,0:0:0:0:
196,297,12039,1,0,0:0:0:0:
63,145,12519,2,0,P|186:56|382:327,1,560
156,141,14439,5,0,0:0:0:0:
366,168,14919,1,0,0:0:0:0:
148,266,15399,1,0,0:0:0:0:
361,295,15879,1,0,0:0:0:0:
448,164,16359,2,0,L|154:90,1,280
256,192,17319,12,0,17979,0:0:0:0:
156,132,18219,5,0,0:0:0:0:
381,162,18699,1,0,0:0:0:0:
262,71,19179,1,0,0:0:0:0:
412,73,19659,1,0,0:0:0:0:
426,248,20139,1,0,0:0:0:0:
408,127,20619,1,0,0:0:0:0:
197,96,21099,6,0,B|254:293|110:234|372:211,1,280
136,110,22059,5,0,0:0:0:0:
186,261,22539,1,0,0:0:0:0:
358,115,23019,1,0,0:0:0:0:
317,307,23499,1,0,0:0:0:0:
256,192,24039,12,0,25954,0:0:0:0:
141,114,27668,5,0,0:0:0:0:
266,236,28525,1,0,0:0:0:0:
366,177,29382,1,0,0:0:0:0:
303,77,30239,1,0,0:0:0:0:
126,100,31096,2,0,B|102:264|313:276|314:102|423:351|279:347|232:331,1,420
85,276,32811,1,0,0:0:0:0:
363,118,34525,5,0,0:0:0:0:
125,175,36239,1,0,0:0:0:0:
251,254,37954,1,0,0:0:0:0:
383,288,38382,1,0,0:0:0:0:
378,152,38811,1,0,0:0:0:0:
200,89,39239,1,0,0:0:0:0:
135,257,39668,1,0,0:0:0:0:
111,125,46103,5,0,0:0:0:0:
195,284,46583,1,0,0:0:0:0:
350,163,47063,2,0,P|208:114|126:208,1,280
413,120,48023,1,0,0:0:0:0:
89,285,48503,1,0,0:0:0:0:
322,100,48983,5,0,0:0:0:0:
143,290,49463,1,0,0:0:0:0:
373,284,49883,5,0,0:0:0:0:
192,258,50319,1,0,0:0:0:0:
328,162,50755,1,0,0:0:0:0:
146,80,51192,1,0,0:0:0:0:
114,200,51628,2,0,P|212:307|398:162,1,420
310,144,52501,6,0,L|309:53,2,70
144,141,52937,2,0,L|151:61,2,70
130,277,53373,6,0,B|582:446|-124:-125|539:348|464:112|247:33,1,560
125,157,55028,2,0,P|130:308|238:304,1,280
342,128,55855,5,0,0:0:0:0:
158,151,56269,1,0,0:0:0:0:
188,268,56683,5,0,0:0:0:0:
378,290,57083,1,0,0:0:0:0:
377,139,57483,2,0,L|83:73,1,280
138,271,58283,1,0,0:0:0:0:
308,202,58683,1,0,0:0:0:0:
417,57,59083,6,0,B|131:53|131:53|122:336,1,560
285,264,60208,1,0,0:0:0:0:
354,143,60583,2,0,P|282:92|204:106,1,140
159,170,60958,1,0,0:0:0:0:
125,289,61333,1,0,0:0:0:0:
378,249,62083,5,0,0:0:0:0:
379,88,62458,1,0,0:0:0:0:
117,138,62833,5,0,0:0:0:0:
149,268,63191,1,0,0:0:0:0:
290,147,63549,1,0,0:0:0:0:
288,278,63907,1,0,0:0:0:0:
438,98,64265,1,0,0:0:0:0:
212,64,64624,1,0,0:0:0:0:
132,236,64982,5,0,0:0:0:0:
430,217,65340,1,0,0:0:0:0:
134,129,65698,6,0,L|418:93,1,280
381,259,66359,2,0,L|94:300,1,280
168,164,67026,2,0,P|243:106|285:125,1,140
334,227,67359,1,0,0:0:0:0:
124,317,67692,5,0,0:0:0:0:
364,72,68026,1,0,0:0:0:0:
72,41,68359,6,0,P|68:194|382:146,1,560
212,114,69345,1,0,0:0:0:0:
108,152,69674,1,0,0:0:0:0:
152,291,70002,1,0,0:0:0:0:
416,211,70331,5,0,0:0:0:0:
158,122,70660,1,0,0:0:0:0:
169,290,70989,5,0,0:0:0:0:
332,111,71482,1,0,0:0:0:0:
113,173,71934,1,0,0:0:0:0:
318,279,72427,1,0,0:0:0:0:
182,97,72879,1,0,0:0:0:0:
225,309,73331,1,0,0:0:0:0:
301,173,73783,2,0,L|302:104,7,70
95,97,76809,5,0,0:0:0:0:
200,248,77109,1,0,0:0:0:0:
225,126,77409,1,0,0:0:0:0:
328,276,77709,1,0,0:0:0:0:
388,121,78009,1,0,0:0:0:0:
436,281,78309,1,0,0:0:0:0:
313,219,78609,1,0,0:0:0:0:
176,120,78909,1,0,0:0:0:0:
91,155,81121,5,0,0:0:0:0:
168,287,81485,1,0,0:0:0:0:
281,191,81845,2,0,L|270:134,1,56
181,162,83045,1,0,0:0:0:0:
166,288,83405,1,0,0:0:0:0:
319,247,83765,6,0,L|313:219,1,28
176,125,84605,1,0,0:0:0:0:
133,279,84965,5,0,0:0:0:0:
283,251,85325,1,0,0:0:0:0:
296,134,85685,2,0,L|239:141,1,56
171,253,86885,1,0,0:0:0:0:
310,279,87245,1,0,0:0:0:0:
392,188,87605,6,0,L|369:172,1,28
274,169,88325,1,0,0:0:0:0:
137,173,92643,5,0,0:0:0:0:
244,135,93603,1,0,0:0:0:0:
272,274,94563,1,0,0:0:0:0:
405,146,95523,1,0,0:0:0:0:
153,198,96483,5,0,0:0:0:0:
273,137,97443,1,0,0:0:0:0:
383,270,98403,1,0,0:0:0:0:
194,288,99363,1,0,0:0:0:0:
111,177,100323,5,0,0:0:0:0:
208,172,101283,1,0,0:0:0:0:
120,315,102243,1,0,0:0:0:0:
255,311,103203,1,0,0:0:0:0:
154,91,104163,2,0,L|369:286,1,280
337,144,106083,1,0,0:0:0:0:
146,157,107043,5,0,0:0:0:0:
292,264,107523,1,0,0:0:0:0:
126,140,108003,5,0,0:0:0:0:
279,125,108243,1,0,0:0:0:0:
158,286,108483,1,0,0:0:0:0:
311,271,108723,1,0,0:0:0:0:
379,131,108963,5,0,0:0:0:0:
247,217,109203,1,0,0:0:0:0:
233,101,109443,1,0,0:0:0:0:
301,164,109683,1,0,0:0:0:0:
121,277,109923,5,0,0:0:0:0:
141,178,110904,5,0,0:0:0:0:
262,126,111144,1,0,0:0:0:0:
261,253,111384,1,0,0:0:0:0:
404,151,111624,1,0,0:0:0:0:
128,201,111864,5,0,0:0:0:0:
307,187,112104,1,0,0:0:0:0:
359,308,112344,1,0,0:0:0:0:
204,279,112584,1,0,0:0:0:0:
176,136,112824,5,0,0:0:0:0:
354,99,113064,1,0,0:0:0:0:
309,287,113304,1,0,0:0:0:0:
408,200,113544,1,0,0:0:0:0:
315,180,113784,5,0,0:0:0:0:
213,254,114024,1,0,0:0:0:0:
212,170,114264,1,0,0:0:0:0:
309,272,114504,1,0,0:0:0:0:
382,124,114744,5,0,0:0:0:0:
406,293,115224,1,0,0:0:0:0:
138,117,115704,5,0,0:0:0:0:
279,154,115944,1,0,0:0:0:0:
388,287,116184,1,0,0:0:0:0:
250,293,116424,1,0,0:0:0:0:
407,77,116664,5,0,0:0:0:0:
329,194,116904,1,0,0:0:0:0:
192,92,117144,1,0,0:0:0:0:
140,220,117384,1,0,0:0:0:0:
281,304,117624,5,0,0:0:0:0:
144,130,118584,5,0,0:0:0:0:
278,171,118824,1,0,0:0:0:0:
379,85,119064,1,0,0:0:0:0:
402,233,119304,1,0,0:0:0:0:
216,269,119544,5,0,0:0:0:0:
305,184,119784,1,0,0:0:0:0:
363,307,120024,1,0,0:0:0:0:
421,134,120264,1,0,0:0:0:0:
341,71,120504,5,0,0:0:0:0:
218,125,120744,1,0,0:0:0:0:
224,248,120984,1,0,0:0:0:0:
346,183,121224,1,0,0:0:0:0:
321,306,121464,5,0,0:0:0:0:
151,203,121704,1,0,0:0:0:0:
267,117,121944,1,0,0:0:0:0:
224,280,122184,1,0,0:0:0:0:
153,167,122424,5,0,0:0:0:0:
394,96,123384,1,0,0:0:0:0:
257,194,131064,5,0,0:0:0:0:
