osu file format v14

[General]
AudioFilename: audio.mp3
AudioLeadIn: 0
PreviewTime: 23900
Countdown: 0
SampleSet: Normal
StackLeniency: 0.7
Mode: 3
LetterboxInBreaks: 0
SpecialStyle: 0
WidescreenStoryboard: 1

[Editor]
DistanceSpacing: 0.8
BeatDivisor: 4
GridSize: 32
TimelineZoom: 2.299999

[Metadata]
Title:Wizdomiot
TitleUnicode:Wizdomiot
Artist:LeaF
ArtistUnicode:LeaF
Creator:pporse
Version:Hyper
Source:BMS
Tags:東方project touhou zun 東方地霊殿 ~ subterranean animism 東方音弾遊戯7 optie 緑眼のジェラシー 水橋 パルスィ green eyed jealousy mizuhashi parsee
BeatmapID:1031787
BeatmapSetID:483389

[Difficulty]
HPDrainRate:7.5
CircleSize:7
OverallDifficulty:7.5
ApproachRate:5
SliderMultiplier:1.4
SliderTickRate:1

[Events]
//Background and Video events
0,0,"Wizdomiot_bg.jpg",0,0
Video,592,"video.avi"
//Break Periods
//Storyboard Layer 0 (Background)
//Storyboard Layer 1 (Fail)
//Storyboard Layer 2 (Pass)
//Storyboard Layer 3 (Foreground)
//Storyboard Sound Samples

[TimingPoints]
2675,300,3,1,1,30,1,0
24275,-100,3,1,1,30,0,1
38675,-100,3,1,1,30,0,0
90875,-100,3,1,1,30,0,1
105275,-100,3,1,1,30,0,0
123275,-100,3,1,1,30,0,1
137675,-100,3,1,1,30,0,0

[HitObjects]
36,192,2675,128,0,4475:0:0:0:0:
475,192,2675,128,0,4475:0:0:0:0:
182,192,4475,1,0,0:0:0:0:
329,192,4475,1,0,0:0:0:0:
182,192,4625,1,0,0:0:0:0:
329,192,4625,1,0,0:0:0:0:
329,192,6275,1,0,0:0:0:0:
182,192,7175,1,0,0:0:0:0:
109,192,8075,1,0,0:0:0:0:
402,192,8075,1,0,0:0:0:0:
109,192,8225,1,0,0:0:0:0:
402,192,8225,1,0,0:0:0:0:
402,192,8975,1,0,0:0:0:0:
256,192,9275,1,0,0:0:0:0:
109,192,9575,1,0,0:0:0:0:
182,192,9875,1,0,0:0:0:0:
475,192,9875,1,0,0:0:0:0:
256,192,10025,1,0,0:0:0:0:
402,192,10175,1,0,0:0:0:0:
329,192,10325,1,0,0:0:0:0:
182,192,10475,1,0,0:0:0:0:
329,192,10625,1,0,0:0:0:0:
475,192,10775,1,0,0:0:0:0:
256,192,10925,1,0,0:0:0:0:
402,192,11075,1,0,0:0:0:0:
182,192,11225,1,0,0:0:0:0:
36,192,11375,1,0,0:0:0:0:
475,192,11525,1,0,0:0:0:0:
256,192,11675,1,0,0:0:0:0:
402,192,11825,1,0,0:0:0:0:
36,192,11975,1,0,0:0:0:0:
182,192,12125,1,0,0:0:0:0:
256,192,12275,1,0,0:0:0:0:
402,192,12425,1,0,0:0:0:0:
475,192,12575,1,0,0:0:0:0:
329,192,12725,1,0,0:0:0:0:
182,192,12875,1,0,0:0:0:0:
402,192,13025,1,0,0:0:0:0:
256,192,13175,1,0,0:0:0:0:
109,192,13325,1,0,0:0:0:0:
36,192,13475,1,0,0:0:0:0:
475,192,13475,1,0,0:0:0:0:
329,192,13475,1,0,0:0:0:0:
475,192,13625,1,0,0:0:0:0:
182,192,13775,1,0,0:0:0:0:
329,192,13775,1,0,0:0:0:0:
182,192,13925,1,0,0:0:0:0:
402,192,14075,1,0,0:0:0:0:
256,192,14075,1,0,0:0:0:0:
402,192,14225,1,0,0:0:0:0:
109,192,14375,1,0,0:0:0:0:
256,192,14375,1,0,0:0:0:0:
109,192,14525,1,0,0:0:0:0:
329,192,14675,1,0,0:0:0:0:
182,192,14675,1,0,0:0:0:0:
329,192,14825,1,0,0:0:0:0:
36,192,14975,1,0,0:0:0:0:
182,192,14975,1,0,0:0:0:0:
36,192,15125,1,0,0:0:0:0:
329,192,15275,1,0,0:0:0:0:
475,192,15275,1,0,0:0:0:0:
109,192,15275,1,0,0:0:0:0:
182,192,15575,1,0,0:0:0:0:
402,192,15575,1,0,0:0:0:0:
329,192,15875,1,0,0:0:0:0:
182,192,15950,1,0,0:0:0:0:
329,192,16025,1,0,0:0:0:0:
475,192,16175,1,0,0:0:0:0:
329,192,16250,1,0,0:0:0:0:
182,192,16325,1,0,0:0:0:0:
402,192,16400,1,0,0:0:0:0:
36,192,16475,1,0,0:0:0:0:
182,192,16550,1,0,0:0:0:0:
329,192,16625,1,0,0:0:0:0:
109,192,16700,1,0,0:0:0:0:
402,192,16775,1,0,0:0:0:0:
256,192,16850,1,0,0:0:0:0:
109,192,16925,1,0,0:0:0:0:
329,192,17000,1,0,0:0:0:0:
36,192,17075,1,0,0:0:0:0:
475,192,17075,1,0,0:0:0:0:
256,192,17375,1,0,0:0:0:0:
402,192,17375,1,0,0:0:0:0:
109,192,17375,1,0,0:0:0:0:
182,192,17525,1,0,0:0:0:0:
329,192,17675,1,0,0:0:0:0:
109,192,17825,1,0,0:0:0:0:
475,192,17975,1,0,0:0:0:0:
182,192,18125,1,0,0:0:0:0:
402,192,18275,1,0,0:0:0:0:
109,192,18425,1,0,0:0:0:0:
329,192,18575,1,0,0:0:0:0:
36,192,18725,1,0,0:0:0:0:
256,192,18875,1,0,0:0:0:0:
329,192,19025,1,0,0:0:0:0:
182,192,19175,1,0,0:0:0:0:
109,192,19325,1,0,0:0:0:0:
256,192,19475,1,0,0:0:0:0:
329,192,19625,1,0,0:0:0:0:
475,192,19775,1,0,0:0:0:0:
329,192,19925,1,0,0:0:0:0:
182,192,20075,1,0,0:0:0:0:
36,192,20225,1,0,0:0:0:0:
329,192,20375,1,0,0:0:0:0:
182,192,20450,1,0,0:0:0:0:
329,192,20525,1,0,0:0:0:0:
182,192,20600,1,0,0:0:0:0:
36,192,20675,128,0,21050:0:0:0:0:
329,192,20675,128,0,21050:0:0:0:0:
109,192,20675,128,0,21050:0:0:0:0:
109,192,21125,128,0,21500:0:0:0:0:
402,192,21125,128,0,21500:0:0:0:0:
182,192,21125,128,0,21500:0:0:0:0:
182,192,21575,128,0,21950:0:0:0:0:
475,192,21575,128,0,21950:0:0:0:0:
256,192,21575,128,0,21950:0:0:0:0:
109,192,22025,128,0,22400:0:0:0:0:
402,192,22025,128,0,22400:0:0:0:0:
182,192,22025,128,0,22400:0:0:0:0:
36,192,22475,1,0,0:0:0:0:
256,192,22475,1,0,0:0:0:0:
475,192,22475,1,0,0:0:0:0:
329,192,22625,1,0,0:0:0:0:
182,192,22775,1,0,0:0:0:0:
36,192,22925,1,0,0:0:0:0:
402,192,23075,1,0,0:0:0:0:
256,192,23225,1,0,0:0:0:0:
109,192,23375,128,0,23675:0:0:0:0:
402,192,23675,1,0,0:0:0:0:
36,192,23975,1,0,0:0:0:0:
109,192,24050,1,0,0:0:0:0:
182,192,24125,1,0,0:0:0:0:
256,192,24200,1,0,0:0:0:0:
329,192,24275,1,0,0:0:0:0:
475,192,24275,1,0,0:0:0:0:
109,192,24425,1,0,0:0:0:0:
256,192,24500,1,0,0:0:0:0:
329,192,24575,1,0,0:0:0:0:
402,192,24650,1,0,0:0:0:0:
182,192,24725,1,0,0:0:0:0:
256,192,24800,1,0,0:0:0:0:
329,192,24875,1,0,0:0:0:0:
109,192,24950,1,0,0:0:0:0:
182,192,25025,1,0,0:0:0:0:
256,192,25100,1,0,0:0:0:0:
475,192,25175,1,0,0:0:0:0:
402,192,25250,1,0,0:0:0:0:
329,192,25325,1,0,0:0:0:0:
256,192,25400,1,0,0:0:0:0:
109,192,25475,1,0,0:0:0:0:
182,192,25550,1,0,0:0:0:0:
256,192,25625,1,0,0:0:0:0:
182,192,25700,1,0,0:0:0:0:
402,192,25775,1,0,0:0:0:0:
329,192,25850,1,0,0:0:0:0:
182,192,25925,1,0,0:0:0:0:
36,192,26000,1,0,0:0:0:0:
475,192,26075,1,0,0:0:0:0:
36,192,26225,1,0,0:0:0:0:
109,192,26300,1,0,0:0:0:0:
182,192,26375,1,0,0:0:0:0:
109,192,26450,1,0,0:0:0:0:
256,192,26525,1,0,0:0:0:0:
182,192,26600,1,0,0:0:0:0:
256,192,26675,1,0,0:0:0:0:
329,192,26750,1,0,0:0:0:0:
402,192,26825,1,0,0:0:0:0:
329,192,26900,1,0,0:0:0:0:
475,192,26975,1,0,0:0:0:0:
402,192,27050,1,0,0:0:0:0:
329,192,27125,1,0,0:0:0:0:
256,192,27200,1,0,0:0:0:0:
402,192,27275,1,0,0:0:0:0:
329,192,27350,1,0,0:0:0:0:
256,192,27425,1,0,0:0:0:0:
182,192,27500,1,0,0:0:0:0:
36,192,27575,1,0,0:0:0:0:
109,192,27650,1,0,0:0:0:0:
182,192,27725,1,0,0:0:0:0:
256,192,27800,1,0,0:0:0:0:
329,192,27875,1,0,0:0:0:0:
109,192,28025,1,0,0:0:0:0:
182,192,28100,1,0,0:0:0:0:
256,192,28175,1,0,0:0:0:0:
329,192,28250,1,0,0:0:0:0:
402,192,28325,1,0,0:0:0:0:
329,192,28400,1,0,0:0:0:0:
182,192,28475,1,0,0:0:0:0:
256,192,28550,1,0,0:0:0:0:
329,192,28625,1,0,0:0:0:0:
182,192,28700,1,0,0:0:0:0:
475,192,28775,1,0,0:0:0:0:
402,192,28850,1,0,0:0:0:0:
329,192,28925,1,0,0:0:0:0:
256,192,29000,1,0,0:0:0:0:
402,192,29075,1,0,0:0:0:0:
329,192,29150,1,0,0:0:0:0:
256,192,29225,1,0,0:0:0:0:
182,192,29300,1,0,0:0:0:0:
329,192,29375,1,0,0:0:0:0:
256,192,29450,1,0,0:0:0:0:
182,192,29525,1,0,0:0:0:0:
109,192,29600,1,0,0:0:0:0:
36,192,29675,1,0,0:0:0:0:
182,192,29750,1,0,0:0:0:0:
256,192,29825,1,0,0:0:0:0:
329,192,29900,1,0,0:0:0:0:
475,192,29975,1,0,0:0:0:0:
402,192,30050,1,0,0:0:0:0:
109,192,30125,1,0,0:0:0:0:
182,192,30200,1,0,0:0:0:0:
256,192,30275,1,0,0:0:0:0:
329,192,30350,1,0,0:0:0:0:
402,192,30425,1,0,0:0:0:0:
329,192,30500,1,0,0:0:0:0:
182,192,30575,1,0,0:0:0:0:
256,192,30650,1,0,0:0:0:0:
329,192,30725,1,0,0:0:0:0:
402,192,30800,1,0,0:0:0:0:
475,192,30875,1,0,0:0:0:0:
329,192,30950,1,0,0:0:0:0:
109,192,31025,1,0,0:0:0:0:
256,192,31100,1,0,0:0:0:0:
402,192,31175,1,0,0:0:0:0:
36,192,31250,1,0,0:0:0:0:
182,192,31325,1,0,0:0:0:0:
329,192,31400,1,0,0:0:0:0:
475,192,31475,1,0,0:0:0:0:
109,192,31625,1,0,0:0:0:0:
256,192,31700,1,0,0:0:0:0:
329,192,31775,1,0,0:0:0:0:
182,192,31850,1,0,0:0:0:0:
36,192,31925,1,0,0:0:0:0:
402,192,32000,1,0,0:0:0:0:
402,192,32075,1,0,0:0:0:0:
109,192,32225,1,0,0:0:0:0:
256,192,32300,1,0,0:0:0:0:
329,192,32375,1,0,0:0:0:0:
475,192,32450,1,0,0:0:0:0:
402,192,32525,1,0,0:0:0:0:
329,192,32600,1,0,0:0:0:0:
256,192,32675,1,0,0:0:0:0:
402,192,32750,1,0,0:0:0:0:
182,192,32825,1,0,0:0:0:0:
109,192,32900,1,0,0:0:0:0:
36,192,32975,1,0,0:0:0:0:
182,192,33050,1,0,0:0:0:0:
256,192,33125,1,0,0:0:0:0:
329,192,33200,1,0,0:0:0:0:
475,192,33275,1,0,0:0:0:0:
182,192,33350,1,0,0:0:0:0:
402,192,33425,1,0,0:0:0:0:
182,192,33500,1,0,0:0:0:0:
329,192,33575,1,0,0:0:0:0:
36,192,33650,1,0,0:0:0:0:
256,192,33725,1,0,0:0:0:0:
36,192,33800,1,0,0:0:0:0:
182,192,33875,1,0,0:0:0:0:
109,192,34025,1,0,0:0:0:0:
256,192,34100,1,0,0:0:0:0:
402,192,34175,1,0,0:0:0:0:
36,192,34325,1,0,0:0:0:0:
109,192,34400,1,0,0:0:0:0:
182,192,34475,1,0,0:0:0:0:
256,192,34550,1,0,0:0:0:0:
329,192,34625,1,0,0:0:0:0:
402,192,34700,1,0,0:0:0:0:
475,192,34775,1,0,0:0:0:0:
182,192,34850,1,0,0:0:0:0:
329,192,34925,1,0,0:0:0:0:
256,192,35000,1,0,0:0:0:0:
402,192,35075,1,0,0:0:0:0:
36,192,35075,1,0,0:0:0:0:
256,192,35225,1,0,0:0:0:0:
329,192,35300,1,0,0:0:0:0:
402,192,35375,1,0,0:0:0:0:
182,192,35450,1,0,0:0:0:0:
109,192,35525,1,0,0:0:0:0:
256,192,35600,1,0,0:0:0:0:
402,192,35675,1,0,0:0:0:0:
329,192,35750,1,0,0:0:0:0:
109,192,35825,1,0,0:0:0:0:
182,192,35900,1,0,0:0:0:0:
475,192,35975,1,0,0:0:0:0:
256,192,35975,1,0,0:0:0:0:
475,192,36125,1,0,0:0:0:0:
256,192,36125,1,0,0:0:0:0:
182,192,36275,1,0,0:0:0:0:
402,192,36275,1,0,0:0:0:0:
182,192,36425,1,0,0:0:0:0:
402,192,36425,1,0,0:0:0:0:
329,192,36575,1,0,0:0:0:0:
109,192,36575,1,0,0:0:0:0:
109,192,36725,1,0,0:0:0:0:
329,192,36725,1,0,0:0:0:0:
36,192,36875,128,0,37175:0:0:0:0:
475,192,36875,128,0,37175:0:0:0:0:
109,192,37175,128,0,37475:0:0:0:0:
402,192,37175,128,0,37475:0:0:0:0:
182,192,37475,128,0,37775:0:0:0:0:
329,192,37475,128,0,37775:0:0:0:0:
36,192,37775,128,0,38675:0:0:0:0:
475,192,37775,128,0,38675:0:0:0:0:
256,192,38675,1,0,0:0:0:0:
36,192,38975,1,0,0:0:0:0:
109,192,38975,1,0,0:0:0:0:
402,192,38975,1,0,0:0:0:0:
475,192,38975,1,0,0:0:0:0:
256,192,39425,1,0,0:0:0:0:
182,192,39875,1,0,0:0:0:0:
329,192,40325,1,0,0:0:0:0:
475,192,40775,1,0,0:0:0:0:
402,192,41075,1,0,0:0:0:0:
329,192,41375,1,0,0:0:0:0:
36,192,41975,1,0,0:0:0:0:
329,192,41975,1,0,0:0:0:0:
329,192,42125,1,0,0:0:0:0:
36,192,42275,1,0,0:0:0:0:
475,192,42275,1,0,0:0:0:0:
256,192,42425,1,0,0:0:0:0:
36,192,42575,1,0,0:0:0:0:
182,192,42725,1,0,0:0:0:0:
36,192,42875,1,0,0:0:0:0:
36,192,43175,1,0,0:0:0:0:
329,192,43175,1,0,0:0:0:0:
36,192,43475,1,0,0:0:0:0:
182,192,43625,1,0,0:0:0:0:
36,192,43775,1,0,0:0:0:0:
329,192,43925,1,0,0:0:0:0:
475,192,44075,1,0,0:0:0:0:
36,192,44075,1,0,0:0:0:0:
475,192,44225,1,0,0:0:0:0:
109,192,44375,1,0,0:0:0:0:
329,192,44375,1,0,0:0:0:0:
109,192,44525,1,0,0:0:0:0:
182,192,44675,1,0,0:0:0:0:
402,192,44675,1,0,0:0:0:0:
402,192,44825,1,0,0:0:0:0:
36,192,44975,1,0,0:0:0:0:
182,192,44975,1,0,0:0:0:0:
475,192,45125,1,0,0:0:0:0:
329,192,45200,1,0,0:0:0:0:
36,192,45275,1,0,0:0:0:0:
182,192,45275,1,0,0:0:0:0:
475,192,45425,1,0,0:0:0:0:
36,192,45575,1,0,0:0:0:0:
182,192,45575,1,0,0:0:0:0:
475,192,45725,1,0,0:0:0:0:
256,192,45875,1,0,0:0:0:0:
36,192,46175,1,0,0:0:0:0:
475,192,46175,1,0,0:0:0:0:
256,192,46325,1,0,0:0:0:0:
402,192,46475,1,0,0:0:0:0:
182,192,46550,1,0,0:0:0:0:
329,192,46625,1,0,0:0:0:0:
109,192,46700,1,0,0:0:0:0:
475,192,46775,1,0,0:0:0:0:
329,192,46925,1,0,0:0:0:0:
182,192,47000,1,0,0:0:0:0:
329,192,47075,1,0,0:0:0:0:
256,192,47225,1,0,0:0:0:0:
402,192,47375,1,0,0:0:0:0:
182,192,47525,1,0,0:0:0:0:
36,192,47675,128,0,48275:0:0:0:0:
182,192,48275,1,0,0:0:0:0:
256,192,48350,1,0,0:0:0:0:
329,192,48425,1,0,0:0:0:0:
402,192,48500,1,0,0:0:0:0:
475,192,48575,128,0,49025:0:0:0:0:
329,192,49025,1,0,0:0:0:0:
109,192,49175,1,0,0:0:0:0:
182,192,49250,1,0,0:0:0:0:
256,192,49325,1,0,0:0:0:0:
329,192,49400,1,0,0:0:0:0:
402,192,49475,1,0,0:0:0:0:
109,192,49625,1,0,0:0:0:0:
256,192,49700,1,0,0:0:0:0:
475,192,49775,1,0,0:0:0:0:
329,192,49850,1,0,0:0:0:0:
182,192,49925,1,0,0:0:0:0:
256,192,50000,1,0,0:0:0:0:
402,192,50075,1,0,0:0:0:0:
182,192,50225,1,0,0:0:0:0:
475,192,50375,1,0,0:0:0:0:
256,192,50525,1,0,0:0:0:0:
109,192,50600,1,0,0:0:0:0:
402,192,50675,1,0,0:0:0:0:
182,192,50825,1,0,0:0:0:0:
36,192,50975,1,0,0:0:0:0:
256,192,51125,1,0,0:0:0:0:
182,192,51275,128,0,51875:0:0:0:0:
36,192,51875,1,0,0:0:0:0:
109,192,51950,1,0,0:0:0:0:
182,192,52025,1,0,0:0:0:0:
256,192,52100,1,0,0:0:0:0:
329,192,52175,128,0,53075:0:0:0:0:
36,192,52475,1,0,0:0:0:0:
256,192,52625,1,0,0:0:0:0:
182,192,52775,1,0,0:0:0:0:
109,192,52925,1,0,0:0:0:0:
36,192,53075,1,0,0:0:0:0:
475,192,53075,1,0,0:0:0:0:
182,192,53225,1,0,0:0:0:0:
329,192,53300,1,0,0:0:0:0:
475,192,53375,1,0,0:0:0:0:
329,192,53450,1,0,0:0:0:0:
182,192,53525,1,0,0:0:0:0:
36,192,53675,1,0,0:0:0:0:
402,192,53825,1,0,0:0:0:0:
256,192,53975,1,0,0:0:0:0:
182,192,54125,1,0,0:0:0:0:
329,192,54200,1,0,0:0:0:0:
182,192,54275,1,0,0:0:0:0:
402,192,54425,1,0,0:0:0:0:
109,192,54575,1,0,0:0:0:0:
256,192,54725,1,0,0:0:0:0:
329,192,54875,128,0,55475:0:0:0:0:
109,192,55475,1,0,0:0:0:0:
182,192,55550,1,0,0:0:0:0:
256,192,55625,1,0,0:0:0:0:
329,192,55700,1,0,0:0:0:0:
402,192,55775,128,0,56225:0:0:0:0:
256,192,56225,1,0,0:0:0:0:
109,192,56375,1,0,0:0:0:0:
475,192,56675,1,0,0:0:0:0:
36,192,56675,1,0,0:0:0:0:
109,192,56900,1,0,0:0:0:0:
402,192,56900,1,0,0:0:0:0:
182,192,56975,1,0,0:0:0:0:
329,192,56975,1,0,0:0:0:0:
36,192,57125,1,0,0:0:0:0:
475,192,57125,1,0,0:0:0:0:
182,192,57425,1,0,0:0:0:0:
329,192,57425,1,0,0:0:0:0:
109,192,57575,1,0,0:0:0:0:
402,192,57575,1,0,0:0:0:0:
36,192,57725,1,0,0:0:0:0:
475,192,57725,1,0,0:0:0:0:
182,192,57875,1,0,0:0:0:0:
329,192,57875,1,0,0:0:0:0:
109,192,58175,1,0,0:0:0:0:
402,192,58175,1,0,0:0:0:0:
182,192,58475,1,0,0:0:0:0:
329,192,58475,1,0,0:0:0:0:
182,192,58625,1,0,0:0:0:0:
329,192,58625,1,0,0:0:0:0:
182,192,58775,1,0,0:0:0:0:
329,192,58775,1,0,0:0:0:0:
182,192,59075,1,0,0:0:0:0:
36,192,59075,1,0,0:0:0:0:
256,192,59150,1,0,0:0:0:0:
329,192,59225,1,0,0:0:0:0:
402,192,59300,1,0,0:0:0:0:
182,192,59375,1,0,0:0:0:0:
475,192,59375,128,0,60275:0:0:0:0:
329,192,59675,1,0,0:0:0:0:
329,192,59975,1,0,0:0:0:0:
36,192,60275,1,0,0:0:0:0:
182,192,60275,1,0,0:0:0:0:
402,192,61175,1,0,0:0:0:0:
256,192,61475,1,0,0:0:0:0:
109,192,61775,1,0,0:0:0:0:
475,192,62075,1,0,0:0:0:0:
329,192,62375,1,0,0:0:0:0:
182,192,62675,1,0,0:0:0:0:
36,192,62975,1,0,0:0:0:0:
329,192,63575,1,0,0:0:0:0:
329,192,63875,1,0,0:0:0:0:
256,192,64775,1,0,0:0:0:0:
475,192,65075,1,0,0:0:0:0:
402,192,65375,1,0,0:0:0:0:
329,192,65675,1,0,0:0:0:0:
109,192,66575,1,0,0:0:0:0:
256,192,66725,1,0,0:0:0:0:
402,192,66875,1,0,0:0:0:0:
36,192,67025,1,0,0:0:0:0:
182,192,67175,1,0,0:0:0:0:
329,192,67325,1,0,0:0:0:0:
475,192,67475,1,0,0:0:0:0:
36,192,67475,128,0,68375:0:0:0:0:
329,192,68375,1,0,0:0:0:0:
475,192,68375,1,0,0:0:0:0:
256,192,68675,1,0,0:0:0:0:
402,192,68675,1,0,0:0:0:0:
182,192,68975,1,0,0:0:0:0:
329,192,68975,1,0,0:0:0:0:
256,192,69275,1,0,0:0:0:0:
475,192,69275,1,0,0:0:0:0:
402,192,69575,1,0,0:0:0:0:
182,192,69575,1,0,0:0:0:0:
109,192,69875,1,0,0:0:0:0:
329,192,69875,1,0,0:0:0:0:
36,192,70175,1,0,0:0:0:0:
256,192,70175,128,0,70775:0:0:0:0:
475,192,70775,1,0,0:0:0:0:
109,192,70775,1,0,0:0:0:0:
329,192,70925,1,0,0:0:0:0:
475,192,71075,1,0,0:0:0:0:
109,192,71075,1,0,0:0:0:0:
182,192,71975,1,0,0:0:0:0:
402,192,71975,1,0,0:0:0:0:
256,192,72275,1,0,0:0:0:0:
475,192,72275,1,0,0:0:0:0:
109,192,72575,1,0,0:0:0:0:
329,192,72575,1,0,0:0:0:0:
182,192,72875,1,0,0:0:0:0:
402,192,72875,128,0,74675:0:0:0:0:
182,192,74675,1,0,0:0:0:0:
36,192,74675,128,0,75575:0:0:0:0:
329,192,75575,1,0,0:0:0:0:
475,192,75575,1,0,0:0:0:0:
402,192,75875,1,0,0:0:0:0:
256,192,75875,1,0,0:0:0:0:
182,192,76175,1,0,0:0:0:0:
329,192,76175,1,0,0:0:0:0:
256,192,76475,1,0,0:0:0:0:
475,192,76475,1,0,0:0:0:0:
402,192,76775,1,0,0:0:0:0:
182,192,76775,1,0,0:0:0:0:
109,192,77075,1,0,0:0:0:0:
329,192,77075,1,0,0:0:0:0:
36,192,77375,1,0,0:0:0:0:
256,192,77375,128,0,77975:0:0:0:0:
109,192,77975,1,0,0:0:0:0:
475,192,77975,1,0,0:0:0:0:
329,192,78125,1,0,0:0:0:0:
475,192,78275,1,0,0:0:0:0:
109,192,78275,1,0,0:0:0:0:
36,192,79175,1,0,0:0:0:0:
182,192,79175,1,0,0:0:0:0:
329,192,79475,1,0,0:0:0:0:
475,192,79475,1,0,0:0:0:0:
402,192,79775,1,0,0:0:0:0:
256,192,79775,1,0,0:0:0:0:
329,192,80075,1,0,0:0:0:0:
182,192,80150,1,0,0:0:0:0:
329,192,80225,1,0,0:0:0:0:
256,192,81875,128,0,83675:0:0:0:0:
182,192,83675,128,0,85475:0:0:0:0:
329,192,83675,128,0,85475:0:0:0:0:
109,192,85475,128,0,87275:0:0:0:0:
402,192,85475,128,0,87275:0:0:0:0:
36,192,87275,128,0,89075:0:0:0:0:
475,192,87275,128,0,89075:0:0:0:0:
256,192,89075,128,0,89975:0:0:0:0:
36,192,89975,1,0,0:0:0:0:
182,192,90125,1,0,0:0:0:0:
329,192,90275,1,0,0:0:0:0:
109,192,90425,1,0,0:0:0:0:
256,192,90575,1,0,0:0:0:0:
402,192,90725,1,0,0:0:0:0:
36,192,90875,1,0,0:0:0:0:
475,192,90875,128,0,92675:0:0:0:0:
182,192,90875,128,0,92675:0:0:0:0:
36,192,92675,128,0,94475:0:0:0:0:
329,192,92675,128,0,94475:0:0:0:0:
109,192,94475,128,0,98075:0:0:0:0:
402,192,94475,128,0,95375:0:0:0:0:
475,192,95375,128,0,97775:0:0:0:0:
329,192,95975,128,0,97175:0:0:0:0:
182,192,96275,128,0,97175:0:0:0:0:
256,192,97175,128,0,97475:0:0:0:0:
329,192,97475,128,0,97775:0:0:0:0:
402,192,97775,128,0,98075:0:0:0:0:
475,192,98075,128,0,101675:0:0:0:0:
256,192,98075,1,0,0:0:0:0:
36,192,98075,128,0,101675:0:0:0:0:
329,192,98975,128,0,99875:0:0:0:0:
109,192,99575,128,0,101075:0:0:0:0:
256,192,99875,128,0,101075:0:0:0:0:
182,192,101075,128,0,101675:0:0:0:0:
329,192,101375,128,0,101675:0:0:0:0:
402,192,101675,128,0,102575:0:0:0:0:
109,192,101675,128,0,102875:0:0:0:0:
329,192,102575,128,0,103475:0:0:0:0:
182,192,102875,128,0,103775:0:0:0:0:
36,192,103175,128,0,104075:0:0:0:0:
402,192,103475,128,0,104375:0:0:0:0:
256,192,103775,128,0,104375:0:0:0:0:
109,192,104075,128,0,104375:0:0:0:0:
475,192,104375,128,0,105275:0:0:0:0:
36,192,105275,1,0,0:0:0:0:
182,192,105275,1,0,0:0:0:0:
402,192,105275,1,0,0:0:0:0:
402,192,105725,1,0,0:0:0:0:
182,192,105725,1,0,0:0:0:0:
36,192,105725,1,0,0:0:0:0:
36,192,106175,1,0,0:0:0:0:
182,192,106175,1,0,0:0:0:0:
402,192,106175,1,0,0:0:0:0:
402,192,106625,1,0,0:0:0:0:
182,192,106625,1,0,0:0:0:0:
36,192,106625,1,0,0:0:0:0:
256,192,107075,1,0,0:0:0:0:
36,192,107075,128,0,107975:0:0:0:0:
475,192,107075,128,0,107975:0:0:0:0:
256,192,107975,128,0,108875:0:0:0:0:
402,192,108875,128,0,109775:0:0:0:0:
36,192,109775,1,0,0:0:0:0:
109,192,110075,1,0,0:0:0:0:
182,192,110375,1,0,0:0:0:0:
256,192,110675,128,0,111575:0:0:0:0:
475,192,111575,128,0,112175:0:0:0:0:
329,192,112175,128,0,112475:0:0:0:0:
182,192,112475,128,0,113375:0:0:0:0:
475,192,113375,128,0,113975:0:0:0:0:
329,192,113975,128,0,114275:0:0:0:0:
182,192,114275,128,0,115175:0:0:0:0:
329,192,115175,128,0,115775:0:0:0:0:
36,192,115175,128,0,115775:0:0:0:0:
109,192,115775,128,0,116075:0:0:0:0:
402,192,115775,128,0,116075:0:0:0:0:
182,192,116075,128,0,116675:0:0:0:0:
475,192,116075,128,0,116675:0:0:0:0:
109,192,116675,1,0,0:0:0:0:
402,192,116675,1,0,0:0:0:0:
109,192,116825,1,0,0:0:0:0:
402,192,116825,1,0,0:0:0:0:
36,192,116975,1,0,0:0:0:0:
329,192,116975,1,0,0:0:0:0:
256,192,117275,1,0,0:0:0:0:
109,192,117425,1,0,0:0:0:0:
402,192,117425,1,0,0:0:0:0:
256,192,117575,1,0,0:0:0:0:
329,192,117725,1,0,0:0:0:0:
182,192,117875,1,0,0:0:0:0:
475,192,117875,1,0,0:0:0:0:
329,192,118025,1,0,0:0:0:0:
475,192,118175,1,0,0:0:0:0:
182,192,118175,1,0,0:0:0:0:
329,192,118325,1,0,0:0:0:0:
36,192,118475,1,0,0:0:0:0:
182,192,118550,1,0,0:0:0:0:
475,192,118625,1,0,0:0:0:0:
329,192,118625,1,0,0:0:0:0:
109,192,118775,1,0,0:0:0:0:
36,192,118775,1,0,0:0:0:0:
329,192,118925,1,0,0:0:0:0:
182,192,119075,1,0,0:0:0:0:
109,192,119075,1,0,0:0:0:0:
402,192,119225,1,0,0:0:0:0:
256,192,119375,1,0,0:0:0:0:
182,192,119375,1,0,0:0:0:0:
475,192,119525,1,0,0:0:0:0:
256,192,119675,1,0,0:0:0:0:
329,192,119675,1,0,0:0:0:0:
182,192,119825,1,0,0:0:0:0:
475,192,119975,1,0,0:0:0:0:
329,192,120050,1,0,0:0:0:0:
182,192,120125,1,0,0:0:0:0:
36,192,120125,1,0,0:0:0:0:
402,192,120275,1,0,0:0:0:0:
256,192,120350,1,0,0:0:0:0:
109,192,120425,1,0,0:0:0:0:
329,192,120575,1,0,0:0:0:0:
475,192,120575,1,0,0:0:0:0:
36,192,120575,1,0,0:0:0:0:
256,192,120875,1,0,0:0:0:0:
402,192,120875,1,0,0:0:0:0:
36,192,121025,1,0,0:0:0:0:
182,192,121175,1,0,0:0:0:0:
329,192,121175,1,0,0:0:0:0:
36,192,121475,1,0,0:0:0:0:
475,192,121475,1,0,0:0:0:0:
329,192,121475,1,0,0:0:0:0:
109,192,121775,1,0,0:0:0:0:
256,192,121775,1,0,0:0:0:0:
402,192,121775,1,0,0:0:0:0:
329,192,122075,1,0,0:0:0:0:
182,192,122075,1,0,0:0:0:0:
36,192,122075,1,0,0:0:0:0:
109,192,122375,1,0,0:0:0:0:
256,192,122375,1,0,0:0:0:0:
402,192,122375,1,0,0:0:0:0:
256,192,123275,1,0,0:0:0:0:
36,192,123275,1,0,0:0:0:0:
329,192,123350,1,0,0:0:0:0:
402,192,123425,1,0,0:0:0:0:
475,192,123500,1,0,0:0:0:0:
329,192,123575,1,0,0:0:0:0:
182,192,123650,1,0,0:0:0:0:
36,192,123725,1,0,0:0:0:0:
109,192,123800,1,0,0:0:0:0:
256,192,123875,1,0,0:0:0:0:
402,192,123950,1,0,0:0:0:0:
329,192,124025,1,0,0:0:0:0:
256,192,124100,1,0,0:0:0:0:
36,192,124175,1,0,0:0:0:0:
475,192,124175,1,0,0:0:0:0:
36,192,124325,1,0,0:0:0:0:
475,192,124325,1,0,0:0:0:0:
109,192,124475,1,0,0:0:0:0:
402,192,124475,1,0,0:0:0:0:
109,192,124625,1,0,0:0:0:0:
402,192,124625,1,0,0:0:0:0:
182,192,124775,1,0,0:0:0:0:
329,192,124775,1,0,0:0:0:0:
329,192,124925,1,0,0:0:0:0:
182,192,124925,1,0,0:0:0:0:
36,192,125075,1,0,0:0:0:0:
475,192,125075,1,0,0:0:0:0:
109,192,125150,1,0,0:0:0:0:
182,192,125225,1,0,0:0:0:0:
256,192,125300,1,0,0:0:0:0:
329,192,125375,1,0,0:0:0:0:
402,192,125450,1,0,0:0:0:0:
36,192,125525,1,0,0:0:0:0:
109,192,125600,1,0,0:0:0:0:
182,192,125675,1,0,0:0:0:0:
256,192,125750,1,0,0:0:0:0:
329,192,125825,1,0,0:0:0:0:
402,192,125900,1,0,0:0:0:0:
475,192,125975,1,0,0:0:0:0:
182,192,125975,1,0,0:0:0:0:
182,192,126125,1,0,0:0:0:0:
475,192,126125,1,0,0:0:0:0:
109,192,126275,1,0,0:0:0:0:
402,192,126275,1,0,0:0:0:0:
109,192,126425,1,0,0:0:0:0:
402,192,126425,1,0,0:0:0:0:
329,192,126575,1,0,0:0:0:0:
36,192,126575,1,0,0:0:0:0:
329,192,126725,1,0,0:0:0:0:
36,192,126725,1,0,0:0:0:0:
182,192,126875,1,0,0:0:0:0:
402,192,126875,1,0,0:0:0:0:
329,192,127025,1,0,0:0:0:0:
256,192,127100,1,0,0:0:0:0:
36,192,127175,1,0,0:0:0:0:
109,192,127250,1,0,0:0:0:0:
182,192,127325,1,0,0:0:0:0:
109,192,127400,1,0,0:0:0:0:
182,192,127475,1,0,0:0:0:0:
256,192,127550,1,0,0:0:0:0:
329,192,127625,1,0,0:0:0:0:
402,192,127700,1,0,0:0:0:0:
36,192,127775,1,0,0:0:0:0:
475,192,127775,1,0,0:0:0:0:
109,192,127850,1,0,0:0:0:0:
182,192,127925,1,0,0:0:0:0:
256,192,128000,1,0,0:0:0:0:
109,192,128075,1,0,0:0:0:0:
182,192,128150,1,0,0:0:0:0:
256,192,128225,1,0,0:0:0:0:
329,192,128300,1,0,0:0:0:0:
182,192,128375,1,0,0:0:0:0:
256,192,128450,1,0,0:0:0:0:
329,192,128525,1,0,0:0:0:0:
402,192,128600,1,0,0:0:0:0:
256,192,128675,1,0,0:0:0:0:
475,192,128675,1,0,0:0:0:0:
182,192,128750,1,0,0:0:0:0:
109,192,128825,1,0,0:0:0:0:
329,192,128900,1,0,0:0:0:0:
402,192,128975,1,0,0:0:0:0:
329,192,129050,1,0,0:0:0:0:
256,192,129125,1,0,0:0:0:0:
182,192,129200,1,0,0:0:0:0:
36,192,129275,1,0,0:0:0:0:
109,192,129350,1,0,0:0:0:0:
256,192,129425,1,0,0:0:0:0:
182,192,129500,1,0,0:0:0:0:
329,192,129575,1,0,0:0:0:0:
475,192,129575,1,0,0:0:0:0:
256,192,129650,1,0,0:0:0:0:
182,192,129725,1,0,0:0:0:0:
109,192,129800,1,0,0:0:0:0:
256,192,129875,1,0,0:0:0:0:
182,192,129950,1,0,0:0:0:0:
256,192,130025,1,0,0:0:0:0:
329,192,130100,1,0,0:0:0:0:
402,192,130175,1,0,0:0:0:0:
256,192,130250,1,0,0:0:0:0:
329,192,130325,1,0,0:0:0:0:
402,192,130400,1,0,0:0:0:0:
475,192,130475,1,0,0:0:0:0:
36,192,130475,1,0,0:0:0:0:
402,192,130775,1,0,0:0:0:0:
329,192,130850,1,0,0:0:0:0:
256,192,130925,1,0,0:0:0:0:
182,192,131000,1,0,0:0:0:0:
109,192,131075,1,0,0:0:0:0:
256,192,131150,1,0,0:0:0:0:
329,192,131225,1,0,0:0:0:0:
402,192,131300,1,0,0:0:0:0:
36,192,131375,1,0,0:0:0:0:
329,192,131375,1,0,0:0:0:0:
109,192,131450,1,0,0:0:0:0:
182,192,131525,1,0,0:0:0:0:
109,192,131600,1,0,0:0:0:0:
182,192,131675,1,0,0:0:0:0:
256,192,131750,1,0,0:0:0:0:
182,192,131825,1,0,0:0:0:0:
256,192,131900,1,0,0:0:0:0:
329,192,131975,1,0,0:0:0:0:
256,192,132050,1,0,0:0:0:0:
329,192,132125,1,0,0:0:0:0:
402,192,132200,1,0,0:0:0:0:
182,192,132275,1,0,0:0:0:0:
475,192,132275,1,0,0:0:0:0:
329,192,132425,1,0,0:0:0:0:
256,192,132500,1,0,0:0:0:0:
182,192,132575,1,0,0:0:0:0:
109,192,132650,1,0,0:0:0:0:
402,192,132725,1,0,0:0:0:0:
329,192,132800,1,0,0:0:0:0:
182,192,132875,1,0,0:0:0:0:
256,192,132950,1,0,0:0:0:0:
329,192,133025,1,0,0:0:0:0:
402,192,133100,1,0,0:0:0:0:
256,192,133175,1,0,0:0:0:0:
36,192,133175,1,0,0:0:0:0:
182,192,133250,1,0,0:0:0:0:
109,192,133325,1,0,0:0:0:0:
402,192,133400,1,0,0:0:0:0:
256,192,133475,1,0,0:0:0:0:
402,192,133550,1,0,0:0:0:0:
36,192,133625,1,0,0:0:0:0:
182,192,133700,1,0,0:0:0:0:
329,192,133775,1,0,0:0:0:0:
182,192,133850,1,0,0:0:0:0:
256,192,133925,1,0,0:0:0:0:
329,192,134000,1,0,0:0:0:0:
402,192,134075,1,0,0:0:0:0:
182,192,134150,1,0,0:0:0:0:
402,192,134225,1,0,0:0:0:0:
109,192,134300,1,0,0:0:0:0:
329,192,134375,1,0,0:0:0:0:
109,192,134450,1,0,0:0:0:0:
402,192,134525,1,0,0:0:0:0:
182,192,134600,1,0,0:0:0:0:
402,192,134675,1,0,0:0:0:0:
109,192,134750,1,0,0:0:0:0:
329,192,134825,1,0,0:0:0:0:
109,192,134900,1,0,0:0:0:0:
182,192,134975,1,0,0:0:0:0:
402,192,135050,1,0,0:0:0:0:
182,192,135125,1,0,0:0:0:0:
329,192,135200,1,0,0:0:0:0:
109,192,135275,1,0,0:0:0:0:
329,192,135350,1,0,0:0:0:0:
182,192,135425,1,0,0:0:0:0:
402,192,135500,1,0,0:0:0:0:
182,192,135575,1,0,0:0:0:0:
329,192,135650,1,0,0:0:0:0:
109,192,135725,1,0,0:0:0:0:
329,192,135800,1,0,0:0:0:0:
36,192,135875,1,0,0:0:0:0:
182,192,135875,1,0,0:0:0:0:
475,192,135875,1,0,0:0:0:0:
475,192,136175,1,0,0:0:0:0:
36,192,136175,1,0,0:0:0:0:
329,192,136475,1,0,0:0:0:0:
182,192,136475,1,0,0:0:0:0:
402,192,136775,128,0,137675:0:0:0:0:
109,192,136775,128,0,137675:0:0:0:0:
256,192,137675,1,0,0:0:0:0:
402,192,138575,1,0,0:0:0:0:
256,192,138875,1,0,0:0:0:0:
109,192,139175,1,0,0:0:0:0:
475,192,139475,1,0,0:0:0:0:
329,192,139775,1,0,0:0:0:0:
182,192,140075,1,0,0:0:0:0:
36,192,140375,1,0,0:0:0:0:
329,192,140975,1,0,0:0:0:0:
329,192,141275,1,0,0:0:0:0:
256,192,142175,1,0,0:0:0:0:
475,192,142475,1,0,0:0:0:0:
402,192,142775,1,0,0:0:0:0:
329,192,143075,1,0,0:0:0:0:
256,192,144875,1,0,0:0:0:0:
402,192,145775,1,0,0:0:0:0:
256,192,146075,1,0,0:0:0:0:
109,192,146375,1,0,0:0:0:0:
475,192,146675,1,0,0:0:0:0:
329,192,146975,1,0,0:0:0:0:
182,192,147275,1,0,0:0:0:0:
36,192,147575,1,0,0:0:0:0:
329,192,148175,1,0,0:0:0:0:
329,192,148475,1,0,0:0:0:0:
256,192,149375,1,0,0:0:0:0:
475,192,149675,1,0,0:0:0:0:
402,192,149975,1,0,0:0:0:0:
329,192,150275,1,0,0:0:0:0:
