osu file format v14

[General]
AudioFilename: audio.mp3
AudioLeadIn: 0
PreviewTime: 221596
Countdown: 1
SampleSet: Normal
StackLeniency: 0.7
Mode: 1
LetterboxInBreaks: 0
WidescreenStoryboard: 0

[Editor]
Bookmarks: 131955,139155,222646,226246
DistanceSpacing: 1
BeatDivisor: 8
GridSize: 32
TimelineZoom: 2.5

[Metadata]
Title:Wizdomiot (extended ver.)
TitleUnicode:Wizdomiot (extended ver.)
Artist:LeaF
ArtistUnicode:LeaF
Creator:yassu-
Version:Jealous Oni
Source:東方地霊殿 ~ Subterranean Animism.
Tags:Doppelganger BMS 東方project touhou Chireiden zun remix osu! 東方音弾遊戯7 緑眼のジェラシー 水橋 パルスィ green eyed Ryokugan no jealousy mizuhashi parsee Electronic Instrumental FA Featured Artist Video Game
BeatmapID:2067808
BeatmapSetID:988522

[Difficulty]
HPDrainRate:5
CircleSize:5
OverallDifficulty:7
ApproachRate:5
SliderMultiplier:1.4
SliderTickRate:1

[Events]
//Background and Video events
0,0,"451dce6014534053212446[1].jpg",0,130
//Break Periods
2,195886,201536
//Storyboard Layer 0 (Background)
//Storyboard Layer 1 (Fail)
//Storyboard Layer 2 (Pass)
//Storyboard Layer 3 (Foreground)
//Storyboard Layer 4 (Overlay)
//Storyboard Sound Samples

[TimingPoints]
476,300,3,1,0,70,1,0
476,-125,3,1,0,70,0,0
5201,-121.951219512195,3,1,0,70,0,0
5351,-119.047619047619,3,1,0,80,0,0
5463,-117.647058823529,3,1,0,80,0,0
5538,-116.279069767442,3,1,0,80,0,0
5651,-113.636363636364,3,1,0,80,0,0
5801,-111.111111111111,3,1,0,80,0,0
8801,-108.695652173913,3,1,0,80,0,0
8951,-106.382978723404,3,1,0,80,0,0
9063,-105.263157894737,3,1,0,80,0,0
9138,-104.166666666667,3,1,0,80,0,0
9213,-103.092783505155,3,1,0,80,0,0
9288,-102.040816326531,3,1,0,80,0,0
9363,-101.010101010101,3,1,0,80,0,0
9438,-100,3,1,0,80,0,0
13001,-100,3,1,0,90,0,0
16826,-142.857142857143,3,1,0,70,0,0
19901,-142.857142857143,3,1,0,90,0,0
20013,-140.845070422535,3,1,0,90,0,0
20088,-138.888888888889,3,1,0,90,0,0
20163,-136.986301369863,3,1,0,90,0,0
20238,-135.135135135135,3,1,0,90,0,0
20351,-131.578947368421,3,1,0,90,0,0
20463,-129.87012987013,3,1,0,90,0,0
20538,-128.205128205128,3,1,0,90,0,0
20651,-121.951219512195,3,1,0,90,0,0
20801,-119.047619047619,3,1,0,90,0,0
20913,-117.647058823529,3,1,0,90,0,0
20988,-116.279069767442,3,1,0,90,0,0
21101,-113.636363636364,3,1,0,90,0,0
21251,-111.111111111111,3,1,0,90,0,0
21363,-109.89010989011,3,1,0,90,0,0
21438,-108.695652173913,3,1,0,90,0,0
21513,-107.52688172043,3,1,0,90,0,0
21588,-106.382978723404,3,1,0,90,0,0
21663,-105.263157894737,3,1,0,90,0,0
21738,-104.166666666667,3,1,0,90,0,0
21813,-103.092783505155,3,1,0,90,0,0
21888,-102.040816326531,3,1,0,90,0,0
21963,-101.010101010101,3,1,0,90,0,0
22038,-100,3,1,0,80,0,0
22151,-104.166666666667,3,1,0,80,0,0
22301,-108.695652173913,3,1,0,80,0,0
22451,-113.636363636364,3,1,0,80,0,0
22601,-119.047619047619,3,1,0,80,0,0
22751,-125,3,1,0,80,0,0
22901,-131.578947368421,3,1,0,80,0,0
23126,-149.253731343284,3,1,0,80,0,0
23426,-172.413793103448,3,1,0,80,0,0
23726,-200,3,1,0,60,0,0
37451,-192.307692307692,3,1,0,60,0,0
37601,-185.185185185185,3,1,0,60,0,0
37751,-178.571428571429,3,1,0,60,0,0
37901,-172.413793103448,3,1,0,60,0,0
38051,-166.666666666667,3,1,0,60,0,0
38201,-161.290322580645,3,1,0,70,0,0
50801,-161.290322580645,3,1,0,30,0,0
51176,-166.666666666667,3,1,0,30,0,0
51326,-169.491525423729,3,1,0,30,0,0
51476,-172.413793103448,3,1,0,30,0,0
51776,-181.818181818182,3,1,0,30,0,0
52076,-188.679245283019,3,1,0,30,0,0
52601,-133.333333333333,3,1,0,70,0,0
77726,-135.021097046413,3,1,0,70,0,0
77876,307.692307692308,3,1,0,70,1,0
77876,-133.333333333333,3,1,0,70,0,0
78183,-135.652079546379,3,1,0,70,0,0
78337,315.789473684211,3,1,0,70,1,8
78337,-133.333333333333,3,1,0,70,0,8
78494,-134.513464797826,3,1,0,70,0,8
78652,-135.714673470496,3,1,0,70,0,8
78810,324.324324324324,3,1,0,70,1,0
78810,-133.333333333333,3,1,0,70,0,0
79134,-135.779814022389,3,1,0,70,0,0
79296,333.333333333333,3,1,0,70,1,8
79462,-134.579539872553,3,1,0,70,0,8
79629,-135.849077109295,3,1,0,70,0,8
79796,300,3,1,0,70,1,0
79796,-153.846153846154,3,1,0,70,0,0
79908,-133.333333333334,3,1,0,50,0,0
83396,-125,3,1,0,50,0,0
85196,-117.647058823529,3,1,0,50,0,0
86996,-111.111111111111,3,1,0,50,0,0
88721,-105.263157894737,3,1,0,70,0,0
90521,-100,3,1,0,70,0,0
92321,-95.2380952380952,3,1,0,90,0,0
94158,-90.9090909090909,3,1,0,20,0,0
95096,-200,3,1,0,20,0,0
95658,-111.111111111111,3,1,0,90,0,0
95733,-105.263157894737,3,1,0,90,0,0
95808,-100,3,1,0,90,0,0
95883,-95.2380952380952,3,1,0,90,0,0
95958,-90.9090909090909,3,1,0,90,0,0
95996,-90.9090909090909,3,1,0,90,0,1
109496,-90.9090909090909,3,1,0,90,0,0
109571,-92.5925925925926,3,1,0,90,0,0
109721,-94.3396226415094,3,1,0,90,0,0
109871,-96.1538461538461,3,1,0,90,0,0
110021,-98.0392156862745,3,1,0,90,0,0
110171,-100,3,1,0,90,0,0
110396,-90.9090909090909,3,1,0,90,0,1
121121,-83.3333333333333,3,1,0,100,0,1
125096,-100,3,1,0,100,0,0
125471,-105.263157894737,3,1,0,70,0,0
125996,-111.111111111111,3,1,0,70,0,0
126446,-117.647058823529,3,1,0,70,0,0
126896,-125,3,1,0,70,0,0
127196,-128.205128205128,3,1,0,70,0,0
127496,-131.578947368421,3,1,0,70,0,0
128171,-128.205128205128,3,1,0,70,0,0
128321,-125,3,1,0,70,0,0
129221,-117.647058823529,3,1,0,70,0,0
130121,-111.111111111111,3,1,0,70,0,0
130271,-111.111111111111,3,1,0,80,0,0
131021,-105.263157894737,3,1,0,80,0,0
132146,-100,3,1,0,80,0,0
146133,-102.040816326531,3,1,0,80,0,0
146208,-104.166666666667,3,1,0,80,0,0
146283,-106.382978723404,3,1,0,80,0,0
146358,-108.695652173913,3,1,0,80,0,0
148196,-100,3,1,0,80,0,0
149733,-102.040816326531,3,1,0,80,0,0
149808,-104.166666666667,3,1,0,80,0,0
149958,-108.695652173913,3,1,0,80,0,0
151796,-100,3,1,0,80,0,0
157083,-95.2380952380952,3,1,0,80,0,0
157158,-90.9090909090909,3,1,0,90,0,0
159071,-86.9565217391304,3,1,0,90,0,0
159221,-83.3333333333333,3,1,0,90,0,0
160196,-76.9230769230769,3,1,0,90,0,0
160796,-100,3,1,0,90,0,0
161621,-133.333333333333,3,1,0,70,0,0
167096,-158.730158730159,3,1,0,50,0,0
167996,304.568527918782,3,1,0,50,1,0
167996,-196.078431372549,3,1,0,50,0,0
175304,309.278350515464,3,1,0,50,1,0
175304,-192.307692307692,3,1,0,50,0,0
179015,314.13612565445,3,1,0,50,1,0
179015,-188.679245283019,3,1,0,50,0,0
179957,319.148936170213,3,1,0,50,1,0
179957,-185.185185185185,3,1,0,50,0,0
180595,324.324324324324,3,1,0,50,1,8
180595,-181.818181818181,3,1,0,50,0,0
180919,337.078651685393,3,1,0,50,1,0
180919,-172.413793103448,3,1,0,50,0,0
181845,-172.413793103448,3,1,0,70,0,0
181930,375,3,1,0,70,1,0
181930,-158.730158730159,3,1,0,70,0,0
182305,315.789473684211,3,1,0,70,1,8
182305,-175.438596491228,3,1,0,70,0,0
182357,-166.666666666667,3,1,0,70,0,0
182462,-161.290322580645,3,1,0,70,0,0
182568,-153.846153846154,3,1,0,70,0,0
182699,-144.927536231884,3,1,0,70,0,0
182936,300,3,1,0,70,1,0
182936,-142.857142857143,3,1,0,70,0,0
189461,-135.135135135135,3,1,0,70,0,0
189611,-128.205128205128,3,1,0,70,0,0
189761,-121.951219512195,3,1,0,70,0,0
189911,-116.279069767442,3,1,0,70,0,0
190061,-111.111111111111,3,1,0,70,0,0
195836,-142.857142857143,3,1,0,10,0,0
202661,-111.111111111111,3,1,0,70,0,0
211661,-105.263157894737,3,1,0,70,0,0
213461,-100,3,1,0,80,0,0
215261,-95.2380952380952,3,1,0,90,0,0
217061,-90.9090909090909,3,1,0,90,0,0
218898,-86.9565217391304,3,1,0,90,0,0
219086,-200,3,1,0,30,0,0
221561,-166.666666666667,3,1,0,70,0,0
221711,-142.857142857143,3,1,0,70,0,0
221861,-125,3,1,0,70,0,0
222011,-111.111111111111,3,1,0,70,0,0
222161,-100,3,1,0,70,0,0
222311,-90.9090909090909,3,1,0,70,0,0
222536,-83.3333333333333,3,1,0,90,0,1
236036,-83.3333333333333,3,1,0,90,0,0
236136,-87.719298245614,3,1,0,90,0,0
236211,-89.2857142857143,3,1,0,90,0,0
236261,-90.9090909090909,3,1,0,90,0,0
236311,-92.5925925925926,3,1,0,90,0,0
236411,-98.0392156862745,3,1,0,90,0,0
236561,-104.166666666667,3,1,0,90,0,0
236636,-104.166666666667,3,1,0,90,0,0
236936,-83.3333333333333,3,1,0,90,0,1
251336,-76.9230769230769,3,1,0,90,0,1
253361,-78.7401574803149,3,1,0,80,0,1
253473,-80.6451612903226,3,1,0,80,0,1
253548,-82.6446280991736,3,1,0,80,0,1
253623,-84.7457627118644,3,1,0,80,0,1
253698,-86.9565217391304,3,1,0,80,0,1
253773,-89.2857142857143,3,1,0,80,0,1
253848,-91.743119266055,3,1,0,80,0,1
253923,-94.3396226415094,3,1,0,80,0,1
253998,-97.0873786407767,3,1,0,80,0,1
254073,-100,3,1,0,80,0,1
254148,-103.092783505155,3,1,0,80,0,1
254223,-106.382978723404,3,1,0,80,0,1
254298,-109.89010989011,3,1,0,80,0,1
254373,-113.636363636364,3,1,0,80,0,1
254448,-117.647058823529,3,1,0,80,0,1
254523,-121.951219512195,3,1,0,80,0,1
254598,-126.582278481013,3,1,0,80,0,1
254673,-131.578947368421,3,1,0,80,0,1
254748,-136.986301369863,3,1,0,80,0,1
254823,-142.857142857143,3,1,0,80,0,1
254936,450,4,1,0,80,1,0
254936,-100,4,1,0,80,0,0
268267,-101.010101010101,4,1,0,80,0,0
268379,-102.040816326531,4,1,0,80,0,0
268492,-103.092783505155,4,1,0,80,0,0
268604,-104.166666666667,4,1,0,80,0,0
268717,-105.263157894737,4,1,0,80,0,0
268829,-106.382978723404,4,1,0,80,0,0
268942,-107.52688172043,4,1,0,80,0,0
269054,-108.695652173913,4,1,0,80,0,0
269167,-109.89010989011,4,1,0,80,0,0
269279,-109.89010989011,4,1,0,70,0,0
269336,300,3,1,0,70,1,0
269336,-166.666666666667,3,1,0,70,0,0
282348,-169.491525423729,3,1,0,70,0,0
282498,-172.413793103448,3,1,0,70,0,0
282573,-173.913043478261,3,1,0,70,0,0
282648,-175.438596491228,3,1,0,70,0,0
282798,-178.571428571429,3,1,0,70,0,0
282948,-181.818181818182,3,1,0,70,0,0
283023,-183.48623853211,3,1,0,70,0,0
283098,-185.185185185185,3,1,0,70,0,0
283173,-186.915887850467,3,1,0,70,0,0
283248,-188.679245283019,3,1,0,70,0,0
283323,-190.47619047619,3,1,0,70,0,0
283398,-192.307692307692,3,1,0,70,0,0
283473,-194.174757281553,3,1,0,70,0,0
283548,-196.078431372549,3,1,0,70,0,0
283623,-198.019801980198,3,1,0,70,0,0
283698,-200,3,1,0,70,0,0
290636,-142.857142857143,3,1,0,70,0,0
290861,-125,3,1,0,80,0,0
291461,-120.481927710843,3,1,0,80,0,0
291611,-116.279069767442,3,1,0,80,0,0
291761,-112.359550561798,3,1,0,80,0,0
292211,-108.695652173913,3,1,0,80,0,0
292661,-105.263157894737,3,1,0,80,0,0
293561,-102.040816326531,3,1,0,80,0,0
294011,-99.009900990099,3,1,0,80,0,0
294461,-96.1538461538461,3,1,0,90,0,0
296073,-95.2380952380952,3,1,0,90,0,0
296148,-94.3396226415094,3,1,0,90,0,0
296223,-93.4579439252336,3,1,0,90,0,0
296298,-92.5925925925926,3,1,0,90,0,0
297873,-91.743119266055,3,1,0,90,0,0
297948,-90.9090909090909,3,1,0,90,0,0
298023,-90.0900900900901,3,1,0,90,0,0
298136,-86.9565217391304,3,1,0,90,0,1
308936,-86.9565217391304,3,1,0,90,0,0
309798,-128.205128205128,3,1,0,100,0,0
309873,-126.582278481013,3,1,0,100,0,0
309948,-125,3,1,0,100,0,0
310023,-123.456790123457,3,1,0,100,0,0
310098,-121.951219512195,3,1,0,100,0,0
310173,-120.481927710843,3,1,0,100,0,0
310248,-119.047619047619,3,1,0,100,0,0
310323,-117.647058823529,3,1,0,100,0,0
310398,-116.279069767442,3,1,0,100,0,0
310473,-114.942528735632,3,1,0,100,0,0
310548,-113.636363636364,3,1,0,100,0,0
310623,-112.359550561798,3,1,0,100,0,0
310698,-111.111111111111,3,1,0,100,0,0
310886,-107.52688172043,3,1,0,100,0,0
311186,-104.166666666667,3,1,0,100,0,0
311411,-101.010101010101,3,1,0,100,0,0
311523,-100,3,1,0,100,0,0
311598,-99.009900990099,3,1,0,100,0,0
311673,-98.0392156862745,3,1,0,100,0,0
311748,-97.0873786407767,3,1,0,100,0,0
311811,-96.1538461538461,3,1,0,100,0,0
311861,-95.2380952380954,3,1,0,100,0,0
311911,-94.3396226415094,3,1,0,100,0,0
311973,-93.4579439252336,3,1,0,100,0,0
312048,-92.5925925925926,3,1,0,100,0,0
312111,-91.743119266055,3,1,0,100,0,0
312161,-90.9090909090909,3,1,0,100,0,0
312211,-90.0900900900901,3,1,0,100,0,0
312273,-89.2857142857143,3,1,0,100,0,0
312348,-88.4955752212389,3,1,0,90,0,0
312423,-87.719298245614,3,1,0,90,0,0
312536,-86.9565217391304,3,1,0,90,0,1
322623,-86.2068965517241,3,1,0,90,0,1
322698,-85.4700854700855,3,1,0,90,0,1
322773,-84.7457627118644,3,1,0,90,0,1
322848,-84.0336134453781,3,1,0,90,0,1
322923,-83.3333333333333,3,1,0,90,0,1
322998,-82.6446280991736,3,1,0,90,0,1
323073,-81.9672131147541,3,1,0,90,0,1
323148,-81.3008130081301,3,1,0,90,0,1
323223,-80.6451612903226,3,1,0,90,0,1
323298,-80,3,1,0,100,0,1
326936,-79.9999999999999,3,1,0,100,0,0
327761,-100,3,1,0,60,0,0
333236,-121.212121212121,3,1,0,60,0,0
334136,-133.333333333333,3,1,0,40,0,0

[HitObjects]
256,192,2276,5,4,0:0:0:0:
256,192,2576,1,2,0:0:0:0:
256,192,2726,1,0,0:0:0:0:
256,192,2876,1,0,0:0:0:0:
256,192,3026,1,2,0:0:0:0:
256,192,3176,1,2,0:0:0:0:
256,192,3326,1,0,0:0:0:0:
256,192,3476,1,2,0:0:0:0:
256,192,3626,1,0,0:0:0:0:
256,192,3776,1,0,0:0:0:0:
256,192,3926,1,0,0:0:0:0:
256,192,4001,1,0,0:0:0:0:
256,192,4076,1,2,0:0:0:0:
256,192,4226,1,2,0:0:0:0:
256,192,4526,1,0,0:0:0:0:
256,192,4676,1,0,0:0:0:0:
256,192,4826,1,2,0:0:0:0:
256,192,4976,1,2,0:0:0:0:
256,192,5126,1,0,0:0:0:0:
256,192,5276,1,2,0:0:0:0:
256,192,5426,1,0,0:0:0:0:
256,192,5501,1,2,0:0:0:0:
256,192,5576,1,2,0:0:0:0:
256,192,5726,1,2,0:0:0:0:
256,192,5876,1,0,0:0:0:0:
256,192,6176,1,2,0:0:0:0:
256,192,6326,1,0,0:0:0:0:
256,192,6401,1,2,0:0:0:0:
256,192,6476,1,0,0:0:0:0:
256,192,6551,1,0,0:0:0:0:
256,192,6626,1,2,0:0:0:0:
256,192,6776,1,0,0:0:0:0:
256,192,6926,1,0,0:0:0:0:
256,192,7076,1,2,0:0:0:0:
256,192,7226,1,2,0:0:0:0:
256,192,7376,1,0,0:0:0:0:
256,192,7526,1,2,0:0:0:0:
256,192,7601,1,2,0:0:0:0:
256,192,7676,1,0,0:0:0:0:
256,192,7826,1,0,0:0:0:0:
256,192,7976,1,2,0:0:0:0:
256,192,8126,1,0,0:0:0:0:
256,192,8201,1,2,0:0:0:0:
256,192,8276,1,0,0:0:0:0:
256,192,8351,1,0,0:0:0:0:
256,192,8426,1,2,0:0:0:0:
256,192,8576,1,0,0:0:0:0:
256,192,8726,1,0,0:0:0:0:
256,192,8876,1,2,0:0:0:0:
256,192,9026,1,0,0:0:0:0:
256,192,9101,1,0,0:0:0:0:
256,192,9176,1,2,0:0:0:0:
256,192,9251,1,0,0:0:0:0:
256,192,9326,1,2,0:0:0:0:
256,192,9401,1,2,0:0:0:0:
256,192,9476,1,0,0:0:0:0:
256,192,9776,1,2,0:0:0:0:
256,192,9926,1,0,0:0:0:0:
256,192,10076,1,0,0:0:0:0:
256,192,10226,1,2,0:0:0:0:
256,192,10376,1,0,0:0:0:0:
256,192,10526,1,0,0:0:0:0:
256,192,10676,1,2,0:0:0:0:
256,192,10826,1,2,0:0:0:0:
256,192,10976,1,0,0:0:0:0:
256,192,11126,1,2,0:0:0:0:
256,192,11276,1,0,0:0:0:0:
256,192,11426,1,0,0:0:0:0:
256,192,11576,1,2,0:0:0:0:
256,192,11726,1,0,0:0:0:0:
256,192,11876,1,0,0:0:0:0:
256,192,12026,1,2,0:0:0:0:
256,192,12176,1,0,0:0:0:0:
256,192,12326,1,0,0:0:0:0:
256,192,12476,1,2,0:0:0:0:
256,192,12626,1,2,0:0:0:0:
256,192,12776,1,0,0:0:0:0:
256,192,13076,1,4,0:0:0:0:
256,192,13226,1,0,0:0:0:0:
256,192,13376,1,2,0:0:0:0:
256,192,13526,1,0,0:0:0:0:
256,192,13676,1,0,0:0:0:0:
256,192,13826,1,2,0:0:0:0:
256,192,13976,1,2,0:0:0:0:
256,192,14126,1,2,0:0:0:0:
256,192,14276,1,0,0:0:0:0:
256,192,14426,1,0,0:0:0:0:
256,192,14576,1,2,0:0:0:0:
256,192,14726,1,2,0:0:0:0:
256,192,14876,1,4,0:0:0:0:
256,192,15176,1,6,0:0:0:0:
256,192,15326,1,0,0:0:0:0:
256,192,15476,1,2,0:0:0:0:
256,192,15551,1,2,0:0:0:0:
256,192,15626,1,2,0:0:0:0:
256,192,15701,1,2,0:0:0:0:
256,192,15776,1,0,0:0:0:0:
256,192,15851,1,0,0:0:0:0:
256,192,15926,1,2,0:0:0:0:
256,192,16001,1,0,0:0:0:0:
256,192,16076,1,2,0:0:0:0:
256,192,16151,1,2,0:0:0:0:
256,192,16226,1,0,0:0:0:0:
256,192,16301,1,2,0:0:0:0:
256,192,16376,1,0,0:0:0:0:
256,192,16451,1,0,0:0:0:0:
256,192,16526,1,2,0:0:0:0:
256,192,16601,1,2,0:0:0:0:
256,192,16676,1,0,0:0:0:0:
256,192,16976,1,6,0:0:0:0:
256,192,17126,1,0,0:0:0:0:
256,192,17276,1,0,0:0:0:0:
256,192,17426,1,2,0:0:0:0:
256,192,17576,1,2,0:0:0:0:
256,192,17726,1,0,0:0:0:0:
256,192,17801,1,0,0:0:0:0:
256,192,17876,1,0,0:0:0:0:
256,192,18026,1,2,0:0:0:0:
256,192,18176,1,0,0:0:0:0:
256,192,18326,1,2,0:0:0:0:
256,192,18476,1,2,0:0:0:0:
256,192,18626,1,0,0:0:0:0:
256,192,18701,1,0,0:0:0:0:
256,192,18776,1,2,0:0:0:0:
256,192,18851,1,2,0:0:0:0:
256,192,18926,1,0,0:0:0:0:
256,192,19076,1,2,0:0:0:0:
256,192,19226,1,0,0:0:0:0:
256,192,19376,1,2,0:0:0:0:
256,192,19526,1,0,0:0:0:0:
256,192,19601,1,2,0:0:0:0:
256,192,19676,1,0,0:0:0:0:
256,192,19826,1,2,0:0:0:0:
256,192,19976,1,0,0:0:0:0:
256,192,20051,1,2,0:0:0:0:
256,192,20126,1,2,0:0:0:0:
256,192,20201,1,2,0:0:0:0:
256,192,20276,1,0,0:0:0:0:
256,192,20426,1,2,0:0:0:0:
256,192,20501,1,0,0:0:0:0:
256,192,20576,1,2,0:0:0:0:
256,192,20726,1,4,0:0:0:0:
256,192,20876,1,2,0:0:0:0:
256,192,20951,1,2,0:0:0:0:
256,192,21026,1,2,0:0:0:0:
256,192,21176,1,4,0:0:0:0:
256,192,21326,1,2,0:0:0:0:
256,192,21401,1,0,0:0:0:0:
256,192,21476,1,2,0:0:0:0:
256,192,21551,1,2,0:0:0:0:
256,192,21626,1,0,0:0:0:0:
256,192,21701,1,2,0:0:0:0:
256,192,21776,1,0,0:0:0:0:
256,192,21851,1,0,0:0:0:0:
256,192,21926,1,2,0:0:0:0:
256,192,22001,1,2,0:0:0:0:
256,160,22076,1,0,0:0:0:0:
256,160,22226,1,2,0:0:0:0:
256,160,22376,1,2,0:0:0:0:
256,160,22526,1,0,0:0:0:0:
256,160,22676,1,2,0:0:0:0:
256,160,22826,1,0,0:0:0:0:
256,160,22976,1,0,0:0:0:0:
256,160,23276,1,2,0:0:0:0:
256,160,23576,1,2,0:0:0:0:
256,160,23876,1,4,0:0:0:0:
256,192,24326,1,0,0:0:0:0:
256,192,24776,1,2,0:0:0:0:
256,192,25076,1,0,0:0:0:0:
256,192,25376,1,0,0:0:0:0:
256,192,25676,1,2,0:0:0:0:
256,192,26576,1,2,0:0:0:0:
256,192,27176,1,0,0:0:0:0:
256,192,27476,1,2,0:0:0:0:
288,192,28376,1,2,0:0:0:0:
288,224,28976,1,0,0:0:0:0:
288,224,29276,1,2,0:0:0:0:
256,192,30176,1,2,0:0:0:0:
256,192,30776,1,2,0:0:0:0:
256,224,31076,1,6,0:0:0:0:
256,192,31676,1,0,0:0:0:0:
256,192,31826,1,0,0:0:0:0:
256,192,31976,1,2,0:0:0:0:
256,192,32276,1,0,0:0:0:0:
263,205,32576,1,0,0:0:0:0:
256,192,32876,1,2,0:0:0:0:
256,192,33476,1,0,0:0:0:0:
256,224,33626,1,2,0:0:0:0:
256,224,33776,1,2,0:0:0:0:
256,224,34076,1,2,0:0:0:0:
256,192,34376,1,0,0:0:0:0:
256,192,34676,1,2,0:0:0:0:
256,192,35576,1,2,0:0:0:0:
256,192,35876,1,0,0:0:0:0:
256,192,36176,1,0,0:0:0:0:
256,192,36476,1,2,0:0:0:0:
256,192,36776,1,2,0:0:0:0:
256,192,37076,1,0,0:0:0:0:
256,192,37376,1,2,0:0:0:0:
256,192,37526,1,0,0:0:0:0:
256,192,37676,1,0,0:0:0:0:
256,192,37826,1,0,0:0:0:0:
256,192,37976,1,2,0:0:0:0:
256,192,38126,1,2,0:0:0:0:
256,192,38276,1,4,0:0:0:0:
256,192,38726,1,0,0:0:0:0:
256,192,39026,1,0,0:0:0:0:
256,192,39176,1,2,0:0:0:0:
256,192,39476,1,0,0:0:0:0:
256,192,39626,1,2,0:0:0:0:
256,192,39776,1,0,0:0:0:0:
256,192,40076,1,2,0:0:0:0:
256,192,40376,1,0,0:0:0:0:
256,192,40676,1,0,0:0:0:0:
256,192,40976,1,2,0:0:0:0:
256,192,41276,1,0,0:0:0:0:
256,192,41576,1,2,0:0:0:0:
256,192,41876,1,2,0:0:0:0:
256,192,42476,1,0,0:0:0:0:
256,192,42776,1,2,0:0:0:0:
256,192,43076,1,0,0:0:0:0:
256,192,43376,1,0,0:0:0:0:
256,192,43676,1,2,0:0:0:0:
256,192,44276,1,0,0:0:0:0:
256,192,44576,1,2,0:0:0:0:
256,192,44876,1,2,0:0:0:0:
256,192,45176,1,0,0:0:0:0:
256,192,45476,1,2,0:0:0:0:
256,192,45926,1,0,0:0:0:0:
256,192,46226,1,0,0:0:0:0:
256,192,46376,1,2,0:0:0:0:
256,192,46676,1,0,0:0:0:0:
256,192,46976,1,0,0:0:0:0:
256,192,47276,1,2,0:0:0:0:
256,192,47576,1,0,0:0:0:0:
256,192,47876,1,2,0:0:0:0:
256,192,48176,1,2,0:0:0:0:
256,192,48476,1,0,0:0:0:0:
256,192,48776,1,0,0:0:0:0:
256,192,49076,1,2,0:0:0:0:
256,192,49676,1,0,0:0:0:0:
256,192,49826,1,0,0:0:0:0:
256,192,49976,1,2,0:0:0:0:
256,192,50276,1,0,0:0:0:0:
256,192,50576,1,2,0:0:0:0:
256,192,50876,1,0,0:0:0:0:
256,192,51176,1,2,0:0:0:0:
256,192,51326,1,2,0:0:0:0:
234,198,51476,1,0,0:0:0:0:
262,197,51776,1,2,0:0:0:0:
262,197,52076,1,0,0:0:0:0:
262,197,52226,1,0,0:0:0:0:
256,192,52376,1,2,0:0:0:0:
256,192,52526,1,2,0:0:0:0:
256,192,52676,1,4,0:0:0:0:
256,192,53276,1,2,0:0:0:0:
256,192,53576,1,0,0:0:0:0:
256,192,53876,1,2,0:0:0:0:
256,192,54026,1,0,0:0:0:0:
249,190,54101,1,0,0:0:0:0:
256,192,54176,1,2,0:0:0:0:
256,192,54476,1,0,0:0:0:0:
256,192,54776,1,2,0:0:0:0:
256,192,55076,1,2,0:0:0:0:
256,192,55376,1,0,0:0:0:0:
256,192,55676,1,2,0:0:0:0:
256,192,55751,1,2,0:0:0:0:
256,192,55826,1,2,0:0:0:0:
256,192,55976,1,0,0:0:0:0:
256,192,56126,1,0,0:0:0:0:
256,192,56276,1,2,0:0:0:0:
256,192,56576,1,0,0:0:0:0:
256,192,56726,1,0,0:0:0:0:
256,192,56876,1,2,0:0:0:0:
256,192,57026,1,2,0:0:0:0:
256,192,57176,1,0,0:0:0:0:
256,192,57476,1,2,0:0:0:0:
256,192,57626,1,0,0:0:0:0:
256,192,57701,1,0,0:0:0:0:
256,192,57776,1,2,0:0:0:0:
256,192,58076,1,0,0:0:0:0:
256,192,58376,1,0,0:0:0:0:
256,192,58676,1,2,0:0:0:0:
256,192,58976,1,0,0:0:0:0:
256,192,59276,1,2,0:0:0:0:
256,192,59426,1,2,0:0:0:0:
256,192,59576,1,0,0:0:0:0:
256,192,59876,1,2,0:0:0:0:
256,192,60176,5,0,0:0:0:0:
224,192,60476,1,0,0:0:0:0:
256,192,60626,1,0,0:0:0:0:
256,192,60776,1,2,0:0:0:0:
256,192,61076,1,2,0:0:0:0:
256,192,61276,1,0,0:0:0:0:
256,192,61376,1,2,0:0:0:0:
256,192,61676,1,0,0:0:0:0:
256,192,61976,1,2,0:0:0:0:
256,192,62276,1,2,0:0:0:0:
256,192,62576,1,0,0:0:0:0:
256,192,62876,1,2,0:0:0:0:
256,192,63026,1,2,0:0:0:0:
256,192,63101,1,2,0:0:0:0:
256,192,63176,1,0,0:0:0:0:
256,192,63326,1,2,0:0:0:0:
256,192,63476,1,0,0:0:0:0:
256,192,63776,1,0,0:0:0:0:
256,192,63926,1,0,0:0:0:0:
256,192,64076,1,2,0:0:0:0:
256,192,64226,1,2,0:0:0:0:
256,192,64376,1,0,0:0:0:0:
256,192,64676,1,2,0:0:0:0:
256,192,64826,1,0,0:0:0:0:
256,192,64901,1,0,0:0:0:0:
256,192,64976,1,2,0:0:0:0:
256,192,65276,1,0,0:0:0:0:
256,192,65576,1,2,0:0:0:0:
256,192,65726,1,2,0:0:0:0:
256,160,65801,1,2,0:0:0:0:
256,192,65876,1,2,0:0:0:0:
256,192,66026,1,2,0:0:0:0:
256,192,66176,1,0,0:0:0:0:
256,192,66326,1,2,0:0:0:0:
256,192,66476,1,0,0:0:0:0:
256,192,66626,1,2,0:0:0:0:
256,192,66776,1,0,0:0:0:0:
256,192,67076,1,4,0:0:0:0:
256,192,67676,1,0,0:0:0:0:
256,192,67976,1,2,0:0:0:0:
256,192,68276,1,2,0:0:0:0:
256,192,68376,1,0,0:0:0:0:
256,192,68476,1,0,0:0:0:0:
256,192,68576,1,2,0:0:0:0:
256,192,68876,1,0,0:0:0:0:
256,192,69176,1,0,0:0:0:0:
256,192,69476,1,2,0:0:0:0:
256,192,69776,1,0,0:0:0:0:
256,192,70076,1,2,0:0:0:0:
256,192,70176,1,2,0:0:0:0:
256,192,70276,1,2,0:0:0:0:
256,192,70376,1,0,0:0:0:0:
256,192,70526,1,0,0:0:0:0:
256,192,70676,1,2,0:0:0:0:
256,192,71276,1,2,0:0:0:0:
256,192,71426,1,2,0:0:0:0:
256,192,71576,1,0,0:0:0:0:
256,192,71876,1,2,0:0:0:0:
256,192,71976,1,0,0:0:0:0:
256,192,72076,1,0,0:0:0:0:
256,192,72176,1,2,0:0:0:0:
256,192,72476,1,0,0:0:0:0:
256,192,72776,1,2,0:0:0:0:
256,192,72926,1,0,0:0:0:0:
256,192,73076,1,2,0:0:0:0:
256,192,73376,1,0,0:0:0:0:
256,192,73676,1,2,0:0:0:0:
256,192,73826,1,2,0:0:0:0:
256,192,73976,5,0,0:0:0:0:
256,192,74276,1,6,0:0:0:0:
256,192,74876,1,0,0:0:0:0:
256,192,75026,5,0,0:0:0:0:
256,192,75101,1,0,0:0:0:0:
256,192,75176,1,2,0:0:0:0:
256,192,75476,1,2,0:0:0:0:
256,192,75576,1,0,0:0:0:0:
256,192,75676,1,0,0:0:0:0:
256,192,75776,1,2,0:0:0:0:
256,192,76076,1,0,0:0:0:0:
256,192,76376,1,0,0:0:0:0:
256,192,76676,1,2,0:0:0:0:
256,192,76976,1,0,0:0:0:0:
256,192,77276,1,0,0:0:0:0:
256,192,77376,1,0,0:0:0:0:
256,192,77476,1,0,0:0:0:0:
256,192,77576,1,2,0:0:0:0:
256,192,77726,1,0,0:0:0:0:
256,192,77876,1,2,0:0:0:0:
256,192,78183,1,0,0:0:0:0:
256,192,78337,1,0,0:0:0:0:
256,192,78494,1,2,0:0:0:0:
256,192,78652,1,2,0:0:0:0:
256,192,78810,1,0,0:0:0:0:
256,192,79134,1,2,0:0:0:0:
256,192,79462,1,2,0:0:0:0:
256,192,79629,1,2,0:0:0:0:
256,192,79796,1,4,0:0:0:0:
256,192,81596,1,0,0:0:0:0:
256,192,83396,1,0,0:0:0:0:
256,192,85196,1,0,0:0:0:0:
256,192,86996,1,0,0:0:0:0:
256,192,88796,1,0,0:0:0:0:
256,192,88946,1,0,0:0:0:0:
256,192,89096,1,2,0:0:0:0:
256,192,89246,1,0,0:0:0:0:
256,192,89396,1,0,0:0:0:0:
256,192,89546,1,2,0:0:0:0:
256,192,89696,1,2,0:0:0:0:
256,192,89846,1,0,0:0:0:0:
256,192,89996,1,2,0:0:0:0:
256,192,90146,1,2,0:0:0:0:
256,192,90296,1,0,0:0:0:0:
256,192,90446,1,2,0:0:0:0:
256,192,90596,1,0,0:0:0:0:
256,192,90746,1,2,0:0:0:0:
256,192,90821,1,2,0:0:0:0:
256,192,90896,1,0,0:0:0:0:
256,192,91046,1,2,0:0:0:0:
256,192,91196,1,0,0:0:0:0:
256,192,91271,1,0,0:0:0:0:
256,192,91346,1,2,0:0:0:0:
256,192,91496,1,2,0:0:0:0:
256,192,91646,1,0,0:0:0:0:
256,192,91721,1,0,0:0:0:0:
256,192,91796,1,2,0:0:0:0:
256,192,91871,1,0,0:0:0:0:
256,192,91946,1,0,0:0:0:0:
256,192,92021,1,0,0:0:0:0:
256,192,92096,1,2,0:0:0:0:
256,192,92246,1,2,0:0:0:0:
256,192,92396,1,0,0:0:0:0:
256,192,92471,1,0,0:0:0:0:
256,192,92546,1,2,0:0:0:0:
256,192,92621,1,0,0:0:0:0:
256,192,92696,1,2,0:0:0:0:
256,192,92771,1,2,0:0:0:0:
256,192,92846,1,0,0:0:0:0:
256,192,92921,1,0,0:0:0:0:
256,192,92996,1,2,0:0:0:0:
256,192,93071,1,2,0:0:0:0:
256,192,93146,1,2,0:0:0:0:
256,192,93221,1,0,0:0:0:0:
256,192,93296,1,2,0:0:0:0:
256,192,93371,1,2,0:0:0:0:
256,192,93446,1,0,0:0:0:0:
256,192,93521,1,0,0:0:0:0:
256,192,93596,1,2,0:0:0:0:
256,192,93671,1,2,0:0:0:0:
256,192,93746,1,0,0:0:0:0:
256,192,93821,1,2,0:0:0:0:
256,192,93896,1,0,0:0:0:0:
256,192,93971,1,0,0:0:0:0:
256,192,94046,1,2,0:0:0:0:
256,192,94121,1,2,0:0:0:0:
256,192,94196,12,0,95396,0:0:0:0:
256,192,95696,5,0,0:0:0:0:
256,192,95771,1,0,0:0:0:0:
256,192,95846,1,2,0:0:0:0:
256,192,95921,1,2,0:0:0:0:
256,192,95996,1,4,0:0:0:0:
256,192,96221,1,0,0:0:0:0:
256,192,96296,1,2,0:0:0:0:
256,192,96446,1,0,0:0:0:0:
256,192,96521,1,0,0:0:0:0:
256,192,96596,1,2,0:0:0:0:
256,192,96671,1,0,0:0:0:0:
256,192,96746,1,2,0:0:0:0:
256,192,96821,1,0,0:0:0:0:
256,192,96896,1,2,0:0:0:0:
256,192,96971,1,2,0:0:0:0:
256,192,97046,1,0,0:0:0:0:
256,192,97196,1,2,0:0:0:0:
256,192,97271,1,2,0:0:0:0:
256,192,97346,1,0,0:0:0:0:
256,192,97421,1,0,0:0:0:0:
256,192,97496,1,2,0:0:0:0:
256,192,97571,1,0,0:0:0:0:
256,192,97646,1,2,0:0:0:0:
256,192,97721,1,0,0:0:0:0:
256,192,97796,1,2,0:0:0:0:
256,192,97946,1,0,0:0:0:0:
256,192,98021,1,2,0:0:0:0:
256,224,98096,1,0,0:0:0:0:
256,224,98171,1,0,0:0:0:0:
256,224,98246,1,2,0:0:0:0:
256,224,98321,1,0,0:0:0:0:
256,224,98396,1,2,0:0:0:0:
256,224,98471,1,2,0:0:0:0:
256,224,98546,1,0,0:0:0:0:
256,224,98696,1,2,0:0:0:0:
256,224,98771,1,2,0:0:0:0:
256,224,98846,1,0,0:0:0:0:
256,224,98921,1,2,0:0:0:0:
256,224,98996,1,0,0:0:0:0:
256,224,99071,1,0,0:0:0:0:
256,224,99146,1,2,0:0:0:0:
256,224,99221,1,0,0:0:0:0:
256,224,99296,1,2,0:0:0:0:
256,224,99371,1,2,0:0:0:0:
256,224,99446,1,0,0:0:0:0:
256,224,99521,1,0,0:0:0:0:
256,224,99596,1,2,0:0:0:0:
256,224,99746,5,0,0:0:0:0:
256,224,99821,1,0,0:0:0:0:
256,224,99896,1,0,0:0:0:0:
256,224,99971,1,2,0:0:0:0:
256,224,100046,1,2,0:0:0:0:
256,224,100121,1,0,0:0:0:0:
256,224,100196,1,0,0:0:0:0:
256,224,100271,1,2,0:0:0:0:
256,224,100346,1,0,0:0:0:0:
256,224,100496,1,2,0:0:0:0:
256,224,100571,1,2,0:0:0:0:
224,224,100646,1,0,0:0:0:0:
224,224,100721,1,0,0:0:0:0:
256,224,100796,1,2,0:0:0:0:
256,224,100871,1,2,0:0:0:0:
256,224,100946,1,0,0:0:0:0:
256,224,101021,1,0,0:0:0:0:
256,224,101096,1,2,0:0:0:0:
256,224,101171,1,0,0:0:0:0:
256,224,101246,1,0,0:0:0:0:
256,224,101321,1,2,0:0:0:0:
256,224,101396,1,0,0:0:0:0:
256,224,101471,1,2,0:0:0:0:
256,224,101546,1,2,0:0:0:0:
256,224,101621,1,0,0:0:0:0:
256,224,101696,1,2,0:0:0:0:
256,224,101846,1,0,0:0:0:0:
256,224,101921,1,2,0:0:0:0:
256,224,101996,1,0,0:0:0:0:
256,224,102071,1,0,0:0:0:0:
256,224,102146,1,2,0:0:0:0:
256,224,102221,1,0,0:0:0:0:
256,224,102296,1,2,0:0:0:0:
256,224,102371,1,2,0:0:0:0:
256,224,102446,1,0,0:0:0:0:
256,224,102521,1,0,0:0:0:0:
256,224,102596,1,2,0:0:0:0:
256,224,102671,1,0,0:0:0:0:
256,224,102746,1,0,0:0:0:0:
256,224,102821,1,2,0:0:0:0:
256,224,102896,1,0,0:0:0:0:
256,224,102971,1,2,0:0:0:0:
256,224,103046,1,2,0:0:0:0:
256,224,103121,1,2,0:0:0:0:
256,224,103196,1,0,0:0:0:0:
256,192,103346,1,0,0:0:0:0:
256,192,103421,1,0,0:0:0:0:
256,192,103496,1,2,0:0:0:0:
256,192,103571,1,0,0:0:0:0:
256,192,103646,1,0,0:0:0:0:
256,192,103721,1,0,0:0:0:0:
256,192,103796,1,2,0:0:0:0:
256,192,103871,1,2,0:0:0:0:
256,192,103946,1,0,0:0:0:0:
256,192,104021,1,0,0:0:0:0:
256,192,104096,1,2,0:0:0:0:
256,192,104171,1,2,0:0:0:0:
256,192,104246,1,2,0:0:0:0:
256,192,104321,1,0,0:0:0:0:
256,192,104396,1,2,0:0:0:0:
256,192,104471,1,0,0:0:0:0:
256,192,104546,1,0,0:0:0:0:
256,192,104621,1,0,0:0:0:0:
256,192,104696,1,2,0:0:0:0:
256,192,104771,1,2,0:0:0:0:
256,192,104846,1,0,0:0:0:0:
256,192,104996,1,2,0:0:0:0:
256,192,105071,1,0,0:0:0:0:
256,192,105146,1,2,0:0:0:0:
256,192,105221,1,0,0:0:0:0:
256,192,105296,1,0,0:0:0:0:
256,192,105371,1,2,0:0:0:0:
256,192,105446,1,0,0:0:0:0:
256,192,105521,1,2,0:0:0:0:
256,192,105596,1,2,0:0:0:0:
256,192,105671,1,0,0:0:0:0:
256,192,105746,1,2,0:0:0:0:
256,192,105821,1,0,0:0:0:0:
256,192,105896,1,2,0:0:0:0:
256,192,105971,1,2,0:0:0:0:
256,192,106046,1,0,0:0:0:0:
256,192,106121,1,0,0:0:0:0:
256,192,106196,1,2,0:0:0:0:
256,192,106271,1,0,0:0:0:0:
256,192,106346,1,0,0:0:0:0:
256,192,106421,1,2,0:0:0:0:
256,192,106496,1,0,0:0:0:0:
256,192,106571,1,2,0:0:0:0:
256,192,106646,1,2,0:0:0:0:
256,192,106721,1,0,0:0:0:0:
256,224,106796,1,2,0:0:0:0:
288,192,106946,1,0,0:0:0:0:
256,192,107021,1,0,0:0:0:0:
256,192,107096,1,2,0:0:0:0:
256,192,107171,1,0,0:0:0:0:
256,192,107246,1,0,0:0:0:0:
256,192,107321,1,2,0:0:0:0:
256,224,107396,1,2,0:0:0:0:
256,224,107471,1,0,0:0:0:0:
256,224,107546,1,2,0:0:0:0:
256,224,107621,1,0,0:0:0:0:
256,224,107696,1,2,0:0:0:0:
256,224,107771,1,2,0:0:0:0:
256,224,107846,1,0,0:0:0:0:
256,224,107921,1,0,0:0:0:0:
256,224,107996,1,2,0:0:0:0:
256,224,108071,1,0,0:0:0:0:
256,224,108146,1,2,0:0:0:0:
256,224,108221,1,2,0:0:0:0:
256,224,108296,1,2,0:0:0:0:
256,224,108371,1,0,0:0:0:0:
256,224,108446,1,0,0:0:0:0:
256,224,108521,1,0,0:0:0:0:
256,224,108596,1,2,0:0:0:0:
256,224,108671,1,2,0:0:0:0:
256,224,108746,1,0,0:0:0:0:
256,224,108821,1,0,0:0:0:0:
256,224,108896,1,2,0:0:0:0:
256,224,108971,1,0,0:0:0:0:
256,224,109046,1,2,0:0:0:0:
256,224,109121,1,2,0:0:0:0:
256,224,109196,1,2,0:0:0:0:
256,224,109271,1,0,0:0:0:0:
256,224,109346,1,0,0:0:0:0:
256,224,109421,1,0,0:0:0:0:
256,224,109496,1,2,0:0:0:0:
256,224,109646,1,2,0:0:0:0:
256,224,109796,1,0,0:0:0:0:
256,224,109946,1,2,0:0:0:0:
256,224,110096,1,2,0:0:0:0:
256,224,110246,1,2,0:0:0:0:
256,224,110396,1,4,0:0:0:0:
256,192,110546,1,0,0:0:0:0:
256,192,110621,1,0,0:0:0:0:
256,192,110696,1,2,0:0:0:0:
256,192,110771,1,2,0:0:0:0:
256,192,110846,1,0,0:0:0:0:
256,192,110921,1,0,0:0:0:0:
256,192,110996,1,2,0:0:0:0:
256,192,111071,1,0,0:0:0:0:
256,192,111146,1,2,0:0:0:0:
256,192,111221,1,2,0:0:0:0:
256,192,111296,1,0,0:0:0:0:
256,192,111371,1,2,0:0:0:0:
256,192,111446,1,0,0:0:0:0:
256,192,111521,1,0,0:0:0:0:
256,192,111596,1,2,0:0:0:0:
256,192,111671,1,2,0:0:0:0:
256,192,111746,1,0,0:0:0:0:
256,192,111821,1,0,0:0:0:0:
256,192,111896,1,2,0:0:0:0:
256,192,111971,1,2,0:0:0:0:
256,192,112046,1,2,0:0:0:0:
256,192,112121,1,0,0:0:0:0:
256,192,112196,1,2,0:0:0:0:
256,192,112346,1,0,0:0:0:0:
256,192,112421,1,2,0:0:0:0:
256,224,112496,1,0,0:0:0:0:
256,224,112571,1,0,0:0:0:0:
256,224,112646,1,2,0:0:0:0:
256,224,112721,1,0,0:0:0:0:
256,224,112796,1,0,0:0:0:0:
256,224,112871,1,2,0:0:0:0:
256,224,112946,1,2,0:0:0:0:
256,224,113021,1,0,0:0:0:0:
256,224,113096,1,2,0:0:0:0:
256,224,113171,1,2,0:0:0:0:
256,224,113246,1,0,0:0:0:0:
256,224,113321,1,2,0:0:0:0:
256,224,113396,1,0,0:0:0:0:
256,224,113471,1,0,0:0:0:0:
256,224,113546,1,2,0:0:0:0:
256,224,113621,1,0,0:0:0:0:
256,224,113696,1,2,0:0:0:0:
256,224,113771,1,0,0:0:0:0:
256,224,113846,1,0,0:0:0:0:
256,224,113921,1,0,0:0:0:0:
256,224,113996,1,2,0:0:0:0:
256,224,114146,5,0,0:0:0:0:
256,224,114221,1,0,0:0:0:0:
256,224,114296,1,0,0:0:0:0:
256,224,114371,1,2,0:0:0:0:
256,224,114446,1,2,0:0:0:0:
256,224,114521,1,0,0:0:0:0:
256,224,114596,1,0,0:0:0:0:
256,224,114671,1,2,0:0:0:0:
256,224,114746,1,2,0:0:0:0:
256,224,114821,1,0,0:0:0:0:
256,224,114896,1,2,0:0:0:0:
256,224,114971,1,2,0:0:0:0:
224,224,115046,1,0,0:0:0:0:
224,224,115121,1,0,0:0:0:0:
256,224,115196,1,2,0:0:0:0:
256,224,115271,1,2,0:0:0:0:
256,224,115346,1,2,0:0:0:0:
256,224,115421,1,0,0:0:0:0:
256,224,115496,1,2,0:0:0:0:
256,224,115571,1,0,0:0:0:0:
256,224,115646,1,0,0:0:0:0:
256,224,115721,1,2,0:0:0:0:
256,224,115796,1,0,0:0:0:0:
256,224,115871,1,2,0:0:0:0:
256,224,115946,1,2,0:0:0:0:
256,224,116021,1,0,0:0:0:0:
256,224,116096,1,2,0:0:0:0:
256,224,116171,1,2,0:0:0:0:
256,224,116246,1,0,0:0:0:0:
256,224,116321,1,2,0:0:0:0:
256,224,116396,1,2,0:0:0:0:
256,224,116471,1,0,0:0:0:0:
256,224,116546,1,2,0:0:0:0:
256,224,116621,1,2,0:0:0:0:
256,224,116696,1,0,0:0:0:0:
256,224,116771,1,2,0:0:0:0:
256,224,116846,1,2,0:0:0:0:
256,224,116921,1,0,0:0:0:0:
256,224,116996,1,2,0:0:0:0:
256,224,117071,1,0,0:0:0:0:
256,224,117146,1,0,0:0:0:0:
256,224,117221,1,2,0:0:0:0:
256,224,117296,1,2,0:0:0:0:
256,224,117371,1,2,0:0:0:0:
256,224,117446,1,0,0:0:0:0:
256,224,117521,1,0,0:0:0:0:
256,224,117596,1,2,0:0:0:0:
256,192,117746,1,0,0:0:0:0:
256,192,117821,1,0,0:0:0:0:
256,192,117896,1,2,0:0:0:0:
256,192,117971,1,2,0:0:0:0:
256,192,118046,1,2,0:0:0:0:
256,192,118121,1,0,0:0:0:0:
256,192,118196,1,2,0:0:0:0:
256,192,118271,1,2,0:0:0:0:
256,192,118346,1,0,0:0:0:0:
256,192,118421,1,0,0:0:0:0:
256,192,118496,1,2,0:0:0:0:
256,192,118571,1,0,0:0:0:0:
256,192,118646,1,2,0:0:0:0:
256,192,118721,1,0,0:0:0:0:
256,192,118796,1,0,0:0:0:0:
256,192,118871,1,2,0:0:0:0:
256,192,118946,1,0,0:0:0:0:
256,192,119021,1,2,0:0:0:0:
256,192,119096,1,2,0:0:0:0:
256,192,119171,1,2,0:0:0:0:
256,192,119246,1,0,0:0:0:0:
256,192,119321,1,0,0:0:0:0:
256,192,119396,1,2,0:0:0:0:
256,192,119471,1,0,0:0:0:0:
256,192,119546,1,2,0:0:0:0:
256,192,119621,1,0,0:0:0:0:
256,192,119696,1,2,0:0:0:0:
256,192,119771,1,2,0:0:0:0:
256,192,119846,1,0,0:0:0:0:
256,192,119921,1,0,0:0:0:0:
256,192,119996,1,2,0:0:0:0:
256,192,120071,1,0,0:0:0:0:
256,192,120146,1,2,0:0:0:0:
256,192,120221,1,0,0:0:0:0:
256,192,120296,1,0,0:0:0:0:
256,192,120371,1,2,0:0:0:0:
256,192,120446,1,0,0:0:0:0:
256,192,120521,1,2,0:0:0:0:
256,192,120596,1,2,0:0:0:0:
256,192,120671,1,0,0:0:0:0:
256,192,120746,1,0,0:0:0:0:
256,192,120821,1,0,0:0:0:0:
256,192,120896,1,2,0:0:0:0:
256,192,120971,1,2,0:0:0:0:
256,192,121046,1,0,0:0:0:0:
256,224,121196,1,2,0:0:0:0:
256,192,121271,1,2,0:0:0:0:
288,192,121346,1,0,0:0:0:0:
256,192,121421,1,0,0:0:0:0:
256,192,121496,1,2,0:0:0:0:
256,192,121571,1,2,0:0:0:0:
256,192,121646,1,0,0:0:0:0:
256,192,121721,1,2,0:0:0:0:
256,224,121796,1,0,0:0:0:0:
256,224,121871,1,0,0:0:0:0:
256,224,121946,1,2,0:0:0:0:
256,224,122021,1,0,0:0:0:0:
256,224,122096,1,2,0:0:0:0:
256,224,122171,1,0,0:0:0:0:
256,224,122246,1,2,0:0:0:0:
256,224,122321,1,2,0:0:0:0:
256,224,122396,1,2,0:0:0:0:
256,224,122471,1,0,0:0:0:0:
256,224,122546,1,2,0:0:0:0:
256,224,122621,1,2,0:0:0:0:
256,224,122696,1,0,0:0:0:0:
256,224,122771,1,0,0:0:0:0:
256,224,122846,1,2,0:0:0:0:
256,224,122921,1,0,0:0:0:0:
256,224,122996,1,2,0:0:0:0:
256,224,123071,1,2,0:0:0:0:
256,224,123146,1,0,0:0:0:0:
256,224,123221,1,2,0:0:0:0:
256,224,123296,1,0,0:0:0:0:
256,224,123371,1,0,0:0:0:0:
256,224,123446,1,2,0:0:0:0:
256,224,123521,1,0,0:0:0:0:
256,224,123596,1,2,0:0:0:0:
256,224,123671,1,2,0:0:0:0:
256,224,123746,1,0,0:0:0:0:
256,224,123821,1,0,0:0:0:0:
256,224,123896,1,2,0:0:0:0:
256,224,123971,1,2,0:0:0:0:
256,224,124046,1,0,0:0:0:0:
256,224,124096,1,0,0:0:0:0:
256,224,124146,1,0,0:0:0:0:
256,224,124196,1,2,0:0:0:0:
256,224,124271,1,2,0:0:0:0:
256,224,124346,1,0,0:0:0:0:
256,224,124396,1,0,0:0:0:0:
256,224,124446,1,0,0:0:0:0:
256,224,124496,1,2,0:0:0:0:
256,224,124571,1,2,0:0:0:0:
256,224,124646,1,0,0:0:0:0:
256,224,124696,1,0,0:0:0:0:
256,224,124746,1,0,0:0:0:0:
256,224,124796,1,0,0:0:0:0:
256,224,125096,1,4,0:0:0:0:
256,192,125546,1,2,0:0:0:0:
256,192,125996,1,0,0:0:0:0:
256,192,126446,1,2,0:0:0:0:
256,192,126896,1,2,0:0:0:0:
256,192,127196,1,2,0:0:0:0:
256,192,127496,1,0,0:0:0:0:
256,192,127796,1,2,0:0:0:0:
256,192,127946,1,2,0:0:0:0:
256,192,128096,1,4,0:0:0:0:
256,192,128246,1,4,0:0:0:0:
256,192,128396,1,6,0:0:0:0:
256,192,128696,1,0,0:0:0:0:
256,192,128846,1,2,0:0:0:0:
256,192,128996,1,0,0:0:0:0:
256,192,129146,1,0,0:0:0:0:
256,192,129296,1,6,0:0:0:0:
256,192,129596,1,0,0:0:0:0:
256,192,129746,1,0,0:0:0:0:
256,192,129821,1,0,0:0:0:0:
256,192,129896,1,2,0:0:0:0:
256,192,130046,1,0,0:0:0:0:
256,192,130196,1,6,0:0:0:0:
256,192,130346,1,0,0:0:0:0:
256,192,130496,1,2,0:0:0:0:
256,192,130571,1,0,0:0:0:0:
256,192,130646,1,2,0:0:0:0:
256,192,130721,1,2,0:0:0:0:
256,192,130796,1,0,0:0:0:0:
256,192,130946,1,0,0:0:0:0:
256,192,131096,1,6,0:0:0:0:
256,192,131246,1,0,0:0:0:0:
256,192,131321,1,0,0:0:0:0:
256,192,131396,1,2,0:0:0:0:
256,192,131471,1,0,0:0:0:0:
256,192,131546,1,2,0:0:0:0:
256,192,131621,1,2,0:0:0:0:
256,192,131696,1,0,0:0:0:0:
256,192,131771,1,2,0:0:0:0:
256,192,131846,1,0,0:0:0:0:
256,192,131921,1,0,0:0:0:0:
256,192,131996,1,2,0:0:0:0:
256,192,132296,1,4,0:0:0:0:
256,192,132446,1,2,0:0:0:0:
256,192,132521,1,0,0:0:0:0:
256,192,132596,1,2,0:0:0:0:
256,192,132671,1,2,0:0:0:0:
256,192,132746,1,0,0:0:0:0:
256,192,132821,1,0,0:0:0:0:
256,192,132896,1,2,0:0:0:0:
256,192,133046,1,0,0:0:0:0:
256,192,133121,1,0,0:0:0:0:
256,192,133196,1,2,0:0:0:0:
256,192,133346,1,0,0:0:0:0:
256,192,133496,1,2,0:0:0:0:
256,192,133571,1,0,0:0:0:0:
256,192,133646,1,0,0:0:0:0:
256,192,133796,1,0,0:0:0:0:
256,192,133946,1,2,0:0:0:0:
256,192,134096,1,0,0:0:0:0:
256,192,134246,1,0,0:0:0:0:
256,192,134396,1,2,0:0:0:0:
256,192,134471,1,2,0:0:0:0:
256,192,134546,1,0,0:0:0:0:
256,192,134621,1,0,0:0:0:0:
256,192,134696,1,2,0:0:0:0:
256,192,134846,1,2,0:0:0:0:
256,192,134996,1,0,0:0:0:0:
256,192,135146,1,0,0:0:0:0:
256,192,135296,1,2,0:0:0:0:
256,192,135371,1,0,0:0:0:0:
256,192,135446,1,2,0:0:0:0:
256,192,135521,1,2,0:0:0:0:
256,192,135596,1,0,0:0:0:0:
256,192,135821,1,0,0:0:0:0:
256,192,135896,1,2,0:0:0:0:
256,192,136046,1,0,0:0:0:0:
256,192,136121,1,0,0:0:0:0:
256,192,136196,1,2,0:0:0:0:
256,192,136271,1,0,0:0:0:0:
256,192,136346,1,2,0:0:0:0:
256,192,136421,1,2,0:0:0:0:
256,192,136496,1,0,0:0:0:0:
256,192,136646,1,2,0:0:0:0:
256,192,136721,1,2,0:0:0:0:
256,192,136796,1,0,0:0:0:0:
256,192,136946,1,0,0:0:0:0:
256,192,137096,1,2,0:0:0:0:
256,192,137171,1,0,0:0:0:0:
256,192,137246,1,2,0:0:0:0:
256,192,137396,1,0,0:0:0:0:
256,192,137546,1,2,0:0:0:0:
288,192,137696,1,0,0:0:0:0:
256,192,137846,1,0,0:0:0:0:
256,192,137996,1,2,0:0:0:0:
256,192,138071,1,2,0:0:0:0:
256,192,138146,1,2,0:0:0:0:
256,192,138221,1,0,0:0:0:0:
256,192,138296,1,2,0:0:0:0:
256,192,138446,1,2,0:0:0:0:
256,192,138596,1,0,0:0:0:0:
256,192,138746,1,0,0:0:0:0:
256,192,138896,1,2,0:0:0:0:
256,192,139046,1,2,0:0:0:0:
256,192,139196,1,4,0:0:0:0:
256,192,139421,1,0,0:0:0:0:
256,192,139496,1,2,0:0:0:0:
256,192,139571,1,2,0:0:0:0:
256,192,139646,1,0,0:0:0:0:
256,192,139721,1,0,0:0:0:0:
256,192,139796,1,2,0:0:0:0:
256,192,139946,1,2,0:0:0:0:
256,192,140096,1,0,0:0:0:0:
256,192,140246,1,2,0:0:0:0:
256,192,140321,1,2,0:0:0:0:
256,192,140396,1,0,0:0:0:0:
256,192,140546,1,0,0:0:0:0:
256,192,140696,1,2,0:0:0:0:
256,192,140771,1,0,0:0:0:0:
256,192,140846,1,0,0:0:0:0:
256,192,140996,1,0,0:0:0:0:
256,192,141146,1,2,0:0:0:0:
256,192,141296,1,0,0:0:0:0:
256,192,141446,1,0,0:0:0:0:
256,192,141596,1,2,0:0:0:0:
256,192,141671,1,2,0:0:0:0:
256,192,141746,1,0,0:0:0:0:
256,192,141821,1,0,0:0:0:0:
256,192,141896,1,2,0:0:0:0:
256,192,142046,1,2,0:0:0:0:
256,192,142196,1,0,0:0:0:0:
256,192,142346,1,0,0:0:0:0:
256,192,142496,1,2,0:0:0:0:
256,160,142571,1,0,0:0:0:0:
256,160,142646,1,2,0:0:0:0:
256,160,142721,1,2,0:0:0:0:
256,160,142796,1,0,0:0:0:0:
256,192,143021,1,0,0:0:0:0:
256,160,143096,1,2,0:0:0:0:
256,192,143246,1,2,0:0:0:0:
256,192,143321,1,0,0:0:0:0:
256,192,143396,1,2,0:0:0:0:
256,192,143471,1,2,0:0:0:0:
256,160,143546,1,0,0:0:0:0:
256,160,143621,1,0,0:0:0:0:
256,160,143696,1,2,0:0:0:0:
256,192,143846,1,0,0:0:0:0:
256,192,143921,1,0,0:0:0:0:
256,192,143996,1,2,0:0:0:0:
256,192,144146,1,0,0:0:0:0:
256,192,144296,1,2,0:0:0:0:
256,192,144371,1,0,0:0:0:0:
256,160,144446,1,2,0:0:0:0:
256,192,144596,1,0,0:0:0:0:
256,192,144746,1,2,0:0:0:0:
256,192,144896,1,0,0:0:0:0:
256,192,145046,1,0,0:0:0:0:
256,192,145196,1,2,0:0:0:0:
256,192,145271,1,0,0:0:0:0:
256,192,145346,1,2,0:0:0:0:
256,192,145421,1,0,0:0:0:0:
288,192,145496,1,2,0:0:0:0:
256,192,145646,1,0,0:0:0:0:
256,192,145721,1,0,0:0:0:0:
256,192,145796,1,2,0:0:0:0:
256,192,145946,1,0,0:0:0:0:
256,192,146096,1,2,0:0:0:0:
256,192,146171,1,0,0:0:0:0:
256,192,146246,1,2,0:0:0:0:
256,192,146321,1,2,0:0:0:0:
256,192,146396,1,0,0:0:0:0:
256,192,146546,1,0,0:0:0:0:
256,192,146846,1,0,0:0:0:0:
256,192,146996,1,2,0:0:0:0:
256,192,147296,1,0,0:0:0:0:
256,192,147596,1,0,0:0:0:0:
256,192,147746,1,0,0:0:0:0:
256,192,147896,1,2,0:0:0:0:
256,192,148196,1,0,0:0:0:0:
256,192,148346,1,0,0:0:0:0:
256,192,148496,1,2,0:0:0:0:
256,192,148646,1,0,0:0:0:0:
256,192,148721,1,0,0:0:0:0:
256,192,148796,1,2,0:0:0:0:
256,192,148871,1,2,0:0:0:0:
256,192,148946,1,0,0:0:0:0:
256,192,149096,1,2,0:0:0:0:
256,192,149246,1,0,0:0:0:0:
256,192,149321,1,0,0:0:0:0:
256,192,149396,1,2,0:0:0:0:
256,192,149546,1,0,0:0:0:0:
256,192,149696,1,2,0:0:0:0:
256,192,149771,1,0,0:0:0:0:
256,192,149846,1,0,0:0:0:0:
256,192,149996,1,0,0:0:0:0:
256,192,150146,1,0,0:0:0:0:
256,192,150446,1,0,0:0:0:0:
256,192,150596,1,2,0:0:0:0:
256,192,150896,1,0,0:0:0:0:
256,192,151196,1,0,0:0:0:0:
288,192,151346,1,0,0:0:0:0:
256,192,151496,1,2,0:0:0:0:
256,192,151796,1,0,0:0:0:0:
256,192,151946,1,0,0:0:0:0:
256,192,152096,1,2,0:0:0:0:
256,192,152246,1,0,0:0:0:0:
256,192,152321,1,0,0:0:0:0:
256,192,152396,1,2,0:0:0:0:
256,192,152471,1,2,0:0:0:0:
256,192,152546,1,0,0:0:0:0:
256,192,152696,1,2,0:0:0:0:
256,192,152846,1,0,0:0:0:0:
256,192,152921,1,0,0:0:0:0:
256,192,152996,1,2,0:0:0:0:
256,192,153146,1,0,0:0:0:0:
256,160,153296,1,2,0:0:0:0:
256,192,153371,1,2,0:0:0:0:
256,192,153446,1,0,0:0:0:0:
256,192,153521,1,0,0:0:0:0:
256,192,153596,1,2,0:0:0:0:
256,192,153821,1,0,0:0:0:0:
256,192,153896,1,2,0:0:0:0:
256,192,154046,1,2,0:0:0:0:
256,192,154196,1,0,0:0:0:0:
256,192,154346,1,0,0:0:0:0:
256,192,154421,1,0,0:0:0:0:
256,192,154496,1,2,0:0:0:0:
256,192,154646,1,0,0:0:0:0:
256,192,154796,1,2,0:0:0:0:
256,192,155096,1,0,0:0:0:0:
256,192,155246,1,0,0:0:0:0:
256,192,155396,1,2,0:0:0:0:
256,192,155621,1,0,0:0:0:0:
256,192,155696,1,2,0:0:0:0:
256,192,155846,1,2,0:0:0:0:
256,192,155996,1,0,0:0:0:0:
256,192,156146,1,0,0:0:0:0:
256,192,156221,1,0,0:0:0:0:
256,192,156296,1,2,0:0:0:0:
256,192,156446,1,0,0:0:0:0:
256,192,156596,1,2,0:0:0:0:
256,192,156746,1,2,0:0:0:0:
256,192,156896,1,0,0:0:0:0:
256,192,157046,1,2,0:0:0:0:
256,192,157121,1,2,0:0:0:0:
256,192,157196,1,0,0:0:0:0:
256,192,157421,1,0,0:0:0:0:
256,192,157496,1,0,0:0:0:0:
256,192,157646,1,0,0:0:0:0:
256,192,157946,1,2,0:0:0:0:
256,192,158096,1,0,0:0:0:0:
256,192,158246,1,2,0:0:0:0:
256,192,158396,1,0,0:0:0:0:
256,192,158696,1,2,0:0:0:0:
256,192,158996,1,4,0:0:0:0:
256,192,159146,1,4,0:0:0:0:
256,192,159296,1,4,0:0:0:0:
256,192,159596,1,0,0:0:0:0:
256,192,159671,1,2,0:0:0:0:
256,192,159746,1,2,0:0:0:0:
256,192,159821,1,2,0:0:0:0:
256,192,159896,1,0,0:0:0:0:
256,192,160196,1,6,0:0:0:0:
256,192,160796,1,4,0:0:0:0:
256,192,161696,1,0,0:0:0:0:
256,192,161996,1,2,0:0:0:0:
256,192,162296,1,2,0:0:0:0:
256,192,162596,1,0,0:0:0:0:
256,192,162896,1,0,0:0:0:0:
256,192,163196,1,2,0:0:0:0:
256,192,163496,1,0,0:0:0:0:
256,192,164096,1,2,0:0:0:0:
256,192,164396,1,2,0:0:0:0:
256,192,165296,1,0,0:0:0:0:
256,192,165596,1,2,0:0:0:0:
256,192,165896,1,2,0:0:0:0:
256,192,166196,1,6,0:0:0:0:
256,192,167996,1,4,0:0:0:0:
256,192,168452,1,0,0:0:0:0:
256,192,168909,1,2,0:0:0:0:
256,192,169214,1,2,0:0:0:0:
256,192,169518,1,0,0:0:0:0:
256,224,169823,1,2,0:0:0:0:
256,224,170127,1,2,0:0:0:0:
256,224,170432,1,0,0:0:0:0:
256,224,170737,1,2,0:0:0:0:
256,224,171346,1,2,0:0:0:0:
256,224,171650,1,2,0:0:0:0:
256,224,172564,1,0,0:0:0:0:
256,224,172869,1,2,0:0:0:0:
256,224,173173,1,2,0:0:0:0:
256,224,173478,1,0,0:0:0:0:
256,192,175304,1,4,0:0:0:0:
256,192,175767,1,0,0:0:0:0:
256,192,176231,1,2,0:0:0:0:
256,192,176541,1,2,0:0:0:0:
256,192,176850,1,0,0:0:0:0:
256,192,177159,1,2,0:0:0:0:
256,192,177468,1,2,0:0:0:0:
256,192,177778,1,0,0:0:0:0:
288,192,178087,1,2,0:0:0:0:
256,192,178706,1,2,0:0:0:0:
256,192,179015,1,2,0:0:0:0:
256,192,179957,1,0,0:0:0:0:
256,192,180276,1,2,0:0:0:0:
256,192,180595,1,2,0:0:0:0:
256,192,180919,1,2,0:0:0:0:
256,192,181930,1,6,0:0:0:0:
256,192,182305,1,0,0:0:0:0:
256,192,182410,1,0,0:0:0:0:
256,192,182515,1,0,0:0:0:0:
256,192,182620,1,2,0:0:0:0:
256,192,182778,1,2,0:0:0:0:
256,192,182936,1,4,0:0:0:0:
256,192,183386,1,0,0:0:0:0:
256,192,183736,1,0,0:0:0:0:
256,192,183786,1,0,0:0:0:0:
256,192,183836,1,2,0:0:0:0:
256,192,184136,1,2,0:0:0:0:
256,192,184436,1,0,0:0:0:0:
256,192,184586,1,2,0:0:0:0:
261,190,184736,1,0,0:0:0:0:
256,192,185036,1,2,0:0:0:0:
256,192,185336,1,0,0:0:0:0:
256,192,185486,1,0,0:0:0:0:
256,192,185636,1,2,0:0:0:0:
256,192,186236,1,2,0:0:0:0:
256,192,186386,1,0,0:0:0:0:
256,192,186536,1,2,0:0:0:0:
256,192,187436,1,0,0:0:0:0:
256,192,187736,1,2,0:0:0:0:
256,192,188036,1,2,0:0:0:0:
256,192,188336,1,0,0:0:0:0:
256,192,188636,1,2,0:0:0:0:
256,192,188786,1,2,0:0:0:0:
256,192,188861,1,2,0:0:0:0:
256,192,188936,1,0,0:0:0:0:
256,192,189086,1,2,0:0:0:0:
256,192,189236,1,0,0:0:0:0:
256,192,189311,1,0,0:0:0:0:
256,192,189386,1,2,0:0:0:0:
256,192,189536,1,0,0:0:0:0:
256,192,189686,1,0,0:0:0:0:
256,192,189836,1,2,0:0:0:0:
256,192,189986,1,2,0:0:0:0:
256,192,190136,1,4,0:0:0:0:
256,192,190586,1,0,0:0:0:0:
256,192,190961,1,0,0:0:0:0:
256,192,191036,1,2,0:0:0:0:
256,192,191336,1,2,0:0:0:0:
256,192,191486,1,0,0:0:0:0:
242,199,191636,1,2,0:0:0:0:
256,192,191786,1,2,0:0:0:0:
256,192,191936,1,0,0:0:0:0:
256,192,192236,1,0,0:0:0:0:
256,192,192536,1,2,0:0:0:0:
256,192,192686,1,2,0:0:0:0:
256,192,192836,1,0,0:0:0:0:
256,192,193136,1,0,0:0:0:0:
256,192,193436,1,2,0:0:0:0:
256,192,193586,1,0,0:0:0:0:
256,192,193736,1,2,0:0:0:0:
256,192,194036,1,0,0:0:0:0:
256,192,194186,1,2,0:0:0:0:
256,192,194486,1,2,0:0:0:0:
256,160,194636,1,0,0:0:0:0:
256,192,194936,1,2,0:0:0:0:
256,192,195236,1,2,0:0:0:0:
256,192,195536,1,0,0:0:0:0:
256,192,195611,1,2,0:0:0:0:
256,192,195686,1,2,0:0:0:0:
256,192,202736,5,2,0:0:0:0:
256,192,203036,1,2,0:0:0:0:
256,192,203336,1,2,0:0:0:0:
256,192,203636,1,2,0:0:0:0:
256,192,203936,1,2,0:0:0:0:
256,192,204236,1,2,0:0:0:0:
256,192,204536,1,2,0:0:0:0:
256,192,204836,1,2,0:0:0:0:
256,192,205136,1,2,0:0:0:0:
256,192,205436,1,2,0:0:0:0:
256,192,205736,1,2,0:0:0:0:
256,192,206036,1,2,0:0:0:0:
256,192,206186,1,4,0:0:0:0:
256,192,206336,1,2,0:0:0:0:
256,192,206636,1,2,0:0:0:0:
256,192,206936,1,2,0:0:0:0:
256,192,207236,1,2,0:0:0:0:
256,192,207536,1,2,0:0:0:0:
256,192,207836,1,2,0:0:0:0:
256,192,207986,1,4,0:0:0:0:
256,192,208136,1,2,0:0:0:0:
256,192,208436,1,2,0:0:0:0:
256,192,208736,1,2,0:0:0:0:
256,192,208886,1,0,0:0:0:0:
256,192,209036,1,2,0:0:0:0:
256,192,209186,1,0,0:0:0:0:
256,192,209336,1,2,0:0:0:0:
256,192,209486,1,0,0:0:0:0:
256,192,209636,1,2,0:0:0:0:
256,192,209786,1,2,0:0:0:0:
256,192,209936,1,4,0:0:0:0:
256,192,210236,1,2,0:0:0:0:
256,192,210536,1,2,0:0:0:0:
256,192,210836,1,2,0:0:0:0:
256,192,211136,1,2,0:0:0:0:
256,192,211436,1,2,0:0:0:0:
256,192,211736,1,4,0:0:0:0:
256,192,212036,1,2,0:0:0:0:
256,192,212336,1,2,0:0:0:0:
256,192,212486,1,0,0:0:0:0:
256,192,212636,1,2,0:0:0:0:
256,192,212936,1,2,0:0:0:0:
256,192,213086,1,0,0:0:0:0:
256,192,213161,1,0,0:0:0:0:
256,192,213236,1,2,0:0:0:0:
256,192,213386,1,2,0:0:0:0:
256,192,213536,1,4,0:0:0:0:
256,192,213761,1,0,0:0:0:0:
256,192,213836,1,2,0:0:0:0:
256,192,213986,1,0,0:0:0:0:
256,192,214136,1,2,0:0:0:0:
256,192,214211,1,0,0:0:0:0:
256,192,214286,1,2,0:0:0:0:
256,192,214436,1,2,0:0:0:0:
256,192,214586,1,0,0:0:0:0:
256,192,214661,1,0,0:0:0:0:
256,160,214736,1,2,0:0:0:0:
256,192,214886,1,0,0:0:0:0:
256,192,215036,1,2,0:0:0:0:
256,160,215111,1,0,0:0:0:0:
256,160,215186,1,2,0:0:0:0:
256,160,215336,1,4,0:0:0:0:
256,160,215486,1,0,0:0:0:0:
256,160,215561,1,0,0:0:0:0:
256,160,215636,1,2,0:0:0:0:
256,160,215786,1,2,0:0:0:0:
256,160,215861,1,2,0:0:0:0:
256,160,215936,1,0,0:0:0:0:
256,160,216011,1,0,0:0:0:0:
256,160,216086,1,2,0:0:0:0:
256,160,216236,1,0,0:0:0:0:
256,160,216311,1,2,0:0:0:0:
256,160,216386,1,0,0:0:0:0:
256,160,216461,1,0,0:0:0:0:
256,160,216536,1,2,0:0:0:0:
256,192,216686,1,2,0:0:0:0:
256,160,216761,1,2,0:0:0:0:
256,192,216836,1,0,0:0:0:0:
256,160,216911,1,0,0:0:0:0:
256,192,216986,1,2,0:0:0:0:
256,192,217136,1,0,0:0:0:0:
288,192,217211,1,0,0:0:0:0:
288,192,217286,1,0,0:0:0:0:
288,192,217361,1,0,0:0:0:0:
256,192,217436,1,2,0:0:0:0:
288,192,217511,1,0,0:0:0:0:
288,192,217586,1,0,0:0:0:0:
288,192,217661,1,0,0:0:0:0:
256,192,217736,1,2,0:0:0:0:
288,160,217811,1,0,0:0:0:0:
288,192,217886,1,2,0:0:0:0:
288,160,217961,1,2,0:0:0:0:
288,192,218036,1,0,0:0:0:0:
288,160,218111,1,2,0:0:0:0:
288,160,218186,1,0,0:0:0:0:
288,160,218261,1,0,0:0:0:0:
288,192,218336,1,2,0:0:0:0:
288,192,218411,1,2,0:0:0:0:
288,192,218486,1,2,0:0:0:0:
288,192,218561,1,0,0:0:0:0:
288,192,218636,1,2,0:0:0:0:
288,192,218711,1,2,0:0:0:0:
288,192,218786,1,0,0:0:0:0:
288,192,218861,1,0,0:0:0:0:
288,192,218936,1,6,0:0:0:0:
256,192,221636,1,0,0:0:0:0:
256,192,221786,1,0,0:0:0:0:
256,192,221936,1,2,0:0:0:0:
256,192,222086,1,0,0:0:0:0:
256,192,222236,1,2,0:0:0:0:
256,192,222386,1,2,0:0:0:0:
256,192,222536,1,4,0:0:0:0:
256,192,222686,1,0,0:0:0:0:
256,192,222761,1,0,0:0:0:0:
256,192,222836,1,2,0:0:0:0:
256,192,222911,1,0,0:0:0:0:
256,192,222986,1,2,0:0:0:0:
256,192,223061,1,2,0:0:0:0:
256,192,223136,1,0,0:0:0:0:
256,192,223211,1,0,0:0:0:0:
256,192,223286,1,2,0:0:0:0:
256,192,223336,1,2,0:0:0:0:
256,192,223386,1,2,0:0:0:0:
256,192,223436,1,0,0:0:0:0:
256,192,223586,1,2,0:0:0:0:
256,192,223636,1,2,0:0:0:0:
256,192,223686,1,2,0:0:0:0:
256,192,223736,1,0,0:0:0:0:
256,192,223811,1,2,0:0:0:0:
256,192,223886,1,0,0:0:0:0:
256,192,223961,1,0,0:0:0:0:
256,192,224036,1,2,0:0:0:0:
256,192,224111,1,0,0:0:0:0:
256,192,224186,1,2,0:0:0:0:
256,192,224261,1,2,0:0:0:0:
256,192,224336,1,0,0:0:0:0:
256,192,224486,1,2,0:0:0:0:
256,192,224536,1,2,0:0:0:0:
256,192,224586,1,2,0:0:0:0:
256,192,224636,1,0,0:0:0:0:
256,192,224711,1,2,0:0:0:0:
256,192,224786,1,0,0:0:0:0:
256,192,224861,1,0,0:0:0:0:
256,192,224936,1,2,0:0:0:0:
256,192,225011,1,0,0:0:0:0:
256,192,225086,1,2,0:0:0:0:
256,192,225136,1,2,0:0:0:0:
256,160,225186,1,2,0:0:0:0:
256,160,225236,1,0,0:0:0:0:
256,160,225386,1,0,0:0:0:0:
256,160,225436,1,0,0:0:0:0:
256,160,225486,1,0,0:0:0:0:
256,160,225536,1,2,0:0:0:0:
256,160,225611,1,0,0:0:0:0:
256,160,225686,1,2,0:0:0:0:
256,160,225761,1,2,0:0:0:0:
256,160,225836,1,0,0:0:0:0:
256,160,225911,1,2,0:0:0:0:
256,192,225986,1,0,0:0:0:0:
256,160,226036,1,0,0:0:0:0:
256,160,226086,1,0,0:0:0:0:
256,160,226136,1,0,0:0:0:0:
256,192,226286,1,0,0:0:0:0:
256,192,226361,1,0,0:0:0:0:
256,192,226436,1,2,0:0:0:0:
256,192,226511,1,2,0:0:0:0:
256,192,226586,1,0,0:0:0:0:
256,192,226661,1,2,0:0:0:0:
256,192,226736,1,0,0:0:0:0:
256,192,226811,1,0,0:0:0:0:
256,160,226886,1,2,0:0:0:0:
288,160,226936,1,2,0:0:0:0:
256,160,226986,1,2,0:0:0:0:
256,160,227036,1,0,0:0:0:0:
256,192,227186,1,2,0:0:0:0:
256,192,227261,1,0,0:0:0:0:
256,192,227336,1,2,0:0:0:0:
256,192,227411,1,2,0:0:0:0:
256,192,227486,1,0,0:0:0:0:
256,192,227561,1,0,0:0:0:0:
256,192,227636,1,2,0:0:0:0:
256,192,227711,1,0,0:0:0:0:
256,192,227786,1,2,0:0:0:0:
256,192,227836,1,2,0:0:0:0:
256,192,227886,1,2,0:0:0:0:
256,192,227936,1,0,0:0:0:0:
256,192,228086,1,2,0:0:0:0:
256,192,228136,1,2,0:0:0:0:
256,192,228186,1,2,0:0:0:0:
256,192,228236,1,0,0:0:0:0:
256,192,228311,1,2,0:0:0:0:
288,192,228386,1,0,0:0:0:0:
256,192,228461,1,0,0:0:0:0:
224,192,228536,1,2,0:0:0:0:
256,192,228611,1,0,0:0:0:0:
256,192,228686,1,2,0:0:0:0:
256,192,228736,1,2,0:0:0:0:
256,192,228786,1,2,0:0:0:0:
256,192,228836,1,0,0:0:0:0:
256,192,228986,1,0,0:0:0:0:
256,192,229036,1,0,0:0:0:0:
256,192,229086,1,0,0:0:0:0:
256,160,229136,1,2,0:0:0:0:
224,192,229211,1,2,0:0:0:0:
224,192,229286,1,0,0:0:0:0:
256,224,229361,1,0,0:0:0:0:
256,224,229436,1,2,0:0:0:0:
256,224,229586,1,2,0:0:0:0:
256,224,229736,1,4,0:0:0:0:
256,192,229886,1,0,0:0:0:0:
256,192,229961,1,0,0:0:0:0:
256,192,230036,1,2,0:0:0:0:
256,192,230111,1,0,0:0:0:0:
263,190,230186,1,2,0:0:0:0:
264,191,230261,1,2,0:0:0:0:
266,187,230336,1,0,0:0:0:0:
268,184,230411,1,0,0:0:0:0:
256,192,230486,1,2,0:0:0:0:
256,192,230536,1,2,0:0:0:0:
256,192,230586,1,2,0:0:0:0:
256,192,230636,1,0,0:0:0:0:
256,192,230786,1,2,0:0:0:0:
288,192,230836,1,2,0:0:0:0:
288,192,230886,1,2,0:0:0:0:
256,192,230936,1,0,0:0:0:0:
265,177,231011,1,2,0:0:0:0:
265,177,231086,1,0,0:0:0:0:
265,176,231161,1,0,0:0:0:0:
269,171,231236,1,2,0:0:0:0:
272,169,231311,1,0,0:0:0:0:
272,169,231386,1,2,0:0:0:0:
272,168,231461,1,2,0:0:0:0:
272,168,231536,1,0,0:0:0:0:
256,192,231686,1,2,0:0:0:0:
256,192,231736,1,2,0:0:0:0:
256,192,231786,1,2,0:0:0:0:
256,192,231836,1,0,0:0:0:0:
246,165,231911,1,2,0:0:0:0:
249,188,231986,1,0,0:0:0:0:
249,188,232061,1,0,0:0:0:0:
251,192,232136,1,2,0:0:0:0:
256,192,232211,1,0,0:0:0:0:
256,160,232286,1,0,0:0:0:0:
256,192,232361,1,2,0:0:0:0:
256,160,232436,1,0,0:0:0:0:
256,192,232586,1,0,0:0:0:0:
256,160,232636,1,0,0:0:0:0:
256,160,232686,1,0,0:0:0:0:
256,160,232736,1,2,0:0:0:0:
263,223,232811,1,2,0:0:0:0:
263,223,232886,1,0,0:0:0:0:
263,223,232961,1,0,0:0:0:0:
263,223,233036,1,2,0:0:0:0:
263,223,233111,1,2,0:0:0:0:
256,160,233186,1,0,0:0:0:0:
256,160,233236,1,0,0:0:0:0:
256,160,233286,1,0,0:0:0:0:
256,160,233336,1,0,0:0:0:0:
256,192,233486,1,0,0:0:0:0:
256,192,233561,1,0,0:0:0:0:
257,191,233636,1,2,0:0:0:0:
260,195,233711,1,0,0:0:0:0:
257,220,233786,1,0,0:0:0:0:
257,220,233861,1,2,0:0:0:0:
257,224,233936,1,0,0:0:0:0:
258,225,234011,1,0,0:0:0:0:
259,185,234086,1,2,0:0:0:0:
261,184,234136,1,2,0:0:0:0:
261,185,234186,1,2,0:0:0:0:
259,185,234236,1,0,0:0:0:0:
258,225,234386,1,2,0:0:0:0:
258,225,234461,1,0,0:0:0:0:
258,225,234536,1,2,0:0:0:0:
258,225,234611,1,2,0:0:0:0:
258,225,234686,1,0,0:0:0:0:
258,225,234761,1,0,0:0:0:0:
258,225,234836,1,2,0:0:0:0:
257,224,234911,1,0,0:0:0:0:
258,225,234986,1,2,0:0:0:0:
258,225,235061,1,2,0:0:0:0:
258,225,235136,1,0,0:0:0:0:
256,192,235286,1,2,0:0:0:0:
256,192,235336,1,2,0:0:0:0:
256,192,235386,1,2,0:0:0:0:
256,192,235436,1,0,0:0:0:0:
260,186,235511,1,0,0:0:0:0:
259,182,235586,1,2,0:0:0:0:
259,182,235661,1,2,0:0:0:0:
256,192,235736,1,0,0:0:0:0:
256,192,235786,1,0,0:0:0:0:
256,192,235836,1,0,0:0:0:0:
256,192,235886,1,2,0:0:0:0:
259,182,235961,1,2,0:0:0:0:
259,182,236036,1,0,0:0:0:0:
256,192,236186,1,2,0:0:0:0:
256,192,236236,1,2,0:0:0:0:
256,192,236286,1,2,0:0:0:0:
256,192,236336,1,0,0:0:0:0:
264,188,236486,1,0,0:0:0:0:
264,188,236636,1,2,0:0:0:0:
264,201,236936,1,4,0:0:0:0:
256,192,237086,1,0,0:0:0:0:
256,192,237161,1,0,0:0:0:0:
256,192,237236,1,2,0:0:0:0:
256,192,237311,1,0,0:0:0:0:
256,192,237386,1,2,0:0:0:0:
256,192,237461,1,2,0:0:0:0:
256,192,237536,1,0,0:0:0:0:
256,192,237611,1,0,0:0:0:0:
256,192,237686,1,2,0:0:0:0:
256,192,237736,1,2,0:0:0:0:
256,192,237786,1,2,0:0:0:0:
256,192,237836,1,0,0:0:0:0:
256,192,237986,1,2,0:0:0:0:
256,192,238036,1,2,0:0:0:0:
256,192,238086,1,2,0:0:0:0:
256,192,238136,1,0,0:0:0:0:
256,192,238211,1,2,0:0:0:0:
256,192,238286,1,0,0:0:0:0:
256,192,238361,1,0,0:0:0:0:
256,192,238436,1,2,0:0:0:0:
256,192,238511,1,0,0:0:0:0:
256,192,238586,1,2,0:0:0:0:
256,192,238661,1,2,0:0:0:0:
256,192,238736,1,0,0:0:0:0:
256,192,238886,1,2,0:0:0:0:
256,192,238936,1,2,0:0:0:0:
256,192,238986,1,2,0:0:0:0:
256,192,239036,1,0,0:0:0:0:
256,192,239111,1,2,0:0:0:0:
256,192,239186,1,0,0:0:0:0:
256,192,239261,1,0,0:0:0:0:
256,192,239336,1,2,0:0:0:0:
256,192,239411,1,0,0:0:0:0:
256,192,239486,1,2,0:0:0:0:
256,192,239536,1,2,0:0:0:0:
256,160,239586,1,2,0:0:0:0:
256,160,239636,1,0,0:0:0:0:
256,160,239786,1,0,0:0:0:0:
256,160,239836,1,0,0:0:0:0:
256,160,239886,1,0,0:0:0:0:
256,160,239936,1,2,0:0:0:0:
256,160,240011,1,0,0:0:0:0:
256,160,240086,1,2,0:0:0:0:
256,160,240161,1,2,0:0:0:0:
256,160,240236,1,0,0:0:0:0:
256,160,240311,1,2,0:0:0:0:
256,192,240386,1,0,0:0:0:0:
256,160,240436,1,0,0:0:0:0:
256,160,240486,1,0,0:0:0:0:
256,160,240536,1,0,0:0:0:0:
256,192,240686,1,0,0:0:0:0:
256,192,240761,1,0,0:0:0:0:
256,192,240836,1,2,0:0:0:0:
256,192,240911,1,2,0:0:0:0:
256,192,240986,1,0,0:0:0:0:
256,192,241061,1,2,0:0:0:0:
256,192,241136,1,0,0:0:0:0:
256,192,241211,1,0,0:0:0:0:
256,160,241286,1,2,0:0:0:0:
288,160,241336,1,2,0:0:0:0:
256,160,241386,1,2,0:0:0:0:
256,160,241436,1,0,0:0:0:0:
256,192,241586,1,2,0:0:0:0:
256,192,241661,1,0,0:0:0:0:
256,192,241736,1,2,0:0:0:0:
256,192,241811,1,2,0:0:0:0:
256,192,241886,1,0,0:0:0:0:
256,192,241961,1,0,0:0:0:0:
256,192,242036,1,2,0:0:0:0:
256,192,242111,1,0,0:0:0:0:
256,192,242186,1,2,0:0:0:0:
256,192,242236,1,2,0:0:0:0:
256,192,242286,1,2,0:0:0:0:
256,192,242336,1,0,0:0:0:0:
256,192,242486,1,2,0:0:0:0:
256,192,242536,1,2,0:0:0:0:
256,192,242586,1,2,0:0:0:0:
256,192,242636,1,0,0:0:0:0:
256,192,242711,1,2,0:0:0:0:
288,192,242786,1,0,0:0:0:0:
256,192,242861,1,0,0:0:0:0:
224,192,242936,1,2,0:0:0:0:
256,192,243011,1,0,0:0:0:0:
256,192,243086,1,2,0:0:0:0:
256,192,243136,1,2,0:0:0:0:
256,192,243186,1,2,0:0:0:0:
256,192,243236,1,0,0:0:0:0:
256,192,243386,1,0,0:0:0:0:
256,192,243436,1,0,0:0:0:0:
256,192,243486,1,0,0:0:0:0:
256,160,243536,1,2,0:0:0:0:
224,192,243611,1,2,0:0:0:0:
224,192,243686,1,0,0:0:0:0:
256,224,243761,1,0,0:0:0:0:
256,224,243836,1,2,0:0:0:0:
256,224,243986,1,2,0:0:0:0:
256,224,244136,1,4,0:0:0:0:
256,192,244286,1,0,0:0:0:0:
256,192,244361,1,0,0:0:0:0:
256,192,244436,1,2,0:0:0:0:
256,192,244511,1,0,0:0:0:0:
263,190,244586,1,2,0:0:0:0:
264,191,244661,1,2,0:0:0:0:
266,187,244736,1,0,0:0:0:0:
268,184,244811,1,0,0:0:0:0:
256,192,244886,1,2,0:0:0:0:
256,192,244936,1,2,0:0:0:0:
256,192,244986,1,2,0:0:0:0:
256,192,245036,1,0,0:0:0:0:
256,192,245186,1,2,0:0:0:0:
288,192,245236,1,2,0:0:0:0:
288,192,245286,1,2,0:0:0:0:
256,192,245336,1,0,0:0:0:0:
265,177,245411,1,2,0:0:0:0:
265,177,245486,1,0,0:0:0:0:
265,176,245561,1,0,0:0:0:0:
269,171,245636,1,2,0:0:0:0:
272,169,245711,1,0,0:0:0:0:
272,169,245786,1,2,0:0:0:0:
272,168,245861,1,2,0:0:0:0:
272,168,245936,1,0,0:0:0:0:
256,192,246086,1,2,0:0:0:0:
256,192,246136,1,2,0:0:0:0:
256,192,246186,1,2,0:0:0:0:
256,192,246236,1,0,0:0:0:0:
246,165,246311,1,2,0:0:0:0:
249,188,246386,1,0,0:0:0:0:
249,188,246461,1,0,0:0:0:0:
251,192,246536,1,2,0:0:0:0:
256,192,246611,1,0,0:0:0:0:
256,160,246686,1,2,0:0:0:0:
256,192,246761,1,2,0:0:0:0:
256,160,246836,1,0,0:0:0:0:
256,192,246986,1,0,0:0:0:0:
256,160,247036,1,0,0:0:0:0:
256,160,247086,1,0,0:0:0:0:
256,160,247136,1,2,0:0:0:0:
263,223,247211,1,2,0:0:0:0:
263,223,247286,1,0,0:0:0:0:
263,223,247361,1,0,0:0:0:0:
263,223,247436,1,2,0:0:0:0:
263,223,247511,1,2,0:0:0:0:
256,160,247586,1,0,0:0:0:0:
256,160,247636,1,2,0:0:0:0:
256,160,247686,1,2,0:0:0:0:
256,160,247736,1,0,0:0:0:0:
256,192,247886,1,0,0:0:0:0:
256,192,247961,1,0,0:0:0:0:
257,191,248036,1,2,0:0:0:0:
260,195,248111,1,0,0:0:0:0:
257,220,248186,1,0,0:0:0:0:
257,220,248261,1,2,0:0:0:0:
257,224,248336,1,0,0:0:0:0:
258,225,248411,1,0,0:0:0:0:
259,185,248486,1,2,0:0:0:0:
261,184,248536,1,2,0:0:0:0:
261,185,248586,1,2,0:0:0:0:
259,185,248636,1,0,0:0:0:0:
265,240,248711,1,2,0:0:0:0:
258,225,248786,1,2,0:0:0:0:
231,202,248861,1,0,0:0:0:0:
258,225,248936,1,0,0:0:0:0:
258,225,249011,1,2,0:0:0:0:
258,225,249086,1,2,0:0:0:0:
250,204,249161,1,0,0:0:0:0:
258,225,249236,1,0,0:0:0:0:
258,225,249311,1,2,0:0:0:0:
250,198,249386,1,2,0:0:0:0:
250,204,249461,1,2,0:0:0:0:
258,225,249536,1,0,0:0:0:0:
256,192,249686,1,2,0:0:0:0:
256,192,249736,1,2,0:0:0:0:
256,192,249786,1,2,0:0:0:0:
256,192,249836,1,0,0:0:0:0:
260,186,249911,1,0,0:0:0:0:
259,182,249986,1,2,0:0:0:0:
259,182,250061,1,2,0:0:0:0:
256,192,250136,1,0,0:0:0:0:
256,192,250186,1,0,0:0:0:0:
256,192,250236,1,0,0:0:0:0:
256,192,250286,1,2,0:0:0:0:
259,182,250361,1,2,0:0:0:0:
259,182,250436,1,0,0:0:0:0:
265,202,250511,1,0,0:0:0:0:
256,192,250586,1,2,0:0:0:0:
256,192,250636,1,2,0:0:0:0:
256,192,250686,1,2,0:0:0:0:
256,192,250736,1,0,0:0:0:0:
271,179,250811,1,2,0:0:0:0:
264,188,250886,1,0,0:0:0:0:
278,176,250961,1,0,0:0:0:0:
264,188,251036,1,2,0:0:0:0:
271,177,251086,1,0,0:0:0:0:
264,192,251136,1,0,0:0:0:0:
302,151,251186,1,2,0:0:0:0:
259,182,251336,1,4,0:0:0:0:
284,181,251486,1,2,0:0:0:0:
290,184,251536,1,2,0:0:0:0:
274,181,251586,1,2,0:0:0:0:
278,183,251636,1,2,0:0:0:0:
278,181,251786,1,4,0:0:0:0:
275,183,251936,1,2,0:0:0:0:
276,186,251986,1,2,0:0:0:0:
276,186,252036,1,2,0:0:0:0:
282,165,252086,1,2,0:0:0:0:
282,171,252236,1,4,0:0:0:0:
257,201,252386,1,2,0:0:0:0:
280,168,252436,1,2,0:0:0:0:
294,159,252486,1,2,0:0:0:0:
280,168,252536,1,2,0:0:0:0:
259,180,252686,1,4,0:0:0:0:
259,154,252836,1,2,0:0:0:0:
259,154,252886,1,2,0:0:0:0:
259,154,252936,1,2,0:0:0:0:
259,154,252986,1,2,0:0:0:0:
259,154,253136,1,4,0:0:0:0:
256,192,253436,1,0,0:0:0:0:
256,192,253511,1,0,0:0:0:0:
256,192,253586,1,2,0:0:0:0:
256,192,253661,1,0,0:0:0:0:
256,192,253736,1,2,0:0:0:0:
224,192,253811,1,2,0:0:0:0:
224,192,253886,1,0,0:0:0:0:
224,192,253961,1,0,0:0:0:0:
253,172,254036,1,2,0:0:0:0:
224,160,254111,1,2,0:0:0:0:
224,160,254186,1,0,0:0:0:0:
224,160,254261,1,2,0:0:0:0:
224,160,254336,1,0,0:0:0:0:
224,160,254411,1,0,0:0:0:0:
253,172,254486,1,2,0:0:0:0:
224,160,254561,1,0,0:0:0:0:
224,160,254636,1,0,0:0:0:0:
253,172,254711,1,2,0:0:0:0:
256,160,254786,1,2,0:0:0:0:
256,160,254861,1,2,0:0:0:0:
253,172,254936,1,0,0:0:0:0:
256,192,255386,1,2,0:0:0:0:
256,192,255611,1,0,0:0:0:0:
256,190,255723,5,0,0:0:0:0:
256,192,255836,1,2,0:0:0:0:
256,192,255948,1,2,0:0:0:0:
256,192,256061,1,0,0:0:0:0:
256,192,256286,1,2,0:0:0:0:
256,192,256511,1,2,0:0:0:0:
256,192,256736,1,0,0:0:0:0:
256,192,256961,1,0,0:0:0:0:
256,192,257073,1,0,0:0:0:0:
256,192,257186,1,2,0:0:0:0:
256,192,257411,1,0,0:0:0:0:
256,192,257523,1,0,0:0:0:0:
256,192,257636,1,2,0:0:0:0:
256,192,257748,1,2,0:0:0:0:
256,192,257861,1,0,0:0:0:0:
256,192,257973,1,0,0:0:0:0:
256,192,258086,1,2,0:0:0:0:
256,192,258311,1,2,0:0:0:0:
256,192,258536,1,0,0:0:0:0:
256,224,258873,1,0,0:0:0:0:
256,192,258986,1,2,0:0:0:0:
256,224,259211,1,0,0:0:0:0:
256,192,259436,1,2,0:0:0:0:
256,224,259548,1,2,0:0:0:0:
256,192,259661,1,0,0:0:0:0:
256,224,259773,1,0,0:0:0:0:
256,192,259886,1,2,0:0:0:0:
256,192,260111,1,2,0:0:0:0:
256,192,260336,1,0,0:0:0:0:
256,224,260561,1,0,0:0:0:0:
256,224,260673,1,0,0:0:0:0:
256,192,260786,1,2,0:0:0:0:
256,192,261011,1,0,0:0:0:0:
265,185,261123,5,0,0:0:0:0:
256,192,261236,1,2,0:0:0:0:
256,160,261348,1,2,0:0:0:0:
256,192,261461,1,0,0:0:0:0:
256,160,261573,1,0,0:0:0:0:
256,160,261686,1,2,0:0:0:0:
256,160,261798,1,0,0:0:0:0:
256,192,261911,1,2,0:0:0:0:
256,192,262136,1,4,0:0:0:0:
256,192,262586,1,2,0:0:0:0:
256,160,262811,1,0,0:0:0:0:
256,160,262923,1,0,0:0:0:0:
256,160,263036,1,2,0:0:0:0:
256,160,263148,1,2,0:0:0:0:
256,192,263261,1,0,0:0:0:0:
256,192,263486,1,2,0:0:0:0:
256,192,263711,1,2,0:0:0:0:
256,192,263936,1,0,0:0:0:0:
256,192,264161,1,0,0:0:0:0:
256,192,264273,1,0,0:0:0:0:
256,192,264386,1,2,0:0:0:0:
256,192,264611,1,2,0:0:0:0:
256,160,264723,1,0,0:0:0:0:
256,192,264836,1,2,0:0:0:0:
256,160,264948,1,2,0:0:0:0:
256,224,265061,1,0,0:0:0:0:
256,192,265173,1,0,0:0:0:0:
256,192,265286,1,2,0:0:0:0:
256,192,265511,1,2,0:0:0:0:
256,192,265736,1,0,0:0:0:0:
256,192,266073,1,0,0:0:0:0:
256,192,266186,1,2,0:0:0:0:
256,192,266298,1,2,0:0:0:0:
256,192,266411,1,0,0:0:0:0:
224,192,266636,1,2,0:0:0:0:
256,192,266748,1,2,0:0:0:0:
224,192,266861,1,0,0:0:0:0:
256,160,266973,1,0,0:0:0:0:
224,160,267086,1,2,0:0:0:0:
256,160,267311,1,2,0:0:0:0:
256,128,267536,1,0,0:0:0:0:
256,128,267761,1,0,0:0:0:0:
256,128,267873,1,0,0:0:0:0:
256,128,267986,1,2,0:0:0:0:
256,160,268211,1,0,0:0:0:0:
256,160,268323,1,2,0:0:0:0:
256,160,268436,1,2,0:0:0:0:
256,160,268548,1,0,0:0:0:0:
256,160,268661,1,0,0:0:0:0:
256,160,268773,1,0,0:0:0:0:
256,160,268886,1,2,0:0:0:0:
256,160,268998,1,0,0:0:0:0:
256,160,269111,1,2,0:0:0:0:
256,160,269223,1,2,0:0:0:0:
256,160,269336,1,4,0:0:0:0:
256,192,269786,1,0,0:0:0:0:
256,192,270236,1,2,0:0:0:0:
256,192,270536,1,0,0:0:0:0:
256,192,270686,1,2,0:0:0:0:
256,192,270836,1,0,0:0:0:0:
256,192,271136,1,2,0:0:0:0:
256,192,271586,1,0,0:0:0:0:
256,192,272036,1,2,0:0:0:0:
256,192,272486,1,2,0:0:0:0:
256,192,272636,1,0,0:0:0:0:
256,192,272936,1,2,0:0:0:0:
256,192,273386,1,0,0:0:0:0:
256,192,273836,1,2,0:0:0:0:
256,192,274286,1,2,0:0:0:0:
256,192,274436,1,0,0:0:0:0:
256,192,274736,1,2,0:0:0:0:
256,192,275186,1,0,0:0:0:0:
256,192,275636,1,2,0:0:0:0:
256,192,276086,1,0,0:0:0:0:
256,192,276236,1,2,0:0:0:0:
256,192,276536,1,6,0:0:0:0:
256,192,276986,1,2,0:0:0:0:
256,192,277136,1,0,0:0:0:0:
256,224,277286,1,0,0:0:0:0:
256,192,277436,1,2,0:0:0:0:
256,192,277736,1,0,0:0:0:0:
256,192,277886,1,2,0:0:0:0:
256,192,278036,1,0,0:0:0:0:
256,192,278336,1,2,0:0:0:0:
256,192,278786,1,2,0:0:0:0:
256,192,278936,1,0,0:0:0:0:
256,192,279236,1,2,0:0:0:0:
256,192,279536,1,0,0:0:0:0:
256,192,279686,1,2,0:0:0:0:
256,192,279836,1,0,0:0:0:0:
256,192,280136,1,2,0:0:0:0:
256,192,280436,1,2,0:0:0:0:
256,192,280586,1,0,0:0:0:0:
256,192,280736,1,2,0:0:0:0:
256,192,281036,1,2,0:0:0:0:
256,192,281336,1,0,0:0:0:0:
256,192,281486,1,2,0:0:0:0:
256,192,281636,1,0,0:0:0:0:
256,192,281786,1,0,0:0:0:0:
256,192,281936,1,6,0:0:0:0:
256,192,282086,1,0,0:0:0:0:
256,192,282161,1,0,0:0:0:0:
256,192,282236,1,2,0:0:0:0:
256,192,282386,1,0,0:0:0:0:
256,192,282536,1,2,0:0:0:0:
256,192,282611,1,0,0:0:0:0:
256,192,282686,1,0,0:0:0:0:
256,192,282836,1,2,0:0:0:0:
256,192,282986,1,0,0:0:0:0:
256,192,283061,1,0,0:0:0:0:
256,192,283136,1,2,0:0:0:0:
256,192,283211,1,2,0:0:0:0:
256,192,283286,1,0,0:0:0:0:
256,192,283361,1,0,0:0:0:0:
256,192,283436,1,2,0:0:0:0:
256,192,283511,1,2,0:0:0:0:
256,192,283586,1,2,0:0:0:0:
256,192,283661,1,2,0:0:0:0:
256,192,283736,1,0,0:0:0:0:
256,192,284636,1,2,0:0:0:0:
256,192,284936,1,0,0:0:0:0:
256,192,285236,1,0,0:0:0:0:
256,192,285536,1,2,0:0:0:0:
256,192,286436,1,2,0:0:0:0:
256,192,287036,1,0,0:0:0:0:
256,192,287336,1,2,0:0:0:0:
256,192,288236,1,2,0:0:0:0:
256,192,288836,1,0,0:0:0:0:
256,192,289136,1,2,0:0:0:0:
256,192,290036,1,2,0:0:0:0:
256,192,290636,1,2,0:0:0:0:
256,192,290936,1,6,0:0:0:0:
256,192,291086,1,0,0:0:0:0:
256,192,291161,1,0,0:0:0:0:
256,192,291236,1,2,0:0:0:0:
256,192,291386,1,2,0:0:0:0:
256,192,291536,1,4,0:0:0:0:
256,192,291686,1,4,0:0:0:0:
256,192,291836,1,6,0:0:0:0:
256,192,291986,1,0,0:0:0:0:
256,192,292061,1,0,0:0:0:0:
256,192,292136,1,0,0:0:0:0:
256,192,292286,1,6,0:0:0:0:
256,192,292436,1,0,0:0:0:0:
256,192,292511,1,2,0:0:0:0:
256,192,292586,1,0,0:0:0:0:
256,192,292736,1,6,0:0:0:0:
256,192,292886,1,0,0:0:0:0:
256,192,292961,1,0,0:0:0:0:
256,192,293036,1,2,0:0:0:0:
256,192,293186,1,2,0:0:0:0:
256,192,293261,1,0,0:0:0:0:
256,192,293336,1,2,0:0:0:0:
256,192,293411,1,2,0:0:0:0:
256,192,293486,1,0,0:0:0:0:
256,192,293636,1,6,0:0:0:0:
256,192,293786,1,0,0:0:0:0:
256,192,293861,1,0,0:0:0:0:
256,192,293936,1,2,0:0:0:0:
256,192,294086,1,6,0:0:0:0:
256,192,294236,1,2,0:0:0:0:
256,192,294311,1,0,0:0:0:0:
256,192,294386,1,2,0:0:0:0:
256,192,294536,1,6,0:0:0:0:
256,192,294686,1,0,0:0:0:0:
256,192,294761,1,2,0:0:0:0:
256,192,294836,1,0,0:0:0:0:
256,192,294911,1,0,0:0:0:0:
256,192,294986,1,2,0:0:0:0:
256,192,295136,1,0,0:0:0:0:
256,192,295211,1,2,0:0:0:0:
256,192,295286,1,2,0:0:0:0:
256,192,295361,1,0,0:0:0:0:
256,192,295436,1,2,0:0:0:0:
256,192,295586,1,0,0:0:0:0:
256,192,295661,1,0,0:0:0:0:
256,192,295736,1,2,0:0:0:0:
256,192,295811,1,0,0:0:0:0:
256,192,295886,1,2,0:0:0:0:
256,192,296036,1,2,0:0:0:0:
256,192,296111,1,2,0:0:0:0:
256,192,296186,1,0,0:0:0:0:
256,192,296261,1,0,0:0:0:0:
256,192,296336,1,2,0:0:0:0:
256,192,296411,1,0,0:0:0:0:
256,192,296486,1,0,0:0:0:0:
256,192,296561,1,0,0:0:0:0:
256,192,296636,1,2,0:0:0:0:
256,192,296711,1,0,0:0:0:0:
256,192,296786,1,0,0:0:0:0:
256,192,296861,1,0,0:0:0:0:
256,192,296936,1,2,0:0:0:0:
256,192,297011,1,0,0:0:0:0:
256,192,297086,1,0,0:0:0:0:
256,192,297161,1,0,0:0:0:0:
256,192,297236,1,2,0:0:0:0:
256,192,297286,1,2,0:0:0:0:
256,192,297336,1,2,0:0:0:0:
256,192,297386,1,0,0:0:0:0:
256,192,297461,1,0,0:0:0:0:
256,192,297536,1,2,0:0:0:0:
256,192,297586,1,2,0:0:0:0:
256,192,297636,1,2,0:0:0:0:
256,192,297686,1,0,0:0:0:0:
256,192,297761,1,0,0:0:0:0:
256,192,297836,1,2,0:0:0:0:
256,192,297911,1,2,0:0:0:0:
256,192,297986,1,2,0:0:0:0:
256,192,298061,1,2,0:0:0:0:
256,192,298136,1,4,0:0:0:0:
256,192,298286,1,0,0:0:0:0:
256,192,298361,1,0,0:0:0:0:
256,192,298436,1,2,0:0:0:0:
256,192,298511,1,0,0:0:0:0:
256,224,298586,1,0,0:0:0:0:
256,224,298661,1,2,0:0:0:0:
256,224,298736,1,0,0:0:0:0:
256,224,298811,1,0,0:0:0:0:
256,224,298886,1,2,0:0:0:0:
256,224,298961,1,0,0:0:0:0:
256,224,299036,1,2,0:0:0:0:
256,224,299111,1,2,0:0:0:0:
256,224,299186,1,0,0:0:0:0:
256,224,299261,1,0,0:0:0:0:
256,224,299336,1,2,0:0:0:0:
256,224,299411,1,2,0:0:0:0:
256,224,299486,1,0,0:0:0:0:
256,224,299561,1,2,0:0:0:0:
256,224,299636,1,0,0:0:0:0:
256,224,299711,1,0,0:0:0:0:
256,224,299786,1,2,0:0:0:0:
256,224,299861,1,0,0:0:0:0:
256,224,299936,1,0,0:0:0:0:
256,224,300011,1,2,0:0:0:0:
256,224,300086,1,0,0:0:0:0:
256,224,300161,1,2,0:0:0:0:
256,224,300236,1,2,0:0:0:0:
256,224,300311,1,0,0:0:0:0:
256,224,300386,1,2,0:0:0:0:
256,224,300461,1,0,0:0:0:0:
256,224,300536,1,0,0:0:0:0:
256,224,300611,1,2,0:0:0:0:
256,224,300686,1,0,0:0:0:0:
256,224,300761,1,2,0:0:0:0:
256,224,300836,1,2,0:0:0:0:
256,224,300911,1,0,0:0:0:0:
256,224,300986,1,2,0:0:0:0:
256,224,301061,1,0,0:0:0:0:
256,224,301136,1,0,0:0:0:0:
256,224,301211,1,2,0:0:0:0:
256,224,301286,1,0,0:0:0:0:
288,224,301361,1,2,0:0:0:0:
288,224,301436,1,0,0:0:0:0:
288,224,301511,1,0,0:0:0:0:
288,224,301586,1,2,0:0:0:0:
288,224,301661,1,2,0:0:0:0:
288,224,301736,1,0,0:0:0:0:
256,224,301811,1,2,0:0:0:0:
256,224,301886,1,0,0:0:0:0:
256,224,301961,1,0,0:0:0:0:
256,224,302036,1,2,0:0:0:0:
256,224,302111,1,0,0:0:0:0:
256,224,302186,1,2,0:0:0:0:
256,224,302261,1,0,0:0:0:0:
256,224,302336,1,2,0:0:0:0:
256,224,302411,1,2,0:0:0:0:
256,256,302486,1,0,0:0:0:0:
256,224,302561,1,0,0:0:0:0:
256,224,302636,1,2,0:0:0:0:
256,224,302711,1,0,0:0:0:0:
256,224,302786,1,0,0:0:0:0:
256,224,302861,1,0,0:0:0:0:
256,224,302936,1,2,0:0:0:0:
256,224,303011,1,0,0:0:0:0:
256,224,303086,1,2,0:0:0:0:
256,224,303161,1,2,0:0:0:0:
256,224,303236,1,2,0:0:0:0:
256,224,303311,1,0,0:0:0:0:
256,224,303386,1,2,0:0:0:0:
256,224,303461,1,2,0:0:0:0:
256,224,303536,1,0,0:0:0:0:
256,224,303611,1,0,0:0:0:0:
256,224,303686,1,2,0:0:0:0:
256,224,303761,1,0,0:0:0:0:
256,256,303836,1,2,0:0:0:0:
256,224,303911,1,2,0:0:0:0:
256,224,303986,1,0,0:0:0:0:
256,224,304061,1,0,0:0:0:0:
256,224,304136,1,2,0:0:0:0:
256,224,304211,1,0,0:0:0:0:
256,224,304286,1,2,0:0:0:0:
256,256,304361,1,2,0:0:0:0:
256,256,304436,1,0,0:0:0:0:
256,224,304511,1,0,0:0:0:0:
256,224,304586,1,2,0:0:0:0:
256,224,304661,1,0,0:0:0:0:
256,224,304736,1,2,0:0:0:0:
256,224,304811,1,2,0:0:0:0:
256,224,304886,1,0,0:0:0:0:
256,224,304961,1,2,0:0:0:0:
256,224,305036,1,2,0:0:0:0:
256,224,305111,1,0,0:0:0:0:
256,192,305186,1,0,0:0:0:0:
256,192,305261,1,0,0:0:0:0:
256,224,305336,1,2,0:0:0:0:
256,224,305411,1,0,0:0:0:0:
256,192,305486,1,0,0:0:0:0:
256,192,305561,1,2,0:0:0:0:
256,192,305636,1,2,0:0:0:0:
256,192,305711,1,0,0:0:0:0:
256,192,305786,1,0,0:0:0:0:
256,192,305861,1,2,0:0:0:0:
256,192,305936,1,2,0:0:0:0:
256,192,306011,1,0,0:0:0:0:
224,192,306086,1,2,0:0:0:0:
224,192,306161,1,2,0:0:0:0:
224,192,306236,1,0,0:0:0:0:
256,192,306311,1,0,0:0:0:0:
256,192,306386,1,2,0:0:0:0:
224,192,306461,1,0,0:0:0:0:
288,160,306536,1,0,0:0:0:0:
224,192,306611,1,2,0:0:0:0:
256,192,306686,1,2,0:0:0:0:
256,192,306761,1,0,0:0:0:0:
256,192,306836,1,2,0:0:0:0:
256,192,306911,1,2,0:0:0:0:
256,192,306986,1,0,0:0:0:0:
256,160,307061,1,0,0:0:0:0:
256,160,307136,1,2,0:0:0:0:
192,128,307211,1,0,0:0:0:0:
256,192,307286,1,0,0:0:0:0:
256,192,307361,1,2,0:0:0:0:
256,192,307436,1,2,0:0:0:0:
256,192,307511,1,2,0:0:0:0:
256,192,307586,1,0,0:0:0:0:
256,192,307661,1,2,0:0:0:0:
288,192,307736,1,0,0:0:0:0:
288,192,307811,1,0,0:0:0:0:
288,192,307886,1,2,0:0:0:0:
288,192,307961,1,0,0:0:0:0:
256,160,308036,1,2,0:0:0:0:
256,160,308111,1,2,0:0:0:0:
256,160,308186,1,2,0:0:0:0:
256,160,308261,1,0,0:0:0:0:
256,160,308336,1,2,0:0:0:0:
256,160,308411,1,2,0:0:0:0:
256,160,308486,1,0,0:0:0:0:
256,160,308561,1,0,0:0:0:0:
256,160,308636,1,2,0:0:0:0:
256,160,308711,1,0,0:0:0:0:
256,160,308786,1,0,0:0:0:0:
256,160,308861,1,0,0:0:0:0:
256,160,308936,1,2,0:0:0:0:
256,192,309836,1,0,0:0:0:0:
224,192,309911,1,0,0:0:0:0:
256,192,309986,1,0,0:0:0:0:
224,192,310061,1,0,0:0:0:0:
224,192,310136,1,2,0:0:0:0:
224,192,310211,1,0,0:0:0:0:
224,192,310286,1,0,0:0:0:0:
224,192,310361,1,0,0:0:0:0:
224,192,310436,1,2,0:0:0:0:
256,192,310511,1,2,0:0:0:0:
256,192,310586,1,2,0:0:0:0:
256,192,310661,1,2,0:0:0:0:
256,192,310736,1,0,0:0:0:0:
256,192,311036,1,4,0:0:0:0:
256,192,311336,1,6,0:0:0:0:
256,192,311486,1,0,0:0:0:0:
256,192,311561,1,0,0:0:0:0:
256,192,311636,1,2,0:0:0:0:
256,192,311711,1,2,0:0:0:0:
256,192,311786,1,0,0:0:0:0:
256,192,311836,1,0,0:0:0:0:
256,192,311886,1,0,0:0:0:0:
256,192,311936,1,2,0:0:0:0:
256,192,312011,1,2,0:0:0:0:
256,192,312086,1,0,0:0:0:0:
256,192,312136,1,0,0:0:0:0:
256,192,312186,1,0,0:0:0:0:
256,192,312236,1,2,0:0:0:0:
256,192,312311,1,2,0:0:0:0:
256,192,312386,1,0,0:0:0:0:
256,192,312461,1,0,0:0:0:0:
256,192,312536,1,2,0:0:0:0:
256,192,312611,1,0,0:0:0:0:
256,192,312686,1,2,0:0:0:0:
256,192,312761,1,0,0:0:0:0:
256,192,312836,1,2,0:0:0:0:
256,192,312911,1,2,0:0:0:0:
256,192,312986,1,0,0:0:0:0:
256,192,313061,1,0,0:0:0:0:
256,192,313136,1,2,0:0:0:0:
256,192,313211,1,2,0:0:0:0:
256,192,313286,1,2,0:0:0:0:
256,192,313361,1,0,0:0:0:0:
256,192,313436,1,2,0:0:0:0:
224,192,313511,1,0,0:0:0:0:
224,192,313586,1,2,0:0:0:0:
256,192,313661,1,0,0:0:0:0:
256,192,313736,1,0,0:0:0:0:
256,192,313811,1,2,0:0:0:0:
256,192,313886,1,0,0:0:0:0:
256,192,313961,1,2,0:0:0:0:
256,192,314036,1,2,0:0:0:0:
256,192,314111,1,0,0:0:0:0:
256,192,314186,1,0,0:0:0:0:
256,192,314261,1,0,0:0:0:0:
256,192,314336,1,2,0:0:0:0:
256,192,314411,1,0,0:0:0:0:
256,192,314486,1,0,0:0:0:0:
256,192,314561,1,0,0:0:0:0:
256,192,314636,1,2,0:0:0:0:
256,160,314711,1,2,0:0:0:0:
256,160,314786,1,0,0:0:0:0:
256,160,314861,1,0,0:0:0:0:
256,160,314936,1,2,0:0:0:0:
256,160,315011,1,2,0:0:0:0:
256,160,315086,1,2,0:0:0:0:
256,160,315161,1,0,0:0:0:0:
256,160,315236,1,2,0:0:0:0:
256,160,315311,1,0,0:0:0:0:
256,160,315386,1,2,0:0:0:0:
224,160,315461,1,0,0:0:0:0:
224,160,315536,1,0,0:0:0:0:
224,160,315611,1,2,0:0:0:0:
224,128,315686,1,0,0:0:0:0:
256,128,315761,1,2,0:0:0:0:
224,128,315836,1,2,0:0:0:0:
224,128,315911,1,0,0:0:0:0:
224,128,315986,1,2,0:0:0:0:
224,128,316061,1,0,0:0:0:0:
224,128,316136,1,2,0:0:0:0:
224,128,316211,1,0,0:0:0:0:
192,128,316286,1,0,0:0:0:0:
192,128,316361,1,0,0:0:0:0:
192,128,316436,1,2,0:0:0:0:
224,128,316511,1,2,0:0:0:0:
224,128,316586,1,0,0:0:0:0:
224,128,316661,1,2,0:0:0:0:
192,128,316736,1,0,0:0:0:0:
192,128,316811,1,0,0:0:0:0:
192,128,316886,1,2,0:0:0:0:
192,128,316961,1,2,0:0:0:0:
192,128,317036,1,0,0:0:0:0:
192,128,317111,1,2,0:0:0:0:
192,128,317186,1,2,0:0:0:0:
288,192,317261,1,0,0:0:0:0:
256,192,317336,1,0,0:0:0:0:
256,192,317411,1,2,0:0:0:0:
256,192,317486,1,2,0:0:0:0:
256,192,317561,1,2,0:0:0:0:
224,192,317636,1,0,0:0:0:0:
224,192,317711,1,2,0:0:0:0:
224,192,317786,1,2,0:0:0:0:
224,192,317861,1,0,0:0:0:0:
256,192,317936,1,2,0:0:0:0:
256,192,318011,1,2,0:0:0:0:
224,224,318086,1,0,0:0:0:0:
256,192,318161,1,0,0:0:0:0:
256,192,318236,1,2,0:0:0:0:
256,192,318311,1,2,0:0:0:0:
256,160,318386,1,0,0:0:0:0:
256,192,318461,1,2,0:0:0:0:
256,192,318536,1,0,0:0:0:0:
256,192,318611,1,0,0:0:0:0:
256,192,318686,1,2,0:0:0:0:
256,192,318761,1,2,0:0:0:0:
256,160,318836,1,0,0:0:0:0:
256,160,318911,1,0,0:0:0:0:
256,160,318986,1,2,0:0:0:0:
256,192,319061,1,0,0:0:0:0:
256,192,319136,1,2,0:0:0:0:
256,192,319211,1,0,0:0:0:0:
256,192,319286,1,0,0:0:0:0:
256,192,319361,1,2,0:0:0:0:
256,192,319436,1,2,0:0:0:0:
256,192,319511,1,0,0:0:0:0:
256,192,319586,1,0,0:0:0:0:
256,192,319661,1,2,0:0:0:0:
256,192,319736,1,2,0:0:0:0:
256,192,319811,1,0,0:0:0:0:
256,192,319886,1,0,0:0:0:0:
256,192,319961,1,0,0:0:0:0:
256,192,320036,1,2,0:0:0:0:
256,160,320111,1,2,0:0:0:0:
256,160,320186,1,2,0:0:0:0:
288,160,320261,1,0,0:0:0:0:
288,160,320336,1,2,0:0:0:0:
288,160,320411,1,0,0:0:0:0:
288,160,320486,1,2,0:0:0:0:
256,160,320561,1,2,0:0:0:0:
256,160,320636,1,0,0:0:0:0:
256,128,320711,1,2,0:0:0:0:
256,128,320786,1,0,0:0:0:0:
256,128,320861,1,0,0:0:0:0:
256,128,320936,1,2,0:0:0:0:
256,128,321011,1,2,0:0:0:0:
256,128,321086,1,0,0:0:0:0:
224,128,321161,1,2,0:0:0:0:
256,128,321236,1,2,0:0:0:0:
224,128,321311,1,0,0:0:0:0:
224,160,321386,1,0,0:0:0:0:
224,160,321461,1,2,0:0:0:0:
224,160,321536,1,2,0:0:0:0:
224,160,321611,1,0,0:0:0:0:
224,160,321686,1,2,0:0:0:0:
224,160,321761,1,0,0:0:0:0:
256,192,321836,1,0,0:0:0:0:
288,224,321911,1,2,0:0:0:0:
256,192,321986,1,0,0:0:0:0:
256,192,322061,1,2,0:0:0:0:
224,160,322136,1,2,0:0:0:0:
224,160,322211,1,0,0:0:0:0:
256,192,322286,1,2,0:0:0:0:
224,160,322361,1,0,0:0:0:0:
224,160,322436,1,0,0:0:0:0:
256,192,322511,1,2,0:0:0:0:
256,192,322586,1,0,0:0:0:0:
256,192,322661,1,0,0:0:0:0:
256,192,322736,1,2,0:0:0:0:
192,160,322811,1,2,0:0:0:0:
192,160,322886,1,0,0:0:0:0:
192,160,322961,1,0,0:0:0:0:
224,160,323036,1,2,0:0:0:0:
224,160,323111,1,0,0:0:0:0:
224,160,323186,1,2,0:0:0:0:
224,160,323261,1,2,0:0:0:0:
224,160,323336,1,2,0:0:0:0:
224,192,323411,1,0,0:0:0:0:
224,192,323486,1,2,0:0:0:0:
224,192,323561,1,0,0:0:0:0:
256,192,323636,1,0,0:0:0:0:
224,160,323711,1,2,0:0:0:0:
224,160,323786,1,0,0:0:0:0:
224,192,323861,1,2,0:0:0:0:
224,160,323936,1,2,0:0:0:0:
256,224,324011,1,0,0:0:0:0:
224,128,324086,1,2,0:0:0:0:
256,192,324161,1,0,0:0:0:0:
224,160,324236,1,2,0:0:0:0:
192,160,324311,1,2,0:0:0:0:
224,160,324386,1,0,0:0:0:0:
224,160,324461,1,0,0:0:0:0:
256,192,324536,1,2,0:0:0:0:
256,192,324611,1,2,0:0:0:0:
256,192,324686,1,2,0:0:0:0:
224,160,324761,1,0,0:0:0:0:
224,160,324836,1,2,0:0:0:0:
224,160,324911,1,0,0:0:0:0:
224,160,324986,1,0,0:0:0:0:
224,160,325061,1,0,0:0:0:0:
224,160,325136,1,2,0:0:0:0:
256,160,325211,1,2,0:0:0:0:
256,192,325286,1,0,0:0:0:0:
256,192,325361,1,2,0:0:0:0:
256,192,325436,1,0,0:0:0:0:
224,160,325511,1,0,0:0:0:0:
224,128,325586,1,2,0:0:0:0:
256,160,325661,1,0,0:0:0:0:
224,160,325736,1,2,0:0:0:0:
224,160,325811,1,2,0:0:0:0:
224,160,325886,1,0,0:0:0:0:
224,160,325961,1,0,0:0:0:0:
256,192,326036,1,2,0:0:0:0:
256,192,326111,1,2,0:0:0:0:
256,160,326186,1,0,0:0:0:0:
256,160,326236,1,0,0:0:0:0:
256,160,326286,1,0,0:0:0:0:
256,160,326336,1,2,0:0:0:0:
256,160,326411,1,2,0:0:0:0:
256,160,326486,1,0,0:0:0:0:
256,160,326536,1,0,0:0:0:0:
256,160,326586,1,0,0:0:0:0:
256,160,326636,1,2,0:0:0:0:
256,160,326711,1,2,0:0:0:0:
256,160,326786,1,0,0:0:0:0:
256,160,326836,1,0,0:0:0:0:
256,160,326886,1,0,0:0:0:0:
256,160,326936,1,2,0:0:0:0:
256,192,327836,1,0,0:0:0:0:
256,192,328136,1,2,0:0:0:0:
256,192,328436,1,2,0:0:0:0:
256,192,328736,1,0,0:0:0:0:
256,192,329036,1,0,0:0:0:0:
256,192,329336,1,2,0:0:0:0:
256,192,329636,1,0,0:0:0:0:
256,192,330236,1,2,0:0:0:0:
256,192,330536,1,2,0:0:0:0:
256,192,331436,1,0,0:0:0:0:
256,192,331736,1,2,0:0:0:0:
256,192,332036,1,2,0:0:0:0:
256,192,332336,1,2,0:0:0:0:
256,160,334136,1,2,0:0:0:0:
256,160,335036,1,0,0:0:0:0:
256,160,335336,1,2,0:0:0:0:
256,160,335636,1,2,0:0:0:0:
256,160,335936,1,0,0:0:0:0:
256,160,336236,1,0,0:0:0:0:
256,160,336536,1,2,0:0:0:0:
256,160,336836,1,0,0:0:0:0:
256,160,337436,1,2,0:0:0:0:
288,160,337736,1,2,0:0:0:0:
288,160,338636,1,0,0:0:0:0:
288,160,338936,1,2,0:0:0:0:
288,160,339236,1,2,0:0:0:0:
288,160,339536,1,2,0:0:0:0:
