osu file format v14

[General]
AudioFilename: audio.mp3
AudioLeadIn: 0
PreviewTime: 95696
Countdown: 0
SampleSet: Drum
StackLeniency: 0.7
Mode: 2
LetterboxInBreaks: 0
WidescreenStoryboard: 0

[Editor]
Bookmarks: 2276,23576,95696,109496,123896,142796,157196,167996,181936,195693,215343,235143,249543,254943,283743,298133,312533,326933
DistanceSpacing: 0.5
BeatDivisor: 8
GridSize: 16
TimelineZoom: 4.679999

[Metadata]
Title:Wizdomiot (extended ver.)
TitleUnicode:Wizdomiot (extended ver.)
Artist:LeaF
ArtistUnicode:LeaF
Creator:Deif
Version:Rational Punishment
Source:osu!
Tags:Featured Artist Mappers' Guild the 7th Toho Only BMS Festival 東方音弾遊戯7 東方project Touhou Chireiden 東方地霊殿 ~ Subterranean Animism 緑眼のジェラシー Green Eyed Jealousy Mizuhashi Parsee 水橋 パルスィ ZUN Team Shanghai Alice 上海アリス幻樂団 Doppelganger IDM Video Game Instrumental
BeatmapID:2410706
BeatmapSetID:1155135

[Difficulty]
HPDrainRate:6
CircleSize:4.2
OverallDifficulty:9.4
ApproachRate:9.4
SliderMultiplier:2.2
SliderTickRate:1

[Events]
//Background and Video events
0,0,"BG.jpg",0,0
//Break Periods
2,125296,127556
2,197343,200403
//Storyboard Layer 0 (Background)
//Storyboard Layer 1 (Fail)
//Storyboard Layer 2 (Pass)
//Storyboard Layer 3 (Foreground)
//Storyboard Layer 4 (Overlay)
//Storyboard Sound Samples

[TimingPoints]
2276,300,3,2,1,60,1,0
3926,-100,3,3,0,60,0,0
4376,-100,3,2,1,60,0,0
7526,-100,3,3,0,60,0,0
7976,-100,3,2,1,60,0,0
8876,-100,3,2,1,80,0,0
9026,-100,3,2,1,50,0,0
9176,-100,3,2,1,90,0,0
9326,-100,3,2,1,50,0,0
9476,-100,3,2,1,70,0,0
15176,-100,3,3,0,60,0,0
16676,-66.6666666666667,3,2,2,60,0,0
16976,-133.333333333333,3,3,0,60,0,0
19976,-100,3,3,0,70,0,0
20276,-100,3,1,0,60,0,0
22076,-133.333333333333,3,2,0,70,0,0
22526,-133.333333333333,3,2,0,60,0,0
22976,-133.333333333333,3,2,0,50,0,0
23876,-200,3,2,0,40,0,0
24776,-200,3,2,2,40,0,0
31076,-200,3,2,0,50,0,0
31376,-200,3,2,1,50,0,0
31976,-200,3,2,2,50,0,0
32576,-200,3,2,1,50,0,0
32876,-200,3,2,2,50,0,0
34376,-200,3,2,1,50,0,0
34676,-200,3,2,2,50,0,0
34976,-200,3,2,1,50,0,0
35576,-200,3,2,2,50,0,0
36176,-200,3,2,1,50,0,0
36476,-200,3,2,2,50,0,0
37076,-200,3,2,1,50,0,0
37376,-200,3,2,2,50,0,0
37676,-200,3,2,2,40,0,0
37976,-200,3,2,2,30,0,0
38276,-200,3,2,0,50,0,0
38576,-200,3,2,1,50,0,0
39176,-200,3,2,2,50,0,0
39776,-200,3,2,1,50,0,0
40076,-200,3,2,2,50,0,0
40676,-200,3,2,1,50,0,0
40976,-200,3,2,2,50,0,0
41576,-200,3,2,1,50,0,0
41876,-200,3,2,2,50,0,0
42476,-200,3,2,1,50,0,0
42776,-200,3,2,2,50,0,0
43376,-200,3,2,1,50,0,0
43676,-200,3,2,2,50,0,0
44276,-200,3,2,1,50,0,0
44576,-200,3,2,2,50,0,0
45176,-200,3,2,1,50,0,0
45476,-200,3,2,2,50,0,0
46976,-200,3,2,1,50,0,0
47276,-200,3,2,2,50,0,0
47876,-200,3,2,1,50,0,0
48176,-200,3,2,2,50,0,0
48776,-200,3,2,1,50,0,0
49076,-200,3,2,2,50,0,0
49676,-200,3,2,1,50,0,0
49976,-200,3,2,2,50,0,0
50576,-200,3,2,1,50,0,0
50876,-200,3,2,2,45,0,0
51176,-200,3,2,0,40,0,0
51476,-200,3,2,0,35,0,0
51776,-200,3,2,0,30,0,0
52676,-133.333333333333,3,2,10,50,0,0
52976,-133.333333333333,3,2,4,60,0,0
53576,-133.333333333333,3,2,3,60,0,0
53876,-133.333333333333,3,2,4,60,0,0
54476,-133.333333333333,3,2,3,60,0,0
54776,-133.333333333333,3,2,4,60,0,0
55376,-133.333333333333,3,2,3,60,0,0
55676,-133.333333333333,3,2,4,60,0,0
56276,-133.333333333333,3,2,3,60,0,0
56576,-133.333333333333,3,2,4,60,0,0
57176,-133.333333333333,3,2,3,60,0,0
57476,-133.333333333333,3,2,4,60,0,0
58076,-133.333333333333,3,2,3,60,0,0
58376,-133.333333333333,3,2,4,60,0,0
58976,-133.333333333333,3,2,3,60,0,0
59276,-133.333333333333,3,2,4,60,0,0
59876,-133.333333333333,3,2,3,60,0,0
60176,-133.333333333333,3,2,4,60,0,0
60776,-133.333333333333,3,2,3,60,0,0
61076,-133.333333333333,3,2,4,60,0,0
61676,-133.333333333333,3,2,3,60,0,0
61976,-133.333333333333,3,2,4,60,0,0
62576,-133.333333333333,3,2,3,60,0,0
62876,-133.333333333333,3,2,4,60,0,0
63476,-133.333333333333,3,2,3,60,0,0
63776,-133.333333333333,3,2,4,60,0,0
64376,-133.333333333333,3,2,3,60,0,0
64676,-133.333333333333,3,2,4,60,0,0
65276,-133.333333333333,3,2,3,60,0,0
65576,-133.333333333333,3,2,4,60,0,0
66176,-133.333333333333,3,2,3,60,0,0
66476,-133.333333333333,3,2,4,60,0,0
67076,-133.333333333333,3,2,3,60,0,0
67376,-133.333333333333,3,2,4,60,0,0
67976,-133.333333333333,3,2,3,60,0,0
68276,-133.333333333333,3,2,4,60,0,0
68876,-133.333333333333,3,2,3,60,0,0
69176,-133.333333333333,3,2,4,60,0,0
69776,-133.333333333333,3,2,3,60,0,0
70076,-133.333333333333,3,2,4,60,0,0
70676,-133.333333333333,3,2,3,60,0,0
70976,-133.333333333333,3,2,4,60,0,0
71576,-133.333333333333,3,2,3,60,0,0
71876,-133.333333333333,3,2,4,60,0,0
72476,-133.333333333333,3,2,3,60,0,0
72776,-133.333333333333,3,2,4,60,0,0
73376,-133.333333333333,3,2,3,60,0,0
73676,-133.333333333333,3,2,4,60,0,0
74276,-133.333333333333,3,2,3,60,0,0
74576,-133.333333333333,3,2,4,60,0,0
75176,-133.333333333333,3,2,3,60,0,0
75476,-133.333333333333,3,2,4,60,0,0
76076,-133.333333333333,3,2,3,60,0,0
76376,-133.333333333333,3,2,4,60,0,0
76976,-133.333333333333,3,2,3,60,0,0
77276,-133.333333333333,3,2,4,60,0,0
77876,311.688311688312,3,2,3,60,1,0
77876,-133.333333333333,3,2,3,60,0,0
78187,-133.333333333333,3,2,4,60,0,0
78810,328.767123287671,3,2,3,60,1,0
78810,-133.333333333333,3,2,3,60,0,0
79138,-133.333333333333,3,2,4,55,0,0
79467,-133.333333333333,3,2,4,50,0,0
79796,300,3,1,10,50,1,0
79796,-133.333333333333,3,1,10,50,0,0
79946,-133.333333333333,3,2,3,15,0,0
81596,-133.333333333333,3,2,3,20,0,0
83396,-133.333333333333,3,2,3,25,0,0
85196,-133.333333333333,3,2,3,30,0,0
86996,-133.333333333333,3,2,3,35,0,0
88796,-133.333333333333,3,2,3,40,0,0
90596,-133.333333333333,3,2,3,45,0,0
92396,-133.333333333333,3,2,3,50,0,0
93296,-133.333333333333,3,2,3,60,0,0
94196,-133.333333333333,3,2,2,30,0,0
94496,-66.6666666666667,3,2,0,60,0,0
94796,-133.333333333333,3,2,0,40,0,0
95096,-66.6666666666667,3,2,0,60,0,0
95396,-133.333333333333,3,2,0,40,0,0
95696,-100,3,1,0,50,0,0
95846,-100,3,1,0,60,0,0
95996,-100,3,1,1,70,0,1
108596,-100,3,1,2,70,0,1
109496,-100,3,2,1,70,0,1
109796,-100,3,2,1,60,0,1
110096,-100,3,2,1,50,0,1
110396,-100,3,1,1,70,0,1
115871,-100,3,2,1,70,0,1
116021,-100,3,1,1,70,0,1
116096,-100,3,2,1,75,0,1
116246,-100,3,1,1,70,0,1
116321,-100,3,2,1,80,0,1
116471,-100,3,1,1,70,0,1
116546,-100,3,2,1,85,0,1
116696,-100,3,1,1,70,0,1
116771,-100,3,2,1,90,0,1
116921,-100,3,1,1,70,0,1
116996,-100,3,2,1,95,0,1
117146,-100,3,2,1,70,0,1
117596,-100,3,1,1,70,0,1
122996,-100,3,1,2,70,0,1
124796,-200,3,2,2,60,0,0
125021,-200,3,2,2,30,0,0
125096,-200,3,1,10,60,0,0
128096,-200,3,1,1,60,0,0
128396,-133.333333333333,3,1,10,60,0,0
128546,-133.333333333333,3,3,0,60,0,0
131996,-66.6666666666667,3,2,2,60,0,0
132296,-100,3,1,3,60,0,0
158996,-100,3,1,0,60,0,0
159521,-100,3,1,0,30,0,0
159596,-100,3,1,3,60,0,0
160196,-100,3,1,0,50,0,0
160496,-100,3,1,0,40,0,0
160796,-133.333333333333,3,2,1,50,0,0
161396,-133.333333333333,3,2,2,50,0,0
166196,-133.333333333333,3,2,1,30,0,0
166796,-133.333333333333,3,2,2,25,0,0
167996,304.568527918782,3,2,1,35,1,0
167996,-200,3,2,1,35,0,0
168909,-200,3,2,2,35,0,0
169823,-200,3,2,1,35,0,0
170737,-200,3,2,2,35,0,0
171650,-200,3,2,1,30,0,0
172564,-200,3,2,2,30,0,0
173478,-200,3,2,1,25,0,0
175305,309.278350515464,3,2,1,30,1,0
175305,-200,3,2,1,30,0,0
176232,-200,3,2,2,30,0,0
177160,-200,3,2,1,30,0,0
178088,-200,3,2,2,25,0,0
179016,314.13612565445,3,2,1,20,1,0
179958,319.148936170213,3,2,2,20,1,0
180277,324.324324324324,3,2,2,20,1,0
180601,352.941176470588,3,2,2,15,1,0
180953,327.868852459016,3,2,1,15,1,0
181936,491.803278688525,3,3,0,30,1,0
182304,370.37037037037,3,3,0,45,1,0
182674,331.491712707183,3,3,0,60,1,0
182943,300,3,2,1,60,1,0
182943,-133.333333333333,3,2,1,60,0,0
183542,-133.333333333333,3,2,2,60,0,0
189542,-133.333333333333,3,2,2,50,0,0
189842,-133.333333333333,3,2,2,40,0,0
190142,-133.333333333333,3,2,1,60,0,0
190742,-133.333333333333,3,2,2,60,0,0
191042,-133.333333333333,3,2,1,60,0,0
191642,-133.333333333333,3,2,2,60,0,0
191942,-133.333333333333,3,2,1,60,0,0
192542,-133.333333333333,3,2,2,60,0,0
192842,-133.333333333333,3,2,1,60,0,0
193442,-133.333333333333,3,2,2,60,0,0
193742,-133.333333333333,3,2,1,60,0,0
194343,-133.333333333333,3,2,2,60,0,0
194643,-133.333333333333,3,2,1,60,0,0
195243,-133.333333333333,3,2,2,60,0,0
195543,-133.333333333333,3,2,1,60,0,0
196443,-133.333333333333,3,2,1,25,0,0
202743,-200,3,2,1,30,0,0
203043,-200,3,2,1,50,0,0
204543,-200,3,2,1,35,0,0
204843,-200,3,2,1,55,0,0
206193,-200,3,2,1,40,0,0
206643,-200,3,2,1,60,0,0
207993,-200,3,2,1,50,0,0
208593,-200,3,2,1,70,0,0
208743,-200,3,2,1,50,0,0
208893,-200,3,2,1,70,0,0
209043,-200,3,2,1,50,0,0
209193,-200,3,2,1,70,0,0
209343,-200,3,2,1,50,0,0
209493,-200,3,2,1,70,0,0
209643,-200,3,2,1,50,0,0
209943,-200,3,2,1,40,0,0
210243,-200,3,2,1,60,0,0
211743,-200,3,2,1,45,0,0
212043,-200,3,2,1,65,0,0
212193,-200,3,2,1,45,0,0
212343,-200,3,2,1,65,0,0
212493,-200,3,2,1,45,0,0
212643,-200,3,2,1,65,0,0
212793,-200,3,2,1,45,0,0
212943,-200,3,2,1,65,0,0
213093,-200,3,2,1,45,0,0
213243,-200,3,2,1,65,0,0
213393,-200,3,2,1,45,0,0
213543,-200,3,2,1,50,0,0
215343,-133.333333333333,3,3,0,40,0,0
217143,-133.333333333333,3,3,0,50,0,0
218943,-200,3,2,2,50,0,0
220743,-200,3,2,2,25,0,0
221643,-166.666666666667,3,2,2,40,0,0
221793,-166.666666666667,3,1,0,20,0,0
221943,-125,3,1,0,50,0,0
222093,-125,3,1,0,25,0,0
222243,-100,3,1,0,60,0,0
222393,-100,3,1,0,30,0,0
222543,-100,3,1,1,70,0,1
251343,-100,3,1,3,60,0,0
251493,-100,3,1,3,30,0,0
251568,-100,3,1,3,60,0,0
251643,-100,3,1,3,30,0,0
251793,-100,3,1,3,60,0,0
251943,-100,3,1,3,30,0,0
252018,-100,3,1,3,60,0,0
252093,-100,3,1,3,30,0,0
252243,-100,3,1,3,60,0,0
252393,-100,3,1,3,30,0,0
252468,-100,3,1,3,60,0,0
252543,-100,3,1,3,30,0,0
252693,-100,3,1,3,60,0,0
252843,-100,3,1,3,30,0,0
252918,-100,3,1,3,60,0,0
253293,-100,3,2,3,60,0,0
254943,450,4,2,3,60,1,0
255843,-100,4,2,4,60,0,0
256743,-100,4,2,3,60,0,0
257643,-100,4,2,4,60,0,0
258543,-100,4,2,3,60,0,0
259443,-100,4,2,4,60,0,0
260343,-100,4,2,3,60,0,0
261243,-100,4,2,4,60,0,0
262143,-100,4,2,3,60,0,0
263043,-100,4,2,4,60,0,0
263943,-100,4,2,3,60,0,0
264843,-100,4,2,4,60,0,0
265743,-100,4,2,3,60,0,0
266643,-100,4,2,4,60,0,0
267543,-100,4,2,3,60,0,0
268443,-57.1428571428571,4,2,4,60,0,0
268893,-100,4,2,4,60,0,0
269343,300,3,2,1,60,1,0
269343,-133.333333333333,3,2,1,60,0,0
282843,-100,3,2,1,70,0,0
283743,-133.333333333333,3,2,1,50,0,0
284343,-133.333333333333,3,2,2,50,0,0
290933,300,3,3,1,60,1,0
290933,-133.333333333333,3,3,1,60,0,0
297833,-133.333333333333,3,3,1,70,0,0
298133,-100,3,1,1,70,0,1
298208,-100,3,1,4,70,0,1
299933,-100,3,1,1,70,0,1
300008,-100,3,1,4,70,0,1
301733,-100,3,1,1,70,0,1
301808,-100,3,1,4,70,0,1
303533,-100,3,1,1,70,0,1
303608,-100,3,1,4,70,0,1
305333,-100,3,1,1,70,0,1
305408,-100,3,1,4,70,0,1
307133,-100,3,1,1,70,0,1
307208,-100,3,1,4,70,0,1
308933,-100,3,2,2,50,0,0
309833,-100,3,1,2,40,0,0
310133,-100,3,1,2,50,0,0
310433,-100,3,1,2,60,0,0
310733,-100,3,1,2,70,0,0
312533,-100,3,1,1,70,0,1
312608,-100,3,1,4,70,0,1
314333,-100,3,1,1,70,0,1
314408,-100,3,1,4,70,0,1
316133,-100,3,1,1,70,0,1
316208,-100,3,1,4,70,0,1
317933,-100,3,1,1,70,0,1
318008,-100,3,1,4,70,0,1
319733,-100,3,1,1,70,0,1
319808,-100,3,1,4,70,0,1
321533,-100,3,1,1,70,0,1
321608,-100,3,1,4,70,0,1
323333,-100,3,1,1,70,0,1
323408,-100,3,1,4,70,0,1
326033,-100,3,1,2,70,0,1
326933,-100,3,2,1,70,0,0

[Colours]
Combo1 : 0,128,255
Combo2 : 255,128,255
Combo3 : 128,0,255
Combo4 : 128,255,255

[HitObjects]
128,192,2276,5,6,0:0:0:0:
240,192,2426,1,0,0:0:0:0:
112,192,2576,2,0,L|32:112,2,110,2|0|0,0:0|0:0|0:0,0:0:0:0:
224,192,3026,1,0,0:0:0:0:
448,272,3176,6,0,L|336:272,1,110,2|0,0:0|0:0,0:0:0:0:
208,192,3476,2,0,L|320:192,1,110,2|0,0:0|0:0,0:0:0:0:
432,112,3776,2,0,P|464:160|464:224,1,110,2|2,0:0|0:0,0:0:0:0:
432,240,4001,1,2,0:0:0:0:
192,192,4076,5,4,0:0:0:0:
432,112,4226,1,8,0:0:0:0:
368,192,4526,1,0,0:0:0:0:
256,192,4676,2,0,L|336:112,1,110,2|0,0:0|0:0,0:0:0:0:
96,192,4976,6,0,L|128:304,1,110,2|0,0:0|0:0,0:0:0:0:
256,192,5276,2,0,L|224:80,1,110,2|0,0:0|0:0,0:0:0:0:
96,192,5576,2,0,L|128:80,1,110,2|0,0:0|0:0,0:0:0:0:
384,192,5876,5,2,0:0:0:0:
272,192,6026,1,0,0:0:0:0:
400,192,6176,2,0,L|480:272,2,110,2|0|0,0:0|0:0|0:0,0:0:0:0:
288,192,6626,1,0,0:0:0:0:
64,112,6776,6,0,L|176:112,1,110,2|0,0:0|0:0,0:0:0:0:
304,192,7076,2,0,L|192:192,1,110,2|0,0:0|0:0,0:0:0:0:
80,272,7376,2,0,P|48:224|48:160,1,110,2|2,0:0|0:0,0:0:0:0:
80,144,7601,1,2,0:0:0:0:
320,192,7676,5,4,0:0:0:0:
80,272,7826,1,8,0:0:0:0:
144,192,8126,1,0,0:0:0:0:
256,192,8276,2,0,L|176:272,1,110,2|0,0:0|0:0,0:0:0:0:
416,192,8576,6,0,L|384:80,1,110,2|0,0:0|0:0,0:0:0:0:
256,80,8876,1,2,0:0:0:0:
112,80,9026,1,2,0:0:0:0:
320,144,9176,1,2,0:0:0:0:
112,144,9326,1,2,0:0:0:0:
384,208,9476,6,0,L|304:288,1,110,14|0,0:0|0:0,0:0:0:0:
192,192,9776,1,10,0:0:0:0:
320,192,9926,1,0,0:0:0:0:
205,285,10076,2,0,L|128:208,1,110,8|0,0:0|0:0,0:0:0:0:
384,240,10376,6,0,L|464:160,1,110,10|0,0:0|0:0,0:0:0:0:
320,240,10676,2,0,P|320:176|336:128,1,110,10|0,0:0|0:0,0:0:0:0:
480,272,10976,2,0,L|368:272,1,110,10|0,0:0|0:0,0:0:0:0:
146,272,11276,6,0,L|256:272,1,110,10|0,0:0|0:0,0:0:0:0:
208,240,11576,2,0,P|256:216|304:240,1,110,8|0,0:0|0:0,0:0:0:0:
256,272,11876,2,0,L|366:272,1,110,10|0,0:0|0:0,0:0:0:0:
128,240,12176,6,0,L|48:160,1,110,10|0,0:0|0:0,0:0:0:0:
192,144,12476,2,0,P|192:208|176:256,1,110,10|0,0:0|0:0,0:0:0:0:
32,272,12776,2,0,L|144:272,1,110,8|0,0:0|0:0,0:0:0:0:
368,192,13076,5,14,0:0:0:0:
480,192,13226,1,8,0:0:0:0:
352,144,13376,1,10,0:0:0:0:
240,144,13526,1,8,0:0:0:0:
336,96,13676,1,10,0:0:0:0:
80,192,13826,1,10,0:0:0:0:
368,192,13976,5,10,0:0:0:0:
480,192,14126,1,8,0:0:0:0:
352,240,14276,1,10,0:0:0:0:
240,240,14426,1,8,0:0:0:0:
368,288,14576,1,10,0:0:0:0:
80,192,14726,1,10,0:0:0:0:
432,192,14876,6,0,L|432:80,1,110,4|0,0:0|0:0,0:0:0:0:
80,192,15176,2,0,L|80:304,1,110,8|0,0:0|0:0,0:0:0:0:
128,320,15401,1,0,0:0:0:0:
288,320,15476,1,2,0:0:0:0:
341,309,15551,1,0,0:0:0:0:
385,277,15626,1,0,0:0:0:0:
413,230,15701,1,0,0:0:0:0:
224,320,15776,5,2,0:0:0:0:
170,309,15851,1,0,0:0:0:0:
126,277,15926,1,0,0:0:0:0:
98,230,16001,1,0,0:0:0:0:
288,80,16076,2,0,L|320:128,3,55,2|0|0|0,0:0|0:0|0:0|0:0,0:0:0:0:
128,80,16376,2,0,L|96:128,3,55,2|0|0|0,0:0|0:0|0:0|0:0,0:0:0:0:
320,192,16676,6,0,P|416:176|448:112,1,165.000006294251,4|0,0:0|0:0,0:0:0:0:
112,192,16976,2,0,L|16:192,2,82.5000031471254,14|0|0,0:0|0:0|0:0,0:0:0:0:
208,192,17426,1,0,0:0:0:0:
49,124,17576,6,0,L|80:48,1,82.5000031471254,2|0,0:0|0:0,0:0:0:0:
224,48,17876,2,0,L|192:128,1,82.5000031471254,2|0,0:0|0:0,0:0:0:0:
64,48,18176,2,0,L|96:128,1,82.5000031471254,2|0,0:0|0:0,0:0:0:0:
256,192,18476,5,8,0:0:0:0:
176,192,18626,1,2,0:0:0:0:
96,192,18776,1,6,0:0:0:0:
288,112,18926,1,8,0:0:0:0:
192,112,19076,1,2,0:0:0:0:
96,112,19226,1,2,0:0:0:0:
336,112,19376,6,0,L|320:192,1,82.5000031471254,2|0,0:0|0:0,0:0:0:0:
176,272,19676,2,0,L|192:192,1,82.5000031471254,2|0,0:0|0:0,0:0:0:0:
464,192,19976,1,4,0:0:0:0:
320,192,20051,1,4,0:0:0:0:
176,192,20126,1,4,0:0:0:0:
32,192,20201,1,4,0:0:0:0:
176,96,20276,5,4,0:0:0:0:
304,96,20426,2,0,L|368:96,2,55,8|0|8,0:0|0:0|0:0,0:0:0:0:
32,272,20726,1,4,0:0:0:0:
160,272,20876,1,8,0:0:0:0:
128,224,20951,1,0,0:0:0:0:
64,208,21026,1,8,0:0:0:0:
336,96,21176,5,4,0:0:0:0:
208,96,21326,2,0,L|144:96,2,55,8|0|8,0:0|0:0|0:0,0:0:0:0:
480,272,21626,1,4,0:0:0:0:
352,272,21776,1,8,0:0:0:0:
384,224,21851,1,0,0:0:0:0:
448,208,21926,1,8,0:0:0:0:
384,192,22001,1,0,0:0:0:0:
144,192,22076,6,0,L|48:192,2,82.5000031471254,6|0|2,0:0|0:0|0:0,0:0:0:0:
256,192,22526,2,0,L|192:128,2,82.5000031471254,2|0|2,0:0|0:0|0:0,0:0:0:0:
368,112,22976,6,0,P|368:192|304:240,1,165.000006294251,2|2,0:0|0:0,0:0:0:0:
64,240,23576,1,0,0:0:0:0:
448,112,23876,5,4,0:0:0:0:
256,64,24326,1,0,0:0:0:0:
64,112,24776,2,0,L|176:112,2,110,10|2|2,0:0|0:0|0:0,0:0:0:0:
304,64,25676,6,0,P|432:112|448:288,1,330,10|10,0:0|0:0,0:0:0:0:
64,272,27176,1,2,0:0:0:0:
304,320,27476,6,10,P|192:320|64:160,1,330,10|0,0:0|0:0,0:0:0:0:
448,112,28976,1,2,0:0:0:0:
208,64,29276,6,10,P|320:64|448:224,1,330,10|0,0:0|0:0,0:0:0:0:
64,272,30776,1,2,0:0:0:0:
448,272,31076,6,0,P|464:192|448:176,1,110,6|8,0:0|0:0,0:0:0:0:
288,192,31676,2,0,L|352:192,1,55,2|0,0:0|0:0,0:0:0:0:
224,128,31976,2,0,L|334:128,2,110,10|2|10,0:0|0:0|0:0,0:0:0:0:
448,192,32876,5,10,0:0:0:0:
128,192,33476,2,0,L|192:192,1,55,2|0,0:0|0:0,0:0:0:0:
64,256,33776,2,0,L|174:256,2,110,10|2|10,0:0|0:0|0:0,0:0:0:0:
448,256,34676,6,0,P|464:176|448:160,1,110,10|8,0:0|0:0,0:0:0:0:
144,192,35576,1,10,0:0:0:0:
368,192,35876,1,2,0:0:0:0:
192,192,36176,1,10,0:0:0:0:
320,192,36476,6,0,P|336:128|336:80,1,110,10|2,0:0|0:0,0:0:0:0:
176,80,37076,1,10,0:0:0:0:
336,192,37376,2,0,L|400:192,1,55,10|0,0:0|0:0,0:0:0:0:
256,192,37676,2,0,L|304:144,1,55,2|0,0:0|0:0,0:0:0:0:
160,192,37976,2,0,L|160:128,1,55,2|0,0:0|0:0,0:0:0:0:
368,192,38276,6,0,P|400:144|368:128,1,110,6|0,0:0|0:0,0:0:0:0:
288,128,38726,1,8,0:0:0:0:
368,64,39026,1,10,0:0:0:0:
144,64,39176,2,0,P|112:96|96:160,1,110,10|2,0:0|0:0,0:0:0:0:
160,208,39626,1,0,0:0:0:0:
80,208,39776,1,10,0:0:0:0:
464,192,40076,6,0,L|352:192,2,110,10|2|8,0:0|0:0|0:0,0:0:0:0:
224,192,40976,2,0,L|336:192,1,110,10|0,0:0|0:0,0:0:0:0:
96,192,41576,1,10,0:0:0:0:
464,192,41876,5,10,0:0:0:0:
96,192,42476,1,10,0:0:0:0:
288,192,42776,2,0,L|176:192,1,110,10|2,0:0|0:0,0:0:0:0:
416,192,43376,1,10,0:0:0:0:
48,192,43676,5,10,0:0:0:0:
416,192,44276,1,10,0:0:0:0:
192,192,44576,2,0,P|192:144|208:80,1,110,10|0,0:0|0:0,0:0:0:0:
432,80,45176,1,10,0:0:0:0:
48,192,45476,5,10,0:0:0:0:
256,256,45926,1,2,0:0:0:0:
48,192,46226,1,2,0:0:0:0:
256,192,46376,2,0,P|272:128|272:80,1,110,10|2,0:0|0:0,0:0:0:0:
48,96,46976,1,10,0:0:0:0:
416,192,47276,6,0,L|304:192,1,110,10|2,0:0|0:0,0:0:0:0:
480,192,47876,1,10,0:0:0:0:
96,192,48176,2,0,L|208:192,1,110,10|2,0:0|0:0,0:0:0:0:
32,192,48776,1,10,0:0:0:0:
416,192,49076,6,0,P|464:112|384:32,1,220,10|8,0:0|0:0,0:0:0:0:
48,48,49951,2,0,L|48:64,1,9.16666666666667,0|10,0:0|0:0,0:0:0:0:
272,112,50276,1,2,0:0:0:0:
112,192,50576,1,8,0:0:0:0:
480,192,50876,5,10,0:0:0:0:
320,192,51176,2,0,L|320:128,1,55,2|2,0:0|0:0,0:0:0:0:
400,96,51476,1,2,0:0:0:0:
176,96,51776,1,2,0:0:0:0:
256,192,51926,12,2,52376,0:0:0:0:
96,192,52676,6,0,L|256:144,2,165.000006294251,4|0|8,2:1|0:0|0:0,0:0:0:0:
352,192,53576,1,10,0:0:0:0:
96,192,53876,2,0,P|80:144|80:112,1,82.5000031471254,10|0,0:0|0:0,0:0:0:0:
80,80,54101,1,0,0:0:0:0:
160,48,54176,1,8,0:0:0:0:
416,192,54476,6,0,L|256:144,2,165.000006294251,10|10|8,0:0|0:0|0:0,0:0:0:0:
160,192,55376,1,10,0:0:0:0:
416,192,55676,2,0,P|432:144|432:112,1,82.5000031471254,8|0,0:0|0:0,0:0:0:0:
432,80,55901,1,0,0:0:0:0:
352,48,55976,2,0,L|432:32,1,82.5000031471254,8|0,0:0|0:0,0:0:0:0:
176,192,56276,6,0,L|336:144,1,165.000006294251,10|8,0:0|0:0,0:0:0:0:
208,144,56726,1,0,0:0:0:0:
304,240,56876,1,8,0:0:0:0:
176,240,57026,1,0,0:0:0:0:
336,192,57176,1,10,0:0:0:0:
80,192,57476,2,0,P|64:144|64:112,1,82.5000031471254,10|0,0:0|0:0,0:0:0:0:
64,80,57701,1,0,0:0:0:0:
144,64,57776,1,10,0:0:0:0:
400,192,58076,6,0,L|240:144,2,165.000006294251,10|8|8,0:0|0:0|0:0,0:0:0:0:
144,192,58976,2,0,L|304:240,1,165.000006294251,10|8,0:0|0:0,0:0:0:0:
176,288,59426,1,0,0:0:0:0:
448,288,59576,1,10,0:0:0:0:
80,192,59876,6,0,L|208:64,2,165.000006294251,10|8|8,0:0|0:0|0:0,0:0:0:0:
448,192,60776,1,10,0:0:0:0:
207,164,61076,2,0,P|167:160|144:128,1,82.5000031471254,10|0,0:0|0:0,0:0:0:0:
144,80,61301,1,0,0:0:0:0:
224,64,61376,1,10,0:0:0:0:
448,192,61676,6,8,L|288:144,2,165.000006294251,10|10|0,0:0|0:0|0:0,0:0:0:0:
192,224,62576,2,0,L|352:272,1,165.000006294251,10|8,0:0|0:0,0:0:0:0:
224,192,63026,2,0,L|224:144,1,41.2500015735627
288,192,63176,1,10,0:0:0:0:
128,192,63326,1,0,0:0:0:0:
384,192,63476,6,0,P|416:96|384:48,1,165.000006294251,10|8,0:0|0:0,0:0:0:0:
304,48,63926,1,0,0:0:0:0:
192,192,64076,1,8,0:0:0:0:
320,192,64226,1,0,0:0:0:0:
64,192,64376,1,10,0:0:0:0:
448,192,64676,2,0,P|464:144|464:112,1,82.5000031471254,10|0,0:0|0:0,0:0:0:0:
464,80,64901,1,0,0:0:0:0:
384,64,64976,1,10,0:0:0:0:
32,192,65276,5,10,0:0:0:0:
288,192,65576,2,0,P|304:240|304:272,1,82.5000031471254,8|0,0:0|0:0,0:0:0:0:
304,304,65801,1,0,0:0:0:0:
224,320,65876,2,0,L|304:336,1,82.5000031471254,8|0,0:0|0:0,0:0:0:0:
144,192,66176,2,0,L|224:176,1,82.5000031471254,8|0,0:0|0:0,0:0:0:0:
96,144,66476,1,8,0:0:0:0:
256,112,66626,1,0,0:0:0:0:
32,64,66776,1,10,0:0:0:0:
256,32,66926,1,0,0:0:0:0:
480,64,67076,6,0,P|432:240|304:272,1,330.000012588501,14|8,0:0|0:0,0:0:0:0:
48,192,67976,2,0,L|208:144,2,165.000006294251,10|10|8,0:0|0:0|0:0,0:0:0:0:
304,192,68876,6,8,L|400:48,2,165.000006294251,10|10|0,0:0|0:0|0:0,0:0:0:0:
48,320,69776,2,0,P|32:288|32:160,1,165.000006294251,10|8,0:0|0:0,0:0:0:0:
208,128,70376,1,10,0:0:0:0:
64,128,70526,1,0,0:0:0:0:
336,128,70676,6,0,P|368:176|336:272,1,165.000006294251,10|8,0:0|0:0,0:0:0:0:
256,272,71126,1,0,0:0:0:0:
144,192,71276,1,8,0:0:0:0:
288,128,71426,1,0,0:0:0:0:
48,192,71576,2,8,L|208:144,2,165.000006294251,10|8|2,0:0|0:0|0:0,0:0:0:0:
464,192,72476,5,10,0:0:0:0:
224,192,72776,2,0,L|352:80,1,165.000006294251,10|10,0:0|0:0,0:0:0:0:
112,192,73376,2,0,P|64:116|80:48,1,165.000006294251,10|8,0:0|0:0,0:0:0:0:
208,48,73826,1,0,0:0:0:0:
48,192,73976,1,10,0:0:0:0:
416,128,74276,6,0,P|448:176|416:272,1,165.000006294251,10|8,0:0|0:0,0:0:0:0:
336,272,74726,1,0,0:0:0:0:
224,192,74876,1,8,0:0:0:0:
368,128,75026,1,2,0:0:0:0:
304,128,75101,1,2,0:0:0:0:
144,192,75176,2,0,L|304:144,2,165.000006294251,10|10|8,0:0|0:0|0:0,0:0:0:0:
400,288,76076,6,8,L|304:144,2,165.000006294251,10|10|0,0:0|0:0|0:0,0:0:0:0:
144,128,76976,2,0,P|112:176|144:272,1,165.000006294251,10|8,0:0|0:0,0:0:0:0:
224,272,77426,1,0,0:0:0:0:
336,192,77576,1,10,0:0:0:0:
192,128,77726,1,0,0:0:0:0:
464,272,77876,6,0,P|480:176|432:144,1,165.000006294251,10|8,0:0|0:0,0:0:0:0:
352,144,78343,1,0,0:0:0:0:
464,144,78499,1,8,0:0:0:0:
320,144,78655,1,0,0:0:0:0:
96,192,78810,2,0,L|256:144,2,165.000006294251,10|10|10,0:0|0:0|0:0,0:0:0:0:
96,192,79631,1,8,0:0:0:0:
432,192,79796,5,4,0:0:0:0:
256,192,79946,12,10,81596,0:0:0:0:
400,192,83396,5,10,0:0:0:0:
112,192,85196,5,10,0:0:0:0:
400,192,86996,5,10,0:0:0:0:
112,192,88796,5,10,0:0:0:0:
272,192,89096,1,0,0:0:0:0:
112,192,89396,1,0,0:0:0:0:
400,192,89696,1,2,0:0:0:0:
256,192,89996,1,0,0:0:0:0:
112,192,90296,1,0,0:0:0:0:
416,192,90596,5,10,0:0:0:0:
256,192,90896,1,0,0:0:0:0:
416,192,91196,1,0,0:0:0:0:
128,192,91496,1,2,0:0:0:0:
272,192,91796,1,0,0:0:0:0:
416,192,92096,1,0,0:0:0:0:
112,192,92396,6,0,L|96:112,1,82.5000031471254,10|0,0:0|0:0,0:0:0:0:
240,192,92696,2,0,L|256:112,1,82.5000031471254,2|0,0:0|0:0,0:0:0:0:
112,192,92996,1,2,0:0:0:0:
256,192,93146,1,2,0:0:0:0:
400,192,93296,5,2,0:0:0:0:
448,192,93371,1,0,0:0:0:0:
448,144,93446,1,8,0:0:0:0:
400,144,93521,1,0,0:0:0:0:
320,96,93596,1,2,0:0:0:0:
368,96,93671,1,0,0:0:0:0:
416,96,93746,1,8,0:0:0:0:
464,96,93821,1,0,0:0:0:0:
384,192,93896,1,2,0:0:0:0:
336,192,93971,1,0,0:0:0:0:
336,144,94046,1,8,0:0:0:0:
384,144,94121,1,0,0:0:0:0:
304,144,94196,6,0,L|208:144,1,82.5000031471254,6|0,0:0|3:0,0:0:0:0:
368,80,94496,2,0,L|192:80,1,165.000006294251,2|0,0:0|3:0,0:0:0:0:
368,240,94796,2,0,L|272:240,1,82.5000031471254,2|0,0:0|3:0,0:0:0:0:
432,304,95096,6,0,L|256:304,1,165.000006294251,2|0,0:0|3:0,0:0:0:0:
432,272,95396,2,0,P|432:240|417:192,1,82.5000031471254,2|0,0:0|3:0,0:0:0:0:
288,192,95696,2,0,L|240:160,1,55
448,192,95846,2,0,L|400:160,1,55
160,192,95996,6,0,L|48:192,1,110,14|0,0:0|0:0,0:0:0:0:
104,192,96221,1,0,0:0:0:0:
160,192,96296,2,0,L|270:192,1,110,8|8,0:0|0:0,0:0:0:0:
216,192,96521,1,0,0:0:0:0:
160,192,96596,2,0,L|48:192,1,110,0|8,0:0|0:0,0:0:0:0:
104,192,96821,1,0,0:0:0:0:
272,192,96896,5,8,0:0:0:0:
326,194,96971,1,0,0:0:0:0:
373,168,97046,1,0,0:0:0:0:
398,120,97121,1,0,0:0:0:0:
240,64,97196,2,0,L|208:112,1,55,8|0,0:0|0:0,0:0:0:0:
368,160,97346,2,0,L|400:112,1,55,0|0,0:0|0:0,0:0:0:0:
240,64,97496,2,0,L|272:112,1,55,8|0,0:0|0:0,0:0:0:0:
432,160,97646,2,0,L|400:112,1,55,0|0,0:0|0:0,0:0:0:0:
208,64,97796,5,10,0:0:0:0:
157,85,97871,1,0,0:0:0:0:
118,123,97946,1,0,0:0:0:0:
96,173,98021,1,0,0:0:0:0:
160,176,98096,1,8,0:0:0:0:
224,192,98171,1,0,0:0:0:0:
288,192,98246,1,8,0:0:0:0:
352,208,98321,1,0,0:0:0:0:
416,211,98396,1,0,0:0:0:0:
394,261,98471,1,0,0:0:0:0:
355,299,98546,1,8,0:0:0:0:
304,320,98621,1,0,0:0:0:0:
128,336,98696,5,8,0:0:0:0:
64,288,98771,1,0,0:0:0:0:
128,240,98846,1,0,0:0:0:0:
192,288,98921,1,0,0:0:0:0:
256,240,98996,1,8,0:0:0:0:
192,192,99071,1,0,0:0:0:0:
256,144,99146,1,0,0:0:0:0:
320,192,99221,1,0,0:0:0:0:
368,128,99296,1,8,0:0:0:0:
304,80,99371,1,0,0:0:0:0:
368,32,99446,1,0,0:0:0:0:
432,80,99521,1,0,0:0:0:0:
256,144,99596,6,0,P|232:192|256:240,1,110,10|0,0:0|0:0,0:0:0:0:
320,288,99821,1,0,0:0:0:0:
256,336,99896,1,8,0:0:0:0:
192,288,99971,1,0,0:0:0:0:
256,144,100046,2,0,L|320:144,1,55,8|0,0:0|0:0,0:0:0:0:
375,96,100196,2,0,L|320:96,1,55,0|0,0:0|0:0,0:0:0:0:
384,48,100346,2,0,L|439:48,1,55,8|0,0:0|0:0,0:0:0:0:
192,48,100496,6,0,L|144:80,1,55,8|0,0:0|0:0,0:0:0:0:
80,112,100646,2,0,L|128:80,1,55,0|0,0:0|0:0,0:0:0:0:
272,96,100796,2,0,L|224:128,1,55,8|0,0:0|0:0,0:0:0:0:
160,160,100946,2,0,L|208:128,1,55,0|0,0:0|0:0,0:0:0:0:
352,144,101096,2,0,L|304:176,1,55,8|0,0:0|0:0,0:0:0:0:
240,208,101246,2,0,L|288:176,1,55,0|0,0:0|0:0,0:0:0:0:
464,192,101396,5,10,0:0:0:0:
320,192,101471,1,0,0:0:0:0:
176,192,101546,1,0,0:0:0:0:
192,144,101621,1,0,0:0:0:0:
336,144,101696,1,8,0:0:0:0:
400,144,101771,1,0,0:0:0:0:
256,96,101846,1,8,0:0:0:0:
232,144,101921,1,0,0:0:0:0:
232,192,101996,2,0,L|256:248,1,55
432,288,102146,2,0,L|408:232,1,55,8|0,0:0|0:0,0:0:0:0:
208,192,102296,5,8,0:0:0:0:
153,188,102371,1,0,0:0:0:0:
107,159,102446,1,8,0:0:0:0:
80,112,102521,1,0,0:0:0:0:
240,80,102596,2,0,L|304:80,1,55,8|0,0:0|0:0,0:0:0:0:
464,192,102746,2,0,L|432:112,1,55,8|0,0:0|0:0,0:0:0:0:
240,192,102896,2,0,L|260:243,1,55,8|0,0:0|0:0,0:0:0:0:
464,304,103046,2,0,L|409:304,1,55,8|0,0:0|0:0,0:0:0:0:
176,304,103196,6,0,P|112:304|80:272,1,110,14|0,0:0|0:0,0:0:0:0:
240,192,103421,2,0,L|304:192,1,55,8|0,0:0|0:0,0:0:0:0:
240,192,103571,2,0,L|176:192,1,55,0|8,0:0|0:0,0:0:0:0:
336,192,103721,1,0,0:0:0:0:
488,192,103796,2,0,L|488:304,1,110,8|8,0:0|0:0,0:0:0:0:
112,192,104096,6,0,L|48:192,1,55,8|0,0:0|0:0,0:0:0:0:
256,192,104246,2,0,L|320:192,1,55
112,192,104396,1,8,0:0:0:0:
64,240,104471,1,0,0:0:0:0:
64,288,104546,1,0,0:0:0:0:
112,336,104621,1,0,0:0:0:0:
320,336,104696,1,8,0:0:0:0:
448,336,104846,2,0,L|384:336,1,55,8|0,0:0|0:0,0:0:0:0:
80,192,104996,6,8,L|64:128,1,55,10|0,0:0|0:0,0:0:0:0:
384,192,105146,2,0,L|400:128,1,55,8|0,0:0|0:0,0:0:0:0:
144,128,105296,2,0,L|128:64,1,55,8|0,0:0|0:0,0:0:0:0:
320,128,105446,2,0,L|336:64,1,55,8|0,0:0|0:0,0:0:0:0:
144,128,105596,2,0,P|96:160|96:208,1,110,8|0,0:0|0:0,0:0:0:0:
112,256,105821,1,0,0:0:0:0:
368,256,105896,6,0,P|416:224|416:176,1,110,8|0,0:0|0:0,0:0:0:0:
400,128,106121,1,0,0:0:0:0:
192,96,106196,1,8,0:0:0:0:
144,144,106271,1,0,0:0:0:0:
192,192,106346,1,8,0:0:0:0:
256,192,106421,1,0,0:0:0:0:
320,288,106496,1,0,0:0:0:0:
368,240,106571,1,0,0:0:0:0:
320,192,106646,1,8,0:0:0:0:
256,192,106721,1,0,0:0:0:0:
48,192,106796,6,0,P|48:256|80:288,1,110,14|0,0:0|0:0,0:0:0:0:
128,304,107021,1,0,0:0:0:0:
272,256,107096,2,0,L|336:256,1,55,8|0,0:0|0:0,0:0:0:0:
176,128,107246,2,0,L|112:128,1,55,8|0,0:0|0:0,0:0:0:0:
336,256,107396,2,0,L|400:256,1,55,0|0,0:0|0:0,0:0:0:0:
240,128,107546,2,0,L|176:128,1,55,8|0,0:0|0:0,0:0:0:0:
368,192,107696,6,0,L|400:144,3,55,8|0|0|0,0:0|0:0|0:0|0:0,0:0:0:0:
192,192,107996,2,0,L|168:136,3,55,8|0|0|0,0:0|0:0|0:0|0:0,0:0:0:0:
320,192,108296,2,0,L|336:136,3,55,8|0|0|0,0:0|0:0|0:0|0:0,0:0:0:0:
144,192,108596,5,12,0:0:0:0:
112,235,108671,1,0,0:0:0:0:
122,288,108746,1,0,0:0:0:0:
166,318,108821,1,0,0:0:0:0:
304,256,108896,1,8,0:0:0:0:
280,212,108971,1,0,0:0:0:0:
232,212,109046,1,0,0:0:0:0:
208,256,109121,1,0,0:0:0:0:
345,318,109196,1,8,0:0:0:0:
389,287,109271,1,0,0:0:0:0:
398,234,109346,1,0,0:0:0:0:
366,191,109421,1,0,0:0:0:0:
192,192,109496,6,0,L|128:192,1,55,10|0,0:0|1:0,0:0:0:0:
320,192,109646,2,0,L|384:192,1,55,10|0,0:0|1:0,0:0:0:0:
192,192,109796,2,0,L|160:144,1,55,10|0,0:0|1:0,0:0:0:0:
320,192,109946,2,0,L|352:144,1,55,10|0,0:0|1:0,0:0:0:0:
192,192,110096,1,10,0:0:0:0:
320,192,110246,1,10,0:0:0:0:
80,48,110396,6,0,L|144:48,1,55,14|0,0:0|0:0,0:0:0:0:
320,48,110546,2,0,L|384:48,1,55,0|0,0:0|0:0,0:0:0:0:
192,128,110696,1,8,0:0:0:0:
80,336,110846,2,0,L|144:336,1,55,8|0,0:0|0:0,0:0:0:0:
320,336,110996,2,0,L|384:336,1,55,0|0,0:0|0:0,0:0:0:0:
192,256,111146,2,0,L|128:256,1,55,8|0,0:0|0:0,0:0:0:0:
320,256,111296,5,8,0:0:0:0:
432,192,111446,2,0,L|368:192,1,55,0|0,0:0|0:0,0:0:0:0:
192,192,111596,2,0,P|176:176|192:96,1,110,8|0,0:0|0:0,0:0:0:0:
320,96,111896,2,0,L|256:96,1,55,8|0,0:0|0:0,0:0:0:0:
448,96,112046,2,0,L|384:96,1,55
208,48,112196,6,0,L|144:48,1,55,10|0,0:0|0:0,0:0:0:0:
208,48,112346,2,0,L|272:48,1,55
192,192,112496,2,0,L|256:192,1,55,8|0,0:0|0:0,0:0:0:0:
320,192,112646,2,0,L|384:192,1,55,8|0,0:0|0:0,0:0:0:0:
304,48,112796,2,0,L|368:48,1,55,0|0,0:0|0:0,0:0:0:0:
176,192,112946,2,0,L|112:192,1,55,8|0,0:0|0:0,0:0:0:0:
320,192,113096,6,0,P|384:208|416:240,1,110,8|0,0:0|0:0,0:0:0:0:
384,304,113321,1,0,0:0:0:0:
192,192,113396,2,0,P|128:208|96:240,1,110,8|0,0:0|0:0,0:0:0:0:
128,304,113621,1,0,0:0:0:0:
320,192,113696,2,0,L|384:192,1,55,8|0,0:0|0:0,0:0:0:0:
192,192,113846,2,0,L|176:128,1,55,0|0,0:0|0:0,0:0:0:0:
368,192,113996,6,0,P|384:208|368:288,1,110,10|0,0:0|0:0,0:0:0:0:
320,192,114221,1,0,0:0:0:0:
144,192,114296,2,0,L|128:128,1,55,8|0,0:0|0:0,0:0:0:0:
200,192,114446,2,0,L|232:144,1,55,8|0,0:0|0:0,0:0:0:0:
88,256,114596,2,0,L|40:224,1,55,0|0,0:0|0:0,0:0:0:0:
112,256,114746,2,0,L|176:256,1,55,8|0,0:0|0:0,0:0:0:0:
352,192,114896,6,0,P|400:192|448:152,1,110,8|0,0:0|0:0,0:0:0:0:
393,96,115121,1,0,0:0:0:0:
208,96,115196,2,0,L|272:96,1,55,8|0,0:0|0:0,0:0:0:0:
448,96,115346,2,0,L|384:96,1,55,0|0,0:0|0:0,0:0:0:0:
224,96,115496,1,8,0:0:0:0:
160,96,115571,1,0,0:0:0:0:
128,160,115646,1,0,0:0:0:0:
128,224,115721,1,0,0:0:0:0:
160,288,115796,5,2,0:0:0:0:
224,288,115871,1,10,0:0:0:0:
384,304,115946,2,0,L|384:240,1,55,2|0,0:0|0:0,0:0:0:0:
304,240,116096,1,10,0:0:0:0:
128,304,116171,2,0,L|128:240,1,55,2|0,0:0|0:0,0:0:0:0:
208,240,116321,1,10,0:0:0:0:
416,192,116396,2,0,L|400:128,1,55,2|0,0:0|0:0,0:0:0:0:
320,144,116546,1,10,0:0:0:0:
96,192,116621,2,0,L|112:128,1,55,2|0,0:0|0:0,0:0:0:0:
192,144,116771,5,10,0:0:0:0:
448,96,116846,2,0,L|416:48,1,55,2|0,0:0|0:0,0:0:0:0:
176,48,116996,1,10,0:0:0:0:
432,80,117146,2,0,L|432:144,1,55,2|0,0:0|1:0,0:0:0:0:
360,144,117296,2,0,L|360:208,1,55,2|0,0:0|1:0,0:0:0:0:
432,208,117446,2,0,L|432:272,1,55,2|0,0:0|1:0,0:0:0:0:
224,256,117596,6,0,P|176:240|144:192,1,110,10|0,0:0|0:0,0:0:0:0:
368,96,117896,2,0,L|432:96,1,55,8|0,0:0|0:0,0:0:0:0:
224,96,118046,1,8,0:0:0:0:
169,98,118121,1,0,0:0:0:0:
124,129,118196,1,0,0:0:0:0:
102,179,118271,1,0,0:0:0:0:
96,224,118346,1,8,0:0:0:0:
272,320,118496,5,8,0:0:0:0:
128,272,118646,1,2,2:0:0:0:
304,240,118796,1,8,0:0:0:0:
160,192,118946,1,2,2:0:0:0:
336,160,119096,1,8,0:0:0:0:
192,112,119246,1,2,2:0:0:0:
368,80,119396,5,10,0:0:0:0:
112,80,119546,1,2,2:0:0:0:
368,80,119696,2,0,P|384:128|352:176,1,110,8|0,0:0|0:0,0:0:0:0:
192,192,119996,1,8,0:0:0:0:
336,240,120146,1,2,2:0:0:0:
160,112,120296,5,8,0:0:0:0:
304,160,120446,1,2,2:0:0:0:
48,192,120596,1,8,0:0:0:0:
464,192,120896,1,8,0:0:0:0:
48,192,121196,5,10,0:0:0:0:
29,141,121271,1,0,0:0:0:0:
53,94,121346,1,0,0:0:0:0:
105,78,121421,1,0,0:0:0:0:
304,192,121496,2,0,L|240:192,1,55,8|0,0:0|0:0,0:0:0:0:
48,192,121646,2,0,L|112:192,1,55,8|0,0:0|0:0,0:0:0:0:
304,192,121796,1,0,0:0:0:0:
356,176,121871,1,0,0:0:0:0:
380,129,121946,1,8,0:0:0:0:
361,78,122021,1,0,0:0:0:0:
160,80,122096,6,0,L|128:128,3,55,8|0|0|0,0:0|0:0|0:0|0:0,0:0:0:0:
320,192,122396,2,0,L|344:248,3,55,8|0|0|0,0:0|0:0|0:0|0:0,0:0:0:0:
176,192,122696,2,0,L|160:248,3,55,8|0|0|0,0:0|0:0|0:0|0:0,0:0:0:0:
320,192,122996,5,12,0:0:0:0:
368,144,123071,1,0,0:0:0:0:
368,80,123146,1,0,0:0:0:0:
320,32,123221,1,0,0:0:0:0:
144,192,123296,1,8,0:0:0:0:
96,240,123371,1,0,0:0:0:0:
96,304,123446,1,0,0:0:0:0:
144,352,123521,1,0,0:0:0:0:
368,192,123596,1,8,0:0:0:0:
416,144,123671,1,0,0:0:0:0:
416,80,123746,1,0,0:0:0:0:
368,32,123821,1,0,0:0:0:0:
144,144,123896,6,0,L|144:208,1,55,8|0,0:0|0:0,0:0:0:0:
368,144,124046,2,0,L|368:208,1,55,0|0,0:0|0:0,0:0:0:0:
144,144,124196,2,0,L|96:192,1,55,8|0,0:0|0:0,0:0:0:0:
368,144,124346,2,0,L|416:192,1,55,8|0,0:0|0:0,0:0:0:0:
144,144,124496,2,0,L|80:144,1,55,8|0,0:0|0:0,0:0:0:0:
368,144,124646,2,0,L|432:144,1,55,8|0,0:0|0:0,0:0:0:0:
144,144,124796,6,0,P|136:184|144:224,1,82.5,4|0,0:0|0:0,0:0:0:0:
368,144,125096,1,4,0:0:0:0:
144,192,128096,6,0,L|128:128,1,55,0|0,0:0|0:0,0:0:0:0:
176,80,128321,1,0,0:0:0:0:
368,192,128396,5,4,0:0:0:0:
256,192,128546,2,0,L|256:288,1,82.5000031471254,2|0,0:0|0:0,0:0:0:0:
144,192,128846,2,0,L|144:288,1,82.5000031471254,2|0,0:0|0:0,0:0:0:0:
256,192,129146,2,0,L|304:192,1,41.2500015735627,0|0,0:0|0:0,0:0:0:0:
432,192,129296,6,0,P|432:256|352:304,1,165.000006294251,12|0,0:0|0:0,0:0:0:0:
192,304,129746,2,0,L|288:304,2,82.5000031471254,2|0|0,0:0|0:0|0:0,0:0:0:0:
128,304,130121,1,0,0:0:0:0:
288,192,130196,5,12,0:0:0:0:
432,192,130346,1,4,0:0:0:0:
272,144,130496,1,6,0:0:0:0:
416,144,130646,1,4,0:0:0:0:
256,96,130796,1,6,0:0:0:0:
400,96,130946,1,4,0:0:0:0:
128,192,131096,6,0,L|128:96,1,82.5000031471254,14|0,0:0|0:0,0:0:0:0:
192,48,131321,1,0,0:0:0:0:
384,192,131396,2,0,L|384:288,1,82.5000031471254,2|0,0:0|0:0,0:0:0:0:
320,336,131621,1,0,0:0:0:0:
64,192,131696,2,0,L|64:96,1,82.5000031471254,2|0,0:0|0:0,0:0:0:0:
128,48,131921,1,0,0:0:0:0:
448,192,131996,6,0,P|448:272|384:320,1,165.000006294251,4|0,0:0|0:0,0:0:0:0:
64,192,132296,1,14,0:0:0:0:
288,192,132446,1,0,0:0:0:0:
176,192,132596,2,0,P|128:160|112:112,1,110,8|8,0:0|0:0,0:0:0:0:
448,192,132896,6,0,L|336:192,1,110,10|0,0:0|0:0,0:0:0:0:
392,128,133121,1,0,0:0:0:0:
448,64,133196,2,0,L|336:64,1,110,8|0,0:0|0:0,0:0:0:0:
48,64,133496,1,8,0:0:0:0:
256,192,133646,1,8,0:0:0:0:
48,320,133796,6,0,P|80:256|208:192,2,220,12|0|8,0:0|0:0|0:0,0:0:0:0:
96,320,134471,1,0,0:0:0:0:
168,320,134546,1,8,0:0:0:0:
256,320,134621,1,0,0:0:0:0:
464,320,134696,6,0,P|432:256|304:192,1,220,10|8,0:0|0:0,0:0:0:0:
405,229,135146,1,0,0:0:0:0:
464,320,135296,1,8,0:0:0:0:
416,320,135371,1,0,0:0:0:0:
344,320,135446,1,8,0:0:0:0:
256,320,135521,1,0,0:0:0:0:
48,320,135596,6,0,P|64:240|128:192,1,165,14|0,0:0|0:0,0:0:0:0:
240,192,135896,2,0,L|130:192,1,110,8|0,0:0|0:0,0:0:0:0:
256,128,136196,1,8,0:0:0:0:
112,128,136346,1,8,0:0:0:0:
400,128,136496,5,10,0:0:0:0:
272,192,136646,1,0,0:0:0:0:
208,192,136721,1,0,0:0:0:0:
160,192,136796,2,0,L|80:112,1,110,8|0,0:0|0:0,0:0:0:0:
352,192,137096,2,0,L|432:112,1,110,8|8,0:0|0:0,0:0:0:0:
160,192,137396,6,0,P|64:224|16:336,2,220,14|0|8,0:0|0:0|0:0,0:0:0:0:
208,192,138071,1,0,0:0:0:0:
272,192,138146,1,8,0:0:0:0:
352,192,138221,1,0,0:0:0:0:
160,192,138296,6,0,P|64:160|16:48,1,220,10|10,0:0|0:0,0:0:0:0:
256,48,138746,1,0,0:0:0:0:
128,48,138896,1,10,0:0:0:0:
256,48,139046,1,8,0:0:0:0:
464,320,139196,6,0,P|448:240|384:192,1,165,14|0,0:0|0:0,0:0:0:0:
272,192,139496,2,0,L|382:192,1,110,8|0,0:0|0:0,0:0:0:0:
256,128,139796,1,8,0:0:0:0:
400,128,139946,1,8,0:0:0:0:
112,128,140096,5,10,0:0:0:0:
240,192,140246,1,0,0:0:0:0:
304,192,140321,1,0,0:0:0:0:
352,192,140396,2,0,L|432:112,1,110,8|0,0:0|0:0,0:0:0:0:
160,192,140696,2,0,L|80:112,1,110,8|8,0:0|0:0,0:0:0:0:
352,192,140996,6,0,P|448:224|496:336,2,220,14|0|8,0:0|0:0|0:0,0:0:0:0:
304,192,141671,1,0,0:0:0:0:
240,192,141746,1,8,0:0:0:0:
160,192,141821,1,0,0:0:0:0:
352,192,141896,6,0,P|448:160|496:48,1,220,10|10,0:0|0:0,0:0:0:0:
352,32,142346,1,0,0:0:0:0:
480,32,142496,1,10,0:0:0:0:
432,32,142571,1,0,0:0:0:0:
368,32,142646,1,8,0:0:0:0:
288,32,142721,1,0,0:0:0:0:
48,64,142796,6,0,P|64:144|128:192,1,165,14|0,0:0|0:0,0:0:0:0:
240,192,143096,2,0,L|130:192,1,110,8|0,0:0|0:0,0:0:0:0:
256,256,143396,1,8,0:0:0:0:
112,256,143546,1,8,0:0:0:0:
400,256,143696,5,10,0:0:0:0:
112,192,143846,1,0,0:0:0:0:
192,192,143921,1,0,0:0:0:0:
272,192,143996,2,0,L|160:192,1,110,8|0,0:0|0:0,0:0:0:0:
400,96,144296,2,0,L|288:96,1,110,8|0,0:0|0:0,0:0:0:0:
48,320,144596,6,0,P|91:222|192:185,1,220,14|8,0:0|0:0,0:0:0:0:
320,192,145046,1,0,0:0:0:0:
168,80,145196,1,8,0:0:0:0:
344,80,145346,1,0,0:0:0:0:
80,304,145496,6,0,L|64:192,1,110,10|0,0:0|0:0,0:0:0:0:
320,304,145796,2,0,L|336:192,1,110,10|0,0:0|0:0,0:0:0:0:
192,304,146096,2,0,L|176:192,1,110,10|0,0:0|0:0,0:0:0:0:
448,192,146396,5,12,0:0:0:0:
176,192,146546,2,0,L|176:80,1,110,10|0,0:0|0:0,0:0:0:0:
320,80,146846,1,8,0:0:0:0:
64,192,146996,1,10,0:0:0:0:
352,192,147296,5,8,0:0:0:0:
160,192,147596,1,8,0:0:0:0:
448,192,147896,1,8,0:0:0:0:
64,192,148196,6,0,L|288:192,1,220,6|0,0:0|0:0,0:0:0:0:
48,96,148796,1,8,0:0:0:0:
448,192,149096,6,0,L|224:192,1,220,6|0,0:0|0:0,0:0:0:0:
464,96,149696,1,8,0:0:0:0:
64,192,149996,5,12,0:0:0:0:
336,192,150146,2,0,L|336:304,1,110,10|0,0:0|0:0,0:0:0:0:
192,304,150446,1,8,0:0:0:0:
448,192,150596,1,10,0:0:0:0:
160,192,150896,5,8,0:0:0:0:
352,192,151196,1,8,0:0:0:0:
64,192,151496,1,8,0:0:0:0:
448,192,151796,6,0,L|224:192,1,220,6|0,0:0|0:0,0:0:0:0:
320,192,152246,1,0,0:0:0:0:
48,288,152396,1,8,0:0:0:0:
432,192,152696,6,0,L|432:80,1,110,6|0,0:0|0:0,0:0:0:0:
288,64,152996,1,8,0:0:0:0:
480,192,153296,1,8,0:0:0:0:
48,192,153596,6,0,P|48:112|160:48,1,220,6|0,0:0|0:0,0:0:0:0:
352,48,154196,1,8,0:0:0:0:
160,192,154496,5,2,0:0:0:0:
304,192,154646,1,0,0:0:0:0:
160,192,154796,1,8,0:0:0:0:
448,192,155096,1,10,0:0:0:0:
160,192,155246,1,8,0:0:0:0:
448,192,155396,6,0,L|448:80,1,110,10|0,0:0|0:0,0:0:0:0:
304,48,155696,2,0,P|336:128|448:192,1,220,0|8,0:0|0:0,0:0:0:0:
64,192,156296,6,0,L|64:80,1,110,10|0,0:0|0:0,0:0:0:0:
208,48,156596,2,0,P|176:128|64:192,1,220,0|8,0:0|0:0,0:0:0:0:
208,48,157046,2,0,L|272:48,1,55,10|0,0:0|0:0,0:0:0:0:
464,192,157196,6,0,L|288:192,1,165,4|4,0:0|0:0,0:0:0:0:
432,192,157496,1,4,0:0:0:0:
144,240,157646,2,0,P|64:192|144:144,1,220,4|10,0:0|0:0,0:0:0:0:
432,192,158096,5,8,0:0:0:0:
112,192,158246,1,8,0:0:0:0:
368,192,158396,2,0,P|400:128|336:64,1,165,6|0,0:0|0:0,0:0:0:0:
144,192,158696,2,0,P|112:256|176:320,1,165,6|0,0:0|0:0,0:0:0:0:
368,192,158996,5,2,0:0:0:0:
144,192,159146,1,2,0:0:0:0:
368,192,159296,2,0,P|400:128|336:64,1,165,2|0,0:0|0:0,0:0:0:0:
144,192,159596,2,0,L|80:192,1,55,8|0,0:0|0:0,0:0:0:0:
368,192,159746,2,0,L|432:192,1,55,8|0,0:0|0:0,0:0:0:0:
112,192,159896,6,0,P|32:256|32:368,2,220,6|8|8,0:0|0:0|0:0,0:0:0:0:
368,192,160796,6,0,P|432:144|448:64,2,165.000006294251,14|0|8,0:0|0:0|0:0,0:0:0:0:
192,192,161696,2,0,L|368:192,2,165.000006294251,10|2|10,0:0|0:0|0:0,0:0:0:0:
448,192,162596,6,0,L|288:144,2,165.000006294251,10|2|10,0:0|0:0|0:0,0:0:0:0:
256,256,163496,2,0,P|224:160|400:96,1,330.000012588501,10|8,0:0|0:0,0:0:0:0:
114,94,164396,6,0,P|263:106|256:256,1,330.000012588501,10|10,0:0|0:0,0:0:0:0:
64,192,165296,2,0,L|224:144,2,165.000006294251,10|2|10,0:0|0:0|0:0,0:0:0:0:
352,192,166196,5,6,0:0:0:0:
256,192,166346,12,14,167996,0:0:0:0:
208,256,168909,6,0,P|192:192|208:144,1,110,10|2,0:0|0:0,0:0:0:0:
288,112,169366,1,0,0:0:0:0:
208,112,169518,1,2,0:0:0:0:
416,192,169823,1,10,0:0:0:0:
256,192,170127,1,0,0:0:0:0:
384,192,170432,1,0,0:0:0:0:
128,192,170737,5,10,0:0:0:0:
352,192,171346,1,2,0:0:0:0:
160,192,171650,1,10,0:0:0:0:
384,192,172564,5,10,0:0:0:0:
128,192,172869,1,2,0:0:0:0:
304,192,173173,1,2,0:0:0:0:
48,192,173478,1,10,0:0:0:0:
464,192,175305,5,6,0:0:0:0:
208,256,176232,6,0,P|192:192|208:144,1,110,10|2,0:0|0:0,0:0:0:0:
304,112,176851,1,2,0:0:0:0:
96,192,177160,1,10,0:0:0:0:
256,192,177469,1,0,0:0:0:0:
128,192,177779,1,0,0:0:0:0:
384,192,178088,5,10,0:0:0:0:
160,192,178707,1,2,0:0:0:0:
352,192,179016,1,2,0:0:0:0:
128,192,179958,5,0,0:0:0:0:
352,192,180277,1,2,0:0:0:0:
192,192,180601,1,2,0:0:0:0:
416,192,180953,1,2,0:0:0:0:
176,192,181936,6,0,P|176:144|192:80,1,110,4|0,0:0|0:0,0:0:0:0:
336,192,182304,2,0,P|336:240|320:304,1,110,2|0,0:0|0:0,0:0:0:0:
245,303,182581,1,0,0:0:0:0:
160,192,182674,2,0,P|160:144|176:80,1,110,2|0,0:0|0:0,0:0:0:0:
416,192,182943,6,0,P|400:288|352:336,1,165.000006294251,14|0,0:0|0:0,0:0:0:0:
176,208,183543,2,0,L|256:192,1,82.5000031471254,8|0,0:0|0:0,0:0:0:0:
96,192,183843,2,0,P|112:288|160:336,1,165.000006294251,10|2,0:0|0:0,0:0:0:0:
240,272,184293,1,0,0:0:0:0:
336,208,184443,2,0,L|256:192,1,82.5000031471254,10|0,0:0|0:0,0:0:0:0:
96,192,184743,6,0,P|144:128|224:128,2,165.000006294251,10|2|10,0:0|0:0|0:0,0:0:0:0:
256,288,185493,1,0,0:0:0:0:
416,192,185643,2,0,P|368:128|288:128,2,165.000006294251,10|0|10,0:0|0:0|0:0,0:0:0:0:
256,288,186393,1,2,0:0:0:0:
416,192,186543,6,0,L|288:320,2,165.000006294251,10|0|8,0:0|0:0|0:0,0:0:0:0:
240,192,187443,1,10,0:0:0:0:
480,192,187743,1,2,0:0:0:0:
256,192,188043,1,10,0:0:0:0:
464,192,188343,6,0,P|452:260|368:288,1,165.000006294251,10|2,0:0|0:0,0:0:0:0:
312,288,188718,1,0,0:0:0:0:
256,272,188793,1,2,0:0:0:0:
224,224,188830,2,0,L|192:224,2,20.6250007867813
256,176,188943,2,0,L|352:176,1,82.5000031471254,8|2,0:0|0:0,0:0:0:0:
176,64,189243,2,0,L|272:64,1,82.5000031471254,10|2,0:0|0:0,0:0:0:0:
384,112,189543,2,2,L|302:112,1,82.5000031471254,2|0,0:0|0:0,0:0:0:0:
176,96,189843,2,2,L|176:192,1,82.5000031471254,10|0,0:0|0:0,0:0:0:0:
400,192,190143,6,0,P|416:256|352:320,1,165.000006294251,14|8,0:0|0:0,0:0:0:0:
256,192,190593,1,0,0:0:0:0:
352,192,190743,2,0,L|256:192,1,82.5000031471254,8|0,0:0|0:0,0:0:0:0:
192,192,190968,1,0,0:0:0:0:
112,192,191043,2,0,P|96:256|160:320,1,165.000006294251,10|10,0:0|0:0,0:0:0:0:
256,192,191493,1,0,0:0:0:0:
160,192,191643,2,0,L|256:192,1,82.5000031471254,10|0,0:0|0:0,0:0:0:0:
464,192,191943,6,0,P|432:112|368:128,1,165.000006294251,10|10,0:0|0:0,0:0:0:0:
464,192,192393,1,0,0:0:0:0:
336,192,192543,2,0,L|368:272,1,82.5000031471254,10|0,0:0|0:0,0:0:0:0:
142,257,192843,2,0,P|67:265|48:192,1,165.000006294251,10|8,0:0|0:0,0:0:0:0:
144,192,193293,1,0,0:0:0:0:
32,144,193443,2,0,L|128:144,1,82.5000031471254,10|2,0:0|0:0,0:0:0:0:
352,192,193743,6,0,P|416:192|480:112,2,165.000006294251,10|8|8,0:0|0:0|0:0,0:0:0:0:
160,192,194643,1,10,0:0:0:0:
432,192,194943,1,10,0:0:0:0:
192,192,195243,1,10,0:0:0:0:
400,192,195543,6,0,L|352:192,2,41.2500015735627,10|0|2,0:0|0:0|0:0,0:0:0:0:
256,192,200943,12,0,202443,0:0:0:0:
288,192,202743,5,12,0:0:0:0:
320,192,203043,1,0,0:0:0:0:
352,192,203343,1,0,0:0:0:0:
320,128,203643,1,0,0:0:0:0:
288,128,203943,1,0,0:0:0:0:
256,128,204243,1,0,0:0:0:0:
192,192,204543,5,8,0:0:0:0:
128,192,204843,1,0,0:0:0:0:
64,192,205143,1,0,0:0:0:0:
128,128,205443,1,0,0:0:0:0:
192,128,205743,1,0,0:0:0:0:
256,128,206043,1,0,0:0:0:0:
192,128,206193,1,2,0:0:0:0:
352,192,206343,5,10,0:0:0:0:
448,192,206643,1,0,0:0:0:0:
352,192,206943,1,0,0:0:0:0:
448,192,207243,1,0,0:0:0:0:
352,192,207543,1,0,0:0:0:0:
448,192,207843,1,0,0:0:0:0:
448,192,207993,1,2,0:0:0:0:
288,192,208143,5,10,0:0:0:0:
400,192,208443,2,0,L|384:128,1,55,2|0,0:0|0:0,0:0:0:0:
272,192,208743,2,0,L|256:128,1,55,2|0,0:0|0:0,0:0:0:0:
368,192,209043,2,0,L|352:256,1,55,2|0,0:0|0:0,0:0:0:0:
240,192,209343,2,0,L|224:256,1,55,2|0,0:0|0:0,0:0:0:0:
336,192,209643,2,0,L|320:128,1,55,2|2,0:0|0:0,0:0:0:0:
144,192,209943,5,14,0:0:0:0:
32,192,210243,1,0,0:0:0:0:
160,128,210543,1,0,0:0:0:0:
48,128,210843,1,0,0:0:0:0:
176,64,211143,1,0,0:0:0:0:
64,64,211443,1,0,0:0:0:0:
368,192,211743,5,14,0:0:0:0:
256,192,212043,2,0,L|272:256,1,55,0|0,0:0|0:0,0:0:0:0:
384,256,212343,2,0,L|400:320,1,55,0|0,0:0|0:0,0:0:0:0:
288,256,212643,2,0,L|304:320,1,55,0|0,0:0|0:0,0:0:0:0:
416,320,212943,2,0,L|432:256,1,55,0|0,0:0|0:0,0:0:0:0:
320,320,213243,2,0,L|336:256,1,55,0|0,0:0|0:0,0:0:0:0:
160,192,213543,6,0,L|144:128,1,55,14|0,0:0|0:0,0:0:0:0:
48,96,213843,1,2,0:0:0:0:
224,192,214143,2,0,L|208:128,1,55,8|0,0:0|0:0,0:0:0:0:
112,96,214443,1,2,0:0:0:0:
288,192,214743,2,0,L|272:128,1,55,8|0,0:0|0:0,0:0:0:0:
176,96,215043,1,2,0:0:0:0:
368,192,215343,5,4,0:0:0:0:
144,192,215493,1,4,0:0:0:0:
368,192,215643,1,8,0:0:0:0:
387,227,215718,1,0,0:0:0:0:
388,267,215793,1,0,0:0:0:0:
367,303,215868,1,0,0:0:0:0:
144,192,215943,1,8,0:0:0:0:
125,227,216018,1,0,0:0:0:0:
124,267,216093,1,0,0:0:0:0:
145,303,216168,1,0,0:0:0:0:
432,128,216243,5,8,0:0:0:0:
464,192,216318,1,0,0:0:0:0:
432,256,216393,1,0,0:0:0:0:
400,192,216468,1,0,0:0:0:0:
256,128,216543,1,8,0:0:0:0:
224,192,216618,1,0,0:0:0:0:
256,256,216693,1,0,0:0:0:0:
288,192,216768,1,0,0:0:0:0:
80,128,216843,1,8,0:0:0:0:
48,192,216918,1,0,0:0:0:0:
80,256,216993,1,0,0:0:0:0:
112,192,217068,1,0,0:0:0:0:
320,128,217143,6,0,L|368:128,1,41.2500015735627,12|0,0:0|0:0,0:0:0:0:
144,64,217293,2,0,L|96:64,1,41.2500015735627,4|0,0:0|0:0,0:0:0:0:
320,64,217443,1,8,0:0:0:0:
360,67,217518,1,0,0:0:0:0:
395,89,217593,1,0,0:0:0:0:
415,125,217668,1,0,0:0:0:0:
192,64,217743,1,8,0:0:0:0:
151,67,217818,1,0,0:0:0:0:
116,89,217893,1,0,0:0:0:0:
96,125,217968,1,0,0:0:0:0:
320,192,218043,6,0,L|352:224,1,41.2500015735627,8|0,0:0|0:0,0:0:0:0:
112,192,218193,2,0,L|144:224,1,41.2500015735627,8|0,0:0|0:0,0:0:0:0:
320,192,218343,2,0,L|320:240,1,41.2500015735627,8|0,0:0|0:0,0:0:0:0:
112,192,218493,2,0,L|112:240,1,41.2500015735627,8|0,0:0|0:0,0:0:0:0:
320,192,218643,2,0,L|288:224,1,41.2500015735627,8|0,0:0|0:0,0:0:0:0:
112,192,218793,2,0,L|80:224,1,41.2500015735627,8|0,0:0|0:0,0:0:0:0:
287,108,218943,6,0,P|176:82|224:224,1,330,4|8,0:0|0:0,0:0:0:0:
256,208,220743,1,8,0:0:0:0:
304,192,221643,6,0,L|384:192,1,65.9999979858399,8|0,0:0|0:0,0:0:0:0:
304,192,221943,2,0,L|400:192,1,88,0|0,0:0|0:0,0:0:0:0:
304,192,222243,2,0,L|416:192,1,110,0|0,0:0|0:0,0:0:0:0:
144,192,222543,6,0,L|32:192,1,110,10|0,0:0|0:0,0:0:0:0:
96,192,222768,1,0,0:0:0:0:
160,192,222843,1,8,0:0:0:0:
304,192,222993,2,0,L|368:192,2,55,0|0|8,0:0|0:0|0:0,0:0:0:0:
160,192,223293,2,0,L|128:192,2,27.5
368,112,223443,5,8,0:0:0:0:
256,112,223593,1,0,0:0:0:0:
229,107,223630,1,0,0:0:0:0:
206,91,223668,1,0,0:0:0:0:
193,68,223705,1,0,0:0:0:0:
192,40,223743,1,8,0:0:0:0:
320,32,223893,1,8,0:0:0:0:
48,192,224043,1,8,0:0:0:0:
256,256,224193,1,0,0:0:0:0:
464,192,224343,5,10,0:0:0:0:
336,192,224493,1,0,0:0:0:0:
296,192,224530,1,0,0:0:0:0:
272,192,224568,1,0,0:0:0:0:
296,192,224605,1,0,0:0:0:0:
336,192,224643,2,0,L|448:192,1,110,8|0,0:0|0:0,0:0:0:0:
128,192,224943,2,0,L|73:192,1,55,8|0,0:0|0:0,0:0:0:0:
224,192,225093,2,0,L|288:192,1,55,0|0,0:0|0:0,0:0:0:0:
128,192,225243,5,8,0:0:0:0:
176,192,225318,1,0,0:0:0:0:
240,192,225393,2,0,L|272:192,2,27.5,0|0|0,0:0|0:0|0:0,0:0:0:0:
80,192,225543,2,0,L|80:80,1,110,8|8,0:0|0:0,0:0:0:0:
336,144,225843,1,8,0:0:0:0:
363,143,225880,1,0,0:0:0:0:
386,157,225918,1,0,0:0:0:0:
398,181,225955,1,0,0:0:0:0:
396,208,225993,1,0,0:0:0:0:
381,231,226030,1,0,0:0:0:0:
356,241,226068,1,0,0:0:0:0:
144,192,226143,6,0,L|32:192,1,110,10|0,0:0|0:0,0:0:0:0:
478,192,226443,2,0,L|368:192,1,110,8|0,0:0|0:0,0:0:0:0:
304,192,226668,1,0,0:0:0:0:
368,192,226743,2,0,L|478:192,1,110,8|0,0:0|0:0,0:0:0:0:
448,192,226930,1,0,0:0:0:0:
416,192,226968,1,0,0:0:0:0:
256,96,227043,6,0,L|368:96,1,110,8|0,0:0|0:0,0:0:0:0:
400,96,227268,1,0,0:0:0:0:
256,96,227343,2,0,L|144:96,1,110,8|8,0:0|0:0,0:0:0:0:
112,96,227568,1,0,0:0:0:0:
256,192,227643,2,0,L|320:192,1,55,8|0,0:0|0:0,0:0:0:0:
144,192,227793,2,0,L|80:192,1,55,0|0,0:0|0:0,0:0:0:0:
256,192,227943,6,0,L|368:192,1,110,10|0,0:0|0:0,0:0:0:0:
338,192,228130,1,0,0:0:0:0:
311,192,228168,1,0,0:0:0:0:
283,192,228205,1,0,0:0:0:0:
256,192,228243,1,8,0:0:0:0:
384,192,228393,1,0,0:0:0:0:
96,192,228543,2,0,L|32:192,2,55,8|0|0,0:0|0:0|0:0,0:0:0:0:
416,192,228843,5,8,0:0:0:0:
304,192,228993,1,0,0:0:0:0:
272,192,229030,1,0,0:0:0:0:
256,192,229068,1,0,0:0:0:0:
416,192,229143,2,0,L|416:80,1,110,8|8,0:0|0:0,0:0:0:0:
96,192,229443,1,8,0:0:0:0:
71,179,229480,1,0,0:0:0:0:
55,157,229518,1,0,0:0:0:0:
48,131,229555,1,0,0:0:0:0:
52,104,229593,1,0,0:0:0:0:
67,81,229630,1,0,0:0:0:0:
89,66,229668,1,0,0:0:0:0:
416,192,229743,6,0,P|400:272|272:288,1,220,14|8,0:0|0:0,0:0:0:0:
240,240,230118,1,0,0:0:0:0:
241,185,230193,1,0,0:0:0:0:
274,142,230268,1,0,0:0:0:0:
325,124,230343,1,8,0:0:0:0:
377,139,230418,1,0,0:0:0:0:
416,112,230455,1,0,0:0:0:0:
432,80,230493,1,0,0:0:0:0:
416,112,230530,1,0,0:0:0:0:
377,139,230568,1,0,0:0:0:0:
192,80,230643,6,0,L|128:80,1,55,8|0,0:0|0:0,0:0:0:0:
320,80,230793,2,0,L|352:80,2,27.5,0|0|0,0:0|0:0|0:0,0:0:0:0:
128,192,230943,2,0,L|112:304,1,110,8|8,0:0|0:0,0:0:0:0:
432,192,231243,2,0,L|320:192,1,110,8|0,0:0|0:0,0:0:0:0:
256,192,231468,1,0,0:0:0:0:
80,192,231543,6,0,L|190:192,1,110,10|0,0:0|0:0,0:0:0:0:
162,192,231730,1,0,0:0:0:0:
135,192,231768,1,0,0:0:0:0:
107,192,231805,1,0,0:0:0:0:
80,192,231843,2,0,L|190:192,1,110,8|0,0:0|0:0,0:0:0:0:
464,192,232143,2,0,L|400:192,1,55,8|0,0:0|0:0,0:0:0:0:
256,192,232293,2,0,L|192:192,1,55,0|0,0:0|0:0,0:0:0:0:
48,192,232443,6,0,L|112:192,1,55,8|0,0:0|0:0,0:0:0:0:
256,192,232593,2,0,L|320:192,1,55,0|0,0:0|0:0,0:0:0:0:
464,192,232743,2,0,L|352:192,1,110,8|8,0:0|0:0,0:0:0:0:
48,192,233043,1,8,0:0:0:0:
50,164,233080,1,0,0:0:0:0:
63,140,233118,1,0,0:0:0:0:
85,124,233155,1,0,0:0:0:0:
112,118,233193,1,0,0:0:0:0:
138,123,233230,1,0,0:0:0:0:
161,139,233268,1,0,0:0:0:0:
432,112,233343,6,0,P|416:192|352:240,1,165,14|0,0:0|0:0,0:0:0:0:
80,272,233643,2,0,P|96:192|160:144,1,165,8|0,0:0|0:0,0:0:0:0:
432,112,233943,1,8,0:0:0:0:
320,112,234093,1,0,0:0:0:0:
288,112,234130,1,0,0:0:0:0:
272,112,234168,1,0,0:0:0:0:
432,112,234243,6,0,P|432:208|368:240,1,165,8|0,0:0|0:0,0:0:0:0:
288,240,234543,1,8,0:0:0:0:
224,240,234618,1,0,0:0:0:0:
224,176,234693,1,8,0:0:0:0:
288,176,234768,1,0,0:0:0:0:
384,176,234843,1,8,0:0:0:0:
448,176,234918,1,0,0:0:0:0:
448,112,234993,1,0,0:0:0:0:
416,112,235030,1,0,0:0:0:0:
384,112,235068,1,0,0:0:0:0:
160,128,235143,6,0,P|96:144|80:192,1,110,14|0,0:0|0:0,0:0:0:0:
89,214,235330,1,0,0:0:0:0:
107,233,235368,1,0,0:0:0:0:
133,242,235405,1,0,0:0:0:0:
160,240,235443,1,8,0:0:0:0:
304,240,235593,2,0,L|304:176,1,55,0|0,0:0|0:0,0:0:0:0:
128,80,235743,2,0,L|192:80,1,55,8|0,0:0|0:0,0:0:0:0:
368,80,235893,2,0,L|432:80,1,55,0|0,0:0|0:0,0:0:0:0:
224,192,236043,6,0,L|112:192,1,110,8|0,0:0|0:0,0:0:0:0:
256,80,236343,2,0,L|144:80,1,110,8|8,0:0|0:0,0:0:0:0:
384,192,236643,2,0,L|400:160,6,27.5,8|0|0|0|8|0|0,0:0|0:0|0:0|0:0|0:0|0:0|0:0,0:0:0:0:
96,192,236943,6,0,P|80:112|96:80,1,110,10|0,0:0|0:0,0:0:0:0:
168,64,237168,1,0,0:0:0:0:
240,192,237243,2,0,P|256:272|240:304,1,110,8|0,0:0|0:0,0:0:0:0:
160,320,237468,1,0,0:0:0:0:
80,192,237543,1,8,0:0:0:0:
224,192,237693,1,0,0:0:0:0:
368,192,237768,1,0,0:0:0:0:
176,144,237843,5,8,0:0:0:0:
96,192,237918,1,0,0:0:0:0:
176,240,237993,1,0,0:0:0:0:
224,224,238030,1,0,0:0:0:0:
256,192,238068,1,0,0:0:0:0:
176,144,238143,2,0,L|160:32,1,110,8|8,0:0|0:0,0:0:0:0:
320,32,238443,1,8,0:0:0:0:
160,32,238593,1,0,0:0:0:0:
416,192,238743,6,0,P|432:272|416:304,1,110,10|0,0:0|0:0,0:0:0:0:
344,320,238968,1,0,0:0:0:0:
272,192,239043,2,0,P|256:112|272:80,1,110,8|0,0:0|0:0,0:0:0:0:
352,64,239268,1,0,0:0:0:0:
432,192,239343,1,8,0:0:0:0:
288,192,239493,1,0,0:0:0:0:
144,192,239568,1,0,0:0:0:0:
336,240,239643,5,8,0:0:0:0:
416,192,239718,1,0,0:0:0:0:
336,144,239793,1,0,0:0:0:0:
112,144,239943,2,0,P|32:176|112:208,1,220,8|8,0:0|0:0,0:0:0:0:
140,192,240280,1,0,0:0:0:0:
140,160,240318,1,0,0:0:0:0:
112,144,240355,1,0,0:0:0:0:
84,120,240393,1,0,0:0:0:0:
84,96,240430,1,0,0:0:0:0:
112,80,240468,1,0,0:0:0:0:
288,80,240543,6,0,L|176:80,1,110,10|0,0:0|0:0,0:0:0:0:
400,80,240843,1,8,0:0:0:0:
464,80,240918,1,0,0:0:0:0:
464,144,240993,1,0,0:0:0:0:
400,144,241068,1,0,0:0:0:0:
224,192,241143,2,0,L|160:192,1,55,8|0,0:0|0:0,0:0:0:0:
352,192,241293,2,0,L|416:192,1,55,0|0,0:0|0:0,0:0:0:0:
128,304,241443,6,0,P|112:224|112:192,1,110,8|0,0:0|0:0,0:0:0:0:
144,160,241630,1,0,0:0:0:0:
192,160,241668,1,0,0:0:0:0:
368,192,241743,1,8,0:0:0:0:
384,140,241818,1,0,0:0:0:0:
369,88,241893,1,8,0:0:0:0:
328,53,241968,1,0,0:0:0:0:
272,48,242043,1,8,0:0:0:0:
416,48,242193,1,0,0:0:0:0:
112,48,242343,5,10,0:0:0:0:
84,50,242380,1,0,0:0:0:0:
60,63,242418,1,0,0:0:0:0:
44,85,242455,1,0,0:0:0:0:
39,112,242493,1,0,0:0:0:0:
44,138,242530,1,0,0:0:0:0:
61,160,242568,1,0,0:0:0:0:
84,173,242605,1,0,0:0:0:0:
112,175,242643,1,8,0:0:0:0:
256,176,242793,2,0,L|256:240,1,55,0|0,0:0|0:0,0:0:0:0:
80,240,242943,2,0,L|80:176,1,55,8|0,0:0|0:0,0:0:0:0:
256,176,243093,2,0,L|288:176,2,27.5,0|0|0,0:0|0:0|0:0,0:0:0:0:
80,64,243243,6,0,L|144:64,1,55,8|0,0:0|0:0,0:0:0:0:
320,64,243393,2,0,L|384:64,1,55,0|0,0:0|0:0,0:0:0:0:
192,64,243543,2,0,P|128:112|144:192,1,165,8|0,0:0|0:0,0:0:0:0:
320,320,243843,2,0,L|336:288,6,27.5,8|0|0|0|0|0|0,0:0|0:0|0:0|0:0|0:0|0:0|0:0,0:0:0:0:
64,48,244143,6,0,L|176:48,1,110,14|0,0:0|0:0,0:0:0:0:
416,48,244443,2,0,P|448:96|448:160,1,110,8|0,0:0|0:0,0:0:0:0:
416,192,244668,1,0,0:0:0:0:
256,208,244743,2,0,L|240:144,1,55,8|0,0:0|0:0,0:0:0:0:
304,208,244893,2,0,L|320:144,1,55,0|0,0:0|0:0,0:0:0:0:
176,112,245043,5,8,0:0:0:0:
32,112,245118,1,0,0:0:0:0:
176,112,245193,1,0,0:0:0:0:
320,112,245343,2,0,L|208:112,1,110,8|8,0:0|0:0,0:0:0:0:
352,224,245643,1,8,0:0:0:0:
96,224,245793,1,0,0:0:0:0:
384,224,245943,5,10,0:0:0:0:
412,222,245980,1,0,0:0:0:0:
436,209,246018,1,0,0:0:0:0:
452,187,246055,1,0,0:0:0:0:
457,160,246093,1,0,0:0:0:0:
452,134,246130,1,0,0:0:0:0:
435,112,246168,1,0,0:0:0:0:
412,99,246205,1,0,0:0:0:0:
384,97,246243,1,8,0:0:0:0:
240,96,246393,1,0,0:0:0:0:
384,192,246543,1,8,0:0:0:0:
96,192,246693,1,0,0:0:0:0:
240,192,246768,1,0,0:0:0:0:
384,192,246843,6,0,L|400:128,1,55,8|0,0:0|0:0,0:0:0:0:
256,64,246993,1,0,0:0:0:0:
232,77,247030,1,0,0:0:0:0:
223,103,247068,1,0,0:0:0:0:
231,128,247105,1,0,0:0:0:0:
256,144,247143,1,8,0:0:0:0:
400,144,247293,1,8,0:0:0:0:
112,64,247443,1,8,0:0:0:0:
93,83,247480,1,0,0:0:0:0:
81,108,247518,1,0,0:0:0:0:
76,135,247555,1,0,0:0:0:0:
80,162,247593,1,0,0:0:0:0:
92,187,247630,1,0,0:0:0:0:
111,207,247668,1,0,0:0:0:0:
400,192,247743,6,0,P|464:128|464:48,1,165,14|0,0:0|0:0,0:0:0:0:
288,192,248043,2,0,P|224:256|224:336,1,165,8|0,0:0|0:0,0:0:0:0:
400,192,248343,1,8,0:0:0:0:
464,192,248418,1,0,0:0:0:0:
400,192,248493,1,0,0:0:0:0:
256,192,248568,1,0,0:0:0:0:
112,192,248643,5,8,0:0:0:0:
48,192,248718,1,0,0:0:0:0:
48,128,248793,1,0,0:0:0:0:
112,128,248868,1,0,0:0:0:0:
304,128,248943,2,0,L|320:96,6,27.5,8|0|0|0|8|0|0,0:0|0:0|0:0|0:0|0:0|0:0|0:0,0:0:0:0:
128,128,249243,1,8,0:0:0:0:
112,192,249318,1,0,0:0:0:0:
128,256,249393,1,0,0:0:0:0:
192,256,249468,1,0,0:0:0:0:
400,256,249543,5,10,0:0:0:0:
428,254,249580,1,0,0:0:0:0:
452,241,249618,1,0,0:0:0:0:
468,219,249655,1,0,0:0:0:0:
473,192,249693,1,0,0:0:0:0:
468,166,249730,1,0,0:0:0:0:
451,144,249768,1,0,0:0:0:0:
428,131,249805,1,0,0:0:0:0:
400,129,249843,1,8,0:0:0:0:
256,128,249993,1,0,0:0:0:0:
400,224,250143,1,8,0:0:0:0:
112,224,250293,1,0,0:0:0:0:
256,224,250368,1,0,0:0:0:0:
400,224,250443,5,8,0:0:0:0:
464,224,250518,1,0,0:0:0:0:
496,160,250593,1,0,0:0:0:0:
464,96,250668,1,0,0:0:0:0:
272,96,250743,2,0,L|384:96,1,110,8|8,0:0|0:0,0:0:0:0:
128,96,251043,2,0,L|112:64,6,27.5,8|0|0|0|8|0|0,0:0|0:0|0:0|0:0|0:0|0:0|0:0,0:0:0:0:
320,192,251343,6,0,L|208:192,1,110,4|0,0:0|0:0,0:0:0:0:
400,192,251568,1,8,0:0:0:0:
419,172,251605,1,0,0:0:0:0:
424,145,251643,1,0,0:0:0:0:
413,121,251680,1,0,0:0:0:0:
390,105,251718,1,8,0:0:0:0:
192,192,251793,6,0,L|304:192,1,110,4|0,0:0|0:0,0:0:0:0:
112,192,252018,1,8,0:0:0:0:
93,212,252055,1,0,0:0:0:0:
88,239,252093,1,0,0:0:0:0:
99,263,252130,1,0,0:0:0:0:
122,279,252168,1,8,0:0:0:0:
320,192,252243,6,0,L|208:192,1,110,4|0,0:0|0:0,0:0:0:0:
400,192,252468,1,8,0:0:0:0:
419,172,252505,1,0,0:0:0:0:
424,145,252543,1,0,0:0:0:0:
413,121,252580,1,0,0:0:0:0:
390,105,252618,1,8,0:0:0:0:
192,192,252693,6,0,L|304:192,1,110,4|0,0:0|0:0,0:0:0:0:
112,192,252918,1,8,0:0:0:0:
93,212,252955,1,0,0:0:0:0:
88,239,252993,1,0,0:0:0:0:
99,263,253030,1,0,0:0:0:0:
122,279,253068,1,8,0:0:0:0:
400,192,253143,5,6,0:0:0:0:
256,192,253293,12,8,254718,0:0:0:0:
352,192,254943,5,12,0:0:0:0:
160,192,255168,1,2,0:0:0:0:
352,192,255393,2,0,L|352:80,1,110,8|0,0:0|0:0,0:0:0:0:
64,192,255843,1,10,0:0:0:0:
256,192,256068,1,0,0:0:0:0:
160,192,256180,1,0,0:0:0:0:
256,192,256293,1,10,0:0:0:0:
64,192,256518,1,0,0:0:0:0:
352,192,256743,5,10,0:0:0:0:
160,192,256968,1,0,0:0:0:0:
352,192,257193,1,8,0:0:0:0:
160,192,257418,1,0,0:0:0:0:
448,192,257643,2,0,L|448:80,1,110,10|0,0:0|0:0,0:0:0:0:
256,192,258093,2,0,L|368:192,1,110,10|0,0:0|0:0,0:0:0:0:
64,192,258543,6,0,L|64:80,1,110,10|0,0:0|0:0,0:0:0:0:
256,192,258993,2,0,L|144:192,1,110,8|0,0:0|0:0,0:0:0:0:
448,192,259443,1,10,0:0:0:0:
256,192,259668,1,0,0:0:0:0:
352,192,259780,1,0,0:0:0:0:
256,192,259893,1,10,0:0:0:0:
448,192,260118,1,0,0:0:0:0:
160,192,260343,5,10,0:0:0:0:
352,192,260568,1,0,0:0:0:0:
256,192,260680,1,0,0:0:0:0:
352,192,260793,1,8,0:0:0:0:
160,192,261018,1,0,0:0:0:0:
352,192,261243,1,10,0:0:0:0:
160,192,261468,1,0,0:0:0:0:
352,192,261693,2,0,L|352:64,1,110,10|0,0:0|0:0,0:0:0:0:
64,192,262143,6,0,L|64:80,1,110,14|0,0:0|0:0,0:0:0:0:
160,192,262480,1,0,0:0:0:0:
256,192,262593,1,10,0:0:0:0:
64,192,262818,1,2,0:0:0:0:
352,192,263043,2,0,L|352:80,1,110,10|0,0:0|0:0,0:0:0:0:
160,192,263493,2,0,L|160:80,1,110,10|0,0:0|0:0,0:0:0:0:
448,192,263943,6,0,L|448:80,1,110,10|0,0:0|0:0,0:0:0:0:
352,192,264280,1,0,0:0:0:0:
256,192,264393,1,10,0:0:0:0:
448,192,264618,1,2,0:0:0:0:
160,192,264843,1,10,0:0:0:0:
352,192,265068,1,0,0:0:0:0:
160,192,265293,1,10,0:0:0:0:
352,192,265518,1,0,0:0:0:0:
64,192,265743,6,0,L|64:80,1,110,10|0,0:0|0:0,0:0:0:0:
160,80,266080,1,0,0:0:0:0:
256,192,266193,1,8,0:0:0:0:
64,192,266418,1,0,0:0:0:0:
352,192,266643,2,0,L|352:80,1,110,10|0,0:0|0:0,0:0:0:0:
256,80,266980,1,0,0:0:0:0:
352,192,267093,1,10,0:0:0:0:
160,192,267318,1,2,0:0:0:0:
448,192,267543,5,10,0:0:0:0:
256,192,267768,1,2,0:0:0:0:
352,80,267880,1,0,0:0:0:0:
160,192,267993,2,0,L|160:80,1,110,10|0,0:0|0:0,0:0:0:0:
352,192,268443,2,0,L|224:192,3,128.333334557215,10|2|2|8,0:0|0:0|0:0|0:0,0:0:0:0:
448,192,269118,1,8,0:0:0:0:
64,192,269343,6,0,P|32:112|144:16,1,247.500009441376,12|0,0:0|0:0,0:0:0:0:
384,192,270243,2,0,L|208:192,1,165.000006294251,10|2,0:0|0:0,0:0:0:0:
448,192,270843,1,2,0:0:0:0:
144,320,271143,6,0,P|48:208|144:80,1,330.000012588501,10|0,0:0|0:0,0:0:0:0:
416,192,272043,2,0,B|252:176|252:176|416:160,1,330.000012588501,10|2,0:0|0:0,0:0:0:0:
176,64,272943,6,0,P|272:176|176:304,1,330.000012588501,10|0,0:0|0:0,0:0:0:0:
448,192,273843,2,0,B|284:208|284:208|448:224,1,330.000012588501,10|2,0:0|0:0,0:0:0:0:
208,320,274743,6,0,P|112:208|208:80,1,330.000012588501,10|0,0:0|0:0,0:0:0:0:
480,192,275643,2,0,P|496:144|464:80,1,123.750004720688,10|0,0:0|0:0,0:0:0:0:
416,80,275980,1,0,0:0:0:0:
352,80,276093,1,0,0:0:0:0:
448,192,276243,1,2,0:0:0:0:
80,336,276543,6,0,P|64:272|224:96,1,330.000012588501,14|2,0:0|0:0,0:0:0:0:
128,48,277293,1,0,0:0:0:0:
288,48,277443,2,2,L|128:96,1,165.000006294251,10|0,0:0|0:0,0:0:0:0:
416,96,278043,1,2,0:0:0:0:
48,48,278343,6,0,P|32:112|192:288,1,330.000012588501,10|2,0:0|0:0,0:0:0:0:
416,288,279243,1,10,0:0:0:0:
144,288,279543,2,0,L|240:288,1,82.5000031471254,2|0,0:0|0:0,0:0:0:0:
96,192,279843,1,2,0:0:0:0:
464,192,280143,6,0,L|304:144,2,165.000006294251,10|8|8,0:0|0:0|0:0,0:0:0:0:
96,288,281043,1,10,0:0:0:0:
368,288,281343,2,0,L|272:288,1,82.5000031471254,10|0,0:0|0:0,0:0:0:0:
416,192,281643,1,10,0:0:0:0:
48,192,281943,6,0,B|48:112|48:112|80:80,1,123.750004720688,14|0,0:0|0:0,0:0:0:0:
160,192,282243,2,0,B|160:272|160:272|128:304,1,123.750004720688,10|0,0:0|0:0,0:0:0:0:
48,192,282543,1,10,0:0:0:0:
160,192,282693,1,8,0:0:0:0:
464,192,282843,6,0,L|352:192,1,110,14|0,0:0|0:0,0:0:0:0:
354,192,283068,1,0,0:0:0:0:
448,112,283143,2,0,L|336:112,1,110,8|0,0:0|0:0,0:0:0:0:
338,112,283368,1,0,0:0:0:0:
432,272,283443,1,8,0:0:0:0:
496,272,283518,1,0,0:0:0:0:
496,336,283593,1,8,0:0:0:0:
432,336,283668,1,0,0:0:0:0:
256,256,283743,6,0,P|136:192|256:128,1,330.000012588501,14|8,0:0|0:0,0:0:0:0:
432,192,284643,1,10,0:0:0:0:
256,192,284943,1,2,0:0:0:0:
448,192,285243,1,10,0:0:0:0:
208,32,285543,6,0,P|48:80|64:224,1,330.000012588501,10|8,0:0|0:0,0:0:0:0:
272,192,286443,2,0,L|107:192,2,165.000006294251,10|0|10,0:0|0:0|0:0,0:0:0:0:
58,166,287343,6,0,P|58:319|208:352,1,330.000012588501,10|8,0:0|0:0,0:0:0:0:
416,192,288243,2,0,L|251:192,2,165.000006294251,10|0|10,0:0|0:0|0:0,0:0:0:0:
208,192,289143,6,0,P|256:72|304:192,1,330.000012588501,10|8,0:0|0:0,0:0:0:0:
96,176,290043,2,0,P|256:140|416:176,1,330.000012588501,10|10,0:0|0:0,0:0:0:0:
32,208,290933,6,0,L|128:208,1,82.5000031471254,12|0,0:0|0:0,0:0:0:0:
176,208,291158,1,0,0:0:0:0:
240,192,291233,2,0,L|144:192,1,82.5000031471254,8|0,0:0|0:0,0:0:0:0:
208,192,291458,1,0,0:0:0:0:
368,192,291533,2,0,L|416:192,1,41.2500015735627,12|0,0:0|0:0,0:0:0:0:
144,192,291683,2,0,L|96:192,1,41.2500015735627,4|0,0:0|0:0,0:0:0:0:
368,192,291833,6,0,L|464:192,1,82.5000031471254,12|0,0:0|0:0,0:0:0:0:
416,192,292058,1,0,0:0:0:0:
368,192,292133,1,8,0:0:0:0:
144,192,292283,2,0,L|48:192,1,82.5000031471254,12|0,0:0|0:0,0:0:0:0:
96,192,292508,1,0,0:0:0:0:
144,192,292583,1,8,0:0:0:0:
368,192,292733,6,0,L|464:192,1,82.5000031471254,12|0,0:0|0:0,0:0:0:0:
61,192,293033,2,0,L|144:192,1,82.5000031471254,12|0,0:0|0:0,0:0:0:0:
112,192,293258,1,0,0:0:0:0:
61,192,293333,1,8,0:0:0:0:
320,192,293483,1,4,0:0:0:0:
61,192,293633,6,0,L|157:192,1,82.5000031471254,12|0,0:0|0:0,0:0:0:0:
109,192,293858,1,0,0:0:0:0:
61,192,293933,1,8,0:0:0:0:
451,192,294083,2,0,L|355:192,1,82.5000031471254,12|0,0:0|0:0,0:0:0:0:
403,192,294308,1,0,0:0:0:0:
451,192,294383,1,8,0:0:0:0:
64,192,294533,6,0,P|48:216|64:264,1,82.5000031471254,12|0,0:0|0:0,0:0:0:0:
128,192,294758,1,0,0:0:0:0:
64,192,294833,2,0,L|32:192,2,20.6250007867813,8|0|0,0:0|0:0|0:0,0:0:0:0:
240,192,294983,2,0,L|288:192,1,41.2500015735627,4|0,0:0|0:0,0:0:0:0:
96,192,295133,1,8,0:0:0:0:
75,185,295170,1,0,0:0:0:0:
59,172,295208,1,0,0:0:0:0:
48,156,295245,1,0,0:0:0:0:
43,135,295283,2,0,L|70:98,1,41.2500015735627,0|0,0:0|0:0,0:0:0:0:
304,80,295433,5,12,0:0:0:0:
344,88,295508,1,0,0:0:0:0:
375,113,295583,1,0,0:0:0:0:
392,151,295658,1,0,0:0:0:0:
192,192,295733,2,0,L|144:192,1,41.2500015735627,8|0,0:0|0:0,0:0:0:0:
361,192,295883,2,0,L|320:192,1,41.2500015735627,12|0,0:0|0:0,0:0:0:0:
120,151,296033,1,0,0:0:0:0:
137,113,296108,1,0,0:0:0:0:
168,88,296183,1,8,0:0:0:0:
208,80,296258,1,0,0:0:0:0:
416,80,296333,6,0,L|448:128,3,41.2500015735627,12|0|0|0,0:0|0:0|0:0|0:0,0:0:0:0:
224,192,296633,2,0,L|200:232,3,41.2500015735627,12|0|0|0,0:0|0:0|0:0|0:0,0:0:0:0:
448,192,296933,2,0,L|464:232,3,41.2500015735627,12|0|0|0,0:0|0:0|0:0|0:0,0:0:0:0:
176,272,297233,5,4,0:0:0:0:
134,271,297308,1,0,0:0:0:0:
96,256,297383,1,0,0:0:0:0:
67,228,297458,1,0,0:0:0:0:
240,272,297533,1,8,0:0:0:0:
282,271,297608,1,0,0:0:0:0:
320,256,297683,1,0,0:0:0:0:
349,228,297758,1,0,0:0:0:0:
352,192,297833,1,8,0:0:0:0:
192,64,297908,1,8,0:0:0:0:
32,192,297983,1,8,0:0:0:0:
192,320,298058,1,8,0:0:0:0:
352,192,298133,6,0,P|416:160|416:128,1,110,14|2,0:0|0:0,0:0:0:0:
352,112,298358,1,0,0:0:0:0:
160,112,298433,1,10,0:0:0:0:
96,112,298508,1,0,0:0:0:0:
64,160,298583,1,8,0:0:0:0:
64,224,298658,1,0,0:0:0:0:
96,272,298733,1,0,0:0:0:0:
256,288,298808,1,0,0:0:0:0:
416,272,298883,1,10,0:0:0:0:
416,224,298958,1,0,0:0:0:0:
160,192,299033,6,0,L|96:192,1,55,10|0,0:0|0:0,0:0:0:0:
336,144,299183,2,0,L|352:80,1,55,2|0,0:0|0:0,0:0:0:0:
176,144,299333,2,0,L|160:80,1,55,10|0,0:0|0:0,0:0:0:0:
352,192,299483,2,0,L|416:192,1,55,2|0,0:0|0:0,0:0:0:0:
208,192,299633,2,0,P|192:240|192:304,1,110,10|0,0:0|0:0,0:0:0:0:
256,320,299858,1,0,0:0:0:0:
416,320,299933,5,10,0:0:0:0:
256,320,300008,1,2,0:0:0:0:
192,320,300083,1,0,0:0:0:0:
352,192,300158,1,8,0:0:0:0:
288,192,300233,1,2,0:0:0:0:
128,192,300308,1,0,0:0:0:0:
64,192,300383,1,10,0:0:0:0:
224,64,300458,1,0,0:0:0:0:
160,64,300533,2,0,P|128:112|144:160,1,110,10|2,0:0|0:0,0:0:0:0:
416,192,300833,6,0,L|480:192,1,55,10|0,0:0|0:0,0:0:0:0:
304,64,300983,2,0,L|240:64,1,55,2|0,0:0|0:0,0:0:0:0:
416,192,301133,2,0,L|416:256,1,55,10|0,0:0|0:0,0:0:0:0:
256,192,301283,2,0,L|256:256,1,55,2|0,0:0|0:0,0:0:0:0:
96,192,301433,2,0,L|96:256,1,55,10|0,0:0|0:0,0:0:0:0:
256,192,301583,2,0,L|256:256,1,55,2|0,0:0|0:0,0:0:0:0:
64,192,301733,6,0,P|48:128|80:96,1,110,10|2,0:0|0:0,0:0:0:0:
128,64,301958,1,0,0:0:0:0:
320,64,302033,1,10,0:0:0:0:
384,64,302108,1,0,0:0:0:0:
416,112,302183,1,10,0:0:0:0:
384,160,302258,1,0,0:0:0:0:
192,160,302333,2,0,L|128:160,1,55,2|0,0:0|0:0,0:0:0:0:
320,192,302483,2,0,L|320:256,1,55,10|0,0:0|0:0,0:0:0:0:
64,192,302633,6,0,P|48:256|80:288,1,110,10|2,0:0|0:0,0:0:0:0:
128,320,302858,1,0,0:0:0:0:
320,320,302933,1,10,0:0:0:0:
384,320,303008,1,0,0:0:0:0:
384,256,303083,1,2,0:0:0:0:
320,256,303158,1,0,0:0:0:0:
128,288,303233,2,0,L|128:224,1,55,10|0,0:0|0:0,0:0:0:0:
320,192,303383,2,0,L|384:192,1,55,2|0,0:0|0:0,0:0:0:0:
176,192,303533,5,10,0:0:0:0:
80,160,303608,1,2,0:0:0:0:
176,128,303683,1,2,0:0:0:0:
224,80,303758,1,0,0:0:0:0:
176,32,303833,1,2,0:0:0:0:
80,224,303908,1,2,0:0:0:0:
176,256,303983,1,0,0:0:0:0:
224,304,304058,1,2,0:0:0:0:
128,352,304133,1,2,0:0:0:0:
80,304,304208,1,0,0:0:0:0:
176,352,304283,1,2,0:0:0:0:
224,304,304358,1,2,0:0:0:0:
128,192,304433,5,2,0:0:0:0:
176,144,304508,1,0,0:0:0:0:
272,192,304583,1,10,0:0:0:0:
224,144,304658,1,0,0:0:0:0:
128,64,304733,1,10,0:0:0:0:
96,64,304770,1,0,0:0:0:0:
64,64,304808,1,0,0:0:0:0:
64,192,304883,1,0,0:0:0:0:
128,192,304958,1,0,0:0:0:0:
320,192,305033,2,0,L|384:192,1,55,10|0,0:0|0:0,0:0:0:0:
176,192,305183,2,0,L|160:128,1,55,2|0,0:0|0:0,0:0:0:0:
384,192,305333,5,14,0:0:0:0:
416,128,305408,1,0,0:0:0:0:
384,64,305483,1,2,0:0:0:0:
320,64,305558,1,0,0:0:0:0:
128,192,305633,1,8,0:0:0:0:
96,256,305708,1,0,0:0:0:0:
128,320,305783,1,10,0:0:0:0:
192,320,305858,1,0,0:0:0:0:
384,320,305933,2,0,L|320:320,1,55,2|0,0:0|0:0,0:0:0:0:
144,192,306083,2,0,L|208:192,1,55,10|0,0:0|0:0,0:0:0:0:
384,192,306233,6,0,L|272:192,2,110,10|0|8,0:0|0:0|0:0,0:0:0:0:
96,64,306683,2,0,L|160:64,1,55,2|0,0:0|0:0,0:0:0:0:
352,64,306833,1,10,0:0:0:0:
384,128,306908,1,0,0:0:0:0:
352,192,306983,1,0,0:0:0:0:
288,192,307058,1,0,0:0:0:0:
96,192,307133,6,0,L|96:128,1,55,10|0,0:0|0:0,0:0:0:0:
288,80,307283,2,0,L|352:80,1,55
96,128,307433,2,0,L|160:128,1,55,10|0,0:0|0:0,0:0:0:0:
352,192,307583,2,0,L|368:128,1,55,10|0,0:0|0:0,0:0:0:0:
160,160,307733,2,0,P|144:144|160:64,1,110,10|0,0:0|0:0,0:0:0:0:
400,64,308033,5,10,0:0:0:0:
464,64,308108,1,0,0:0:0:0:
464,128,308183,1,2,0:0:0:0:
400,128,308258,1,0,0:0:0:0:
208,128,308333,1,10,0:0:0:0:
160,128,308408,1,0,0:0:0:0:
160,176,308483,1,2,0:0:0:0:
208,176,308558,1,0,0:0:0:0:
400,192,308633,1,10,0:0:0:0:
432,192,308708,1,0,0:0:0:0:
432,224,308783,1,2,0:0:0:0:
400,224,308858,1,0,0:0:0:0:
105,132,308933,6,8,B|48:176|48:272|112:320|112:320|176:272|176:176|112:128|112:128|48:176|48:272|112:320,1,660,14|8,0:0|0:0,0:0:0:0:
192,128,309908,1,0,0:0:0:0:
272,128,309983,1,0,0:0:0:0:
352,128,310058,1,0,0:0:0:0:
432,48,310133,1,8,0:0:0:0:
352,48,310208,1,0,0:0:0:0:
272,48,310283,1,0,0:0:0:0:
192,48,310358,1,0,0:0:0:0:
32,192,310433,1,8,0:0:0:0:
192,336,310508,1,0,0:0:0:0:
352,192,310583,1,0,0:0:0:0:
192,48,310658,1,0,0:0:0:0:
32,192,310733,6,0,L|208:192,1,165,12|0,0:0|0:0,0:0:0:0:
421,192,311033,2,0,L|256:192,1,165,12|0,0:0|0:0,0:0:0:0:
32,192,311333,2,0,L|208:192,1,165,12|0,0:0|0:0,0:0:0:0:
464,192,311633,5,12,0:0:0:0:
464,128,311708,1,0,0:0:0:0:
400,80,311783,1,8,3:0:0:0:
240,192,311858,2,0,L|208:192,2,27.5,0|0|12,0:0|0:0|0:0,0:0:0:0:
320,192,312008,1,0,0:0:0:0:
240,256,312083,1,8,3:0:0:0:
80,192,312158,2,0,L|48:192,2,27.5,0|0|12,0:0|0:0|0:0,0:0:0:0:
160,192,312308,1,0,0:0:0:0:
80,128,312383,1,8,3:0:0:0:
160,64,312458,1,0,0:0:0:0:
352,192,312533,6,0,L|416:192,1,55,14|0,0:0|0:0,0:0:0:0:
224,144,312683,2,0,L|160:144,1,55,2|0,0:0|0:0,0:0:0:0:
352,192,312833,2,0,L|416:192,1,55,10|0,0:0|0:0,0:0:0:0:
407,144,312983,2,0,L|352:144,1,55,8|0,0:0|0:0,0:0:0:0:
160,192,313133,2,0,L|96:192,1,55,2|0,0:0|0:0,0:0:0:0:
160,144,313283,2,0,L|96:144,1,55,10|0,0:0|0:0,0:0:0:0:
352,192,313433,5,10,0:0:0:0:
416,144,313508,1,0,0:0:0:0:
416,80,313583,1,0,0:0:0:0:
352,32,313658,1,0,0:0:0:0:
160,272,313733,1,10,0:0:0:0:
224,272,313808,1,0,0:0:0:0:
288,272,313883,1,0,0:0:0:0:
352,272,313958,1,0,0:0:0:0:
160,32,314033,1,10,0:0:0:0:
95,67,314108,1,0,0:0:0:0:
57,123,314183,1,0,0:0:0:0:
64,192,314258,1,0,0:0:0:0:
256,192,314333,6,0,L|320:192,1,55,10|0,0:0|0:0,0:0:0:0:
376,160,314483,2,0,L|312:160,1,55,2|0,0:0|0:0,0:0:0:0:
384,192,314633,2,0,L|448:192,1,55,10|0,0:0|0:0,0:0:0:0:
256,192,314783,2,0,L|192:192,1,55,8|0,0:0|0:0,0:0:0:0:
136,160,314933,2,0,L|200:160,1,55,2|0,0:0|0:0,0:0:0:0:
128,192,315083,2,0,L|64:192,1,55,10|0,0:0|0:0,0:0:0:0:
256,96,315233,6,0,L|368:96,1,110,10|2,0:0|0:0,0:0:0:0:
32,192,315533,2,0,L|144:192,1,110,10|2,0:0|0:0,0:0:0:0:
366,192,315833,2,0,L|256:192,1,110,10|2,0:0|0:0,0:0:0:0:
480,192,316133,6,0,P|480:256|448:288,1,110,10|2,0:0|0:0,0:0:0:0:
400,304,316358,1,0,0:0:0:0:
256,304,316433,1,10,0:0:0:0:
192,304,316508,1,0,0:0:0:0:
144,288,316583,1,10,0:0:0:0:
112,240,316658,1,0,0:0:0:0:
256,304,316733,1,0,0:0:0:0:
320,304,316808,1,0,0:0:0:0:
368,288,316883,1,10,0:0:0:0:
400,240,316958,1,0,0:0:0:0:
256,192,317033,6,0,L|192:192,1,55,10|0,0:0|0:0,0:0:0:0:
368,192,317183,2,0,L|432:192,1,55,2|0,0:0|0:0,0:0:0:0:
144,192,317333,2,0,L|89:192,1,55,10|0,0:0|0:0,0:0:0:0:
256,192,317483,2,0,L|311:192,1,55,2|0,0:0|0:0,0:0:0:0:
80,128,317633,2,0,L|128:96,1,55,10|0,0:0|0:0,0:0:0:0:
368,128,317783,2,0,L|322:97,1,55,2|0,0:0|0:0,0:0:0:0:
80,192,317933,6,0,L|16:192,1,55,10|2,0:0|0:0,0:0:0:0:
112,192,318083,2,0,L|176:192,1,55,2|0,0:0|0:0,0:0:0:0:
80,192,318233,1,2,0:0:0:0:
34,220,318308,1,2,0:0:0:0:
16,271,318383,1,0,0:0:0:0:
33,322,318458,1,2,0:0:0:0:
128,352,318533,2,0,L|192:352,1,55,2|0,0:0|0:0,0:0:0:0:
80,320,318683,2,0,L|16:320,1,55,2|0,0:0|0:0,0:0:0:0:
112,192,318833,5,2,0:0:0:0:
176,192,318908,1,0,0:0:0:0:
224,144,318983,1,2,0:0:0:0:
224,80,319058,1,0,0:0:0:0:
64,64,319133,2,0,L|128:64,1,55,10|0,0:0|0:0,0:0:0:0:
320,64,319283,2,0,L|320:128,1,55,2|0,0:0|0:0,0:0:0:0:
144,192,319433,2,0,L|144:128,1,55,8|0,0:0|0:0,0:0:0:0:
336,192,319583,2,0,L|400:192,1,55
144,208,319733,6,0,P|112:176|96:112,1,110,14|0,0:0|0:0,0:0:0:0:
400,32,320033,2,0,L|464:32,1,55,10|0,0:0|0:0,0:0:0:0:
304,48,320183,2,0,L|240:48,1,55,10|0,0:0|0:0,0:0:0:0:
400,64,320333,1,2,0:0:0:0:
450,79,320408,1,0,0:0:0:0:
471,128,320483,1,8,0:0:0:0:
447,176,320558,1,0,0:0:0:0:
304,320,320633,5,10,0:0:0:0:
253,304,320708,1,0,0:0:0:0:
232,255,320783,1,0,0:0:0:0:
256,207,320858,1,0,0:0:0:0:
336,192,320933,2,0,L|272:192,1,55,10|0,0:0|0:0,0:0:0:0:
192,192,321083,2,0,L|256:192,1,55,2|0,0:0|0:0,0:0:0:0:
400,192,321233,2,0,L|336:192,1,55,10|0,0:0|0:0,0:0:0:0:
112,192,321383,2,0,L|176:192,1,55,2|0,0:0|0:0,0:0:0:0:
464,192,321533,5,10,0:0:0:0:
208,128,321683,2,0,L|153:128,1,55,2|0,0:0|0:0,0:0:0:0:
368,128,321833,2,0,L|432:128,1,55,10|0,0:0|0:0,0:0:0:0:
240,192,321983,2,0,L|176:192,1,55,10|0,0:0|0:0,0:0:0:0:
400,192,322133,2,0,L|464:192,1,55,2|0,0:0|0:0,0:0:0:0:
400,240,322283,2,0,L|464:240,1,55,10|0,0:0|0:0,0:0:0:0:
256,192,322433,5,10,0:0:0:0:
206,177,322508,1,0,0:0:0:0:
185,128,322583,1,0,0:0:0:0:
209,80,322658,1,0,0:0:0:0:
385,79,322733,1,10,0:0:0:0:
435,94,322808,1,0,0:0:0:0:
456,143,322883,1,0,0:0:0:0:
432,191,322958,1,0,0:0:0:0:
127,79,323033,1,10,0:0:0:0:
77,94,323108,1,0,0:0:0:0:
56,143,323183,1,0,0:0:0:0:
80,191,323258,1,0,0:0:0:0:
384,256,323333,6,0,L|448:256,1,55,14|0,0:0|0:0,0:0:0:0:
256,192,323483,2,0,L|224:144,1,55,2|0,0:0|0:0,0:0:0:0:
400,208,323633,2,0,L|464:208,1,55,10|0,0:0|0:0,0:0:0:0:
272,144,323783,2,0,L|240:96,1,55,10|0,0:0|0:0,0:0:0:0:
416,160,323933,2,0,L|480:160,1,55,2|0,0:0|0:0,0:0:0:0:
288,96,324083,2,0,L|256:48,1,55,10|0,0:0|0:0,0:0:0:0:
432,112,324233,6,0,L|384:144,1,55,10|0,0:0|0:0,0:0:0:0:
160,192,324383,2,0,L|192:240,1,55,2|0,0:0|0:0,0:0:0:0:
400,160,324533,2,0,L|352:192,1,55,10|0,0:0|0:0,0:0:0:0:
176,240,324683,2,0,L|208:288,1,55,2|0,0:0|0:0,0:0:0:0:
384,208,324833,2,0,L|336:240,1,55,10|0,0:0|0:0,0:0:0:0:
192,288,324983,2,0,L|224:336,1,55,2|0,0:0|0:0,0:0:0:0:
384,256,325133,6,0,L|448:256,1,55,14|0,0:0|0:0,0:0:0:0:
439,192,325283,2,0,L|384:192,1,55,0|0,0:0|0:0,0:0:0:0:
208,256,325433,2,0,L|144:256,1,55,10|0,0:0|0:0,0:0:0:0:
153,192,325583,2,0,L|208:192,1,55,0|0,0:0|0:0,0:0:0:0:
416,144,325733,2,0,L|480:144,1,55,10|0,0:0|0:0,0:0:0:0:
471,80,325883,2,0,L|416:80,1,55
128,192,326033,6,0,L|112:128,1,55,12|0,0:0|0:0,0:0:0:0:
384,192,326183,2,0,L|400:128,1,55,8|0,0:0|0:0,0:0:0:0:
96,192,326333,2,0,L|96:128,1,55,8|0,0:0|0:0,0:0:0:0:
416,192,326483,2,0,L|416:128,1,55,8|0,0:0|0:0,0:0:0:0:
64,192,326633,2,0,L|80:128,1,55,8|0,0:0|0:0,0:0:0:0:
448,192,326783,2,0,L|432:128,1,55,8|0,0:0|0:0,0:0:0:0:
64,192,326933,5,14,0:0:0:0:
