osu file format v14

[General]
AudioFilename: audio.mp3
AudioLeadIn: 0
PreviewTime: 23900
Countdown: 0
SampleSet: Soft
StackLeniency: 0.7
Mode: 2
LetterboxInBreaks: 0
WidescreenStoryboard: 1

[Editor]
DistanceSpacing: 0.8
BeatDivisor: 4
GridSize: 32
TimelineZoom: 2.699999

[Metadata]
Title:Wizdomiot
TitleUnicode:Wizdomiot
Artist:LeaF
ArtistUnicode:LeaF
Creator:Jemzuu
Version:Cup
Source:osu!
Tags:ajamez asahina momoko featured artist mappers guild fa instrumental video game 東方project touhou zun 東方地霊殿 ~ subterranean animism 東方音弾遊戯7 optie 緑眼のジェラシー 水橋 パルスィ green eyed jealousy mizuhashi parsee bms piano doppelganger
BeatmapID:2366358
BeatmapSetID:1128274

[Difficulty]
HPDrainRate:3
CircleSize:2.5
OverallDifficulty:6.4
ApproachRate:6.4
SliderMultiplier:1.2
SliderTickRate:1

[Events]
//Background and Video events
0,0,"pawel-czerwinski-PBZsk31orGM-unsplash.jpg",0,0
//Break Periods
2,60495,65606
//Storyboard Layer 0 (Background)
//Storyboard Layer 1 (Fail)
//Storyboard Layer 2 (Pass)
//Storyboard Layer 3 (Foreground)
//Storyboard Layer 4 (Overlay)
//Storyboard Sound Samples

[TimingPoints]
1795,300,3,2,1,15,1,0
2395,-100,3,2,99,50,0,0
2695,-100,3,2,1,50,0,0
4495,-100,3,2,1,80,0,0
4795,-100,3,2,1,50,0,0
8095,-100,3,2,1,80,0,0
8395,-100,3,2,1,50,0,0
9445,-100,3,2,10,40,0,0
9520,-100,3,2,10,50,0,0
9595,-100,3,2,10,60,0,0
9670,-100,3,2,10,70,0,0
9745,-100,3,2,10,80,0,0
9820,-100,3,2,10,90,0,0
9895,-100,3,2,1,60,0,0
13495,-100,3,2,4,90,0,0
13645,-100,3,2,1,60,0,0
15295,-100,3,2,4,70,0,0
15445,-100,3,2,1,60,0,0
15595,-100,3,2,4,70,0,0
15895,-100,3,2,1,70,0,0
16195,-100,3,2,1,80,0,0
16645,-100,3,2,1,90,0,0
17095,-100,3,2,4,80,0,0
17395,-100,3,2,1,60,0,0
20095,-100,3,2,10,60,0,0
20170,-100,3,2,10,70,0,0
20245,-100,3,2,10,80,0,0
20320,-100,3,2,10,90,0,0
20395,-100,3,2,2,60,0,0
20695,-100,3,2,2,50,0,0
21145,-100,3,2,2,60,0,0
21595,-100,3,2,2,70,0,0
22045,-100,3,2,2,80,0,0
22495,-100,3,2,1,40,0,0
24295,-100,3,2,1,90,0,1
36895,-100,3,2,1,60,0,1
37195,-100,3,2,1,75,0,1
37495,-100,3,2,1,90,0,1
37795,-100,3,2,1,60,0,1
38695,-100,3,2,1,60,0,1
38995,-100,3,2,1,60,0,0
42895,-100,3,2,1,45,0,0
43195,-100,3,2,1,30,0,0
44545,-100,3,2,1,50,0,0
44995,-100,3,2,1,70,0,0
45445,-100,3,2,10,40,0,0
45520,-100,3,2,10,50,0,0
45595,-100,3,2,10,60,0,0
45670,-100,3,2,10,70,0,0
45745,-100,3,2,10,80,0,0
45820,-100,3,2,10,90,0,0
45895,-100,3,2,10,80,0,0
46195,-100,3,2,1,80,0,0
47395,-100,3,2,1,80,0,0
47695,-100,3,2,1,80,0,0
48295,-100,3,2,1,80,0,0
48595,-100,3,2,1,80,0,0
49195,-100,3,2,1,80,0,0
49495,-100,3,2,1,80,0,0
50095,-100,3,2,1,80,0,0
50395,-100,3,2,1,80,0,0
50995,-100,3,2,1,80,0,0
51295,-100,3,2,1,80,0,0
51895,-100,3,2,1,80,0,0
52795,-100,3,2,10,60,0,0
52870,-100,3,2,10,70,0,0
52945,-100,3,2,10,80,0,0
53020,-100,3,2,10,90,0,0
53095,-100,3,2,1,80,0,0
56695,-100,3,2,1,80,0,0
58495,-100,3,2,1,60,0,0
60295,-100,3,2,0,40,0,0
66295,-100,3,2,0,30,0,0
66595,-100,3,2,0,40,0,0
66745,-100,3,2,0,45,0,0
66895,-100,3,2,0,50,0,0
67045,-100,3,2,0,55,0,0
67195,-100,3,2,0,60,0,0
67345,-100,3,2,0,65,0,0
67495,-100,3,2,0,70,0,0
68095,-100,3,2,0,50,0,0
70195,-100,3,2,0,50,0,0
70945,-100,3,2,0,50,0,0
72895,-100,3,2,0,50,0,0
73345,-100,3,2,0,50,0,0
73645,-100,3,2,0,40,0,0
74095,-100,3,2,0,50,0,0
74395,-100,3,2,0,60,0,0
74695,-100,3,2,0,70,0,0
83695,-100,3,2,1,20,0,0
84145,-100,3,2,1,30,0,0
84595,-100,3,2,1,40,0,0
85045,-100,3,2,1,50,0,0
85495,-100,3,2,1,40,0,0
85795,-100,3,2,1,50,0,0
86095,-100,3,2,1,60,0,0
86395,-100,3,2,1,50,0,0
86845,-100,3,2,1,60,0,0
87295,-100,3,2,1,70,0,0
87745,-100,3,2,1,80,0,0
88195,-100,3,2,4,30,0,0
88345,-100,3,2,4,40,0,0
88495,-100,3,2,4,50,0,0
88645,-100,3,2,4,60,0,0
88795,-100,3,2,4,70,0,0
88945,-100,3,2,4,80,0,0
89095,-100,3,2,4,60,0,0
89995,-100,3,2,0,50,0,0
90895,-100,3,2,6,70,0,0
91195,-100,3,2,6,70,0,0
101695,-100,3,2,6,70,0,0
102145,-100,3,2,6,70,0,0
103495,-100,3,2,6,70,0,0
104095,-100,3,2,6,70,0,0
105295,-100,3,2,1,50,0,0
105745,-100,3,2,1,50,0,0
105820,-100,3,2,1,30,0,0
106195,-100,3,2,1,70,0,0
106270,-100,3,2,1,30,0,0
106645,-100,3,2,1,90,0,0
106720,-100,3,2,1,30,0,0
107095,-100,3,2,0,90,0,0
107245,-100,3,2,0,80,0,0
107395,-100,3,2,0,70,0,0
107545,-100,3,2,0,60,0,0
107695,-100,3,2,0,50,0,0
107845,-100,3,2,0,40,0,0
107995,-100,3,2,0,30,0,0
108145,-100,3,2,0,40,0,0
108295,-100,3,2,0,50,0,0
108445,-100,3,2,0,60,0,0
108595,-100,3,2,0,70,0,0
108745,-100,3,2,0,80,0,0
108895,-100,3,2,1,50,0,0
109795,-100,3,2,0,50,0,0
112495,-100,3,2,0,50,0,0
113395,-100,3,2,0,50,0,0
114295,-100,3,2,0,50,0,0
115795,-100,3,2,0,60,0,0
116095,-100,3,2,1,70,0,0
117895,-100,3,2,1,50,0,0
119695,-100,3,2,1,60,0,0
120145,-100,3,2,1,80,0,0
120595,-100,3,2,1,70,0,0
121045,-100,3,2,1,60,0,0
121495,-100,3,2,1,50,0,0
121795,-100,3,2,1,65,0,0
122095,-100,3,2,1,80,0,0
122395,-100,3,2,4,70,0,0
122695,-100,3,2,1,50,0,0
123295,-100,3,2,1,90,0,1
134095,-100,3,2,1,50,0,1
134545,-100,3,2,1,60,0,1
134995,-100,3,2,1,70,0,1
135445,-100,3,2,1,80,0,1
135895,-100,3,2,1,90,0,1
136195,-100,3,2,1,50,0,1
136495,-100,3,2,1,60,0,1
136795,-100,3,2,1,70,0,1
137095,-100,3,2,1,80,0,1
137395,-100,3,2,1,90,0,1
137695,-100,3,2,1,50,0,0
138595,-100,3,2,0,30,0,0
150445,-100,3,2,99,15,0,0
151495,-100,3,2,99,10,0,0
152395,-100,3,2,99,5,0,0

[Colours]
Combo1 : 192,192,192
Combo2 : 128,128,192
Combo3 : 128,0,64
Combo4 : 74,0,149

[HitObjects]
256,192,1495,12,0,2395,0:0:0:0:
328,252,2695,6,0,L|445:298,2,120,4|2|0,0:1|0:1|0:0,0:0:0:0:
206,329,3595,2,0,P|192:278|227:202,1,120,2|2,0:1|0:1,0:0:0:0:
325,152,4195,1,0,0:0:0:0:
172,115,4495,6,0,L|95:108,1,60,4|4,1:1|1:1,0:0:0:0:
24,268,5095,1,0,0:0:0:0:
147,338,5395,2,0,L|267:273,1,120,2|2,0:1|0:1,0:0:0:0:
135,203,5995,1,0,0:0:0:0:
274,161,6295,6,0,L|314:38,2,120,2|2|2,0:1|0:1|0:1,0:0:0:0:
395,204,7195,2,0,L|501:287,2,120,2|2|2,0:1|0:1|0:1,0:0:0:0:
248,332,8095,6,0,L|319:336,1,60,4|4,1:1|1:1,0:0:0:0:
415,349,8695,1,2,0:1:0:0:
276,232,8995,2,0,L|141:218,1,120,2|2,0:1|0:1,0:0:0:0:
211,186,9445,1,0,0:0:0:0:
272,180,9595,1,0,0:0:0:0:
115,149,9895,6,0,L|45:49,2,120,2|2|2,0:0|0:0|0:0,0:0:0:0:
239,225,10795,2,0,L|375:229,2,120,2|2|2,0:0|0:0|0:0,0:0:0:0:
114,347,11695,2,0,P|103:290|127:218,1,120,2|2,0:0|0:0,0:0:0:0:
234,182,12295,1,2,0:0:0:0:
362,173,12595,2,0,P|382:114|354:46,1,120,2|2,0:0|0:0,0:0:0:0:
237,42,13195,1,2,0:0:0:0:
381,195,13495,6,0,L|506:210,1,120,8|2,0:0|0:0,0:0:0:0:
380,346,14095,1,2,0:0:0:0:
275,294,14395,1,2,0:0:0:0:
244,182,14695,1,2,0:0:0:0:
308,85,14995,1,2,0:0:0:0:
465,48,15295,6,0,L|472:181,1,120,8|2,0:0|0:0,0:0:0:0:
345,244,15895,2,0,L|274:260,1,60,8|2,0:0|0:0,0:0:0:0:
228,275,16195,2,0,P|208:231|246:155,1,120,8|8,0:0|0:0,0:0:0:0:
294,148,16645,1,8,0:0:0:0:
166,80,16945,2,0,L|94:71,1,60,8|4,0:0|0:0,0:0:0:0:
270,25,17395,6,0,P|290:60|210:165,1,180,4|2,0:1|0:1,0:0:0:0:
166,176,17995,1,2,0:1:0:0:
18,242,18445,1,2,0:1:0:0:
197,347,18895,6,0,L|329:357,1,120,2|2,0:1|0:1,0:0:0:0:
448,278,19495,2,0,L|395:220,1,60,0|2,0:0|0:1,0:0:0:0:
351,213,19795,2,0,P|262:171|291:115,1,180,2|0,0:1|0:0,0:0:0:0:
347,97,20395,1,12,0:0:0:0:
408,90,20545,1,12,0:0:0:0:
334,58,20695,6,0,L|155:-2,3,180,12|12|12|12,0:0|0:0|0:0|0:0,0:0:0:0:
22,14,22495,5,4,0:0:0:0:
125,70,22795,1,0,0:0:0:0:
167,180,23095,1,0,0:0:0:0:
129,291,23395,1,0,0:0:0:0:
27,351,23695,1,0,0:0:0:0:
186,203,23995,2,0,L|259:187,1,60,0|0,0:0|0:0,0:0:0:0:
179,149,24295,6,0,L|36:114,2,120,6|2|2,0:0|0:0|0:0,0:0:0:0:
304,148,25195,1,2,0:0:0:0:
174,242,25495,2,0,L|201:374,1,120,8|2,0:0|0:0,0:0:0:0:
329,380,26095,6,0,L|463:348,2,120,6|2|2,0:0|0:0|0:0,0:0:0:0:
210,338,26995,1,2,0:0:0:0:
337,254,27295,2,0,L|473:229,1,120,8|2,0:0|0:0,0:0:0:0:
321,142,27895,6,0,L|310:9,1,120,6|2,0:0|0:0,0:0:0:0:
367,10,28345,1,8,0:0:0:0:
426,15,28495,1,2,0:0:0:0:
293,160,28795,2,0,L|151:126,2,120,2|8|2,0:0|0:0|0:0,0:0:0:0:
152,238,29695,6,0,L|21:252,1,120,6|2,0:0|0:0,0:0:0:0:
18,308,30145,1,8,0:0:0:0:
48,345,30295,1,2,0:0:0:0:
166,355,30595,1,2,0:0:0:0:
288,288,30895,1,2,0:0:0:0:
150,230,31195,1,10,0:0:0:0:
305,146,31495,6,0,L|437:94,2,120,6|2|2,0:0|0:0|0:0,0:0:0:0:
181,89,32395,2,0,L|106:75,2,60,2|0|8,0:0|0:0|0:0,0:0:0:0:
301,93,32995,1,2,0:0:0:0:
432,105,33295,6,0,P|477:146|468:223,1,120,6|2,0:0|0:0,0:0:0:0:
349,282,33895,2,0,L|280:308,1,60,2|2,0:0|0:0,0:0:0:0:
234,322,34195,2,0,P|217:273|241:202,1,120,2|8,0:0|0:0,0:0:0:0:
384,126,34795,2,0,L|320:99,1,60,2|2,0:0|0:0,0:0:0:0:
275,89,35095,6,0,L|144:88,1,120,6|2,0:0|0:0,0:0:0:0:
55,81,35695,1,2,0:0:0:0:
24,194,35995,1,6,0:0:0:0:
74,301,36295,1,2,0:0:0:0:
181,350,36595,1,8,0:0:0:0:
27,369,36895,6,0,L|32:248,1,120,6|8,0:0|0:0,0:0:0:0:
152,198,37495,1,8,0:0:0:0:
295,163,37795,2,0,L|369:144,2,60,6|2|2,0:0|0:0|0:0,0:0:0:0:
152,69,38395,2,0,L|78:50,2,60,2|2|2,0:0|0:0|0:1,0:0:0:0:
322,52,38995,5,4,1:1:0:0:
256,192,39295,12,0,41695,0:0:0:0:
250,131,41995,6,0,L|315:119,1,60,2|2,0:0|0:0,0:0:0:0:
249,180,42295,2,0,L|138:257,2,120,2|2|2,0:0|0:0|0:0,0:0:0:0:
370,278,43195,2,0,L|490:347,2,120,2|2|2,0:0|0:0|0:0,0:0:0:0:
235,361,44095,5,2,0:0:0:0:
187,255,44395,1,2,0:0:0:0:
246,156,44695,1,2,0:0:0:0:
369,146,44995,6,0,L|383:12,1,120,2|2,0:0|0:0,0:0:0:0:
319,17,45445,1,0,0:0:0:0:
258,28,45595,1,0,0:0:0:0:
320,49,45745,1,0,0:0:0:0:
384,64,45895,1,2,0:0:0:0:
221,158,46195,6,0,L|141:254,1,120,6|2,1:1|0:0,0:0:0:0:
24,294,46795,1,2,0:0:0:0:
139,349,47095,1,2,0:0:0:0:
261,357,47395,1,8,0:0:0:0:
122,373,47695,6,0,L|45:270,2,120,2|2|8,0:0|0:0|0:0,0:0:0:0:
179,379,48445,1,0,0:0:0:0:
243,377,48595,6,0,L|261:240,1,120,2|2,0:0|0:0,0:0:0:0:
138,222,49195,1,8,0:0:0:0:
270,147,49495,2,0,L|407:134,1,120,2|0,0:0|0:0,0:0:0:0:
255,42,50095,2,0,L|194:35,1,60,8|0,0:0|0:0,0:0:0:0:
259,70,50395,6,0,L|373:126,1,120,2|2,0:0|0:0,0:0:0:0:
483,141,50995,1,8,0:0:0:0:
345,210,51295,6,0,L|324:342,1,120,2|2,0:0|0:0,0:0:0:0:
191,351,51895,2,0,L|127:363,1,60,8|0,0:0|0:0,0:0:0:0:
193,317,52195,2,0,L|316:263,1,120,2|2,0:0|0:0,0:0:0:0:
245,236,52645,1,2,0:0:0:0:
184,231,52795,1,0,0:0:0:0:
30,242,53095,6,0,L|40:106,1,120,6|0,1:1|0:0,0:0:0:0:
154,87,53695,1,8,0:0:0:0:
281,51,53995,2,0,L|134:57,1,120,2|2,0:0|0:0,0:0:0:0:
274,178,54595,1,8,0:0:0:0:
413,229,54895,6,0,L|485:335,2,120,2|2|8,0:0|0:0|0:0,0:0:0:0:
354,211,55645,1,0,0:0:0:0:
291,220,55795,2,0,L|274:84,1,120,2|2,0:0|0:0,0:0:0:0:
401,73,56395,1,8,0:0:0:0:
252,52,56695,6,0,P|200:78|186:151,1,120,6|8,0:1|0:0,0:0:0:0:
242,159,57145,1,8,0:0:0:0:
101,234,57445,2,0,L|35:261,2,60,2|2|8,0:0|0:0|0:0,0:0:0:0:
167,226,57895,2,0,L|185:367,1,120,2|8,0:0|0:0,0:0:0:0:
326,355,58495,6,0,L|392:362,2,60,2|2|2,0:0|0:0|0:0,0:0:0:0:
191,284,59095,1,2,0:0:0:0:
352,235,59395,2,0,L|477:155,2,120,2|0|0,0:0|0:0|0:0,0:0:0:0:
183,173,60295,5,2,0:0:0:0:
109,304,66595,5,2,0:0:0:0:
56,278,66745,1,2,0:0:0:0:
40,222,66895,1,2,0:0:0:0:
70,172,67045,1,2,0:0:0:0:
127,160,67195,1,2,0:0:0:0:
286,93,67495,6,0,L|337:227,2,120,4|0|0,0:0|0:0|0:0,0:0:0:0:
143,49,68395,2,0,L|4:97,2,120,2|2|2,0:0|0:0|0:0,0:0:0:0:
268,100,69295,1,2,0:0:0:0:
165,211,69595,1,2,0:0:0:0:
41,265,69895,1,2,0:0:0:0:
180,326,70195,2,0,P|241:297|168:171,1,240,2|2,0:0|0:0,0:0:0:0:
119,162,70945,1,2,0:0:0:0:
188,121,71095,5,2,0:0:0:0:
479,109,71995,2,0,L|484:248,1,120,2|2,0:0|0:0,0:0:0:0:
368,294,72595,1,2,0:0:0:0:
232,342,72895,2,0,P|317:319|292:188,1,240,2|2,0:0|0:0,0:0:0:0:
238,175,73645,1,2,0:0:0:0:
174,173,73795,6,0,L|170:39,1,120,2|2,0:0|0:0,0:0:0:0:
291,28,74395,1,2,0:0:0:0:
131,137,74695,6,0,P|59:148|86:290,1,240,6|0,0:0|0:0,0:0:0:0:
205,317,75595,2,0,L|334:268,2,120,2|2|2,0:0|0:0|0:0,0:0:0:0:
336,348,76495,2,0,L|380:215,2,120,2|2|2,0:0|0:0|0:0,0:0:0:0:
206,371,77395,6,0,P|165:346|236:208,1,240,2|2,0:0|0:0,0:0:0:0:
288,198,78145,1,2,0:0:0:0:
352,191,78295,6,0,L|165:151,2,180,2|0|2,0:0|0:0|0:0,0:0:0:0:
470,254,79495,1,2,0:0:0:0:
358,351,79795,1,2,0:0:0:0:
211,357,80095,2,0,L|203:275,1,60,2|2,0:0|0:0,0:0:0:0:
32,165,81895,5,0,0:0:0:0:
448,129,83695,6,0,L|473:200,2,60,2|2|2,0:0|0:0|0:0,0:0:0:0:
324,199,84295,2,0,L|322:275,2,60,2|2|2,0:0|0:0|0:0,0:0:0:0:
380,190,84745,1,2,0:0:0:0:
441,192,84895,2,0,L|445:278,1,60,2|2,0:0|0:0,0:0:0:0:
315,348,85345,6,0,L|242:349,1,60,2|2,0:0|0:0,0:0:0:0:
312,322,85645,1,2,0:0:0:0:
372,307,85795,1,2,0:0:0:0:
241,254,86095,2,0,L|228:188,1,60,2|10,0:0|0:0,0:0:0:0:
94,189,86545,2,0,L|74:123,1,60,2|8,0:0|0:0,0:0:0:0:
224,64,86995,2,0,L|285:53,1,60,2|8,0:0|0:0,0:0:0:0:
226,100,87295,6,0,L|150:98,1,60,2|2,0:0|0:0,0:0:0:0:
230,138,87595,1,8,0:0:0:0:
351,165,87895,2,0,L|362:236,1,60,2|8,0:0|0:0,0:0:0:0:
488,251,88345,2,0,L|492:315,1,60,4|4,0:0|0:0,0:0:0:0:
361,346,88795,2,0,L|276:349,1,60,4|4,0:0|0:0,0:0:0:0:
370,313,89095,5,2,0:0:0:0:
219,279,89995,1,2,0:0:0:0:
164,259,90145,1,2,0:0:0:0:
140,205,90295,1,2,0:0:0:0:
164,152,90445,1,2,0:0:0:0:
219,133,90595,1,2,0:0:0:0:
55,112,90895,6,0,L|24:241,2,120,6|4|4,0:1|0:0|0:0,0:0:0:0:
100,73,91645,1,0,0:0:0:0:
156,53,91795,1,2,0:0:0:0:
216,52,91945,2,0,L|230:182,1,120,4|2,0:0|0:0,0:0:0:0:
356,218,92545,2,0,L|418:228,1,60,4|2,0:0|0:0,0:0:0:0:
350,269,92845,6,0,L|229:300,1,120,4|2,0:0|0:0,0:0:0:0:
292,335,93295,1,4,0:0:0:0:
424,360,93595,1,2,0:0:0:0:
481,361,93745,2,0,P|494:306|445:255,1,120,4|2,0:0|0:0,0:0:0:0:
399,240,94195,1,4,0:0:0:0:
341,233,94345,1,4,0:0:0:0:
279,235,94495,5,2,0:0:0:0:
417,166,94795,2,0,L|430:40,1,120,4|2,0:0|0:0,0:0:0:0:
372,31,95245,1,6,0:0:0:0:
312,33,95395,1,2,0:0:0:0:
248,76,95545,6,0,L|368:85,1,120,4|4,0:0|0:0,0:0:0:0:
312,139,95995,1,0,0:0:0:0:
179,220,96295,1,2,0:0:0:0:
119,239,96445,6,0,L|105:111,1,120,4|2,0:0|0:0,0:0:0:0:
168,100,96895,1,4,0:0:0:0:
37,331,97195,1,2,0:0:0:0:
91,339,97345,6,0,L|226:318,1,120,4|2,0:0|0:0,0:0:0:0:
270,294,97795,1,4,0:0:0:0:
208,274,97945,1,4,0:0:0:0:
145,269,98095,5,6,0:1:0:0:
279,196,98395,2,0,L|299:124,2,60,2|2|4,0:0|0:0|0:0,0:0:0:0:
143,176,98995,1,2,0:0:0:0:
81,198,99145,2,0,P|50:160|65:87,1,120,4|2,0:0|0:0,0:0:0:0:
119,70,99595,1,4,0:0:0:0:
181,62,99745,1,4,0:0:0:0:
117,34,99895,1,2,0:0:0:0:
51,39,100045,6,0,L|39:164,1,120,4|2,0:0|0:0,0:0:0:0:
103,178,100495,1,4,0:0:0:0:
243,249,100795,1,2,0:0:0:0:
303,282,100945,2,0,L|166:310,1,120,4|4,0:0|0:0,0:0:0:0:
125,333,101395,1,4,0:0:0:0:
186,354,101545,1,0,0:0:0:0:
253,359,101695,5,6,0:1:0:0:
388,229,101995,2,0,L|457:211,2,60,2|4|2,0:0|0:0|0:0,0:0:0:0:
325,242,102445,1,4,0:0:0:0:
390,273,102595,2,0,P|459:231|470:192,1,120,2|0,0:0|0:0,0:0:0:0:
411,166,103045,1,2,0:0:0:0:
348,158,103195,1,4,0:0:0:0:
197,80,103495,6,0,L|70:106,2,120,6|2|4,0:1|0:0|0:0,0:0:0:0:
346,58,104395,1,2,0:0:0:0:
407,68,104545,2,0,P|416:120|357:176,1,120,4|2,0:0|0:0,0:0:0:0:
317,190,104995,1,4,0:0:0:0:
255,200,105145,1,0,0:0:0:0:
321,230,105295,5,6,1:1:0:0:
485,314,105745,5,6,1:1:0:0:
312,360,106195,5,6,1:1:0:0:
139,349,106645,5,6,1:1:0:0:
339,269,107095,6,0,P|409:242|285:96,1,360,2|2,0:0|0:0,0:0:0:0:
233,107,108145,1,2,0:0:0:0:
174,131,108295,1,2,0:0:0:0:
233,161,108445,1,2,0:0:0:0:
294,179,108595,1,2,0:0:0:0:
121,268,108895,5,4,1:1:0:0:
28,114,109795,2,0,B|144:140|144:140|0:181,1,240,2|2,0:0|0:0,0:0:0:0:
158,169,110695,2,0,P|175:225|39:336,1,240,2|2,0:0|0:0,0:0:0:0:
61,211,111595,2,0,L|308:191,1,240,2|2,0:0|0:0,0:0:0:0:
164,175,112495,6,0,P|92:147|178:55,1,240,2|0,0:0|0:0,0:0:0:0:
305,60,113395,2,0,B|308:181|308:181|181:198,1,240,2|2,0:0|0:0,0:0:0:0:
322,280,114295,2,0,P|446:270|474:158,1,240,2|0,0:0|0:0,0:0:0:0:
468,62,115195,2,0,L|212:70,1,240,2|2,0:0|0:0,0:0:0:0:
392,126,116095,6,0,P|443:151|373:278,1,240,6|8,0:0|0:0,0:0:0:0:
317,280,116845,1,2,0:0:0:0:
243,280,116995,5,12,0:0:0:0:
433,358,117445,1,12,0:0:0:0:
221,360,117895,6,0,L|81:350,2,120,12|12|2,0:0|0:0|0:0,0:0:0:0:
285,340,118645,1,2,0:0:0:0:
221,310,118795,5,12,0:0:0:0:
27,202,119245,1,12,0:0:0:0:
249,126,119695,6,0,L|376:110,1,120,6|2,0:0|0:0,0:0:0:0:
302,164,120145,2,0,L|168:170,1,120,6|2,0:0|0:0,0:0:0:0:
119,182,120595,1,6,0:0:0:0:
280,306,121045,1,6,0:0:0:0:
481,315,121495,5,6,0:0:0:0:
371,226,121795,1,6,0:0:0:0:
242,221,122095,1,6,0:0:0:0:
400,58,122395,6,0,L|416:178,1,120,6|2,0:0|0:0,0:0:0:0:
357,181,122845,1,2,0:0:0:0:
322,235,122995,1,2,0:0:0:0:
357,286,123145,1,2,0:0:0:0:
422,297,123295,5,6,1:1:0:0:
363,342,123445,1,0,0:0:0:0:
228,363,123745,1,2,0:0:0:0:
166,375,123895,2,0,P|145:332|189:251,1,120,8|2,0:0|0:0,0:0:0:0:
296,151,124495,2,0,P|234:130|170:128,1,120,0|8,0:0|0:0,0:0:0:0:
34,99,125095,5,6,0:0:0:0:
176,55,125395,2,0,L|192:188,1,120,2|8,0:0|0:0,0:0:0:0:
334,210,125995,2,0,L|352:328,1,120,2|2,0:0|0:0,0:0:0:0:
289,348,126445,1,2,0:0:0:0:
225,344,126595,1,8,0:0:0:0:
359,224,126895,6,0,L|476:169,2,120,6|2|8,0:0|0:0|0:0,0:0:0:0:
221,212,127795,2,0,P|208:177|262:103,1,120,2|2,0:0|0:0,0:0:0:0:
381,70,128395,2,0,L|450:54,1,60,8|2,0:0|0:0,0:0:0:0:
375,34,128695,6,0,L|245:28,1,120,2|2,0:0|0:0,0:0:0:0:
135,160,129295,1,8,0:0:0:0:
263,188,129595,5,2,0:0:0:0:
362,295,129895,1,2,0:0:0:0:
256,377,130195,1,8,0:0:0:0:
112,381,130495,6,0,L|97:242,1,120,6|2,1:1|0:0,0:0:0:0:
158,232,130945,1,2,0:0:0:0:
218,221,131095,1,8,0:0:0:0:
82,151,131395,2,0,L|41:38,2,120,2|2|8,0:0|0:0|0:0,0:0:0:0:
224,153,132295,5,6,0:0:0:0:
278,173,132445,1,0,0:0:0:0:
300,227,132595,1,2,0:0:0:0:
275,280,132745,1,2,0:0:0:0:
220,297,132895,5,8,0:0:0:0:
97,337,133195,1,2,0:0:0:0:
219,379,133495,1,8,0:0:0:0:
357,368,133795,2,0,L|427:350,1,60,8|2,0:0|0:0,0:0:0:0:
345,308,134095,6,0,L|198:286,2,120,6|2|2,0:0|0:0|0:0,0:0:0:0:
483,269,134995,2,0,P|492:210|448:149,1,120,6|2,0:0|0:0,0:0:0:0:
340,140,135595,1,2,0:0:0:0:
201,80,135895,6,0,L|344:51,1,120,6|2,0:0|0:0,0:0:0:0:
448,63,136495,1,8,0:0:0:0:
319,193,136795,2,0,L|248:184,1,60,6|8,0:0|0:0,0:0:0:0:
324,222,137095,2,0,L|401:217,1,60,8|8,0:0|0:0,0:0:0:0:
317,274,137395,1,8,0:0:0:0:
151,326,137695,5,4,0:1:0:0:
38,266,138595,2,0,L|15:130,2,120,2|2|2,0:0|0:0|0:0,0:0:0:0:
158,295,139495,2,0,L|283:278,2,120,2|2|2,0:0|0:0|0:0,0:0:0:0:
30,348,140395,1,2,0:0:0:0:
234,344,140995,6,0,L|247:217,1,120,2|2,0:0|0:0,0:0:0:0:
457,145,142195,2,0,L|501:16,2,120,2|2|2,0:0|0:0|0:0,0:0:0:0:
314,181,143095,1,2,0:0:0:0:
50,360,144895,5,2,0:0:0:0:
219,332,145795,2,0,L|90:290,2,120,2|2|2,0:0|0:0|0:0,0:0:0:0:
342,284,146695,2,0,L|467:248,2,120,2|2|2,0:0|0:0|0:0,0:0:0:0:
210,237,147595,1,2,0:0:0:0:
436,189,148195,6,0,L|445:62,1,120,2|2,0:0|0:0,0:0:0:0:
139,53,149395,2,0,L|19:97,2,120,2|2|2,0:0|0:0|0:0,0:0:0:0:
290,80,150295,1,0,0:0:0:0:
256,192,150595,12,0,152395,0:0:0:0:
