osu file format v14

[General]
AudioFilename: audio.mp3
AudioLeadIn: 0
PreviewTime: 23168
Countdown: 0
SampleSet: Normal
StackLeniency: 0.7
Mode: 3
LetterboxInBreaks: 0
SpecialStyle: 0
WidescreenStoryboard: 1

[Editor]
DistanceSpacing: 1.5
BeatDivisor: 4
GridSize: 8
TimelineZoom: 1.9

[Metadata]
Title:Wizdomiot
TitleUnicode:Wizdomiot
Artist:LeaF
ArtistUnicode:LeaF
Creator:DarckoSeth
Version:Normal
Source:BMS
Tags:東方project touhou zun 東方地霊殿 ~ subterranean animism 東方音弾遊戯7 optie 緑眼のジェラシー 水橋 パルスィ green eyed jealousy mizuhashi parsee game _VianK_ NishiwakiAyaka
BeatmapID:1391605
BeatmapSetID:656476

[Difficulty]
HPDrainRate:7
CircleSize:4
OverallDifficulty:7
ApproachRate:5
SliderMultiplier:1.4
SliderTickRate:1

[Events]
//Background and Video events
0,0,"WIZDOMIOT12.jpg",0,0
//Break Periods
//Storyboard Layer 0 (Background)
//Storyboard Layer 1 (Fail)
//Storyboard Layer 2 (Pass)
//Storyboard Layer 3 (Foreground)
//Storyboard Sound Samples

[TimingPoints]
2015,300,4,1,0,25,1,0
9215,-100,4,1,1,25,0,0
21815,-100,4,1,0,25,0,0
21818,-105.263157894737,4,1,0,19,0,0
22118,-111.111111111111,4,1,0,19,0,0
22418,-117.647058823529,4,1,0,19,0,0
22718,-125,4,1,0,19,0,0
23018,-133.333333333333,4,1,0,19,0,0
23318,-100,4,1,0,19,0,0
23615,-100,4,1,0,19,0,1
38015,-100,4,1,0,19,0,0
59015,-100,4,1,0,25,0,0
59618,-117.647058823529,4,1,0,19,0,0
65918,-111.111111111111,4,1,0,19,0,0
66815,-100,4,1,0,25,0,0
74018,-105.263157894737,4,1,0,19,0,0
84818,-100,4,1,0,19,0,0
90215,-100,4,1,0,19,0,1
104615,-100,4,1,0,19,0,0
108218,-117.647058823529,4,1,0,19,0,0
115418,-100,4,1,0,19,0,0
122615,-100,4,1,0,19,0,1
137015,-125,4,1,0,19,0,0

[HitObjects]
64,192,2015,5,0,0:0:0:70:breakbeat9_002.wav
448,192,2015,1,0,0:0:0:0:
192,192,2315,1,0,0:0:0:0:
448,192,2615,1,0,0:0:0:0:
320,192,2765,1,0,0:0:0:0:
192,192,2915,1,0,0:0:0:0:
64,192,3215,1,0,0:0:0:0:
448,192,3515,1,0,0:0:0:0:
192,192,3815,1,0,0:0:0:70:breakbeat9_002.wav
64,192,3815,1,0,0:0:0:0:
320,192,3965,1,0,0:0:0:70:breakbeat9_002.wav
448,192,4265,1,0,0:0:0:0:
64,192,4415,1,0,0:0:0:60:breakbeat9_002.wav
448,192,4715,1,0,0:0:0:60:breakbeat9_002.wav
320,192,5015,1,0,0:0:0:60:breakbeat9_002.wav
192,192,5315,1,0,0:0:0:60:breakbeat9_002.wav
64,192,5465,1,0,0:0:0:0:
320,192,5615,1,0,0:0:0:70:breakbeat9_002.wav
64,192,5915,1,0,0:0:0:60:breakbeat9_002.wav
320,192,6215,1,0,0:0:0:60:breakbeat9_002.wav
64,192,6515,1,0,0:0:0:60:drum.wav
448,192,6815,1,0,0:0:0:60:breakbeat9_002.wav
192,192,7115,1,0,0:0:0:60:breakbeat9_002.wav
448,192,7415,1,0,0:0:0:70:breakbeat9_002.wav
320,192,7415,1,0,0:0:0:60:drum.wav
192,192,7565,1,0,0:0:0:60:drum.wav
64,192,7865,1,0,0:0:0:0:
448,192,8015,1,0,0:0:0:60:breakbeat9_002.wav
320,192,8315,1,0,0:0:0:60:drum.wav
192,192,8615,1,0,0:0:0:60:breakbeat9_002.wav
320,192,8915,1,0,0:0:0:60:breakbeat9_002.wav
192,192,9065,1,0,0:0:0:70:breakbeat9_002.wav
448,192,9215,1,0,0:0:0:70:kick.wav
64,192,9215,1,0,0:0:0:70:breakbeat9_002.wav
64,192,9515,1,0,0:0:0:70:kick.wav
192,192,9815,1,0,0:0:0:70:kick.wav
192,192,10115,1,0,0:0:0:70:kick.wav
320,192,10415,1,0,0:0:0:70:kick.wav
320,192,10715,1,0,0:0:0:70:kick.wav
448,192,11015,1,0,0:0:0:70:kick.wav
448,192,11315,1,0,0:0:0:70:kick.wav
320,192,11615,1,0,0:0:0:70:kick.wav
320,192,11915,1,0,0:0:0:70:kick.wav
192,192,12215,1,0,0:0:0:70:kick.wav
192,192,12515,1,0,0:0:0:70:kick.wav
64,192,12815,1,0,0:0:0:70:kick.wav
448,192,12965,1,0,0:0:0:70:kick.wav
192,192,13115,1,0,0:0:0:70:kick.wav
448,192,13265,1,0,0:0:0:70:kick.wav
64,192,13415,1,0,0:0:0:70:kick.wav
320,192,13565,1,0,0:0:0:70:kick.wav
192,192,13715,1,0,0:0:0:70:kick.wav
448,192,13865,1,0,0:0:0:70:kick.wav
192,192,14015,1,0,0:0:0:70:kick.wav
64,192,14165,1,0,0:0:0:70:kick.wav
320,192,14315,1,0,0:0:0:70:kick.wav
192,192,14465,1,0,0:0:0:70:kick.wav
64,192,14615,1,0,0:0:0:70:kick.wav
320,192,14615,128,0,14915:0:0:0:50:BaSS.wav
448,192,14615,1,0,0:0:0:70:breakbeat9_002.wav
192,192,14915,128,0,15215:0:0:0:70:breakbeat9_002.wav
64,192,15215,128,0,15515:0:0:0:25:drum.wav
448,192,15515,128,0,15815:0:0:0:25:drum.wav
320,192,15815,128,0,16115:0:0:0:25:drum.wav
64,192,16115,128,0,16415:0:0:0:25:drum.wav
448,192,16415,1,0,0:0:0:70:kick.wav
192,192,16415,1,0,0:0:0:0:
320,192,16715,1,0,0:0:0:70:kick.wav
192,192,16865,1,0,0:0:0:0:
64,192,17015,1,0,0:0:0:70:breakbeat9_002.wav
192,192,17165,1,0,0:0:0:70:breakbeat9_002.wav
320,192,17315,1,0,0:0:0:0:
448,192,17615,1,0,0:0:0:30:BaSS.wav
320,192,17915,1,0,0:0:0:70:breakbeat9_002.wav
192,192,18215,1,0,0:0:0:0:
320,192,18365,1,0,0:0:0:70:breakbeat9_002.wav
448,192,18515,1,0,0:0:0:70:breakbeat9_002.wav
64,192,18665,1,0,0:0:0:0:
192,192,18815,1,0,0:0:0:70:breakbeat9_002.wav
448,192,18965,1,0,0:0:0:70:breakbeat9_002.wav
320,192,19115,1,0,0:0:0:0:
192,192,19415,1,0,0:0:0:70:breakbeat9_002.wav
64,192,19715,1,0,0:0:0:70:breakbeat9_002.wav
192,192,19865,1,0,0:0:0:70:breakbeat9_002.wav
64,192,20015,128,0,20465:0:0:0:70:BaSS.wav
320,192,20015,1,0,0:0:0:70:breakbeat9_002.wav
448,192,20465,128,0,20915:0:0:0:70:BaSS.wav
192,192,20915,128,0,21365:0:0:0:70:breakbeat9_002.wav
320,192,21365,128,0,21815:0:0:0:70:BaSS.wav
64,192,21815,1,0,0:0:0:70:BaSS.wav
192,192,21965,1,0,0:0:0:0:
320,192,22115,1,0,0:0:0:0:
448,192,22265,1,0,0:0:0:0:
320,192,22415,1,0,0:0:0:0:
192,192,22565,1,0,0:0:0:0:
64,192,22715,128,0,23015:0:0:0:0:
192,192,23015,1,0,0:0:0:0:
448,192,23315,1,0,0:0:0:0:
320,192,23465,1,0,0:0:0:0:
64,192,23615,128,0,25415:0:0:0:50:drum.wav
192,192,23615,1,0,0:0:0:70:breakbeat9_002.wav
448,192,23915,1,0,0:0:0:40:BaSS.wav
320,192,24215,1,0,0:0:0:40:BaSS.wav
192,192,24515,1,0,0:0:0:40:BaSS.wav
320,192,24815,1,0,0:0:0:40:BaSS.wav
448,192,25115,1,0,0:0:0:40:BaSS.wav
192,192,25415,128,0,27215:0:0:0:40:BaSS.wav
320,192,25415,1,0,0:0:0:30:kick.wav
64,192,25715,1,0,0:0:0:40:BaSS.wav
448,192,26015,1,0,0:0:0:40:BaSS.wav
320,192,26315,1,0,0:0:0:40:BaSS.wav
64,192,26615,1,0,0:0:0:40:BaSS.wav
448,192,26915,1,0,0:0:0:40:BaSS.wav
64,192,27215,1,0,0:0:0:40:BaSS.wav
448,192,27215,128,0,29015:0:0:0:30:kick.wav
320,192,27515,1,0,0:0:0:40:BaSS.wav
64,192,27815,1,0,0:0:0:40:BaSS.wav
192,192,28115,1,0,0:0:0:40:BaSS.wav
320,192,28415,1,0,0:0:0:40:BaSS.wav
64,192,28715,1,0,0:0:0:40:BaSS.wav
320,192,29015,128,0,30815:0:0:0:40:BaSS.wav
192,192,29015,1,0,0:0:0:30:kick.wav
64,192,29315,1,0,0:0:0:40:BaSS.wav
448,192,29615,1,0,0:0:0:40:BaSS.wav
192,192,29915,1,0,0:0:0:40:BaSS.wav
64,192,30215,1,0,0:0:0:40:BaSS.wav
448,192,30515,1,0,0:0:0:40:BaSS.wav
192,192,30815,128,0,32615:0:0:0:40:BaSS.wav
64,192,30815,1,0,0:0:0:70:breakbeat9_002.wav
320,192,31115,1,0,0:0:0:40:BaSS.wav
64,192,31415,1,0,0:0:0:40:BaSS.wav
320,192,31715,1,0,0:0:0:40:BaSS.wav
64,192,32015,1,0,0:0:0:40:BaSS.wav
320,192,32315,1,0,0:0:0:40:BaSS.wav
448,192,32615,128,0,34415:0:0:0:40:BaSS.wav
64,192,32615,1,0,0:0:0:30:kick.wav
192,192,32915,1,0,0:0:0:40:BaSS.wav
320,192,33215,1,0,0:0:0:40:BaSS.wav
64,192,33515,1,0,0:0:0:40:BaSS.wav
192,192,33815,1,0,0:0:0:40:BaSS.wav
320,192,34115,1,0,0:0:0:40:BaSS.wav
192,192,34415,1,0,0:0:0:40:BaSS.wav
64,192,34415,128,0,36215:0:0:0:70:breakbeat9_002.wav
320,192,34715,1,0,0:0:0:40:BaSS.wav
448,192,35015,1,0,0:0:0:40:BaSS.wav
320,192,35315,1,0,0:0:0:40:BaSS.wav
448,192,35615,1,0,0:0:0:40:BaSS.wav
192,192,35915,1,0,0:0:0:40:BaSS.wav
448,192,36215,128,0,36515:0:0:0:35:drum.wav
320,192,36215,1,0,0:0:0:30:kick.wav
64,192,36515,128,0,36815:0:0:0:35:drum.wav
192,192,36815,128,0,37115:0:0:0:35:drum.wav
320,192,37115,128,0,38015:0:0:0:35:drum.wav
448,192,38015,1,0,0:0:0:70:kick.wav
64,192,38015,1,0,0:0:0:70:BaSS.wav
192,192,38315,1,0,0:0:0:70:kick.wav
448,192,38765,1,0,0:0:0:0:
64,192,39215,1,0,0:0:0:0:
192,192,39665,1,0,0:0:0:0:
448,192,40115,1,0,0:0:0:0:
192,192,40415,1,0,0:0:0:0:
64,192,40715,128,0,41315:0:0:0:0:
448,192,41315,1,0,0:0:0:70:kick.wav
320,192,41465,1,0,0:0:0:70:kick.wav
192,192,41615,1,0,0:0:0:70:kick.wav
448,192,41915,1,0,0:0:0:70:kick.wav
64,192,42215,1,0,0:0:0:70:kick.wav
448,192,42515,1,0,0:0:0:70:kick.wav
192,192,42815,1,0,0:0:0:70:kick.wav
320,192,43115,1,0,0:0:0:70:kick.wav
64,192,43415,1,0,0:0:0:70:kick.wav
192,192,43565,1,0,0:0:0:70:kick.wav
320,192,43715,1,0,0:0:0:70:kick.wav
448,192,43865,1,0,0:0:0:70:kick.wav
64,192,44015,1,0,0:0:0:70:kick.wav
192,192,44165,1,0,0:0:0:70:kick.wav
320,192,44315,1,0,0:0:0:70:kick.wav
448,192,44465,1,0,0:0:0:70:kick.wav
320,192,44615,1,0,0:0:0:70:kick.wav
192,192,44765,1,0,0:0:0:70:kick.wav
64,192,44915,1,0,0:0:0:70:kick.wav
192,192,45065,1,0,0:0:0:70:kick.wav
448,192,45215,1,0,0:0:0:70:kick.wav
320,192,45215,1,0,0:0:0:70:breakbeat9_002.wav
192,192,45515,1,0,0:0:0:70:breakbeat9_002.wav
320,192,45815,1,0,0:0:0:70:kick.wav
64,192,45815,1,0,0:0:0:0:
448,192,46115,1,0,0:0:0:70:kick.wav
64,192,46415,1,0,0:0:0:70:kick.wav
192,192,46415,1,0,0:0:0:0:
320,192,46715,1,0,0:0:0:70:kick.wav
192,192,46865,1,0,0:0:0:0:
448,192,47015,1,0,0:0:0:70:kick.wav
64,192,47015,1,0,0:0:0:70:breakbeat9_002.wav
320,192,47315,1,0,0:0:0:70:kick.wav
192,192,47615,1,0,0:0:0:70:kick.wav
448,192,47615,1,0,0:0:0:0:
320,192,47765,1,0,0:0:0:0:
448,192,47915,1,0,0:0:0:70:kick.wav
64,192,48215,1,0,0:0:0:70:kick.wav
320,192,48215,1,0,0:0:0:0:
192,192,48515,1,0,0:0:0:70:kick.wav
320,192,48665,1,0,0:0:0:0:
64,192,48815,1,0,0:0:0:70:kick.wav
448,192,48815,1,0,0:0:0:70:breakbeat9_002.wav
320,192,49115,1,0,0:0:0:70:kick.wav
192,192,49415,1,0,0:0:0:70:kick.wav
448,192,49415,1,0,0:0:0:0:
64,192,49715,1,0,0:0:0:70:kick.wav
192,192,50015,1,0,0:0:0:70:kick.wav
448,192,50015,1,0,0:0:0:0:
64,192,50315,1,0,0:0:0:70:kick.wav
448,192,50615,1,0,0:0:0:70:kick.wav
320,192,50615,1,0,0:0:0:70:breakbeat9_002.wav
192,192,50915,1,0,0:0:0:70:kick.wav
448,192,51215,1,0,0:0:0:70:kick.wav
64,192,51215,1,0,0:0:0:0:
320,192,51365,1,0,0:0:0:0:
192,192,51515,1,0,0:0:0:70:kick.wav
448,192,51815,1,0,0:0:0:70:kick.wav
64,192,51815,1,0,0:0:0:0:
320,192,51965,1,0,0:0:0:0:
192,192,52115,1,0,0:0:0:70:kick.wav
320,192,52265,1,0,0:0:0:0:
448,192,52415,1,0,0:0:0:70:kick.wav
64,192,52415,1,0,0:0:0:70:breakbeat9_002.wav
320,192,52715,1,0,0:0:0:70:kick.wav
64,192,53015,1,0,0:0:0:70:kick.wav
448,192,53015,1,0,0:0:0:0:
192,192,53315,1,0,0:0:0:70:BaSS.wav
448,192,53615,1,0,0:0:0:70:kick.wav
320,192,53615,1,0,0:0:0:0:
64,192,53915,1,0,0:0:0:70:kick.wav
192,192,54215,1,0,0:0:0:70:BaSS.wav
448,192,54215,1,0,0:0:0:70:kick.wav
320,192,54515,1,0,0:0:0:70:kick.wav
448,192,54815,1,0,0:0:0:70:kick.wav
192,192,54815,1,0,0:0:0:0:
320,192,54965,1,0,0:0:0:0:
448,192,55115,1,0,0:0:0:70:BaSS.wav
192,192,55415,1,0,0:0:0:70:kick.wav
64,192,55415,1,0,0:0:0:0:
320,192,55715,1,0,0:0:0:70:kick.wav
64,192,56015,1,0,0:0:0:70:BaSS.wav
448,192,56240,1,0,0:0:0:70:kick.wav
192,192,56465,1,0,0:0:0:55:BaSS.wav
64,192,56765,1,0,0:0:0:55:BaSS.wav
192,192,56915,1,0,0:0:0:70:BaSS.wav
320,192,57065,1,0,0:0:0:70:BaSS.wav
64,192,57215,1,0,0:0:0:55:BaSS.wav
448,192,57215,1,0,0:0:0:55:snare.wav
192,192,57515,1,0,0:0:0:55:snare.wav
320,192,57515,1,0,0:0:0:55:BaSS.wav
448,192,57815,1,0,0:0:0:35:BaSS.wav
320,192,57965,1,0,0:0:0:35:BaSS.wav
192,192,58115,1,0,0:0:0:35:BaSS.wav
64,192,58115,1,0,0:0:0:70:kick.wav
320,192,58415,1,0,0:0:0:35:BaSS.wav
192,192,58715,128,0,59015:0:0:0:70:kick.wav
320,192,59015,128,0,59315:0:0:0:55:plak.wav
448,192,59315,128,0,59615:0:0:0:55:plak.wav
64,192,59315,128,0,59615:0:0:0:0:
192,192,59615,1,0,0:0:0:70:kick.wav
320,192,59615,1,0,0:0:0:35:BaSS.wav
448,192,60515,1,0,0:0:0:0:
64,192,60815,1,0,0:0:0:0:
320,192,61115,1,0,0:0:0:0:
192,192,61415,1,0,0:0:0:0:
64,192,61715,1,0,0:0:0:0:
192,192,62015,128,0,62315:0:0:0:0:
448,192,62315,1,0,0:0:0:0:
64,192,62915,1,0,0:0:0:0:
448,192,63215,1,0,0:0:0:0:
64,192,63215,1,0,0:0:0:0:
448,192,64115,1,0,0:0:0:0:
320,192,64415,1,0,0:0:0:0:
192,192,64715,1,0,0:0:0:0:
448,192,65015,1,0,0:0:0:0:
64,192,65015,1,0,0:0:0:0:
320,192,65915,128,0,66815:0:0:0:0:
448,192,66515,128,0,66815:0:0:0:0:
64,192,66815,1,0,0:0:0:70:LR3_BassDropSSG.wav
64,192,67715,1,0,0:0:0:0:
192,192,68015,1,0,0:0:0:0:
320,192,68315,1,0,0:0:0:0:
448,192,68615,128,0,68915:0:0:0:0:
320,192,68915,1,0,0:0:0:0:
64,192,69215,1,0,0:0:0:0:
320,192,69515,128,0,70115:0:0:0:0:
448,192,70115,1,0,0:0:0:0:
192,192,70265,1,0,0:0:0:0:
64,192,70415,1,0,0:0:0:0:
448,192,70415,1,0,0:0:0:0:
448,192,71315,1,0,0:0:0:0:
320,192,71615,1,0,0:0:0:0:
192,192,71915,1,0,0:0:0:0:
448,192,72215,128,0,72665:0:0:0:0:
320,192,72665,1,0,0:0:0:0:
192,192,72815,1,0,0:0:0:0:
64,192,72965,1,0,0:0:0:0:
448,192,73115,1,0,0:0:0:0:
320,192,73415,1,0,0:0:0:0:
192,192,73715,1,0,0:0:0:0:
192,192,74015,128,0,74915:0:0:0:0:
64,192,74015,1,0,0:0:0:0:
448,192,74915,1,0,0:0:0:0:
64,192,74915,1,0,0:0:0:0:
320,192,75215,1,0,0:0:0:0:
64,192,75515,1,0,0:0:0:0:
192,192,75665,1,0,0:0:0:0:
448,192,75815,1,0,0:0:0:0:
320,192,76115,1,0,0:0:0:0:
448,192,76415,1,0,0:0:0:0:
320,192,76565,1,0,0:0:0:0:
64,192,76715,128,0,77315:0:0:0:0:
192,192,76715,1,0,0:0:0:0:
192,192,77315,1,0,0:0:0:0:
448,192,77465,1,0,0:0:0:0:
64,192,77615,1,0,0:0:0:0:
192,192,77615,1,0,0:0:0:0:
64,192,78515,1,0,0:0:0:0:
192,192,78815,1,0,0:0:0:0:
320,192,79115,1,0,0:0:0:0:
448,192,79415,1,0,0:0:0:0:
64,192,79415,128,0,81215:0:0:0:0:
448,192,81215,1,0,0:0:0:0:
320,192,81215,128,0,83015:0:0:0:0:
192,192,83015,1,0,0:0:0:30:BaSS.wav
64,192,83015,128,0,84815:0:0:0:25:drum.wav
448,192,84815,1,0,0:0:0:70:kick.wav
64,192,85115,1,0,0:0:0:70:kick.wav
448,192,85415,1,0,0:0:0:70:kick.wav
192,192,85715,1,0,0:0:0:70:kick.wav
320,192,86015,1,0,0:0:0:70:kick.wav
64,192,86315,1,0,0:0:0:70:kick.wav
192,192,86615,1,0,0:0:0:70:kick.wav
320,192,86765,1,0,0:0:0:25:drum.wav
448,192,86915,1,0,0:0:0:70:kick.wav
64,192,87065,1,0,0:0:0:25:drum.wav
192,192,87215,1,0,0:0:0:70:kick.wav
320,192,87365,1,0,0:0:0:25:drum.wav
448,192,87515,1,0,0:0:0:70:kick.wav
320,192,87665,1,0,0:0:0:25:drum.wav
192,192,87815,1,0,0:0:0:70:kick.wav
64,192,87965,1,0,0:0:0:25:drum.wav
192,192,88115,1,0,0:0:0:70:kick.wav
320,192,88265,1,0,0:0:0:25:drum.wav
64,192,88415,128,0,89315:0:0:0:70:kick.wav
448,192,88415,128,0,89315:0:0:0:70:LR3_BassDropSSG.wav
192,192,89315,1,0,0:0:0:0:
320,192,89465,1,0,0:0:0:0:
64,192,89615,1,0,0:0:0:0:
448,192,89765,1,0,0:0:0:0:
192,192,89915,1,0,0:0:0:0:
320,192,90065,1,0,0:0:0:0:
64,192,90215,128,0,92015:0:0:0:70:BaSS.wav
192,192,90215,1,0,0:0:0:40:breakbeat9_002.wav
448,192,90515,1,0,0:0:0:55:drum.wav
320,192,90815,1,0,0:0:0:0:
192,192,91115,1,0,0:0:0:70:BaSS.wav
320,192,91415,1,0,0:0:0:0:
448,192,91715,1,0,0:0:0:55:drum.wav
448,192,92015,128,0,93815:0:0:0:70:BaSS.wav
320,192,92015,1,0,0:0:0:40:breakbeat9_002.wav
192,192,92315,1,0,0:0:0:0:
64,192,92615,1,0,0:0:0:0:
320,192,92915,1,0,0:0:0:70:BaSS.wav
64,192,93215,1,0,0:0:0:55:drum.wav
192,192,93515,1,0,0:0:0:0:
192,192,93815,128,0,95615:0:0:0:70:BaSS.wav
64,192,93815,1,0,0:0:0:40:breakbeat9_002.wav
320,192,94115,1,0,0:0:0:55:drum.wav
448,192,94415,1,0,0:0:0:55:drum.wav
64,192,94715,1,0,0:0:0:70:BaSS.wav
320,192,95015,1,0,0:0:0:0:
448,192,95315,1,0,0:0:0:0:
64,192,95615,1,0,0:0:0:70:BaSS.wav
320,192,95615,128,0,97415:0:0:0:40:breakbeat9_002.wav
192,192,95915,1,0,0:0:0:0:
64,192,96215,1,0,0:0:0:0:
448,192,96515,1,0,0:0:0:70:BaSS.wav
64,192,96815,1,0,0:0:0:55:drum.wav
192,192,97115,1,0,0:0:0:0:
192,192,97415,128,0,99215:0:0:0:70:BaSS.wav
448,192,97415,1,0,0:0:0:40:breakbeat9_002.wav
64,192,97715,1,0,0:0:0:55:drum.wav
320,192,98015,1,0,0:0:0:55:drum.wav
448,192,98315,1,0,0:0:0:70:BaSS.wav
320,192,98615,1,0,0:0:0:0:
64,192,98915,1,0,0:0:0:55:drum.wav
320,192,99215,128,0,101015:0:0:0:70:BaSS.wav
448,192,99215,1,0,0:0:0:55:drum.wav
64,192,99515,1,0,0:0:0:0:
192,192,99815,1,0,0:0:0:0:
448,192,100115,1,0,0:0:0:70:BaSS.wav
192,192,100415,1,0,0:0:0:55:drum.wav
64,192,100715,1,0,0:0:0:0:
64,192,101015,128,0,102815:0:0:0:70:BaSS.wav
448,192,101015,1,0,0:0:0:55:drum.wav
192,192,101315,1,0,0:0:0:55:drum.wav
320,192,101615,1,0,0:0:0:70:BaSS.wav
448,192,101915,1,0,0:0:0:70:BaSS.wav
192,192,102215,1,0,0:0:0:55:drum.wav
448,192,102515,1,0,0:0:0:0:
448,192,102815,128,0,103115:0:0:0:40:breakbeat9_002.wav
320,192,102815,1,0,0:0:0:70:BaSS.wav
320,192,103115,128,0,103415:0:0:0:0:
192,192,103415,128,0,103715:0:0:0:0:
64,192,103715,128,0,104615:0:0:0:70:BaSS.wav
448,192,103715,128,0,104615:0:0:0:0:
192,192,104615,1,0,0:0:0:70:BaSS.wav
320,192,105065,1,0,0:0:0:40:breakbeat9_002.wav
448,192,105515,1,0,0:0:0:70:BaSS.wav
64,192,105965,1,0,0:0:0:40:breakbeat9_002.wav
448,192,106415,128,0,107315:0:0:0:70:BaSS.wav
192,192,106415,1,0,0:0:0:35:snare.wav
320,192,107315,128,0,108215:0:0:0:0:
192,192,107915,128,0,108215:0:0:0:0:
448,192,108215,1,0,0:0:0:50:LR3_BassDropSSG.wav
64,192,108215,1,0,0:0:0:0:
448,192,109115,1,0,0:0:0:0:
320,192,109415,1,0,0:0:0:0:
192,192,109715,1,0,0:0:0:0:
64,192,110015,128,0,110915:0:0:0:0:
320,192,110915,128,0,111515:0:0:0:0:
448,192,111515,1,0,0:0:0:0:
192,192,111815,128,0,112715:0:0:0:0:
64,192,112715,128,0,113315:0:0:0:0:
448,192,113315,128,0,113615:0:0:0:0:
320,192,113615,128,0,115115:0:0:0:0:
192,192,114515,128,0,115115:0:0:0:0:
64,192,115115,1,0,0:0:0:0:
448,192,115415,128,0,116015:0:0:0:70:kick.wav
64,192,116015,1,0,0:0:0:70:BaSS.wav
320,192,116165,1,0,0:0:0:70:kick.wav
192,192,116315,128,0,116615:0:0:0:70:BaSS.wav
64,192,116615,1,0,0:0:0:0:
320,192,116765,128,0,117065:0:0:0:70:kick.wav
192,192,117065,1,0,0:0:0:0:
64,192,117215,128,0,117965:0:0:0:70:BaSS.wav
448,192,117215,1,0,0:0:0:70:kick.wav
320,192,117515,1,0,0:0:0:70:kick.wav
192,192,117965,1,0,0:0:0:70:kick.wav
320,192,118115,128,0,118415:0:0:0:70:kick.wav
448,192,118565,1,0,0:0:0:70:BaSS.wav
448,192,119015,128,0,119315:0:0:0:70:kick.wav
320,192,119315,1,0,0:0:0:55:snare.wav
192,192,119465,128,0,119915:0:0:0:55:snare.wav
448,192,119915,128,0,120215:0:0:0:70:kick.wav
320,192,120215,128,0,120515:0:0:0:55:snare.wav
192,192,120515,128,0,120815:0:0:0:55:snare.wav
64,192,120815,128,0,121115:0:0:0:70:breakbeat9_002.wav
192,192,121115,128,0,121415:0:0:0:70:breakbeat9_002.wav
320,192,121415,128,0,121715:0:0:0:70:breakbeat9_002.wav
192,192,121715,128,0,122615:0:0:0:70:breakbeat9_002.wav
64,192,121715,128,0,122615:0:0:0:0:
448,192,122615,1,0,0:0:0:70:breakbeat9_002.wav
320,192,122765,1,0,0:0:0:0:
192,192,122915,1,0,0:0:0:0:
320,192,123065,1,0,0:0:0:55:drum.wav
192,192,123215,1,0,0:0:0:70:BaSS.wav
64,192,123365,1,0,0:0:0:0:
448,192,123515,1,0,0:0:0:70:kick.wav
320,192,123515,1,0,0:0:0:0:
320,192,123815,1,0,0:0:0:55:drum.wav
192,192,123815,1,0,0:0:0:70:BaSS.wav
192,192,124115,1,0,0:0:0:70:BaSS.wav
64,192,124115,1,0,0:0:0:0:
64,192,124415,1,0,0:0:0:70:BaSS.wav
192,192,124565,1,0,0:0:0:0:
320,192,124715,1,0,0:0:0:0:
448,192,124865,1,0,0:0:0:55:drum.wav
320,192,125015,1,0,0:0:0:0:
192,192,125165,1,0,0:0:0:70:BaSS.wav
64,192,125315,1,0,0:0:0:70:kick.wav
192,192,125465,1,0,0:0:0:0:
320,192,125615,1,0,0:0:0:55:drum.wav
448,192,125765,1,0,0:0:0:0:
320,192,125915,1,0,0:0:0:70:BaSS.wav
192,192,126065,1,0,0:0:0:0:
64,192,126215,1,0,0:0:0:70:kick.wav
448,192,126365,1,0,0:0:0:0:
192,192,126515,1,0,0:0:0:0:
320,192,126665,1,0,0:0:0:0:
192,192,126815,1,0,0:0:0:70:BaSS.wav
64,192,126965,1,0,0:0:0:0:
192,192,127115,1,0,0:0:0:70:kick.wav
64,192,127265,1,0,0:0:0:0:
320,192,127415,1,0,0:0:0:55:drum.wav
448,192,127565,1,0,0:0:0:0:
320,192,127715,1,0,0:0:0:70:BaSS.wav
64,192,127865,1,0,0:0:0:0:
192,192,128015,1,0,0:0:0:70:BaSS.wav
320,192,128165,1,0,0:0:0:0:
448,192,128315,1,0,0:0:0:0:
64,192,128465,1,0,0:0:0:0:
192,192,128615,1,0,0:0:0:0:
320,192,128765,1,0,0:0:0:70:BaSS.wav
448,192,128915,1,0,0:0:0:70:kick.wav
320,192,129065,1,0,0:0:0:0:
192,192,129215,1,0,0:0:0:55:drum.wav
448,192,129365,1,0,0:0:0:0:
320,192,129515,1,0,0:0:0:70:BaSS.wav
192,192,129665,1,0,0:0:0:0:
64,192,129815,1,0,0:0:0:70:BaSS.wav
448,192,129815,1,0,0:0:0:70:kick.wav
64,192,130115,1,0,0:0:0:0:
192,192,130265,1,0,0:0:0:0:
320,192,130415,1,0,0:0:0:70:BaSS.wav
448,192,130565,1,0,0:0:0:0:
64,192,130715,1,0,0:0:0:70:kick.wav
192,192,130865,1,0,0:0:0:0:
320,192,131015,1,0,0:0:0:55:drum.wav
448,192,131165,1,0,0:0:0:0:
320,192,131315,1,0,0:0:0:70:BaSS.wav
192,192,131465,1,0,0:0:0:0:
448,192,131615,1,0,0:0:0:70:kick.wav
192,192,131765,1,0,0:0:0:0:
320,192,131915,1,0,0:0:0:0:
448,192,132065,1,0,0:0:0:0:
320,192,132215,1,0,0:0:0:0:
192,192,132365,1,0,0:0:0:70:BaSS.wav
64,192,132515,1,0,0:0:0:70:kick.wav
320,192,132665,1,0,0:0:0:0:
448,192,132815,1,0,0:0:0:55:drum.wav
320,192,132965,1,0,0:0:0:0:
192,192,133115,1,0,0:0:0:70:BaSS.wav
64,192,133265,1,0,0:0:0:0:
192,192,133415,128,0,135215:0:0:0:25:drum.wav
320,192,134015,128,0,134315:0:0:0:25:drum.wav
448,192,134315,128,0,134615:0:0:0:25:drum.wav
64,192,134615,128,0,134915:0:0:0:25:drum.wav
320,192,134915,128,0,135215:0:0:0:25:drum.wav
448,192,135215,128,0,135665:0:0:0:25:drum.wav
320,192,135665,1,0,0:0:0:25:drum.wav
64,192,135815,1,0,0:0:0:25:drum.wav
320,192,135965,128,0,137015:0:0:0:25:drum.wav
192,192,137015,1,0,0:0:0:70:LR3_BassDropSSG.wav
64,192,137015,1,0,0:0:0:0:
64,192,137915,1,0,0:0:0:0:
448,192,137915,1,0,0:0:0:0:
192,192,138215,1,0,0:0:0:0:
320,192,138515,1,0,0:0:0:0:
192,192,138815,1,0,0:0:0:0:
448,192,138815,1,0,0:0:0:0:
320,192,139115,1,0,0:0:0:0:
192,192,139415,1,0,0:0:0:0:
448,192,139715,1,0,0:0:0:0:
64,192,139715,1,0,0:0:0:0:
448,192,140315,1,0,0:0:0:0:
448,192,140615,1,0,0:0:0:0:
64,192,140615,1,0,0:0:0:0:
64,192,141515,1,0,0:0:0:0:
320,192,141815,1,0,0:0:0:0:
448,192,142115,1,0,0:0:0:0:
64,192,142415,1,0,0:0:0:0:
448,192,142415,1,0,0:0:0:0:
448,192,144215,1,0,0:0:0:0:
192,192,144215,1,0,0:0:0:0:
64,192,145115,1,0,0:0:0:0:
320,192,145115,1,0,0:0:0:0:
320,192,145415,1,0,0:0:0:0:
448,192,145715,1,0,0:0:0:0:
448,192,146015,1,0,0:0:0:0:
64,192,146015,1,0,0:0:0:0:
320,192,146315,1,0,0:0:0:0:
192,192,146615,1,0,0:0:0:0:
64,192,146915,1,0,0:0:0:0:
448,192,146915,1,0,0:0:0:0:
320,192,147515,1,0,0:0:0:0:
320,192,147815,1,0,0:0:0:0:
64,192,147815,1,0,0:0:0:0:
320,192,148715,1,0,0:0:0:0:
192,192,149015,1,0,0:0:0:0:
320,192,149315,1,0,0:0:0:0:
448,192,149615,128,0,150815:0:0:0:0:
64,192,149615,128,0,150815:0:0:0:0:
