osu file format v14

[General]
AudioFilename: audio.mp3
AudioLeadIn: 0
PreviewTime: 23168
Countdown: 0
SampleSet: Normal
StackLeniency: 0.7
Mode: 3
LetterboxInBreaks: 0
SpecialStyle: 0
WidescreenStoryboard: 1

[Editor]
DistanceSpacing: 1.5
BeatDivisor: 4
GridSize: 8
TimelineZoom: 2.199999

[Metadata]
Title:Wizdomiot
TitleUnicode:Wizdomiot
Artist:LeaF
ArtistUnicode:LeaF
Creator:DarckoSeth
Version:Hyper
Source:BMS
Tags:東方project touhou zun 東方地霊殿 ~ subterranean animism 東方音弾遊戯7 optie 緑眼のジェラシー 水橋 パルスィ green eyed jealousy mizuhashi parsee game _VianK_ NishiwakiAyaka
BeatmapID:1391026
BeatmapSetID:656476

[Difficulty]
HPDrainRate:7.5
CircleSize:4
OverallDifficulty:7.5
ApproachRate:5
SliderMultiplier:1.4
SliderTickRate:1

[Events]
//Background and Video events
0,0,"WIZDOMIOT12.jpg",0,0
//Break Periods
//Storyboard Layer 0 (Background)
//Storyboard Layer 1 (Fail)
//Storyboard Layer 2 (Pass)
//Storyboard Layer 3 (Foreground)
//Storyboard Sound Samples

[TimingPoints]
2015,300,4,1,0,25,1,0
9215,-100,4,1,1,25,0,0
21815,-100,4,1,0,25,0,0
21818,-105.263157894737,4,1,0,19,0,0
22118,-111.111111111111,4,1,0,19,0,0
22418,-117.647058823529,4,1,0,19,0,0
22718,-125,4,1,0,19,0,0
23018,-133.333333333333,4,1,0,19,0,0
23318,-100,4,1,0,19,0,0
23615,-100,4,1,0,19,0,1
38015,-100,4,1,0,19,0,0
45218,-50,4,1,0,19,0,0
45268,-66.6666666666667,4,1,0,19,0,0
45318,-133.333333333333,4,1,0,19,0,0
45368,-200,4,1,0,19,0,0
45418,-400,4,1,0,19,0,0
45518,-100,4,1,0,19,0,0
56018,-66.6666666666667,4,1,0,19,0,0
56093,-100,4,1,0,19,0,0
56130,-133.333333333333,4,1,0,19,0,0
56243,-66.6666666666667,4,1,0,19,0,0
56318,-100,4,1,0,19,0,0
56355,-133.333333333333,4,1,0,19,0,0
56468,-100,4,1,0,19,0,0
56768,-66.6666666666667,4,1,0,19,0,0
56843,-133.333333333333,4,1,0,19,0,0
56918,-66.6666666666667,4,1,0,19,0,0
56993,-133.333333333333,4,1,0,19,0,0
57068,-66.6666666666667,4,1,0,19,0,0
57143,-133.333333333333,4,1,0,19,0,0
57218,-100,4,1,0,19,0,0
57518,-66.6666666666667,4,1,0,19,0,0
57668,-133.333333333333,4,1,0,19,0,0
57818,-66.6666666666667,4,1,0,19,0,0
57855,-133.333333333333,4,1,0,19,0,0
57968,-66.6666666666667,4,1,0,19,0,0
58005,-133.333333333333,4,1,0,19,0,0
58118,-100,4,1,0,19,0,0
59015,-100,4,1,0,25,0,0
59618,-117.647058823529,4,1,0,19,0,0
65918,-111.111111111111,4,1,0,19,0,0
66815,-100,4,1,0,25,0,0
74018,-105.263157894737,4,1,0,19,0,0
84818,-100,4,1,0,19,0,0
90215,-100,4,1,0,19,0,1
104615,-66.6666666666667,4,1,0,19,0,0
104843,-66.6666666666667,4,1,0,19,0,0
104880,-100,4,1,0,19,0,0
104918,-133.333333333333,4,1,0,19,0,0
105068,-66.6666666666667,4,1,0,19,0,0
105293,-66.6666666666667,4,1,0,19,0,0
105330,-100,4,1,0,19,0,0
105368,-133.333333333333,4,1,0,19,0,0
105518,-66.6666666666667,4,1,0,19,0,0
105743,-66.6666666666667,4,1,0,19,0,0
105780,-100,4,1,0,19,0,0
105818,-133.333333333333,4,1,0,19,0,0
105968,-76.9230769230769,4,1,0,19,0,0
106718,-100,4,1,0,19,0,0
108218,-125,4,1,0,19,0,0
115418,-100,4,1,0,19,0,0
116018,-66.6666666666667,4,1,0,19,0,0
116093,-133.333333333333,4,1,0,19,0,0
116168,-66.6666666666667,4,1,0,19,0,0
116243,-133.333333333333,4,1,0,19,0,0
116318,-100,4,1,0,19,0,0
116618,-66.6666666666667,4,1,0,19,0,0
116693,-133.333333333333,4,1,0,19,0,0
116768,-100,4,1,0,19,0,0
117068,-66.6666666666667,4,1,0,19,0,0
117143,-133.333333333333,4,1,0,19,0,0
117218,-100,4,1,0,19,0,0
117818,-66.6666666666667,4,1,0,19,0,0
117893,-133.333333333333,4,1,0,19,0,0
117968,-66.6666666666667,4,1,0,19,0,0
118043,-133.333333333333,4,1,0,19,0,0
118118,-100,4,1,0,19,0,0
118418,-66.6666666666667,4,1,0,19,0,0
118493,-133.333333333333,4,1,0,19,0,0
118568,-100,4,1,0,19,0,0
118868,-66.6666666666667,4,1,0,19,0,0
118943,-133.333333333333,4,1,0,19,0,0
119018,-100,4,1,0,19,0,0
122018,-100,4,1,0,19,0,0
122093,-111.111111111111,4,1,0,19,0,0
122168,-117.647058823529,4,1,0,19,0,0
122243,-125,4,1,0,19,0,0
122318,-133.333333333333,4,1,0,19,0,0
122615,-100,4,1,0,19,0,1
137015,-125,4,1,0,19,0,0

[HitObjects]
64,192,2015,5,0,0:0:0:70:breakbeat9_002.wav
448,192,2015,1,0,0:0:0:0:
320,192,2315,1,0,0:0:0:0:
64,192,2615,1,0,0:0:0:0:
192,192,2765,1,0,0:0:0:0:
320,192,2915,1,0,0:0:0:0:
448,192,2915,1,0,0:0:0:0:
64,192,3065,1,0,0:0:0:0:
192,192,3215,1,0,0:0:0:0:
320,192,3365,1,0,0:0:0:0:
192,192,3515,1,0,0:0:0:0:
320,192,3665,1,0,0:0:0:0:
448,192,3815,1,0,0:0:0:70:breakbeat9_002.wav
64,192,3815,1,0,0:0:0:0:
448,192,3965,1,0,0:0:0:70:breakbeat9_002.wav
64,192,3965,1,0,0:0:0:0:
64,192,4265,1,0,0:0:0:0:
320,192,4415,1,0,0:0:0:60:breakbeat9_002.wav
192,192,4565,1,0,0:0:0:0:
64,192,4715,1,0,0:0:0:60:breakbeat9_002.wav
320,192,4865,1,0,0:0:0:0:
64,192,5015,1,0,0:0:0:60:breakbeat9_002.wav
192,192,5165,1,0,0:0:0:0:
448,192,5240,1,0,0:0:0:0:
64,192,5315,1,0,0:0:0:60:breakbeat9_002.wav
320,192,5390,1,0,0:0:0:0:
192,192,5465,1,0,0:0:0:0:
448,192,5540,1,0,0:0:0:0:
64,192,5615,1,0,0:0:0:70:breakbeat9_002.wav
320,192,5765,1,0,0:0:0:0:
192,192,5915,1,0,0:0:0:60:breakbeat9_002.wav
448,192,6065,1,0,0:0:0:0:
64,192,6215,1,0,0:0:0:60:breakbeat9_002.wav
192,192,6365,1,0,0:0:0:0:
320,192,6515,1,0,0:0:0:60:drum.wav
192,192,6665,1,0,0:0:0:0:
448,192,6815,1,0,0:0:0:60:breakbeat9_002.wav
320,192,6965,1,0,0:0:0:0:
192,192,7115,1,0,0:0:0:60:breakbeat9_002.wav
64,192,7265,1,0,0:0:0:0:
192,192,7415,1,0,0:0:0:70:breakbeat9_002.wav
448,192,7415,1,0,0:0:0:60:drum.wav
448,192,7565,1,0,0:0:0:60:drum.wav
320,192,7715,1,0,0:0:0:0:
64,192,7865,1,0,0:0:0:0:
192,192,8015,1,0,0:0:0:60:breakbeat9_002.wav
64,192,8165,1,0,0:0:0:0:
320,192,8315,1,0,0:0:0:60:drum.wav
192,192,8465,1,0,0:0:0:0:
448,192,8615,1,0,0:0:0:60:breakbeat9_002.wav
192,192,8765,1,0,0:0:0:60:breakbeat9_002.wav
320,192,8915,1,0,0:0:0:60:breakbeat9_002.wav
192,192,9065,1,0,0:0:0:70:breakbeat9_002.wav
64,192,9215,1,0,0:0:0:70:kick.wav
448,192,9215,1,0,0:0:0:70:breakbeat9_002.wav
64,192,9515,1,0,0:0:0:70:kick.wav
448,192,9515,1,0,0:0:0:0:
64,192,9815,1,0,0:0:0:70:kick.wav
320,192,9815,1,0,0:0:0:0:
64,192,10115,1,0,0:0:0:70:kick.wav
320,192,10115,1,0,0:0:0:0:
64,192,10415,1,0,0:0:0:70:kick.wav
192,192,10415,1,0,0:0:0:0:
64,192,10715,1,0,0:0:0:70:kick.wav
192,192,10715,1,0,0:0:0:0:
448,192,11015,1,0,0:0:0:70:kick.wav
64,192,11015,1,0,0:0:0:0:
448,192,11315,1,0,0:0:0:70:kick.wav
64,192,11315,1,0,0:0:0:0:
192,192,11615,1,0,0:0:0:70:kick.wav
448,192,11615,1,0,0:0:0:0:
192,192,11915,1,0,0:0:0:70:kick.wav
448,192,11915,1,0,0:0:0:0:
448,192,12215,1,0,0:0:0:70:kick.wav
320,192,12215,1,0,0:0:0:0:
448,192,12515,1,0,0:0:0:70:kick.wav
320,192,12515,1,0,0:0:0:0:
448,192,12815,1,0,0:0:0:70:kick.wav
64,192,12815,1,0,0:0:0:70:breakbeat9_002.wav
320,192,12965,1,0,0:0:0:70:kick.wav
64,192,13115,1,0,0:0:0:70:kick.wav
448,192,13265,1,0,0:0:0:70:kick.wav
64,192,13415,1,0,0:0:0:70:kick.wav
320,192,13565,1,0,0:0:0:70:kick.wav
64,192,13715,1,0,0:0:0:70:kick.wav
192,192,13865,1,0,0:0:0:70:kick.wav
64,192,14015,1,0,0:0:0:70:kick.wav
448,192,14165,1,0,0:0:0:70:kick.wav
320,192,14315,1,0,0:0:0:70:kick.wav
192,192,14465,1,0,0:0:0:70:kick.wav
64,192,14615,1,0,0:0:0:70:kick.wav
320,192,14615,128,0,14915:0:0:0:50:BaSS.wav
192,192,14915,128,0,15215:0:0:0:70:breakbeat9_002.wav
64,192,15215,128,0,15515:0:0:0:25:drum.wav
320,192,15515,1,0,0:0:0:25:drum.wav
448,192,15590,1,0,0:0:0:25:drum.wav
64,192,15665,1,0,0:0:0:25:drum.wav
192,192,15740,1,0,0:0:0:25:drum.wav
320,192,15815,1,0,0:0:0:25:drum.wav
448,192,15890,1,0,0:0:0:25:drum.wav
192,192,15965,1,0,0:0:0:25:drum.wav
64,192,16040,1,0,0:0:0:25:drum.wav
448,192,16115,1,0,0:0:0:25:drum.wav
320,192,16190,1,0,0:0:0:25:drum.wav
64,192,16265,1,0,0:0:0:25:drum.wav
192,192,16340,1,0,0:0:0:25:drum.wav
448,192,16415,1,0,0:0:0:70:kick.wav
320,192,16415,1,0,0:0:0:0:
192,192,16715,1,0,0:0:0:70:kick.wav
64,192,16715,1,0,0:0:0:70:BaSS.wav
320,192,16865,1,0,0:0:0:0:
448,192,16865,1,0,0:0:0:0:
64,192,17015,1,0,0:0:0:70:breakbeat9_002.wav
192,192,17015,1,0,0:0:0:0:
320,192,17165,1,0,0:0:0:70:breakbeat9_002.wav
448,192,17315,1,0,0:0:0:0:
64,192,17465,1,0,0:0:0:70:breakbeat9_002.wav
192,192,17615,1,0,0:0:0:30:BaSS.wav
448,192,17765,1,0,0:0:0:0:
320,192,17915,1,0,0:0:0:70:breakbeat9_002.wav
192,192,18065,1,0,0:0:0:70:breakbeat9_002.wav
64,192,18215,1,0,0:0:0:0:
448,192,18365,1,0,0:0:0:70:breakbeat9_002.wav
320,192,18440,1,0,0:0:0:0:
64,192,18515,1,0,0:0:0:70:breakbeat9_002.wav
192,192,18590,1,0,0:0:0:0:
320,192,18665,1,0,0:0:0:0:
448,192,18740,1,0,0:0:0:0:
192,192,18815,1,0,0:0:0:70:breakbeat9_002.wav
64,192,18815,1,0,0:0:0:0:
448,192,18965,1,0,0:0:0:70:breakbeat9_002.wav
320,192,19115,1,0,0:0:0:0:
64,192,19265,1,0,0:0:0:70:breakbeat9_002.wav
320,192,19415,1,0,0:0:0:70:breakbeat9_002.wav
192,192,19565,1,0,0:0:0:0:
448,192,19715,1,0,0:0:0:70:breakbeat9_002.wav
320,192,19790,1,0,0:0:0:35:snare.wav
64,192,19865,1,0,0:0:0:70:breakbeat9_002.wav
192,192,19940,1,0,0:0:0:35:snare.wav
448,192,20015,1,0,0:0:0:70:BaSS.wav
320,192,20015,1,0,0:0:0:70:breakbeat9_002.wav
448,192,20165,1,0,0:0:0:35:drum.wav
192,192,20315,1,0,0:0:0:35:drum.wav
448,192,20465,1,0,0:0:0:70:BaSS.wav
320,192,20465,1,0,0:0:0:70:breakbeat9_002.wav
64,192,20615,1,0,0:0:0:35:drum.wav
320,192,20765,1,0,0:0:0:35:drum.wav
448,192,20915,1,0,0:0:0:70:breakbeat9_002.wav
64,192,20915,1,0,0:0:0:70:BaSS.wav
192,192,21065,1,0,0:0:0:35:drum.wav
320,192,21215,1,0,0:0:0:35:drum.wav
64,192,21365,1,0,0:0:0:70:BaSS.wav
448,192,21365,1,0,0:0:0:70:breakbeat9_002.wav
320,192,21515,1,0,0:0:0:35:drum.wav
192,192,21665,1,0,0:0:0:35:drum.wav
448,192,21815,1,0,0:0:0:70:BaSS.wav
64,192,21815,1,0,0:0:0:70:LR3_BassDropSSG.wav
192,192,21965,1,0,0:0:0:0:
320,192,22115,1,0,0:0:0:0:
192,192,22265,1,0,0:0:0:0:
64,192,22415,1,0,0:0:0:0:
320,192,22565,1,0,0:0:0:0:
192,192,22715,128,0,23015:0:0:0:0:
320,192,23015,1,0,0:0:0:0:
64,192,23165,1,0,0:0:0:0:
448,192,23315,1,0,0:0:0:0:
320,192,23390,1,0,0:0:0:0:
192,192,23465,1,0,0:0:0:0:
64,192,23540,1,0,0:0:0:0:
448,192,23615,1,0,0:0:0:50:drum.wav
320,192,23615,1,0,0:0:0:70:breakbeat9_002.wav
320,192,23915,1,0,0:0:0:40:BaSS.wav
192,192,23915,1,0,0:0:0:0:
448,192,24215,1,0,0:0:0:40:BaSS.wav
64,192,24215,1,0,0:0:0:0:
192,192,24365,1,0,0:0:0:0:
320,192,24440,1,0,0:0:0:0:
448,192,24515,1,0,0:0:0:40:BaSS.wav
320,192,24590,1,0,0:0:0:0:
192,192,24665,1,0,0:0:0:0:
64,192,24740,1,0,0:0:0:0:
448,192,24815,1,0,0:0:0:40:BaSS.wav
320,192,24890,1,0,0:0:0:0:
192,192,24965,1,0,0:0:0:0:
64,192,25040,1,0,0:0:0:0:
192,192,25115,1,0,0:0:0:40:BaSS.wav
320,192,25190,1,0,0:0:0:0:
448,192,25265,1,0,0:0:0:0:
320,192,25340,1,0,0:0:0:0:
192,192,25415,1,0,0:0:0:40:BaSS.wav
64,192,25565,1,0,0:0:0:0:
192,192,25640,1,0,0:0:0:0:
448,192,25715,1,0,0:0:0:40:BaSS.wav
320,192,25790,1,0,0:0:0:0:
192,192,25865,1,0,0:0:0:0:
64,192,25940,1,0,0:0:0:0:
448,192,26015,1,0,0:0:0:40:BaSS.wav
320,192,26090,1,0,0:0:0:0:
192,192,26165,1,0,0:0:0:0:
64,192,26240,1,0,0:0:0:0:
192,192,26315,1,0,0:0:0:40:BaSS.wav
320,192,26390,1,0,0:0:0:0:
448,192,26465,1,0,0:0:0:0:
64,192,26540,1,0,0:0:0:0:
192,192,26615,1,0,0:0:0:40:BaSS.wav
448,192,26690,1,0,0:0:0:0:
320,192,26765,1,0,0:0:0:0:
192,192,26840,1,0,0:0:0:0:
64,192,26915,1,0,0:0:0:40:BaSS.wav
192,192,26990,1,0,0:0:0:0:
320,192,27065,1,0,0:0:0:0:
448,192,27140,1,0,0:0:0:0:
320,192,27215,1,0,0:0:0:40:BaSS.wav
64,192,27215,1,0,0:0:0:30:kick.wav
320,192,27515,1,0,0:0:0:40:BaSS.wav
64,192,27590,1,0,0:0:0:0:
192,192,27665,1,0,0:0:0:30:kick.wav
320,192,27740,1,0,0:0:0:0:
448,192,27815,1,0,0:0:0:40:BaSS.wav
64,192,27890,1,0,0:0:0:0:
192,192,27965,1,0,0:0:0:0:
320,192,28040,1,0,0:0:0:0:
448,192,28115,1,0,0:0:0:40:BaSS.wav
320,192,28190,1,0,0:0:0:0:
192,192,28265,1,0,0:0:0:0:
64,192,28340,1,0,0:0:0:0:
448,192,28415,1,0,0:0:0:40:BaSS.wav
320,192,28490,1,0,0:0:0:0:
192,192,28565,1,0,0:0:0:0:
64,192,28640,1,0,0:0:0:0:
448,192,28715,1,0,0:0:0:40:BaSS.wav
320,192,28790,1,0,0:0:0:0:
64,192,28865,1,0,0:0:0:0:
192,192,28940,1,0,0:0:0:0:
320,192,29015,1,0,0:0:0:40:BaSS.wav
448,192,29090,1,0,0:0:0:0:
192,192,29165,1,0,0:0:0:0:
64,192,29240,1,0,0:0:0:0:
448,192,29315,1,0,0:0:0:40:BaSS.wav
192,192,29390,1,0,0:0:0:0:
64,192,29465,1,0,0:0:0:30:kick.wav
448,192,29540,1,0,0:0:0:0:
192,192,29615,1,0,0:0:0:40:BaSS.wav
64,192,29690,1,0,0:0:0:0:
448,192,29765,1,0,0:0:0:0:
320,192,29840,1,0,0:0:0:0:
192,192,29915,1,0,0:0:0:40:BaSS.wav
64,192,29990,1,0,0:0:0:0:
448,192,30065,1,0,0:0:0:0:
320,192,30140,1,0,0:0:0:0:
192,192,30215,1,0,0:0:0:40:BaSS.wav
320,192,30290,1,0,0:0:0:0:
448,192,30365,1,0,0:0:0:0:
320,192,30440,1,0,0:0:0:0:
192,192,30515,1,0,0:0:0:40:BaSS.wav
64,192,30590,1,0,0:0:0:0:
448,192,30665,1,0,0:0:0:0:
320,192,30740,1,0,0:0:0:0:
64,192,30815,1,0,0:0:0:40:BaSS.wav
192,192,30815,1,0,0:0:0:70:breakbeat9_002.wav
320,192,31040,1,0,0:0:0:0:
192,192,31115,1,0,0:0:0:40:BaSS.wav
448,192,31115,1,0,0:0:0:0:
192,192,31340,1,0,0:0:0:0:
64,192,31415,1,0,0:0:0:40:BaSS.wav
448,192,31415,1,0,0:0:0:0:
64,192,31715,1,0,0:0:0:40:BaSS.wav
192,192,31790,1,0,0:0:0:0:
320,192,31865,1,0,0:0:0:0:
448,192,31940,1,0,0:0:0:0:
320,192,32015,1,0,0:0:0:40:BaSS.wav
192,192,32090,1,0,0:0:0:0:
64,192,32165,1,0,0:0:0:0:
192,192,32240,1,0,0:0:0:0:
320,192,32315,1,0,0:0:0:40:BaSS.wav
448,192,32390,1,0,0:0:0:0:
320,192,32465,1,0,0:0:0:0:
64,192,32540,1,0,0:0:0:0:
192,192,32615,1,0,0:0:0:40:BaSS.wav
448,192,32690,1,0,0:0:0:0:
320,192,32765,1,0,0:0:0:0:
64,192,32840,1,0,0:0:0:0:
320,192,32915,1,0,0:0:0:40:BaSS.wav
192,192,32990,1,0,0:0:0:0:
448,192,33065,1,0,0:0:0:30:kick.wav
320,192,33140,1,0,0:0:0:0:
64,192,33215,1,0,0:0:0:40:BaSS.wav
448,192,33290,1,0,0:0:0:0:
192,192,33365,1,0,0:0:0:0:
448,192,33440,1,0,0:0:0:0:
64,192,33515,1,0,0:0:0:40:BaSS.wav
192,192,33515,1,0,0:0:0:30:kick.wav
320,192,33665,1,0,0:0:0:0:
192,192,33740,1,0,0:0:0:0:
64,192,33815,1,0,0:0:0:40:BaSS.wav
320,192,33890,1,0,0:0:0:0:
448,192,33965,1,0,0:0:0:0:
64,192,34040,1,0,0:0:0:0:
192,192,34115,1,0,0:0:0:40:BaSS.wav
320,192,34190,1,0,0:0:0:0:
448,192,34265,1,0,0:0:0:0:
320,192,34340,1,0,0:0:0:0:
64,192,34415,1,0,0:0:0:40:BaSS.wav
192,192,34415,1,0,0:0:0:70:breakbeat9_002.wav
448,192,34565,1,0,0:0:0:0:
320,192,34640,1,0,0:0:0:0:
192,192,34715,1,0,0:0:0:40:BaSS.wav
64,192,34790,1,0,0:0:0:0:
320,192,34865,1,0,0:0:0:30:kick.wav
448,192,34940,1,0,0:0:0:0:
64,192,35015,1,0,0:0:0:40:BaSS.wav
192,192,35090,1,0,0:0:0:0:
320,192,35165,1,0,0:0:0:0:
192,192,35240,1,0,0:0:0:0:
64,192,35315,1,0,0:0:0:40:BaSS.wav
448,192,35390,1,0,0:0:0:0:
320,192,35465,1,0,0:0:0:0:
192,192,35540,1,0,0:0:0:0:
64,192,35615,1,0,0:0:0:40:BaSS.wav
320,192,35690,1,0,0:0:0:0:
448,192,35765,1,0,0:0:0:0:
192,192,35840,1,0,0:0:0:0:
320,192,35915,1,0,0:0:0:40:BaSS.wav
448,192,35990,1,0,0:0:0:0:
320,192,36065,1,0,0:0:0:0:
192,192,36140,1,0,0:0:0:0:
448,192,36215,128,0,36515:0:0:0:35:drum.wav
64,192,36215,1,0,0:0:0:30:kick.wav
64,192,36515,128,0,36815:0:0:0:35:drum.wav
192,192,36815,128,0,37115:0:0:0:35:drum.wav
320,192,37115,128,0,37415:0:0:0:35:drum.wav
64,192,37115,128,0,37715:0:0:0:0:
448,192,37415,128,0,37715:0:0:0:35:drum.wav
192,192,37715,128,0,38015:0:0:0:35:drum.wav
448,192,38015,1,0,0:0:0:70:kick.wav
64,192,38015,1,0,0:0:0:70:BaSS.wav
448,192,38315,1,0,0:0:0:70:kick.wav
320,192,38315,1,0,0:0:0:70:breakbeat9_002.wav
192,192,38765,1,0,0:0:0:0:
448,192,39215,1,0,0:0:0:0:
64,192,39215,1,0,0:0:0:0:
192,192,39665,1,0,0:0:0:0:
448,192,40115,1,0,0:0:0:0:
192,192,40415,1,0,0:0:0:0:
64,192,40715,128,0,41315:0:0:0:0:
448,192,41315,1,0,0:0:0:70:kick.wav
320,192,41465,1,0,0:0:0:70:kick.wav
448,192,41615,1,0,0:0:0:70:kick.wav
192,192,41615,1,0,0:0:0:70:breakbeat9_002.wav
448,192,41915,1,0,0:0:0:70:kick.wav
192,192,41915,1,0,0:0:0:0:
448,192,42215,1,0,0:0:0:70:kick.wav
192,192,42215,1,0,0:0:0:0:
64,192,42515,1,0,0:0:0:70:kick.wav
320,192,42515,1,0,0:0:0:70:breakbeat9_002.wav
64,192,42815,1,0,0:0:0:70:kick.wav
320,192,42815,1,0,0:0:0:0:
320,192,43115,1,0,0:0:0:70:kick.wav
64,192,43115,1,0,0:0:0:0:
64,192,43415,1,0,0:0:0:70:kick.wav
192,192,43415,1,0,0:0:0:70:breakbeat9_002.wav
448,192,43565,1,0,0:0:0:70:kick.wav
320,192,43565,1,0,0:0:0:0:
192,192,43715,1,0,0:0:0:70:kick.wav
64,192,43715,1,0,0:0:0:0:
448,192,43865,1,0,0:0:0:70:kick.wav
320,192,43865,1,0,0:0:0:0:
192,192,44015,1,0,0:0:0:70:kick.wav
64,192,44015,1,0,0:0:0:0:
320,192,44165,1,0,0:0:0:70:kick.wav
448,192,44165,1,0,0:0:0:0:
192,192,44315,1,0,0:0:0:70:kick.wav
64,192,44315,1,0,0:0:0:70:breakbeat9_002.wav
448,192,44465,1,0,0:0:0:70:kick.wav
320,192,44465,1,0,0:0:0:0:
192,192,44615,1,0,0:0:0:70:kick.wav
64,192,44615,1,0,0:0:0:0:
448,192,44765,1,0,0:0:0:70:kick.wav
320,192,44765,1,0,0:0:0:0:
192,192,44915,1,0,0:0:0:70:kick.wav
64,192,44915,1,0,0:0:0:0:
448,192,45065,1,0,0:0:0:70:kick.wav
320,192,45065,1,0,0:0:0:0:
448,192,45215,1,0,0:0:0:70:kick.wav
192,192,45215,1,0,0:0:0:70:breakbeat9_002.wav
64,192,45215,1,0,0:0:0:0:
448,192,45515,1,0,0:0:0:70:breakbeat9_002.wav
64,192,45515,1,0,0:0:0:70:kick.wav
320,192,45515,1,0,0:0:0:70:breakbeat9_002.wav
192,192,45665,1,0,0:0:0:0:
448,192,45815,1,0,0:0:0:70:kick.wav
64,192,45815,1,0,0:0:0:0:
320,192,45965,1,0,0:0:0:0:
192,192,46040,1,0,0:0:0:0:
64,192,46115,1,0,0:0:0:70:kick.wav
448,192,46115,1,0,0:0:0:70:BaSS.wav
192,192,46265,1,0,0:0:0:0:
448,192,46415,1,0,0:0:0:70:kick.wav
64,192,46415,1,0,0:0:0:0:
320,192,46565,1,0,0:0:0:0:
448,192,46715,1,0,0:0:0:70:kick.wav
64,192,46715,1,0,0:0:0:0:
320,192,46865,1,0,0:0:0:0:
64,192,47015,1,0,0:0:0:70:kick.wav
192,192,47015,1,0,0:0:0:70:breakbeat9_002.wav
320,192,47165,1,0,0:0:0:0:
448,192,47315,1,0,0:0:0:70:kick.wav
64,192,47315,1,0,0:0:0:0:
320,192,47465,1,0,0:0:0:0:
192,192,47615,1,0,0:0:0:70:kick.wav
64,192,47690,1,0,0:0:0:0:
192,192,47765,1,0,0:0:0:0:
320,192,47840,1,0,0:0:0:0:
64,192,47915,1,0,0:0:0:70:kick.wav
448,192,47915,1,0,0:0:0:70:breakbeat9_002.wav
320,192,48065,1,0,0:0:0:0:
64,192,48215,1,0,0:0:0:70:kick.wav
448,192,48215,1,0,0:0:0:0:
192,192,48365,1,0,0:0:0:0:
64,192,48515,1,0,0:0:0:70:kick.wav
448,192,48515,1,0,0:0:0:0:
192,192,48665,1,0,0:0:0:0:
320,192,48740,1,0,0:0:0:0:
448,192,48815,1,0,0:0:0:70:kick.wav
64,192,48815,1,0,0:0:0:70:breakbeat9_002.wav
192,192,48965,1,0,0:0:0:0:
448,192,49115,1,0,0:0:0:70:kick.wav
320,192,49115,1,0,0:0:0:0:
192,192,49265,1,0,0:0:0:0:
64,192,49415,128,0,49565:0:0:0:70:kick.wav
448,192,49415,1,0,0:0:0:0:
320,192,49565,128,0,49715:0:0:0:0:
64,192,49715,128,0,49865:0:0:0:70:kick.wav
448,192,49865,1,0,0:0:0:0:
320,192,49940,1,0,0:0:0:0:
192,192,50015,128,0,50165:0:0:0:70:kick.wav
64,192,50165,128,0,50315:0:0:0:0:
320,192,50315,128,0,50465:0:0:0:70:kick.wav
448,192,50315,1,0,0:0:0:0:
192,192,50465,128,0,50615:0:0:0:0:
448,192,50615,128,0,50915:0:0:0:70:kick.wav
64,192,50615,1,0,0:0:0:70:breakbeat9_002.wav
320,192,50915,1,0,0:0:0:70:kick.wav
64,192,50915,1,0,0:0:0:0:
192,192,51065,1,0,0:0:0:0:
320,192,51215,1,0,0:0:0:70:kick.wav
448,192,51290,1,0,0:0:0:0:
320,192,51365,1,0,0:0:0:0:
192,192,51440,1,0,0:0:0:0:
448,192,51515,1,0,0:0:0:70:kick.wav
64,192,51515,128,0,52415:0:0:0:70:BaSS.wav
448,192,51815,1,0,0:0:0:70:kick.wav
192,192,51965,1,0,0:0:0:0:
320,192,52115,1,0,0:0:0:70:kick.wav
192,192,52265,1,0,0:0:0:0:
448,192,52415,1,0,0:0:0:70:kick.wav
320,192,52415,1,0,0:0:0:70:breakbeat9_002.wav
192,192,52565,1,0,0:0:0:0:
64,192,52715,1,0,0:0:0:70:kick.wav
448,192,52715,1,0,0:0:0:0:
192,192,52865,1,0,0:0:0:0:
448,192,53015,1,0,0:0:0:70:kick.wav
320,192,53015,1,0,0:0:0:0:
192,192,53165,1,0,0:0:0:0:
64,192,53315,1,0,0:0:0:70:BaSS.wav
448,192,53315,1,0,0:0:0:70:kick.wav
320,192,53465,1,0,0:0:0:0:
192,192,53540,1,0,0:0:0:0:
64,192,53615,1,0,0:0:0:70:kick.wav
448,192,53615,1,0,0:0:0:0:
320,192,53765,1,0,0:0:0:0:
448,192,53915,1,0,0:0:0:70:kick.wav
192,192,53915,1,0,0:0:0:0:
64,192,54065,1,0,0:0:0:0:
320,192,54215,1,0,0:0:0:70:BaSS.wav
448,192,54215,1,0,0:0:0:70:kick.wav
192,192,54365,1,0,0:0:0:0:
320,192,54515,1,0,0:0:0:70:kick.wav
64,192,54515,1,0,0:0:0:0:
192,192,54665,1,0,0:0:0:0:
448,192,54815,1,0,0:0:0:70:kick.wav
320,192,54815,1,0,0:0:0:0:
64,192,54965,1,0,0:0:0:0:
192,192,55040,1,0,0:0:0:0:
448,192,55115,1,0,0:0:0:70:BaSS.wav
320,192,55115,1,0,0:0:0:70:kick.wav
64,192,55265,1,0,0:0:0:0:
192,192,55415,1,0,0:0:0:70:kick.wav
320,192,55415,1,0,0:0:0:0:
448,192,55565,1,0,0:0:0:0:
320,192,55715,1,0,0:0:0:70:kick.wav
64,192,55715,1,0,0:0:0:0:
192,192,55865,1,0,0:0:0:0:
448,192,56015,1,0,0:0:0:70:BaSS.wav
64,192,56015,1,0,0:0:0:70:kick.wav
192,192,56240,1,0,0:0:0:70:kick.wav
320,192,56315,1,0,0:0:0:70:BaSS.wav
64,192,56465,1,0,0:0:0:55:BaSS.wav
448,192,56465,1,0,0:0:0:55:snare.wav
320,192,56765,1,0,0:0:0:55:BaSS.wav
448,192,56765,1,0,0:0:0:55:snare.wav
192,192,56915,1,0,0:0:0:70:BaSS.wav
64,192,56915,1,0,0:0:0:0:
320,192,57065,1,0,0:0:0:70:BaSS.wav
64,192,57215,1,0,0:0:0:55:BaSS.wav
448,192,57215,1,0,0:0:0:55:snare.wav
192,192,57515,1,0,0:0:0:55:snare.wav
64,192,57515,1,0,0:0:0:55:BaSS.wav
448,192,57815,1,0,0:0:0:35:BaSS.wav
64,192,57815,1,0,0:0:0:70:kick.wav
320,192,57965,1,0,0:0:0:35:BaSS.wav
192,192,57965,1,0,0:0:0:70:kick.wav
64,192,58115,1,0,0:0:0:35:BaSS.wav
448,192,58115,1,0,0:0:0:70:kick.wav
448,192,58415,1,0,0:0:0:35:BaSS.wav
64,192,58415,1,0,0:0:0:70:kick.wav
320,192,58490,1,0,0:0:0:0:
192,192,58565,1,0,0:0:0:0:
320,192,58640,1,0,0:0:0:0:
64,192,58715,1,0,0:0:0:70:kick.wav
448,192,58715,1,0,0:0:0:35:BaSS.wav
192,192,58715,128,0,59315:0:0:0:0:
320,192,59015,1,0,0:0:0:55:plak.wav
448,192,59315,128,0,59615:0:0:0:55:plak.wav
64,192,59315,128,0,59615:0:0:0:0:
192,192,59615,1,0,0:0:0:70:kick.wav
320,192,59615,1,0,0:0:0:35:BaSS.wav
64,192,60515,1,0,0:0:0:0:
320,192,60515,1,0,0:0:0:0:
192,192,60815,1,0,0:0:0:0:
320,192,61115,1,0,0:0:0:0:
448,192,61415,1,0,0:0:0:0:
192,192,61415,1,0,0:0:0:0:
320,192,61715,1,0,0:0:0:0:
64,192,62015,128,0,62315:0:0:0:0:
320,192,62315,1,0,0:0:0:0:
448,192,62915,1,0,0:0:0:0:
448,192,63215,1,0,0:0:0:0:
64,192,63215,1,0,0:0:0:0:
192,192,64115,1,0,0:0:0:0:
448,192,64115,1,0,0:0:0:0:
64,192,64415,1,0,0:0:0:0:
320,192,64715,1,0,0:0:0:0:
192,192,65015,1,0,0:0:0:0:
448,192,65015,1,0,0:0:0:0:
320,192,65915,128,0,66815:0:0:0:0:
448,192,66515,128,0,66815:0:0:0:0:
64,192,66815,1,0,0:0:0:70:LR3_BassDropSSG.wav
192,192,66815,1,0,0:0:0:0:
192,192,67715,1,0,0:0:0:0:
64,192,67733,1,0,0:0:0:0:
320,192,68015,1,0,0:0:0:0:
192,192,68033,1,0,0:0:0:0:
448,192,68315,1,0,0:0:0:0:
320,192,68333,1,0,0:0:0:0:
448,192,68615,128,0,69215:0:0:0:0:
320,192,68915,1,0,0:0:0:0:
64,192,69215,1,0,0:0:0:0:
320,192,69515,128,0,70415:0:0:0:0:
448,192,70115,1,0,0:0:0:0:
64,192,70115,1,0,0:0:0:0:
192,192,70265,1,0,0:0:0:0:
64,192,70415,1,0,0:0:0:0:
448,192,70415,1,0,0:0:0:0:
192,192,71315,1,0,0:0:0:0:
64,192,71333,1,0,0:0:0:0:
320,192,71615,1,0,0:0:0:0:
192,192,71633,1,0,0:0:0:0:
448,192,71915,1,0,0:0:0:0:
320,192,71933,1,0,0:0:0:0:
64,192,72215,128,0,72815:0:0:0:0:
448,192,72665,1,0,0:0:0:0:
320,192,72740,1,0,0:0:0:0:
192,192,72815,1,0,0:0:0:0:
320,192,72965,1,0,0:0:0:0:
448,192,73115,1,0,0:0:0:0:
192,192,73265,1,0,0:0:0:0:
64,192,73415,1,0,0:0:0:0:
320,192,73565,1,0,0:0:0:0:
192,192,73715,1,0,0:0:0:0:
320,192,73865,1,0,0:0:0:0:
448,192,74015,1,0,0:0:0:0:
64,192,74015,1,0,0:0:0:0:
192,192,74015,128,0,74915:0:0:0:0:
448,192,74615,1,0,0:0:0:0:
320,192,74765,1,0,0:0:0:0:
448,192,74915,1,0,0:0:0:0:
64,192,74915,1,0,0:0:0:0:
320,192,75215,1,0,0:0:0:0:
448,192,75233,1,0,0:0:0:0:
192,192,75515,1,0,0:0:0:0:
320,192,75533,1,0,0:0:0:0:
64,192,75815,1,0,0:0:0:0:
192,192,75833,1,0,0:0:0:0:
320,192,76115,1,0,0:0:0:0:
448,192,76415,1,0,0:0:0:0:
320,192,76565,1,0,0:0:0:0:
192,192,76715,1,0,0:0:0:0:
64,192,76715,128,0,77315:0:0:0:0:
448,192,77315,1,0,0:0:0:0:
192,192,77315,1,0,0:0:0:0:
320,192,77465,1,0,0:0:0:0:
64,192,77615,1,0,0:0:0:0:
448,192,77615,1,0,0:0:0:0:
64,192,78515,1,0,0:0:0:0:
448,192,78515,1,0,0:0:0:0:
192,192,78815,1,0,0:0:0:0:
320,192,79115,1,0,0:0:0:0:
448,192,79415,1,0,0:0:0:0:
320,192,79490,1,0,0:0:0:0:
192,192,79565,1,0,0:0:0:0:
64,192,79565,128,0,81215:0:0:0:0:
448,192,81215,128,0,83015:0:0:0:0:
64,192,83015,1,0,0:0:0:30:BaSS.wav
320,192,83090,1,0,0:0:0:25:drum.wav
192,192,83165,1,0,0:0:0:25:drum.wav
320,192,83315,1,0,0:0:0:30:BaSS.wav
448,192,83465,1,0,0:0:0:25:drum.wav
320,192,83615,1,0,0:0:0:25:drum.wav
64,192,83765,1,0,0:0:0:30:BaSS.wav
320,192,83915,1,0,0:0:0:25:drum.wav
64,192,84065,1,0,0:0:0:25:drum.wav
192,192,84140,1,0,0:0:0:30:BaSS.wav
320,192,84215,1,0,0:0:0:30:BaSS.wav
64,192,84365,1,0,0:0:0:25:drum.wav
448,192,84440,1,0,0:0:0:25:drum.wav
320,192,84590,1,0,0:0:0:30:BaSS.wav
192,192,84665,1,0,0:0:0:30:BaSS.wav
64,192,84740,1,0,0:0:0:25:drum.wav
320,192,84815,1,0,0:0:0:70:kick.wav
448,192,84815,1,0,0:0:0:30:BaSS.wav
64,192,84965,1,0,0:0:0:70:kick.wav
192,192,84965,1,0,0:0:0:25:drum.wav
320,192,85115,1,0,0:0:0:70:kick.wav
448,192,85115,1,0,0:0:0:25:drum.wav
64,192,85265,1,0,0:0:0:25:drum.wav
192,192,85265,1,0,0:0:0:0:
320,192,85340,1,0,0:0:0:25:drum.wav
448,192,85415,1,0,0:0:0:70:kick.wav
64,192,85490,1,0,0:0:0:25:drum.wav
192,192,85565,1,0,0:0:0:25:drum.wav
320,192,85640,1,0,0:0:0:25:drum.wav
448,192,85715,1,0,0:0:0:70:kick.wav
320,192,85790,1,0,0:0:0:25:drum.wav
192,192,85865,1,0,0:0:0:25:drum.wav
64,192,85940,1,0,0:0:0:25:drum.wav
192,192,86015,1,0,0:0:0:70:kick.wav
320,192,86090,1,0,0:0:0:25:drum.wav
448,192,86165,1,0,0:0:0:25:drum.wav
192,192,86240,1,0,0:0:0:25:drum.wav
64,192,86315,1,0,0:0:0:70:kick.wav
448,192,86390,1,0,0:0:0:25:drum.wav
320,192,86465,1,0,0:0:0:25:drum.wav
192,192,86540,1,0,0:0:0:25:drum.wav
64,192,86615,1,0,0:0:0:70:kick.wav
320,192,86690,1,0,0:0:0:25:drum.wav
448,192,86765,1,0,0:0:0:25:drum.wav
64,192,86840,1,0,0:0:0:25:drum.wav
192,192,86915,1,0,0:0:0:70:kick.wav
320,192,86990,1,0,0:0:0:25:drum.wav
448,192,87065,1,0,0:0:0:25:drum.wav
192,192,87140,1,0,0:0:0:25:drum.wav
64,192,87215,1,0,0:0:0:70:kick.wav
320,192,87290,1,0,0:0:0:25:drum.wav
448,192,87365,1,0,0:0:0:25:drum.wav
64,192,87440,1,0,0:0:0:25:drum.wav
192,192,87515,1,0,0:0:0:70:kick.wav
320,192,87590,1,0,0:0:0:25:drum.wav
448,192,87665,1,0,0:0:0:25:drum.wav
320,192,87740,1,0,0:0:0:25:drum.wav
192,192,87815,1,0,0:0:0:70:kick.wav
448,192,87890,1,0,0:0:0:25:drum.wav
320,192,87965,1,0,0:0:0:25:drum.wav
192,192,88040,1,0,0:0:0:25:drum.wav
64,192,88115,1,0,0:0:0:70:kick.wav
192,192,88190,1,0,0:0:0:25:drum.wav
448,192,88265,1,0,0:0:0:25:drum.wav
320,192,88340,1,0,0:0:0:25:drum.wav
64,192,88415,128,0,89315:0:0:0:70:kick.wav
192,192,88415,128,0,89315:0:0:0:70:LR3_BassDropSSG.wav
448,192,89315,128,0,89465:0:0:0:0:
320,192,89465,128,0,89615:0:0:0:0:
448,192,89615,128,0,89765:0:0:0:0:
64,192,89765,128,0,89915:0:0:0:0:
192,192,89915,128,0,90065:0:0:0:0:
320,192,90065,128,0,90215:0:0:0:0:
448,192,90215,1,0,0:0:0:70:BaSS.wav
64,192,90215,1,0,0:0:0:40:breakbeat9_002.wav
192,192,90290,1,0,0:0:0:0:
320,192,90365,1,0,0:0:0:70:BaSS.wav
448,192,90440,1,0,0:0:0:0:
320,192,90515,1,0,0:0:0:55:drum.wav
192,192,90590,1,0,0:0:0:0:
64,192,90665,1,0,0:0:0:0:
192,192,90740,1,0,0:0:0:0:
320,192,90815,1,0,0:0:0:0:
448,192,90890,1,0,0:0:0:0:
64,192,90965,1,0,0:0:0:0:
192,192,91040,1,0,0:0:0:0:
320,192,91115,1,0,0:0:0:70:BaSS.wav
448,192,91190,1,0,0:0:0:0:
64,192,91265,1,0,0:0:0:0:
192,192,91340,1,0,0:0:0:0:
320,192,91415,1,0,0:0:0:0:
448,192,91490,1,0,0:0:0:0:
192,192,91565,1,0,0:0:0:0:
64,192,91640,1,0,0:0:0:0:
448,192,91715,1,0,0:0:0:55:drum.wav
320,192,91790,1,0,0:0:0:0:
192,192,91865,1,0,0:0:0:55:drum.wav
64,192,91940,1,0,0:0:0:0:
448,192,92015,1,0,0:0:0:70:BaSS.wav
320,192,92090,1,0,0:0:0:0:
192,192,92165,1,0,0:0:0:0:
64,192,92240,1,0,0:0:0:0:
320,192,92315,1,0,0:0:0:0:
192,192,92390,1,0,0:0:0:0:
64,192,92465,1,0,0:0:0:70:BaSS.wav
192,192,92540,1,0,0:0:0:0:
320,192,92615,1,0,0:0:0:0:
448,192,92690,1,0,0:0:0:0:
320,192,92765,1,0,0:0:0:0:
192,192,92840,1,0,0:0:0:0:
64,192,92915,1,0,0:0:0:70:BaSS.wav
448,192,92990,1,0,0:0:0:0:
320,192,93065,1,0,0:0:0:0:
192,192,93140,1,0,0:0:0:0:
64,192,93215,1,0,0:0:0:55:drum.wav
192,192,93290,1,0,0:0:0:0:
320,192,93365,1,0,0:0:0:0:
448,192,93440,1,0,0:0:0:0:
64,192,93515,1,0,0:0:0:0:
192,192,93590,1,0,0:0:0:0:
320,192,93665,1,0,0:0:0:0:
448,192,93740,1,0,0:0:0:0:
192,192,93815,1,0,0:0:0:70:BaSS.wav
64,192,93815,1,0,0:0:0:40:breakbeat9_002.wav
320,192,93965,1,0,0:0:0:0:
192,192,93965,1,0,0:0:0:0:
320,192,94115,1,0,0:0:0:55:drum.wav
448,192,94115,1,0,0:0:0:0:
64,192,94265,1,0,0:0:0:55:drum.wav
192,192,94340,1,0,0:0:0:0:
448,192,94415,1,0,0:0:0:55:drum.wav
320,192,94490,1,0,0:0:0:0:
192,192,94565,1,0,0:0:0:0:
64,192,94640,1,0,0:0:0:0:
192,192,94715,1,0,0:0:0:70:BaSS.wav
320,192,94790,1,0,0:0:0:0:
448,192,94865,1,0,0:0:0:0:
192,192,94940,1,0,0:0:0:0:
64,192,95015,1,0,0:0:0:0:
448,192,95090,1,0,0:0:0:0:
320,192,95165,1,0,0:0:0:0:
192,192,95240,1,0,0:0:0:0:
64,192,95315,1,0,0:0:0:0:
192,192,95390,1,0,0:0:0:0:
320,192,95465,1,0,0:0:0:0:
448,192,95540,1,0,0:0:0:0:
64,192,95615,1,0,0:0:0:70:BaSS.wav
192,192,95690,1,0,0:0:0:0:
320,192,95765,1,0,0:0:0:0:
448,192,95840,1,0,0:0:0:0:
64,192,95915,1,0,0:0:0:0:
192,192,95990,1,0,0:0:0:0:
448,192,96065,1,0,0:0:0:70:BaSS.wav
320,192,96140,1,0,0:0:0:0:
192,192,96215,1,0,0:0:0:0:
64,192,96290,1,0,0:0:0:0:
448,192,96365,1,0,0:0:0:0:
320,192,96440,1,0,0:0:0:0:
64,192,96515,1,0,0:0:0:70:BaSS.wav
192,192,96590,1,0,0:0:0:0:
320,192,96665,1,0,0:0:0:0:
64,192,96740,1,0,0:0:0:0:
192,192,96815,1,0,0:0:0:55:drum.wav
320,192,96890,1,0,0:0:0:0:
448,192,96965,1,0,0:0:0:0:
192,192,97040,1,0,0:0:0:0:
64,192,97115,1,0,0:0:0:0:
448,192,97190,1,0,0:0:0:0:
320,192,97265,1,0,0:0:0:0:
192,192,97340,1,0,0:0:0:0:
448,192,97415,1,0,0:0:0:70:BaSS.wav
320,192,97415,1,0,0:0:0:40:breakbeat9_002.wav
320,192,97565,1,0,0:0:0:0:
192,192,97565,1,0,0:0:0:0:
64,192,97715,1,0,0:0:0:55:drum.wav
192,192,97715,1,0,0:0:0:0:
448,192,97865,1,0,0:0:0:55:drum.wav
320,192,97940,1,0,0:0:0:0:
192,192,98015,1,0,0:0:0:55:drum.wav
64,192,98090,1,0,0:0:0:0:
320,192,98165,1,0,0:0:0:0:
448,192,98240,1,0,0:0:0:0:
192,192,98315,1,0,0:0:0:70:BaSS.wav
64,192,98390,1,0,0:0:0:0:
448,192,98465,1,0,0:0:0:0:
320,192,98540,1,0,0:0:0:0:
64,192,98615,1,0,0:0:0:0:
192,192,98690,1,0,0:0:0:0:
320,192,98765,1,0,0:0:0:0:
448,192,98840,1,0,0:0:0:0:
64,192,98915,1,0,0:0:0:55:drum.wav
192,192,98990,1,0,0:0:0:0:
320,192,99065,1,0,0:0:0:55:drum.wav
448,192,99140,1,0,0:0:0:0:
192,192,99215,1,0,0:0:0:70:BaSS.wav
64,192,99290,1,0,0:0:0:0:
448,192,99365,1,0,0:0:0:0:
320,192,99440,1,0,0:0:0:0:
192,192,99515,1,0,0:0:0:0:
64,192,99590,1,0,0:0:0:0:
192,192,99665,1,0,0:0:0:70:BaSS.wav
320,192,99740,1,0,0:0:0:0:
448,192,99815,1,0,0:0:0:0:
64,192,99890,1,0,0:0:0:0:
192,192,99965,1,0,0:0:0:0:
320,192,100040,1,0,0:0:0:0:
448,192,100115,1,0,0:0:0:70:BaSS.wav
192,192,100190,1,0,0:0:0:0:
64,192,100265,1,0,0:0:0:0:
448,192,100340,1,0,0:0:0:0:
320,192,100415,1,0,0:0:0:55:drum.wav
448,192,100490,1,0,0:0:0:0:
64,192,100565,1,0,0:0:0:0:
192,192,100640,1,0,0:0:0:0:
448,192,100715,1,0,0:0:0:0:
320,192,100790,1,0,0:0:0:0:
192,192,100865,1,0,0:0:0:0:
64,192,100940,1,0,0:0:0:0:
448,192,101015,1,0,0:0:0:70:BaSS.wav
320,192,101015,1,0,0:0:0:55:drum.wav
320,192,101165,1,0,0:0:0:0:
192,192,101165,1,0,0:0:0:0:
64,192,101315,1,0,0:0:0:55:drum.wav
192,192,101315,1,0,0:0:0:0:
320,192,101465,1,0,0:0:0:55:drum.wav
192,192,101540,1,0,0:0:0:0:
64,192,101615,1,0,0:0:0:70:BaSS.wav
192,192,101690,1,0,0:0:0:0:
320,192,101765,1,0,0:0:0:0:
448,192,101840,1,0,0:0:0:0:
64,192,101915,1,0,0:0:0:70:BaSS.wav
192,192,101990,1,0,0:0:0:0:
448,192,102065,1,0,0:0:0:0:
320,192,102140,1,0,0:0:0:0:
192,192,102215,1,0,0:0:0:55:drum.wav
64,192,102290,1,0,0:0:0:0:
320,192,102365,1,0,0:0:0:0:
448,192,102440,1,0,0:0:0:0:
64,192,102515,1,0,0:0:0:0:
192,192,102590,1,0,0:0:0:0:
320,192,102665,1,0,0:0:0:0:
192,192,102740,1,0,0:0:0:0:
64,192,102815,1,0,0:0:0:40:breakbeat9_002.wav
448,192,102815,128,0,103115:0:0:0:70:BaSS.wav
320,192,103115,128,0,103415:0:0:0:0:
192,192,103415,128,0,103715:0:0:0:0:
64,192,103715,128,0,104615:0:0:0:70:BaSS.wav
448,192,103715,128,0,104615:0:0:0:0:
320,192,104315,128,0,104615:0:0:0:0:
192,192,104615,1,0,0:0:0:70:BaSS.wav
64,192,105065,1,0,0:0:0:40:breakbeat9_002.wav
192,192,105065,1,0,0:0:0:35:snare.wav
320,192,105515,1,0,0:0:0:70:BaSS.wav
448,192,105515,1,0,0:0:0:35:snare.wav
192,192,105965,1,0,0:0:0:40:breakbeat9_002.wav
320,192,105965,1,0,0:0:0:35:snare.wav
320,192,106415,1,0,0:0:0:70:BaSS.wav
448,192,106415,128,0,107315:0:0:0:35:snare.wav
64,192,106415,1,0,0:0:0:40:breakbeat9_002.wav
64,192,107315,1,0,0:0:0:0:
192,192,107315,1,0,0:0:0:0:
320,192,107390,1,0,0:0:0:0:
448,192,107465,1,0,0:0:0:0:
320,192,107540,1,0,0:0:0:0:
192,192,107615,1,0,0:0:0:0:
64,192,107690,1,0,0:0:0:0:
192,192,107765,1,0,0:0:0:0:
320,192,107840,1,0,0:0:0:0:
448,192,107915,1,0,0:0:0:0:
320,192,107990,1,0,0:0:0:0:
192,192,108065,1,0,0:0:0:0:
64,192,108140,1,0,0:0:0:0:
448,192,108215,1,0,0:0:0:50:LR3_BassDropSSG.wav
192,192,108215,1,0,0:0:0:0:
64,192,109115,1,0,0:0:0:0:
192,192,109415,1,0,0:0:0:0:
320,192,109715,1,0,0:0:0:0:
448,192,110015,128,0,110915:0:0:0:0:
64,192,110015,128,0,111515:0:0:0:0:
320,192,110915,128,0,111515:0:0:0:0:
448,192,111515,1,0,0:0:0:0:
192,192,111815,128,0,112715:0:0:0:0:
320,192,112715,128,0,113315:0:0:0:0:
448,192,113315,128,0,113615:0:0:0:0:
64,192,113615,128,0,115415:0:0:0:0:
192,192,114515,128,0,115415:0:0:0:0:
320,192,115115,128,0,115415:0:0:0:0:
448,192,115415,1,0,0:0:0:70:kick.wav
320,192,115490,1,0,0:0:0:0:
192,192,115565,1,0,0:0:0:70:kick.wav
64,192,115640,1,0,0:0:0:70:kick.wav
448,192,115715,1,0,0:0:0:70:kick.wav
320,192,115790,1,0,0:0:0:0:
192,192,115865,1,0,0:0:0:0:
320,192,115940,1,0,0:0:0:0:
448,192,116015,1,0,0:0:0:70:BaSS.wav
448,192,116165,1,0,0:0:0:70:kick.wav
448,192,116315,1,0,0:0:0:70:BaSS.wav
320,192,116390,1,0,0:0:0:0:
192,192,116465,1,0,0:0:0:0:
64,192,116540,1,0,0:0:0:0:
448,192,116615,1,0,0:0:0:0:
320,192,116765,1,0,0:0:0:70:kick.wav
192,192,116840,1,0,0:0:0:0:
64,192,116915,1,0,0:0:0:0:
192,192,116990,1,0,0:0:0:0:
320,192,117065,1,0,0:0:0:0:
64,192,117215,1,0,0:0:0:70:BaSS.wav
192,192,117290,1,0,0:0:0:0:
320,192,117365,1,0,0:0:0:0:
448,192,117440,1,0,0:0:0:0:
192,192,117515,1,0,0:0:0:70:kick.wav
320,192,117590,1,0,0:0:0:0:
448,192,117665,1,0,0:0:0:0:
320,192,117740,1,0,0:0:0:0:
192,192,117815,1,0,0:0:0:70:kick.wav
448,192,117965,1,0,0:0:0:70:kick.wav
64,192,117965,1,0,0:0:0:70:BaSS.wav
192,192,118115,1,0,0:0:0:70:kick.wav
320,192,118115,1,0,0:0:0:70:BaSS.wav
64,192,118565,1,0,0:0:0:70:BaSS.wav
448,192,118565,1,0,0:0:0:70:kick.wav
192,192,118565,1,0,0:0:0:0:
64,192,119015,1,0,0:0:0:70:kick.wav
192,192,119015,1,0,0:0:0:70:BaSS.wav
448,192,119090,1,0,0:0:0:0:
320,192,119165,1,0,0:0:0:55:snare.wav
64,192,119240,1,0,0:0:0:55:snare.wav
192,192,119315,1,0,0:0:0:55:snare.wav
448,192,119390,1,0,0:0:0:55:snare.wav
320,192,119465,1,0,0:0:0:55:snare.wav
192,192,119540,1,0,0:0:0:55:snare.wav
320,192,119615,1,0,0:0:0:55:snare.wav
448,192,119690,1,0,0:0:0:0:
64,192,119765,1,0,0:0:0:55:snare.wav
192,192,119840,1,0,0:0:0:55:snare.wav
448,192,119915,1,0,0:0:0:70:kick.wav
320,192,119990,1,0,0:0:0:55:snare.wav
64,192,120065,1,0,0:0:0:55:snare.wav
192,192,120140,1,0,0:0:0:55:snare.wav
320,192,120215,1,0,0:0:0:55:snare.wav
192,192,120290,1,0,0:0:0:55:snare.wav
64,192,120365,1,0,0:0:0:55:snare.wav
448,192,120440,1,0,0:0:0:55:snare.wav
320,192,120515,1,0,0:0:0:55:snare.wav
64,192,120590,1,0,0:0:0:55:snare.wav
192,192,120665,1,0,0:0:0:55:snare.wav
448,192,120740,1,0,0:0:0:55:snare.wav
320,192,120815,128,0,121115:0:0:0:70:breakbeat9_002.wav
64,192,120815,1,0,0:0:0:0:
192,192,121115,128,0,121415:0:0:0:70:breakbeat9_002.wav
448,192,121115,1,0,0:0:0:0:
320,192,121415,128,0,121715:0:0:0:70:breakbeat9_002.wav
64,192,121415,1,0,0:0:0:0:
64,192,121715,128,0,122315:0:0:0:70:breakbeat9_002.wav
448,192,121715,128,0,122315:0:0:0:0:
320,192,122315,1,0,0:0:0:60:breakbeat9_002.wav
192,192,122390,1,0,0:0:0:60:breakbeat9_002.wav
64,192,122465,1,0,0:0:0:60:breakbeat9_002.wav
320,192,122540,1,0,0:0:0:60:breakbeat9_002.wav
448,192,122615,1,0,0:0:0:70:breakbeat9_002.wav
64,192,122690,1,0,0:0:0:0:
192,192,122765,1,0,0:0:0:0:
320,192,122840,1,0,0:0:0:0:
448,192,122915,1,0,0:0:0:0:
320,192,122990,1,0,0:0:0:0:
192,192,123065,1,0,0:0:0:55:drum.wav
64,192,123140,1,0,0:0:0:0:
192,192,123215,1,0,0:0:0:70:BaSS.wav
320,192,123290,1,0,0:0:0:0:
448,192,123365,1,0,0:0:0:0:
320,192,123440,1,0,0:0:0:0:
64,192,123515,1,0,0:0:0:70:kick.wav
192,192,123590,1,0,0:0:0:0:
320,192,123665,1,0,0:0:0:0:
64,192,123665,1,0,0:0:0:0:
192,192,123815,1,0,0:0:0:55:drum.wav
64,192,123815,1,0,0:0:0:70:BaSS.wav
192,192,123965,1,0,0:0:0:0:
64,192,123965,1,0,0:0:0:0:
320,192,124115,1,0,0:0:0:70:BaSS.wav
448,192,124115,1,0,0:0:0:0:
448,192,124265,1,0,0:0:0:0:
320,192,124265,1,0,0:0:0:0:
64,192,124415,1,0,0:0:0:70:BaSS.wav
192,192,124490,1,0,0:0:0:0:
320,192,124565,1,0,0:0:0:0:
448,192,124640,1,0,0:0:0:0:
320,192,124715,1,0,0:0:0:0:
192,192,124790,1,0,0:0:0:0:
64,192,124865,1,0,0:0:0:55:drum.wav
192,192,124940,1,0,0:0:0:0:
320,192,125015,1,0,0:0:0:0:
448,192,125090,1,0,0:0:0:0:
64,192,125165,1,0,0:0:0:70:BaSS.wav
192,192,125240,1,0,0:0:0:0:
448,192,125315,1,0,0:0:0:70:kick.wav
320,192,125390,1,0,0:0:0:0:
192,192,125465,1,0,0:0:0:0:
64,192,125540,1,0,0:0:0:0:
320,192,125615,1,0,0:0:0:55:drum.wav
448,192,125690,1,0,0:0:0:0:
64,192,125765,1,0,0:0:0:0:
192,192,125840,1,0,0:0:0:0:
320,192,125915,1,0,0:0:0:70:BaSS.wav
192,192,125990,1,0,0:0:0:0:
64,192,126065,1,0,0:0:0:0:
448,192,126140,1,0,0:0:0:0:
320,192,126215,1,0,0:0:0:70:kick.wav
192,192,126290,1,0,0:0:0:0:
320,192,126365,1,0,0:0:0:0:
448,192,126440,1,0,0:0:0:0:
320,192,126515,1,0,0:0:0:0:
192,192,126590,1,0,0:0:0:0:
64,192,126665,1,0,0:0:0:0:
192,192,126740,1,0,0:0:0:0:
320,192,126815,1,0,0:0:0:70:BaSS.wav
448,192,126890,1,0,0:0:0:0:
64,192,126965,1,0,0:0:0:0:
192,192,127040,1,0,0:0:0:0:
320,192,127115,1,0,0:0:0:70:kick.wav
448,192,127190,1,0,0:0:0:0:
320,192,127265,1,0,0:0:0:0:
192,192,127340,1,0,0:0:0:0:
64,192,127415,1,0,0:0:0:55:drum.wav
192,192,127490,1,0,0:0:0:0:
320,192,127565,1,0,0:0:0:0:
192,192,127640,1,0,0:0:0:0:
64,192,127715,1,0,0:0:0:70:BaSS.wav
448,192,127790,1,0,0:0:0:0:
320,192,127865,1,0,0:0:0:0:
192,192,127940,1,0,0:0:0:0:
320,192,128015,1,0,0:0:0:70:BaSS.wav
448,192,128090,1,0,0:0:0:0:
320,192,128165,1,0,0:0:0:0:
192,192,128240,1,0,0:0:0:0:
64,192,128315,1,0,0:0:0:0:
192,192,128390,1,0,0:0:0:0:
320,192,128465,1,0,0:0:0:0:
448,192,128540,1,0,0:0:0:0:
320,192,128615,1,0,0:0:0:0:
64,192,128690,1,0,0:0:0:0:
192,192,128765,1,0,0:0:0:70:BaSS.wav
320,192,128840,1,0,0:0:0:0:
192,192,128915,1,0,0:0:0:70:kick.wav
64,192,128990,1,0,0:0:0:0:
448,192,129065,1,0,0:0:0:0:
320,192,129140,1,0,0:0:0:0:
192,192,129215,1,0,0:0:0:55:drum.wav
320,192,129290,1,0,0:0:0:0:
448,192,129365,1,0,0:0:0:0:
320,192,129440,1,0,0:0:0:0:
192,192,129515,1,0,0:0:0:70:BaSS.wav
320,192,129590,1,0,0:0:0:0:
192,192,129665,1,0,0:0:0:0:
64,192,129740,1,0,0:0:0:0:
320,192,129815,1,0,0:0:0:70:BaSS.wav
448,192,129815,1,0,0:0:0:70:kick.wav
64,192,130115,1,0,0:0:0:0:
192,192,130190,1,0,0:0:0:0:
320,192,130265,1,0,0:0:0:0:
448,192,130340,1,0,0:0:0:0:
320,192,130415,1,0,0:0:0:70:BaSS.wav
192,192,130490,1,0,0:0:0:0:
64,192,130565,1,0,0:0:0:0:
192,192,130640,1,0,0:0:0:0:
320,192,130715,1,0,0:0:0:70:kick.wav
448,192,130790,1,0,0:0:0:0:
64,192,130865,1,0,0:0:0:0:
192,192,130940,1,0,0:0:0:0:
448,192,131015,1,0,0:0:0:55:drum.wav
320,192,131090,1,0,0:0:0:0:
192,192,131165,1,0,0:0:0:0:
448,192,131240,1,0,0:0:0:0:
320,192,131315,1,0,0:0:0:70:BaSS.wav
192,192,131390,1,0,0:0:0:0:
64,192,131465,1,0,0:0:0:0:
192,192,131540,1,0,0:0:0:0:
320,192,131615,1,0,0:0:0:70:kick.wav
448,192,131690,1,0,0:0:0:0:
320,192,131765,1,0,0:0:0:0:
192,192,131840,1,0,0:0:0:0:
448,192,131915,1,0,0:0:0:0:
320,192,131990,1,0,0:0:0:0:
192,192,132065,1,0,0:0:0:0:
64,192,132140,1,0,0:0:0:0:
192,192,132215,1,0,0:0:0:0:
320,192,132290,1,0,0:0:0:0:
192,192,132365,1,0,0:0:0:70:BaSS.wav
320,192,132440,1,0,0:0:0:0:
448,192,132515,1,0,0:0:0:70:kick.wav
320,192,132590,1,0,0:0:0:0:
192,192,132665,1,0,0:0:0:0:
64,192,132740,1,0,0:0:0:0:
192,192,132815,1,0,0:0:0:55:drum.wav
320,192,132890,1,0,0:0:0:0:
192,192,132965,1,0,0:0:0:0:
64,192,133040,1,0,0:0:0:0:
192,192,133115,1,0,0:0:0:70:BaSS.wav
320,192,133190,1,0,0:0:0:0:
448,192,133265,1,0,0:0:0:0:
320,192,133340,1,0,0:0:0:0:
64,192,133415,1,0,0:0:0:25:drum.wav
192,192,133490,1,0,0:0:0:25:drum.wav
448,192,133565,1,0,0:0:0:25:drum.wav
320,192,133640,1,0,0:0:0:25:drum.wav
64,192,133715,1,0,0:0:0:25:drum.wav
192,192,133790,1,0,0:0:0:25:drum.wav
448,192,133865,1,0,0:0:0:25:drum.wav
320,192,133940,1,0,0:0:0:25:drum.wav
64,192,134015,1,0,0:0:0:25:drum.wav
192,192,134090,1,0,0:0:0:25:drum.wav
448,192,134165,1,0,0:0:0:25:drum.wav
320,192,134240,1,0,0:0:0:25:drum.wav
64,192,134315,1,0,0:0:0:25:drum.wav
192,192,134390,1,0,0:0:0:25:drum.wav
448,192,134465,1,0,0:0:0:25:drum.wav
320,192,134540,1,0,0:0:0:25:drum.wav
64,192,134615,1,0,0:0:0:25:drum.wav
192,192,134690,1,0,0:0:0:25:drum.wav
448,192,134765,1,0,0:0:0:25:drum.wav
320,192,134840,1,0,0:0:0:25:drum.wav
192,192,134915,1,0,0:0:0:25:drum.wav
64,192,134990,1,0,0:0:0:25:drum.wav
192,192,135065,1,0,0:0:0:25:drum.wav
320,192,135140,1,0,0:0:0:25:drum.wav
448,192,135215,1,0,0:0:0:25:drum.wav
192,192,135290,1,0,0:0:0:25:drum.wav
320,192,135365,1,0,0:0:0:25:drum.wav
64,192,135440,1,0,0:0:0:25:drum.wav
448,192,135515,1,0,0:0:0:25:drum.wav
192,192,135590,1,0,0:0:0:25:drum.wav
320,192,135665,1,0,0:0:0:25:drum.wav
64,192,135740,1,0,0:0:0:25:drum.wav
448,192,135815,1,0,0:0:0:25:drum.wav
192,192,135890,1,0,0:0:0:25:drum.wav
320,192,135965,1,0,0:0:0:25:drum.wav
64,192,136040,1,0,0:0:0:25:drum.wav
448,192,136115,1,0,0:0:0:25:drum.wav
320,192,136190,1,0,0:0:0:25:drum.wav
192,192,136265,1,0,0:0:0:25:drum.wav
64,192,136340,1,0,0:0:0:25:drum.wav
448,192,136415,1,0,0:0:0:25:drum.wav
320,192,136490,1,0,0:0:0:25:drum.wav
192,192,136565,1,0,0:0:0:25:drum.wav
64,192,136640,1,0,0:0:0:25:drum.wav
192,192,136715,1,0,0:0:0:25:drum.wav
320,192,136790,1,0,0:0:0:25:drum.wav
448,192,136865,1,0,0:0:0:25:drum.wav
64,192,136940,1,0,0:0:0:25:drum.wav
448,192,137015,1,0,0:0:0:70:LR3_BassDropSSG.wav
320,192,137015,1,0,0:0:0:0:
64,192,137915,1,0,0:0:0:0:
320,192,137915,1,0,0:0:0:0:
192,192,138215,1,0,0:0:0:0:
320,192,138515,1,0,0:0:0:0:
192,192,138815,1,0,0:0:0:0:
448,192,138815,1,0,0:0:0:0:
64,192,139115,1,0,0:0:0:0:
320,192,139415,1,0,0:0:0:0:
448,192,139715,1,0,0:0:0:0:
64,192,139715,1,0,0:0:0:0:
192,192,140315,1,0,0:0:0:0:
448,192,140615,1,0,0:0:0:0:
192,192,140615,1,0,0:0:0:0:
192,192,141515,1,0,0:0:0:0:
320,192,141815,1,0,0:0:0:0:
192,192,142115,1,0,0:0:0:0:
64,192,142415,1,0,0:0:0:0:
448,192,142415,1,0,0:0:0:0:
448,192,144215,1,0,0:0:0:0:
320,192,144215,1,0,0:0:0:0:
192,192,145115,1,0,0:0:0:0:
64,192,145115,1,0,0:0:0:0:
320,192,145415,1,0,0:0:0:0:
448,192,145715,1,0,0:0:0:0:
448,192,146015,1,0,0:0:0:0:
64,192,146015,1,0,0:0:0:0:
320,192,146315,1,0,0:0:0:0:
192,192,146615,1,0,0:0:0:0:
64,192,146915,1,0,0:0:0:0:
448,192,146915,1,0,0:0:0:0:
320,192,147515,1,0,0:0:0:0:
320,192,147815,1,0,0:0:0:0:
64,192,147815,1,0,0:0:0:0:
64,192,148715,1,0,0:0:0:0:
448,192,149015,1,0,0:0:0:0:
320,192,149315,1,0,0:0:0:0:
192,192,149615,128,0,150815:0:0:0:0:
