osu file format v14

[General]
AudioFilename: Wild Orchid Dance.mp3
AudioLeadIn: 0
PreviewTime: 56878
Countdown: 1
SampleSet: None
StackLeniency: 0.5
Mode: 0
LetterboxInBreaks: 0
WidescreenStoryboard: 1

[Editor]
Bookmarks: 531,2617,6791,10965,15139,19313,23487,31835,37052,40183,48530,57922,66270,74617,82965,91313,99661,101748,110096,118444,122878,126791,135139,144530,145313,153660
DistanceSpacing: 1.2
BeatDivisor: 4
GridSize: 4
TimelineZoom: 2.699999

[Metadata]
Title:Wild Orchid Dance
TitleUnicode:狂喜蘭舞
Artist:LeaF
ArtistUnicode:LeaF
Creator:Exa
Version:Insane
Source:
Tags:
BeatmapID:1033367
BeatmapSetID:474220

[Difficulty]
HPDrainRate:6.6
CircleSize:4
OverallDifficulty:8.8
ApproachRate:9
SliderMultiplier:1.6
SliderTickRate:1

[Events]
//Background and Video events
0,0,"Ya.jpg",0,0
//Break Periods
//Storyboard Layer 0 (Background)
//Storyboard Layer 1 (Fail)
//Storyboard Layer 2 (Pass)
//Storyboard Layer 3 (Foreground)
//Storyboard Sound Samples

[TimingPoints]
531,260.869565217391,4,3,2,80,1,0
531,-200,4,3,1,80,0,0
2617,-133.333333333333,4,3,1,80,0,0
6139,-100,4,3,1,80,0,0
10965,-100,4,3,1,80,0,1
15139,-100,4,3,1,80,0,0
19313,-133.333333333333,4,3,1,80,0,0
21400,-100,4,3,1,80,0,0
23487,-133.333333333333,4,3,1,80,0,0
23617,-133.333333333333,4,2,1,60,0,0
39857,-133.333333333333,4,2,1,5,0,0
40183,-100,4,3,1,80,0,0
48530,-133.333333333333,4,3,1,80,0,0
50813,-133.333333333333,4,3,1,5,0,0
50878,-133.333333333333,4,3,1,80,0,0
51074,-133.333333333333,4,3,1,5,0,0
51139,-133.333333333333,4,3,1,80,0,0
51335,-133.333333333333,4,3,1,5,0,0
51400,-133.333333333333,4,3,1,80,0,0
51596,-133.333333333333,4,3,1,5,0,0
51661,-133.333333333333,4,3,1,80,0,0
51857,-133.333333333333,4,3,1,5,0,0
51922,-133.333333333333,4,3,1,80,0,0
52378,-133.333333333333,4,3,1,5,0,0
52444,-133.333333333333,4,3,1,80,0,0
52900,-133.333333333333,4,3,1,5,0,0
52965,-133.333333333333,4,3,1,80,0,0
53422,-133.333333333333,4,3,1,5,0,0
53487,-133.333333333333,4,3,1,80,0,0
53944,-133.333333333333,4,3,1,5,0,0
54009,-133.333333333333,4,3,1,80,0,0
54465,-133.333333333333,4,3,1,5,0,0
54530,-133.333333333333,4,3,1,80,0,0
54987,-133.333333333333,4,3,1,5,0,0
55052,-133.333333333333,4,3,1,80,0,0
55509,-133.333333333333,4,3,1,5,0,0
55574,-133.333333333333,4,3,1,80,0,0
56030,-133.333333333333,4,3,1,5,0,0
56096,-133.333333333333,4,3,1,80,0,0
56291,-133.333333333333,4,3,1,5,0,0
56357,-133.333333333333,4,3,1,80,0,0
56552,-133.333333333333,4,3,1,5,0,0
56617,-133.333333333333,4,3,1,80,0,0
56813,-133.333333333333,4,3,1,5,0,0
56878,-100,4,3,1,80,0,0
57922,-100,4,3,1,80,0,1
74617,-133.333333333333,4,3,1,60,0,0
80878,-200,4,3,1,60,0,0
81074,-200,4,3,1,5,0,0
81139,-200,4,3,1,60,0,0
81335,-200,4,3,1,5,0,0
81400,-133.333333333333,4,3,1,70,0,0
81596,-133.333333333333,4,3,1,5,0,0
81661,-100,4,3,1,80,0,0
81857,-100,4,3,1,5,0,0
81922,-100,4,3,1,100,0,0
82183,-100,4,3,1,5,0,0
87139,-200,4,2,1,40,0,0
89226,-133.333333333333,4,2,1,40,0,0
91313,-133.333333333333,4,2,2,40,0,0
93139,-100,4,2,2,40,0,0
93661,-133.333333333333,4,2,2,40,0,0
96530,-133.333333333333,4,2,2,50,0,0
97052,-100,4,2,2,50,0,0
97574,-133.333333333333,4,2,2,60,0,0
98617,-133.333333333333,4,2,2,70,0,0
99661,-100,4,3,1,80,0,0
100183,-80,4,3,1,80,0,0
100444,-100,4,3,1,80,0,0
101748,-100,4,3,1,80,0,1
102661,-133.333333333333,4,3,1,80,0,0
102791,-133.333333333333,4,3,1,5,0,0
102922,-100,4,3,1,80,0,0
103574,-133.333333333333,4,3,1,80,0,0
103835,-100,4,3,1,80,0,1
117400,-80,4,3,1,80,0,1
118444,-100,4,3,1,80,0,0
126791,-133.333333333333,4,3,1,60,0,0
142965,-133.333333333333,4,3,1,40,0,0
143634,-133.333333333333,4,3,1,60,0,0
144221,-133.333333333333,4,3,1,80,0,0
144530,-133.333333333333,4,2,1,100,0,0
145313,260.869565217391,4,3,1,60,1,0

[Colours]
Combo1 : 150,84,231
Combo2 : 239,206,16
Combo3 : 29,184,243
Combo4 : 227,147,38
Combo5 : 100,103,236
Combo6 : 206,17,98

[HitObjects]
72,216,531,5,0,0:0:0:0:
72,216,791,2,0,P|108:232|148:232,1,80
248,228,1183,1,0,0:0:0:0:
248,228,1248,1,0,0:0:0:0:
248,228,1314,1,0,0:0:0:0:
204,320,1444,1,0,0:0:0:0:
188,163,1574,6,0,P|223:145|263:145,1,80
356,180,1965,1,0,0:0:0:0:
354,95,2096,2,0,P|393:95|429:112,1,80
429,112,2422,1,0,0:0:0:0:
429,112,2487,1,0,0:0:0:0:
429,112,2552,1,0,0:0:0:0:
429,112,2617,6,0,P|428:171|460:220,1,120.000004577637
459,219,3009,1,0,0:0:0:0:
402,295,3139,2,0,P|348:271|295:295,1,120.000004577637
295,296,3530,1,0,0:0:0:0:
217,238,3661,2,0,L|157:242,1,60.0000022888184
292,173,3922,2,0,L|351:177,1,60.0000022888184
291,75,4183,6,0,P|234:93|199:140,1,120.000004577637
199,140,4574,1,0,0:0:0:0:
121,83,4704,2,0,P|80:122|106:171,1,120.000004577637
105,171,5096,1,0,0:0:0:0:
27,229,5226,2,0,P|72:266|131:270,1,120.000004577637
131,270,5617,1,0,0:0:0:0:
199,199,5748,6,0,B|228:207|228:207|258:208,1,60.0000022888184
356,200,6009,1,0,0:0:0:0:
358,223,6074,1,0,0:0:0:0:
360,247,6139,1,0,0:0:0:0:
302,137,6270,2,0,L|307:57,1,80
434,77,6530,2,0,L|428:156,1,80
220,92,6791,6,0,B|176:92|140:108,1,80
276,204,7052,2,0,B|320:204|356:188,1,80
180,196,7313,2,0,L|174:275,1,80
174,275,7509,1,0,0:0:0:0:
174,275,7574,1,0,0:0:0:0:
276,204,7704,1,0,0:0:0:0:
142,107,7835,1,0,0:0:0:0:
142,107,8096,5,0,0:0:0:0:
180,196,8227,1,0,0:0:0:0:
93,230,8357,2,0,B|48:230|15:214,1,80
160,291,8617,2,0,B|204:291|237:275,1,80
319,224,8878,1,0,0:0:0:0:
319,224,9139,6,0,B|334:257|334:301,1,80
234,178,9400,2,0,B|234:134|249:100,1,80
249,100,9596,1,0,0:0:0:0:
249,100,9661,1,0,0:0:0:0:
365,153,9791,1,0,0:0:0:0:
237,275,9922,5,0,0:0:0:0:
152,230,10052,1,0,0:0:0:0:
319,224,10183,1,0,0:0:0:0:
325,319,10313,1,0,0:0:0:0:
234,178,10444,2,0,P|254:90|297:35,1,160
295,35,10770,1,0,0:0:0:0:
295,35,10835,1,0,0:0:0:0:
295,35,10900,1,0,0:0:0:0:
295,35,10965,5,0,0:0:0:0:
365,153,11096,1,0,0:0:0:0:
425,80,11226,2,0,L|504:74,1,80
402,205,11487,2,0,L|322:199,1,80
322,199,11683,1,0,0:0:0:0:
322,199,11748,1,0,0:0:0:0:
394,301,11878,1,0,0:0:0:0:
244,255,12009,6,0,L|164:260,1,80
164,261,12205,1,0,0:0:0:0:
164,261,12270,1,0,0:0:0:0:
236,159,12400,1,0,0:0:0:0:
80,236,12530,2,0,B|80:281|96:314,1,80
144,168,12791,2,0,B|144:124|128:91,1,80
77,9,13052,1,0,0:0:0:0:
144,168,13183,5,0,0:0:0:0:
222,111,13313,2,0,L|301:105,1,80
412,112,13574,1,0,0:0:0:0:
412,112,13639,1,0,0:0:0:0:
412,112,13704,1,0,0:0:0:0:
412,112,13769,1,0,0:0:0:0:
412,112,13835,1,0,0:0:0:0:
344,23,13965,1,0,0:0:0:0:
357,184,14096,5,0,0:0:0:0:
452,193,14226,1,0,0:0:0:0:
301,104,14357,1,0,0:0:0:0:
245,181,14487,1,0,0:0:0:0:
398,95,14617,1,0,0:0:0:0:
310,254,14748,6,0,P|344:272|382:263,2,80
245,181,15139,6,0,B|200:181|167:197,1,80
48,68,15400,2,0,B|93:68|126:84,1,80
66,246,15661,2,0,L|60:167,1,80
60,167,15857,1,0,0:0:0:0:
60,167,15922,1,0,0:0:0:0:
167,196,16052,1,0,0:0:0:0:
247,56,16183,1,0,0:0:0:0:
247,56,16444,5,0,0:0:0:0:
258,151,16574,1,0,0:0:0:0:
335,94,16704,2,0,B|380:94|413:110,1,80
258,151,16965,2,0,B|214:151|181:167,1,80
99,218,17226,1,0,0:0:0:0:
99,218,17487,6,0,B|84:185|84:141,1,80
184,264,17748,2,0,B|184:308|169:342,1,80
169,342,17944,1,0,0:0:0:0:
169,342,18009,1,0,0:0:0:0:
53,289,18139,1,0,0:0:0:0:
181,167,18270,5,0,0:0:0:0:
265,211,18400,1,0,0:0:0:0:
99,218,18530,1,0,0:0:0:0:
95,122,18660,1,0,0:0:0:0:
184,264,18791,2,0,P|253:308|326:287,1,160
323,288,19117,1,0,0:0:0:0:
323,288,19183,1,0,0:0:0:0:
335,299,19248,6,0,P|364:295|394:299,1,60.0000022888184
323,288,22379,1,0,0:0:0:0:
323,288,22444,1,0,0:0:0:0:
508,220,22770,2,0,P|478:224|448:220,1,60.0000022888184
