osu file format v14

[General]
AudioFilename: audio.mp3
AudioLeadIn: 0
PreviewTime: 53624
Countdown: 0
SampleSet: None
StackLeniency: 0.7
Mode: 3
LetterboxInBreaks: 0
SpecialStyle: 0
WidescreenStoryboard: 1

[Editor]
DistanceSpacing: 1.2
BeatDivisor: 4
GridSize: 8
TimelineZoom: 2.6

[Metadata]
Title:Rave*it!! Rave*it!!
TitleUnicode:壊Rave*it!! 壊Rave*it!!
Artist:LeaF
ArtistUnicode:LeaF
Creator:ShioZeN_Gekkou
Version:SuPrEMe SpiRiT [No SV]
Source:
Tags:
BeatmapID:1360119
BeatmapSetID:641431

[Difficulty]
HPDrainRate:9.5
CircleSize:4
OverallDifficulty:9
ApproachRate:5
SliderMultiplier:1.4
SliderTickRate:1

[Events]
//Background and Video events
0,0,"Background.jpg",0,0
//Break Periods
//Storyboard Layer 0 (Background)
//Storyboard Layer 1 (Fail)
//Storyboard Layer 2 (Pass)
//Storyboard Layer 3 (Foreground)
//Storyboard Sound Samples

[TimingPoints]
535,214.285714285714,4,2,0,100,1,0
26034,-100,4,2,0,100,0,1
39320,-100,4,2,0,100,0,0
53677,-100,4,2,0,100,0,1
65677,-100,4,2,0,100,0,0

[HitObjects]
64,192,535,5,0,0:0:0:0:
320,192,535,1,0,0:0:0:0:
192,192,535,1,0,0:0:0:0:
448,192,535,1,0,0:0:0:0:
64,192,642,1,0,0:0:0:0:
320,192,642,1,0,0:0:0:0:
320,192,749,1,0,0:0:0:0:
448,192,749,1,0,0:0:0:0:
192,192,856,1,0,0:0:0:0:
320,192,856,1,0,0:0:0:0:
64,192,856,1,0,0:0:0:0:
64,192,963,1,0,0:0:0:0:
192,192,963,1,0,0:0:0:0:
320,192,963,1,0,0:0:0:0:
448,192,963,1,0,0:0:0:0:
448,192,1070,1,0,0:0:0:0:
192,192,1070,1,0,0:0:0:0:
64,192,1177,1,0,0:0:0:0:
192,192,1177,1,0,0:0:0:0:
320,192,1284,1,0,0:0:0:0:
192,192,1284,1,0,0:0:0:0:
448,192,1284,1,0,0:0:0:0:
64,192,1392,1,0,0:0:0:0:
192,192,1392,1,0,0:0:0:0:
320,192,1392,1,0,0:0:0:0:
448,192,1392,1,0,0:0:0:0:
64,192,1499,1,0,0:0:0:0:
320,192,1499,1,0,0:0:0:0:
320,192,1606,1,0,0:0:0:0:
448,192,1606,1,0,0:0:0:0:
64,192,1713,1,0,0:0:0:0:
192,192,1713,1,0,0:0:0:0:
320,192,1713,1,0,0:0:0:0:
64,192,1820,1,0,0:0:0:0:
192,192,1820,1,0,0:0:0:0:
320,192,1820,1,0,0:0:0:0:
448,192,1820,1,0,0:0:0:0:
448,192,1927,1,0,0:0:0:0:
192,192,1927,1,0,0:0:0:0:
64,192,2034,1,0,0:0:0:0:
192,192,2034,1,0,0:0:0:0:
448,192,2142,1,0,0:0:0:0:
192,192,2142,1,0,0:0:0:0:
320,192,2142,1,0,0:0:0:0:
64,192,2249,1,0,0:0:0:0:
192,192,2249,1,0,0:0:0:0:
320,192,2249,1,0,0:0:0:0:
448,192,2249,1,0,0:0:0:0:
320,192,2677,1,0,0:0:0:0:
192,192,2677,1,0,0:0:0:0:
448,192,2677,1,0,0:0:0:0:
64,192,2892,1,0,0:0:0:0:
192,192,2892,1,0,0:0:0:0:
320,192,2892,1,0,0:0:0:0:
64,192,3106,1,0,0:0:0:0:
192,192,3106,1,0,0:0:0:0:
320,192,3106,1,0,0:0:0:0:
64,192,3320,1,0,0:0:0:0:
192,192,3320,1,0,0:0:0:0:
320,192,3320,1,0,0:0:0:0:
64,192,3534,1,0,0:0:0:0:
192,192,3534,1,0,0:0:0:0:
448,192,3534,1,0,0:0:0:0:
320,192,3588,1,0,0:0:0:0:
448,192,3642,1,0,0:0:0:0:
192,192,3642,1,0,0:0:0:0:
64,192,3695,1,0,0:0:0:0:
320,192,3695,1,0,0:0:0:0:
448,192,3749,1,0,0:0:0:0:
192,192,3749,1,0,0:0:0:0:
320,192,3802,1,0,0:0:0:0:
64,192,3856,1,0,0:0:0:0:
448,192,3856,1,0,0:0:0:0:
320,192,3909,1,0,0:0:0:0:
448,192,3963,1,0,0:0:0:0:
192,192,3963,1,0,0:0:0:0:
64,192,3963,1,0,0:0:0:0:
192,192,4820,1,0,0:0:0:0:
320,192,4820,1,0,0:0:0:0:
448,192,4820,1,0,0:0:0:0:
64,192,4874,1,0,0:0:0:0:
192,192,4927,1,0,0:0:0:0:
448,192,4927,1,0,0:0:0:0:
64,192,4981,1,0,0:0:0:0:
320,192,4981,1,0,0:0:0:0:
192,192,5034,1,0,0:0:0:0:
448,192,5034,1,0,0:0:0:0:
320,192,5088,1,0,0:0:0:0:
64,192,5142,1,0,0:0:0:0:
192,192,5142,1,0,0:0:0:0:
448,192,5142,1,0,0:0:0:0:
320,192,5195,1,0,0:0:0:0:
192,192,5249,1,0,0:0:0:0:
448,192,5249,1,0,0:0:0:0:
64,192,5302,1,0,0:0:0:0:
192,192,5356,1,0,0:0:0:0:
320,192,5409,1,0,0:0:0:0:
448,192,5409,1,0,0:0:0:0:
64,192,5463,1,0,0:0:0:0:
192,192,5517,1,0,0:0:0:0:
320,192,5517,1,0,0:0:0:0:
448,192,5570,1,0,0:0:0:0:
64,192,5570,1,0,0:0:0:0:
192,192,5606,1,0,0:0:0:0:
320,192,5642,1,0,0:0:0:0:
64,192,5677,1,0,0:0:0:0:
192,192,5677,1,0,0:0:0:0:
448,192,5677,1,0,0:0:0:0:
320,192,5731,1,0,0:0:0:0:
64,192,5784,1,0,0:0:0:0:
448,192,5784,1,0,0:0:0:0:
192,192,5838,1,0,0:0:0:0:
320,192,5838,1,0,0:0:0:0:
64,192,5892,1,0,0:0:0:0:
448,192,5892,1,0,0:0:0:0:
192,192,5945,1,0,0:0:0:0:
64,192,5999,1,0,0:0:0:0:
320,192,5999,1,0,0:0:0:0:
448,192,5999,1,0,0:0:0:0:
192,192,6052,1,0,0:0:0:0:
64,192,6106,1,0,0:0:0:0:
448,192,6106,1,0,0:0:0:0:
320,192,6106,1,0,0:0:0:0:
192,192,6159,1,0,0:0:0:0:
448,192,6213,1,0,0:0:0:0:
64,192,6213,1,0,0:0:0:0:
192,192,6267,1,0,0:0:0:0:
320,192,6320,1,0,0:0:0:0:
448,192,6320,1,0,0:0:0:0:
64,192,6374,1,0,0:0:0:0:
192,192,6427,1,0,0:0:0:0:
448,192,6427,1,0,0:0:0:0:
320,192,6481,1,0,0:0:0:0:
64,192,6534,1,0,0:0:0:0:
448,192,6534,1,0,0:0:0:0:
192,192,6534,1,0,0:0:0:0:
320,192,6588,1,0,0:0:0:0:
64,192,6642,1,0,0:0:0:0:
192,192,6642,1,0,0:0:0:0:
448,192,6695,1,0,0:0:0:0:
64,192,6749,1,0,0:0:0:0:
320,192,6749,1,0,0:0:0:0:
448,192,6802,1,0,0:0:0:0:
320,192,6856,1,0,0:0:0:0:
192,192,6856,1,0,0:0:0:0:
64,192,6856,1,0,0:0:0:0:
448,192,6909,1,0,0:0:0:0:
64,192,6963,1,0,0:0:0:0:
192,192,6963,1,0,0:0:0:0:
320,192,7017,1,0,0:0:0:0:
64,192,7070,1,0,0:0:0:0:
448,192,7070,1,0,0:0:0:0:
320,192,7124,1,0,0:0:0:0:
64,192,7177,1,0,0:0:0:0:
192,192,7177,1,0,0:0:0:0:
448,192,7177,1,0,0:0:0:0:
320,192,7231,1,0,0:0:0:0:
192,192,7284,1,0,0:0:0:0:
448,192,7284,1,0,0:0:0:0:
64,192,7338,1,0,0:0:0:0:
192,192,7392,1,0,0:0:0:0:
448,192,7392,1,0,0:0:0:0:
320,192,7392,1,0,0:0:0:0:
64,192,7445,1,0,0:0:0:0:
192,192,7499,1,0,0:0:0:0:
448,192,7499,1,0,0:0:0:0:
320,192,7552,1,0,0:0:0:0:
64,192,7606,1,0,0:0:0:0:
448,192,7606,1,0,0:0:0:0:
192,192,7659,1,0,0:0:0:0:
320,192,7713,1,0,0:0:0:0:
448,192,7713,1,0,0:0:0:0:
64,192,7713,1,0,0:0:0:0:
192,192,7767,1,0,0:0:0:0:
64,192,7820,1,0,0:0:0:0:
448,192,7820,1,0,0:0:0:0:
320,192,7874,1,0,0:0:0:0:
192,192,7927,1,0,0:0:0:0:
320,192,7981,1,0,0:0:0:0:
64,192,7981,1,0,0:0:0:0:
448,192,8034,1,0,0:0:0:0:
192,192,8088,1,0,0:0:0:0:
320,192,8088,1,0,0:0:0:0:
448,192,8142,1,0,0:0:0:0:
64,192,8142,1,0,0:0:0:0:
320,192,8195,1,0,0:0:0:0:
448,192,8249,1,0,0:0:0:0:
192,192,8249,1,0,0:0:0:0:
64,192,8249,1,0,0:0:0:0:
320,192,8302,1,0,0:0:0:0:
192,192,8356,1,0,0:0:0:0:
64,192,8356,1,0,0:0:0:0:
448,192,8409,1,0,0:0:0:0:
320,192,8463,1,0,0:0:0:0:
64,192,8463,1,0,0:0:0:0:
192,192,8517,1,0,0:0:0:0:
448,192,8570,1,0,0:0:0:0:
320,192,8570,1,0,0:0:0:0:
64,192,8570,1,0,0:0:0:0:
192,192,8624,1,0,0:0:0:0:
320,192,8677,1,0,0:0:0:0:
64,192,8677,1,0,0:0:0:0:
448,192,8731,1,0,0:0:0:0:
320,192,8784,1,0,0:0:0:0:
192,192,8838,1,0,0:0:0:0:
64,192,8838,1,0,0:0:0:0:
448,192,8892,1,0,0:0:0:0:
320,192,8945,1,0,0:0:0:0:
192,192,8945,1,0,0:0:0:0:
64,192,8999,1,0,0:0:0:0:
448,192,8999,1,0,0:0:0:0:
320,192,9034,1,0,0:0:0:0:
192,192,9070,1,0,0:0:0:0:
448,192,9106,1,0,0:0:0:0:
320,192,9106,1,0,0:0:0:0:
64,192,9106,1,0,0:0:0:0:
192,192,9159,1,0,0:0:0:0:
448,192,9213,1,0,0:0:0:0:
64,192,9213,1,0,0:0:0:0:
320,192,9267,1,0,0:0:0:0:
192,192,9267,1,0,0:0:0:0:
448,192,9320,1,0,0:0:0:0:
64,192,9320,1,0,0:0:0:0:
320,192,9374,1,0,0:0:0:0:
448,192,9427,1,0,0:0:0:0:
192,192,9427,1,0,0:0:0:0:
64,192,9427,1,0,0:0:0:0:
320,192,9481,1,0,0:0:0:0:
448,192,9534,1,0,0:0:0:0:
64,192,9534,1,0,0:0:0:0:
192,192,9534,1,0,0:0:0:0:
320,192,9588,1,0,0:0:0:0:
64,192,9642,1,0,0:0:0:0:
448,192,9642,1,0,0:0:0:0:
320,192,9695,1,0,0:0:0:0:
192,192,9749,1,0,0:0:0:0:
64,192,9749,1,0,0:0:0:0:
448,192,9802,1,0,0:0:0:0:
320,192,9856,1,0,0:0:0:0:
64,192,9856,1,0,0:0:0:0:
192,192,9909,1,0,0:0:0:0:
448,192,9963,1,0,0:0:0:0:
64,192,9963,1,0,0:0:0:0:
320,192,9963,1,0,0:0:0:0:
192,192,10017,1,0,0:0:0:0:
448,192,10070,1,0,0:0:0:0:
320,192,10070,1,0,0:0:0:0:
64,192,10124,1,0,0:0:0:0:
448,192,10177,1,0,0:0:0:0:
192,192,10177,1,0,0:0:0:0:
64,192,10231,1,0,0:0:0:0:
192,192,10284,1,0,0:0:0:0:
320,192,10284,1,0,0:0:0:0:
448,192,10284,1,0,0:0:0:0:
64,192,10338,1,0,0:0:0:0:
448,192,10392,1,0,0:0:0:0:
320,192,10392,1,0,0:0:0:0:
64,192,10445,1,0,0:0:0:0:
192,192,10445,1,0,0:0:0:0:
448,192,10499,1,0,0:0:0:0:
320,192,10499,1,0,0:0:0:0:
192,192,10552,1,0,0:0:0:0:
448,192,10606,1,0,0:0:0:0:
320,192,10606,1,0,0:0:0:0:
64,192,10606,1,0,0:0:0:0:
192,192,10659,1,0,0:0:0:0:
320,192,10713,1,0,0:0:0:0:
64,192,10713,1,0,0:0:0:0:
448,192,10767,1,0,0:0:0:0:
320,192,10820,1,0,0:0:0:0:
64,192,10820,1,0,0:0:0:0:
192,192,10820,1,0,0:0:0:0:
192,192,11034,1,0,0:0:0:0:
320,192,11034,1,0,0:0:0:0:
448,192,11034,1,0,0:0:0:0:
64,192,11249,1,0,0:0:0:0:
320,192,11249,1,0,0:0:0:0:
448,192,11249,1,0,0:0:0:0:
64,192,11463,1,0,0:0:0:0:
192,192,11463,1,0,0:0:0:0:
448,192,11463,1,0,0:0:0:0:
64,192,11677,1,0,0:0:0:0:
320,192,11677,1,0,0:0:0:0:
192,192,11677,1,0,0:0:0:0:
448,192,11677,1,0,0:0:0:0:
64,192,11892,1,0,0:0:0:0:
320,192,11892,1,0,0:0:0:0:
64,192,12106,1,0,0:0:0:0:
320,192,12106,1,0,0:0:0:0:
64,192,12320,1,0,0:0:0:0:
192,192,12320,1,0,0:0:0:0:
192,192,12534,1,0,0:0:0:0:
320,192,12534,1,0,0:0:0:0:
448,192,12534,1,0,0:0:0:0:
64,192,12642,1,0,0:0:0:0:
320,192,12642,1,0,0:0:0:0:
192,192,12749,1,0,0:0:0:0:
320,192,12749,1,0,0:0:0:0:
448,192,12749,1,0,0:0:0:0:
64,192,12856,1,0,0:0:0:0:
320,192,12856,1,0,0:0:0:0:
192,192,12963,1,0,0:0:0:0:
320,192,12963,1,0,0:0:0:0:
448,192,12963,1,0,0:0:0:0:
448,192,13070,1,0,0:0:0:0:
64,192,13070,1,0,0:0:0:0:
192,192,13124,1,0,0:0:0:0:
320,192,13177,1,0,0:0:0:0:
64,192,13177,1,0,0:0:0:0:
448,192,13177,1,0,0:0:0:0:
448,192,13284,1,0,0:0:0:0:
64,192,13284,1,0,0:0:0:0:
192,192,13284,1,0,0:0:0:0:
192,192,13392,1,0,0:0:0:0:
320,192,13392,1,0,0:0:0:0:
448,192,13392,1,0,0:0:0:0:
64,192,13392,1,0,0:0:0:0:
64,192,13606,1,0,0:0:0:0:
192,192,13606,1,0,0:0:0:0:
320,192,13606,1,0,0:0:0:0:
64,192,13820,1,0,0:0:0:0:
192,192,13820,1,0,0:0:0:0:
448,192,13820,1,0,0:0:0:0:
64,192,14034,1,0,0:0:0:0:
320,192,14034,1,0,0:0:0:0:
448,192,14034,1,0,0:0:0:0:
192,192,14034,1,0,0:0:0:0:
64,192,14249,1,0,0:0:0:0:
192,192,14249,1,0,0:0:0:0:
320,192,14249,1,0,0:0:0:0:
64,192,14463,1,0,0:0:0:0:
320,192,14463,1,0,0:0:0:0:
448,192,14463,1,0,0:0:0:0:
192,192,14677,1,0,0:0:0:0:
448,192,14677,1,0,0:0:0:0:
320,192,14677,1,0,0:0:0:0:
64,192,14731,1,0,0:0:0:0:
448,192,14784,1,0,0:0:0:0:
192,192,14784,1,0,0:0:0:0:
320,192,14838,1,0,0:0:0:0:
64,192,14892,1,0,0:0:0:0:
192,192,14892,1,0,0:0:0:0:
448,192,14945,1,0,0:0:0:0:
64,192,14999,1,0,0:0:0:0:
192,192,14999,1,0,0:0:0:0:
320,192,15052,1,0,0:0:0:0:
64,192,15106,1,0,0:0:0:0:
448,192,15106,1,0,0:0:0:0:
192,192,15106,1,0,0:0:0:0:
64,192,15320,1,0,0:0:0:0:
320,192,15320,1,0,0:0:0:0:
64,192,15534,1,0,0:0:0:0:
448,192,15534,1,0,0:0:0:0:
448,192,15749,1,0,0:0:0:0:
192,192,15749,1,0,0:0:0:0:
64,192,15749,1,0,0:0:0:0:
320,192,15856,1,0,0:0:0:0:
192,192,15856,1,0,0:0:0:0:
448,192,15963,1,0,0:0:0:0:
192,192,15963,1,0,0:0:0:0:
64,192,15963,1,0,0:0:0:0:
320,192,15963,1,0,0:0:0:0:
448,192,16070,1,0,0:0:0:0:
64,192,16070,1,0,0:0:0:0:
320,192,16070,1,0,0:0:0:0:
320,192,16284,1,0,0:0:0:0:
64,192,16284,1,0,0:0:0:0:
448,192,16392,1,0,0:0:0:0:
192,192,16392,1,0,0:0:0:0:
64,192,16392,1,0,0:0:0:0:
64,192,16606,1,0,0:0:0:0:
320,192,16606,1,0,0:0:0:0:
192,192,16606,1,0,0:0:0:0:
64,192,16820,1,0,0:0:0:0:
448,192,16820,1,0,0:0:0:0:
320,192,16820,1,0,0:0:0:0:
192,192,16927,1,0,0:0:0:0:
320,192,16927,1,0,0:0:0:0:
448,192,16927,1,0,0:0:0:0:
64,192,16927,1,0,0:0:0:0:
192,192,17142,1,0,0:0:0:0:
320,192,17142,1,0,0:0:0:0:
448,192,17142,1,0,0:0:0:0:
64,192,17249,1,0,0:0:0:0:
192,192,17249,1,0,0:0:0:0:
320,192,17249,1,0,0:0:0:0:
448,192,17249,1,0,0:0:0:0:
64,192,17463,1,0,0:0:0:0:
448,192,17463,1,0,0:0:0:0:
192,192,17463,1,0,0:0:0:0:
320,192,17570,1,0,0:0:0:0:
192,192,17570,1,0,0:0:0:0:
448,192,17570,1,0,0:0:0:0:
64,192,17677,1,0,0:0:0:0:
192,192,17677,1,0,0:0:0:0:
320,192,17677,1,0,0:0:0:0:
448,192,17731,1,0,0:0:0:0:
64,192,17784,1,0,0:0:0:0:
320,192,17784,1,0,0:0:0:0:
448,192,17838,1,0,0:0:0:0:
192,192,17892,1,0,0:0:0:0:
64,192,17892,1,0,0:0:0:0:
320,192,17945,1,0,0:0:0:0:
192,192,17999,1,0,0:0:0:0:
448,192,17999,1,0,0:0:0:0:
64,192,18052,1,0,0:0:0:0:
448,192,18106,1,0,0:0:0:0:
192,192,18106,1,0,0:0:0:0:
320,192,18159,1,0,0:0:0:0:
448,192,18213,1,0,0:0:0:0:
192,192,18213,1,0,0:0:0:0:
64,192,18267,1,0,0:0:0:0:
192,192,18320,1,0,0:0:0:0:
448,192,18320,1,0,0:0:0:0:
64,192,18374,1,0,0:0:0:0:
320,192,18427,1,0,0:0:0:0:
192,192,18427,1,0,0:0:0:0:
448,192,18481,1,0,0:0:0:0:
64,192,18534,1,0,0:0:0:0:
192,192,18534,1,0,0:0:0:0:
320,192,18534,1,0,0:0:0:0:
448,192,18749,1,0,0:0:0:0:
320,192,18749,1,0,0:0:0:0:
192,192,18749,1,0,0:0:0:0:
320,192,18856,1,0,0:0:0:0:
64,192,18856,1,0,0:0:0:0:
192,192,18963,1,0,0:0:0:0:
448,192,18963,1,0,0:0:0:0:
64,192,18963,1,0,0:0:0:0:
64,192,19070,1,0,0:0:0:0:
192,192,19070,1,0,0:0:0:0:
448,192,19177,1,0,0:0:0:0:
320,192,19177,1,0,0:0:0:0:
64,192,19177,1,0,0:0:0:0:
320,192,19284,1,0,0:0:0:0:
192,192,19284,1,0,0:0:0:0:
64,192,19392,128,0,20088:0:0:0:0:
192,192,19392,1,0,0:0:0:0:
448,192,19392,1,0,0:0:0:0:
320,192,19392,1,0,0:0:0:0:
192,192,19606,1,0,0:0:0:0:
320,192,19606,1,0,0:0:0:0:
192,192,19820,1,0,0:0:0:0:
320,192,19820,1,0,0:0:0:0:
448,192,19820,1,0,0:0:0:0:
448,192,19927,1,0,0:0:0:0:
192,192,19927,1,0,0:0:0:0:
192,192,20034,1,0,0:0:0:0:
320,192,20034,1,0,0:0:0:0:
64,192,20142,1,0,0:0:0:0:
320,192,20142,1,0,0:0:0:0:
448,192,20142,1,0,0:0:0:0:
192,192,20249,1,0,0:0:0:0:
448,192,20249,1,0,0:0:0:0:
320,192,20249,1,0,0:0:0:0:
448,192,20463,1,0,0:0:0:0:
320,192,20463,1,0,0:0:0:0:
192,192,20463,1,0,0:0:0:0:
64,192,20570,1,0,0:0:0:0:
192,192,20570,1,0,0:0:0:0:
448,192,20677,1,0,0:0:0:0:
320,192,20677,1,0,0:0:0:0:
64,192,20677,1,0,0:0:0:0:
320,192,20784,1,0,0:0:0:0:
192,192,20784,1,0,0:0:0:0:
192,192,20892,1,0,0:0:0:0:
448,192,20892,1,0,0:0:0:0:
64,192,20999,1,0,0:0:0:0:
320,192,20999,1,0,0:0:0:0:
192,192,20999,1,0,0:0:0:0:
448,192,21106,1,0,0:0:0:0:
64,192,21106,1,0,0:0:0:0:
320,192,21106,1,0,0:0:0:0:
320,192,21320,1,0,0:0:0:0:
192,192,21320,1,0,0:0:0:0:
448,192,21320,1,0,0:0:0:0:
320,192,21427,1,0,0:0:0:0:
192,192,21427,1,0,0:0:0:0:
448,192,21427,1,0,0:0:0:0:
320,192,21534,1,0,0:0:0:0:
64,192,21534,1,0,0:0:0:0:
192,192,21534,1,0,0:0:0:0:
448,192,21534,1,0,0:0:0:0:
192,192,21749,1,0,0:0:0:0:
448,192,21749,1,0,0:0:0:0:
320,192,21749,1,0,0:0:0:0:
448,192,21963,1,0,0:0:0:0:
64,192,21963,1,0,0:0:0:0:
192,192,21963,1,0,0:0:0:0:
192,192,22177,1,0,0:0:0:0:
448,192,22177,1,0,0:0:0:0:
320,192,22177,1,0,0:0:0:0:
64,192,22392,1,0,0:0:0:0:
320,192,22392,1,0,0:0:0:0:
192,192,22392,1,0,0:0:0:0:
448,192,22392,1,0,0:0:0:0:
448,192,22820,1,0,0:0:0:0:
192,192,22820,1,0,0:0:0:0:
320,192,22820,1,0,0:0:0:0:
64,192,23034,1,0,0:0:0:0:
320,192,23034,1,0,0:0:0:0:
448,192,23034,1,0,0:0:0:0:
192,192,23034,1,0,0:0:0:0:
320,192,23142,1,0,0:0:0:0:
192,192,23142,1,0,0:0:0:0:
192,192,23249,1,0,0:0:0:0:
448,192,23249,1,0,0:0:0:0:
64,192,23249,1,0,0:0:0:0:
64,192,23463,1,0,0:0:0:0:
320,192,23463,1,0,0:0:0:0:
192,192,23463,1,0,0:0:0:0:
64,192,23677,1,0,0:0:0:0:
192,192,23677,1,0,0:0:0:0:
448,192,23677,1,0,0:0:0:0:
192,192,23892,1,0,0:0:0:0:
448,192,23892,1,0,0:0:0:0:
64,192,23892,1,0,0:0:0:0:
320,192,23892,1,0,0:0:0:0:
64,192,23999,1,0,0:0:0:0:
320,192,23999,1,0,0:0:0:0:
320,192,24106,1,0,0:0:0:0:
192,192,24106,1,0,0:0:0:0:
448,192,24106,1,0,0:0:0:0:
64,192,24213,1,0,0:0:0:0:
192,192,24213,1,0,0:0:0:0:
320,192,24213,1,0,0:0:0:0:
192,192,24320,128,0,24481:0:0:0:0:
448,192,24320,128,0,24481:0:0:0:0:
64,192,24427,128,0,24481:0:0:0:0:
320,192,24427,128,0,24481:0:0:0:0:
64,192,24534,1,0,0:0:0:0:
192,192,24534,1,0,0:0:0:0:
448,192,24534,1,0,0:0:0:0:
320,192,24534,1,0,0:0:0:0:
64,192,24749,1,0,0:0:0:0:
192,192,24749,1,0,0:0:0:0:
320,192,24749,1,0,0:0:0:0:
64,192,24856,1,0,0:0:0:0:
448,192,24856,1,0,0:0:0:0:
192,192,24909,1,0,0:0:0:0:
320,192,24963,1,0,0:0:0:0:
448,192,24963,1,0,0:0:0:0:
64,192,24963,1,0,0:0:0:0:
192,192,25070,1,0,0:0:0:0:
320,192,25070,1,0,0:0:0:0:
64,192,25070,1,0,0:0:0:0:
448,192,25177,1,0,0:0:0:0:
192,192,25177,1,0,0:0:0:0:
64,192,25177,1,0,0:0:0:0:
320,192,25231,1,0,0:0:0:0:
192,192,25284,1,0,0:0:0:0:
64,192,25284,1,0,0:0:0:0:
320,192,25338,1,0,0:0:0:0:
448,192,25392,1,0,0:0:0:0:
192,192,25392,1,0,0:0:0:0:
64,192,25392,1,0,0:0:0:0:
192,192,25499,1,0,0:0:0:0:
320,192,25499,1,0,0:0:0:0:
448,192,25499,1,0,0:0:0:0:
64,192,25606,1,0,0:0:0:0:
320,192,25606,1,0,0:0:0:0:
448,192,25606,1,0,0:0:0:0:
192,192,25659,1,0,0:0:0:0:
320,192,25713,1,0,0:0:0:0:
448,192,25713,1,0,0:0:0:0:
192,192,25767,1,0,0:0:0:0:
64,192,25820,1,0,0:0:0:0:
448,192,25820,1,0,0:0:0:0:
320,192,25820,1,0,0:0:0:0:
192,192,25874,1,0,0:0:0:0:
64,192,25927,1,0,0:0:0:0:
448,192,25927,1,0,0:0:0:0:
320,192,25981,1,0,0:0:0:0:
192,192,26034,1,0,0:0:0:0:
64,192,26034,1,0,0:0:0:0:
448,192,26034,1,0,0:0:0:0:
448,192,26142,1,0,0:0:0:0:
192,192,26142,1,0,0:0:0:0:
320,192,26142,1,0,0:0:0:0:
320,192,26249,1,0,0:0:0:0:
448,192,26249,1,0,0:0:0:0:
64,192,26249,1,0,0:0:0:0:
192,192,26302,1,0,0:0:0:0:
64,192,26356,1,0,0:0:0:0:
448,192,26356,1,0,0:0:0:0:
320,192,26409,1,0,0:0:0:0:
64,192,26463,1,0,0:0:0:0:
192,192,26463,1,0,0:0:0:0:
448,192,26463,1,0,0:0:0:0:
320,192,26517,1,0,0:0:0:0:
192,192,26570,1,0,0:0:0:0:
64,192,26570,1,0,0:0:0:0:
448,192,26624,1,0,0:0:0:0:
64,192,26677,1,0,0:0:0:0:
320,192,26677,1,0,0:0:0:0:
192,192,26677,1,0,0:0:0:0:
448,192,26731,1,0,0:0:0:0:
320,192,26784,1,0,0:0:0:0:
64,192,26784,1,0,0:0:0:0:
192,192,26838,1,0,0:0:0:0:
320,192,26892,1,0,0:0:0:0:
448,192,26892,1,0,0:0:0:0:
64,192,26892,1,0,0:0:0:0:
192,192,26945,1,0,0:0:0:0:
448,192,26999,1,0,0:0:0:0:
320,192,26999,1,0,0:0:0:0:
64,192,27052,1,0,0:0:0:0:
192,192,27106,1,0,0:0:0:0:
320,192,27106,1,0,0:0:0:0:
448,192,27106,1,0,0:0:0:0:
64,192,27159,1,0,0:0:0:0:
192,192,27213,1,0,0:0:0:0:
320,192,27213,1,0,0:0:0:0:
448,192,27267,1,0,0:0:0:0:
64,192,27320,1,0,0:0:0:0:
192,192,27320,1,0,0:0:0:0:
320,192,27320,1,0,0:0:0:0:
448,192,27374,1,0,0:0:0:0:
64,192,27427,1,0,0:0:0:0:
192,192,27427,1,0,0:0:0:0:
320,192,27481,1,0,0:0:0:0:
192,192,27534,1,0,0:0:0:0:
448,192,27534,1,0,0:0:0:0:
64,192,27534,1,0,0:0:0:0:
320,192,27588,1,0,0:0:0:0:
448,192,27642,1,0,0:0:0:0:
192,192,27642,1,0,0:0:0:0:
64,192,27695,1,0,0:0:0:0:
320,192,27749,1,0,0:0:0:0:
448,192,27749,1,0,0:0:0:0:
192,192,27749,1,0,0:0:0:0:
64,192,27802,1,0,0:0:0:0:
448,192,27856,1,0,0:0:0:0:
320,192,27856,1,0,0:0:0:0:
192,192,27909,1,0,0:0:0:0:
64,192,27963,1,0,0:0:0:0:
320,192,27963,1,0,0:0:0:0:
448,192,27963,1,0,0:0:0:0:
192,192,28017,1,0,0:0:0:0:
64,192,28070,1,0,0:0:0:0:
320,192,28070,1,0,0:0:0:0:
448,192,28124,1,0,0:0:0:0:
64,192,28177,1,0,0:0:0:0:
192,192,28177,1,0,0:0:0:0:
320,192,28177,1,0,0:0:0:0:
448,192,28231,1,0,0:0:0:0:
64,192,28284,1,0,0:0:0:0:
192,192,28284,1,0,0:0:0:0:
320,192,28338,1,0,0:0:0:0:
64,192,28392,1,0,0:0:0:0:
192,192,28392,1,0,0:0:0:0:
448,192,28392,1,0,0:0:0:0:
320,192,28445,1,0,0:0:0:0:
64,192,28499,1,0,0:0:0:0:
448,192,28499,1,0,0:0:0:0:
192,192,28552,1,0,0:0:0:0:
64,192,28606,1,0,0:0:0:0:
320,192,28606,1,0,0:0:0:0:
448,192,28606,1,0,0:0:0:0:
192,192,28659,1,0,0:0:0:0:
320,192,28713,1,0,0:0:0:0:
448,192,28713,1,0,0:0:0:0:
64,192,28767,1,0,0:0:0:0:
320,192,28820,1,0,0:0:0:0:
448,192,28820,1,0,0:0:0:0:
192,192,28820,1,0,0:0:0:0:
64,192,28874,1,0,0:0:0:0:
192,192,28927,1,0,0:0:0:0:
448,192,28927,1,0,0:0:0:0:
320,192,28981,1,0,0:0:0:0:
64,192,29034,1,0,0:0:0:0:
192,192,29034,1,0,0:0:0:0:
448,192,29034,1,0,0:0:0:0:
320,192,29088,1,0,0:0:0:0:
192,192,29142,1,0,0:0:0:0:
64,192,29142,1,0,0:0:0:0:
448,192,29195,1,0,0:0:0:0:
64,192,29249,1,0,0:0:0:0:
192,192,29249,1,0,0:0:0:0:
320,192,29249,1,0,0:0:0:0:
64,192,29463,1,0,0:0:0:0:
192,192,29463,1,0,0:0:0:0:
448,192,29463,1,0,0:0:0:0:
320,192,29517,1,0,0:0:0:0:
192,192,29570,1,0,0:0:0:0:
64,192,29570,1,0,0:0:0:0:
448,192,29624,1,0,0:0:0:0:
64,192,29677,1,0,0:0:0:0:
320,192,29677,1,0,0:0:0:0:
192,192,29677,1,0,0:0:0:0:
448,192,29731,1,0,0:0:0:0:
320,192,29784,1,0,0:0:0:0:
192,192,29784,1,0,0:0:0:0:
64,192,29838,1,0,0:0:0:0:
192,192,29892,1,0,0:0:0:0:
448,192,29892,1,0,0:0:0:0:
320,192,29892,1,0,0:0:0:0:
64,192,29945,1,0,0:0:0:0:
320,192,29999,1,0,0:0:0:0:
448,192,29999,1,0,0:0:0:0:
192,192,30052,1,0,0:0:0:0:
64,192,30106,1,0,0:0:0:0:
320,192,30106,1,0,0:0:0:0:
448,192,30106,1,0,0:0:0:0:
192,192,30159,1,0,0:0:0:0:
320,192,30213,1,0,0:0:0:0:
64,192,30213,1,0,0:0:0:0:
448,192,30267,1,0,0:0:0:0:
64,192,30320,1,0,0:0:0:0:
192,192,30320,1,0,0:0:0:0:
320,192,30320,1,0,0:0:0:0:
448,192,30374,1,0,0:0:0:0:
64,192,30427,1,0,0:0:0:0:
192,192,30427,1,0,0:0:0:0:
320,192,30481,1,0,0:0:0:0:
64,192,30534,1,0,0:0:0:0:
192,192,30534,1,0,0:0:0:0:
448,192,30534,1,0,0:0:0:0:
320,192,30588,1,0,0:0:0:0:
64,192,30642,1,0,0:0:0:0:
448,192,30642,1,0,0:0:0:0:
192,192,30695,1,0,0:0:0:0:
64,192,30749,1,0,0:0:0:0:
320,192,30749,1,0,0:0:0:0:
448,192,30749,1,0,0:0:0:0:
192,192,30802,1,0,0:0:0:0:
320,192,30856,1,0,0:0:0:0:
448,192,30856,1,0,0:0:0:0:
64,192,30909,1,0,0:0:0:0:
192,192,30963,1,0,0:0:0:0:
448,192,30963,1,0,0:0:0:0:
320,192,30963,1,0,0:0:0:0:
320,192,31177,1,0,0:0:0:0:
64,192,31177,1,0,0:0:0:0:
192,192,31177,1,0,0:0:0:0:
448,192,31231,1,0,0:0:0:0:
64,192,31284,1,0,0:0:0:0:
320,192,31284,1,0,0:0:0:0:
192,192,31338,1,0,0:0:0:0:
64,192,31392,1,0,0:0:0:0:
320,192,31392,1,0,0:0:0:0:
448,192,31392,1,0,0:0:0:0:
192,192,31445,1,0,0:0:0:0:
320,192,31499,1,0,0:0:0:0:
448,192,31499,1,0,0:0:0:0:
64,192,31552,1,0,0:0:0:0:
192,192,31606,1,0,0:0:0:0:
448,192,31606,1,0,0:0:0:0:
320,192,31606,1,0,0:0:0:0:
64,192,31659,1,0,0:0:0:0:
192,192,31713,1,0,0:0:0:0:
320,192,31713,1,0,0:0:0:0:
448,192,31767,1,0,0:0:0:0:
192,192,31820,1,0,0:0:0:0:
320,192,31820,1,0,0:0:0:0:
64,192,31820,1,0,0:0:0:0:
448,192,31874,1,0,0:0:0:0:
64,192,31927,1,0,0:0:0:0:
192,192,31927,1,0,0:0:0:0:
320,192,31981,1,0,0:0:0:0:
64,192,32034,1,0,0:0:0:0:
448,192,32034,1,0,0:0:0:0:
192,192,32034,1,0,0:0:0:0:
320,192,32088,1,0,0:0:0:0:
192,192,32142,1,0,0:0:0:0:
448,192,32142,1,0,0:0:0:0:
64,192,32195,1,0,0:0:0:0:
320,192,32249,1,0,0:0:0:0:
448,192,32249,1,0,0:0:0:0:
192,192,32249,1,0,0:0:0:0:
64,192,32302,1,0,0:0:0:0:
192,192,32356,1,0,0:0:0:0:
320,192,32356,1,0,0:0:0:0:
448,192,32356,1,0,0:0:0:0:
64,192,32409,1,0,0:0:0:0:
320,192,32463,1,0,0:0:0:0:
448,192,32463,1,0,0:0:0:0:
192,192,32463,1,0,0:0:0:0:
64,192,32677,1,0,0:0:0:0:
192,192,32677,1,0,0:0:0:0:
320,192,32677,1,0,0:0:0:0:
448,192,32677,1,0,0:0:0:0:
448,192,32892,1,0,0:0:0:0:
192,192,32892,1,0,0:0:0:0:
64,192,32892,1,0,0:0:0:0:
320,192,32945,1,0,0:0:0:0:
192,192,32999,1,0,0:0:0:0:
448,192,32999,1,0,0:0:0:0:
64,192,33052,1,0,0:0:0:0:
448,192,33106,1,0,0:0:0:0:
320,192,33106,1,0,0:0:0:0:
192,192,33106,1,0,0:0:0:0:
64,192,33159,1,0,0:0:0:0:
192,192,33213,1,0,0:0:0:0:
320,192,33213,1,0,0:0:0:0:
448,192,33267,1,0,0:0:0:0:
64,192,33320,1,0,0:0:0:0:
192,192,33320,1,0,0:0:0:0:
320,192,33320,1,0,0:0:0:0:
448,192,33374,1,0,0:0:0:0:
64,192,33427,1,0,0:0:0:0:
320,192,33427,1,0,0:0:0:0:
192,192,33481,1,0,0:0:0:0:
64,192,33534,1,0,0:0:0:0:
320,192,33534,1,0,0:0:0:0:
448,192,33534,1,0,0:0:0:0:
192,192,33588,1,0,0:0:0:0:
320,192,33642,1,0,0:0:0:0:
448,192,33642,1,0,0:0:0:0:
64,192,33695,1,0,0:0:0:0:
192,192,33749,1,0,0:0:0:0:
320,192,33749,1,0,0:0:0:0:
448,192,33749,1,0,0:0:0:0:
64,192,33802,1,0,0:0:0:0:
192,192,33856,1,0,0:0:0:0:
448,192,33856,1,0,0:0:0:0:
320,192,33909,1,0,0:0:0:0:
448,192,33963,1,0,0:0:0:0:
64,192,33963,1,0,0:0:0:0:
192,192,33963,1,0,0:0:0:0:
320,192,34017,1,0,0:0:0:0:
64,192,34070,1,0,0:0:0:0:
448,192,34070,1,0,0:0:0:0:
192,192,34124,1,0,0:0:0:0:
64,192,34177,1,0,0:0:0:0:
320,192,34177,1,0,0:0:0:0:
448,192,34177,1,0,0:0:0:0:
192,192,34231,1,0,0:0:0:0:
320,192,34284,1,0,0:0:0:0:
64,192,34284,1,0,0:0:0:0:
448,192,34338,1,0,0:0:0:0:
192,192,34392,1,0,0:0:0:0:
64,192,34392,1,0,0:0:0:0:
320,192,34392,1,0,0:0:0:0:
448,192,34445,1,0,0:0:0:0:
192,192,34499,1,0,0:0:0:0:
320,192,34499,1,0,0:0:0:0:
64,192,34552,1,0,0:0:0:0:
192,192,34606,1,0,0:0:0:0:
320,192,34606,1,0,0:0:0:0:
448,192,34606,1,0,0:0:0:0:
64,192,34659,1,0,0:0:0:0:
320,192,34713,1,0,0:0:0:0:
448,192,34713,1,0,0:0:0:0:
192,192,34767,1,0,0:0:0:0:
320,192,34820,1,0,0:0:0:0:
64,192,34820,1,0,0:0:0:0:
448,192,34820,1,0,0:0:0:0:
192,192,34874,1,0,0:0:0:0:
320,192,34927,1,0,0:0:0:0:
64,192,34927,1,0,0:0:0:0:
448,192,34981,1,0,0:0:0:0:
64,192,35034,1,0,0:0:0:0:
192,192,35034,1,0,0:0:0:0:
320,192,35034,1,0,0:0:0:0:
448,192,35088,1,0,0:0:0:0:
192,192,35142,1,0,0:0:0:0:
64,192,35142,1,0,0:0:0:0:
320,192,35195,1,0,0:0:0:0:
192,192,35249,1,0,0:0:0:0:
64,192,35249,1,0,0:0:0:0:
448,192,35249,1,0,0:0:0:0:
320,192,35302,1,0,0:0:0:0:
64,192,35356,1,0,0:0:0:0:
448,192,35356,1,0,0:0:0:0:
192,192,35409,1,0,0:0:0:0:
64,192,35463,1,0,0:0:0:0:
448,192,35463,1,0,0:0:0:0:
320,192,35463,1,0,0:0:0:0:
192,192,35517,1,0,0:0:0:0:
320,192,35570,1,0,0:0:0:0:
448,192,35570,1,0,0:0:0:0:
64,192,35624,1,0,0:0:0:0:
192,192,35677,1,0,0:0:0:0:
320,192,35677,1,0,0:0:0:0:
448,192,35677,1,0,0:0:0:0:
64,192,35731,1,0,0:0:0:0:
320,192,35784,1,0,0:0:0:0:
448,192,35784,1,0,0:0:0:0:
192,192,35838,1,0,0:0:0:0:
64,192,35892,1,0,0:0:0:0:
320,192,35892,1,0,0:0:0:0:
448,192,35892,1,0,0:0:0:0:
320,192,36106,1,0,0:0:0:0:
192,192,36106,1,0,0:0:0:0:
64,192,36106,1,0,0:0:0:0:
448,192,36159,1,0,0:0:0:0:
64,192,36213,1,0,0:0:0:0:
192,192,36213,1,0,0:0:0:0:
320,192,36267,1,0,0:0:0:0:
448,192,36320,1,0,0:0:0:0:
192,192,36320,1,0,0:0:0:0:
64,192,36320,1,0,0:0:0:0:
320,192,36374,1,0,0:0:0:0:
192,192,36427,1,0,0:0:0:0:
448,192,36427,1,0,0:0:0:0:
64,192,36481,1,0,0:0:0:0:
448,192,36534,1,0,0:0:0:0:
320,192,36534,1,0,0:0:0:0:
192,192,36534,1,0,0:0:0:0:
64,192,36588,1,0,0:0:0:0:
320,192,36642,1,0,0:0:0:0:
448,192,36642,1,0,0:0:0:0:
192,192,36695,1,0,0:0:0:0:
64,192,36749,1,0,0:0:0:0:
320,192,36749,1,0,0:0:0:0:
448,192,36749,1,0,0:0:0:0:
192,192,36802,1,0,0:0:0:0:
448,192,36856,1,0,0:0:0:0:
64,192,36856,1,0,0:0:0:0:
320,192,36909,1,0,0:0:0:0:
448,192,36963,1,0,0:0:0:0:
192,192,36963,1,0,0:0:0:0:
64,192,36963,1,0,0:0:0:0:
320,192,37017,1,0,0:0:0:0:
64,192,37070,1,0,0:0:0:0:
192,192,37070,1,0,0:0:0:0:
448,192,37124,1,0,0:0:0:0:
64,192,37177,1,0,0:0:0:0:
192,192,37177,1,0,0:0:0:0:
320,192,37177,1,0,0:0:0:0:
448,192,37231,1,0,0:0:0:0:
64,192,37284,1,0,0:0:0:0:
320,192,37284,1,0,0:0:0:0:
192,192,37338,1,0,0:0:0:0:
320,192,37392,1,0,0:0:0:0:
64,192,37392,1,0,0:0:0:0:
448,192,37392,1,0,0:0:0:0:
192,192,37445,1,0,0:0:0:0:
64,192,37499,1,0,0:0:0:0:
320,192,37499,1,0,0:0:0:0:
448,192,37552,1,0,0:0:0:0:
320,192,37606,1,0,0:0:0:0:
64,192,37606,1,0,0:0:0:0:
192,192,37606,1,0,0:0:0:0:
448,192,37820,1,0,0:0:0:0:
192,192,37820,1,0,0:0:0:0:
320,192,37820,1,0,0:0:0:0:
64,192,37820,1,0,0:0:0:0:
320,192,38034,1,0,0:0:0:0:
192,192,38034,1,0,0:0:0:0:
448,192,38034,1,0,0:0:0:0:
64,192,38088,1,0,0:0:0:0:
192,192,38142,1,0,0:0:0:0:
448,192,38142,1,0,0:0:0:0:
320,192,38195,1,0,0:0:0:0:
64,192,38249,1,0,0:0:0:0:
192,192,38249,1,0,0:0:0:0:
448,192,38249,1,0,0:0:0:0:
320,192,38302,1,0,0:0:0:0:
64,192,38356,1,0,0:0:0:0:
192,192,38356,1,0,0:0:0:0:
448,192,38409,1,0,0:0:0:0:
64,192,38463,1,0,0:0:0:0:
320,192,38463,1,0,0:0:0:0:
192,192,38463,1,0,0:0:0:0:
448,192,38517,1,0,0:0:0:0:
64,192,38570,1,0,0:0:0:0:
320,192,38570,1,0,0:0:0:0:
192,192,38624,1,0,0:0:0:0:
320,192,38677,1,0,0:0:0:0:
448,192,38677,1,0,0:0:0:0:
64,192,38677,1,0,0:0:0:0:
192,192,38731,1,0,0:0:0:0:
320,192,38784,1,0,0:0:0:0:
448,192,38784,1,0,0:0:0:0:
64,192,38838,1,0,0:0:0:0:
192,192,38892,1,0,0:0:0:0:
320,192,38892,1,0,0:0:0:0:
448,192,38892,1,0,0:0:0:0:
64,192,38945,1,0,0:0:0:0:
192,192,38999,1,0,0:0:0:0:
448,192,38999,1,0,0:0:0:0:
320,192,39052,1,0,0:0:0:0:
64,192,39106,1,0,0:0:0:0:
448,192,39106,1,0,0:0:0:0:
192,192,39106,1,0,0:0:0:0:
320,192,39159,1,0,0:0:0:0:
192,192,39213,1,0,0:0:0:0:
448,192,39213,1,0,0:0:0:0:
64,192,39213,1,0,0:0:0:0:
320,192,39267,1,0,0:0:0:0:
448,192,39320,1,0,0:0:0:0:
64,192,39320,1,0,0:0:0:0:
192,192,39320,1,0,0:0:0:0:
64,192,39534,1,0,0:0:0:0:
192,192,39534,1,0,0:0:0:0:
320,192,39534,1,0,0:0:0:0:
192,192,39749,1,0,0:0:0:0:
320,192,39749,1,0,0:0:0:0:
448,192,39749,1,0,0:0:0:0:
64,192,39963,1,0,0:0:0:0:
192,192,39963,1,0,0:0:0:0:
448,192,39963,1,0,0:0:0:0:
320,192,39963,1,0,0:0:0:0:
64,192,40177,1,0,0:0:0:0:
320,192,40177,1,0,0:0:0:0:
192,192,40177,1,0,0:0:0:0:
64,192,40284,1,0,0:0:0:0:
320,192,40284,1,0,0:0:0:0:
448,192,40284,1,0,0:0:0:0:
64,192,40392,1,0,0:0:0:0:
320,192,40392,1,0,0:0:0:0:
192,192,40392,1,0,0:0:0:0:
64,192,40606,1,0,0:0:0:0:
448,192,40606,1,0,0:0:0:0:
192,192,40606,1,0,0:0:0:0:
64,192,40820,1,0,0:0:0:0:
192,192,40820,1,0,0:0:0:0:
320,192,40820,1,0,0:0:0:0:
448,192,40820,1,0,0:0:0:0:
192,192,41249,128,0,41624:0:0:0:0:
320,192,41249,128,0,41624:0:0:0:0:
448,192,41249,1,0,0:0:0:0:
64,192,41249,1,0,0:0:0:0:
64,192,41463,1,0,0:0:0:0:
448,192,41463,1,0,0:0:0:0:
448,192,41677,1,0,0:0:0:0:
192,192,41677,1,0,0:0:0:0:
64,192,41677,1,0,0:0:0:0:
64,192,41892,1,0,0:0:0:0:
448,192,41892,1,0,0:0:0:0:
320,192,41892,1,0,0:0:0:0:
64,192,41999,1,0,0:0:0:0:
448,192,41999,1,0,0:0:0:0:
192,192,41999,1,0,0:0:0:0:
64,192,42106,1,0,0:0:0:0:
448,192,42106,1,0,0:0:0:0:
320,192,42106,1,0,0:0:0:0:
64,192,42320,1,0,0:0:0:0:
192,192,42320,1,0,0:0:0:0:
448,192,42320,1,0,0:0:0:0:
64,192,42534,1,0,0:0:0:0:
192,192,42534,1,0,0:0:0:0:
320,192,42534,1,0,0:0:0:0:
448,192,42534,1,0,0:0:0:0:
192,192,42963,128,0,43338:0:0:0:0:
64,192,42963,1,0,0:0:0:0:
448,192,42963,1,0,0:0:0:0:
320,192,42963,1,0,0:0:0:0:
64,192,43177,1,0,0:0:0:0:
320,192,43177,1,0,0:0:0:0:
448,192,43177,1,0,0:0:0:0:
192,192,43392,1,0,0:0:0:0:
448,192,43392,1,0,0:0:0:0:
64,192,43392,1,0,0:0:0:0:
320,192,43392,1,0,0:0:0:0:
64,192,43606,1,0,0:0:0:0:
192,192,43606,1,0,0:0:0:0:
320,192,43606,1,0,0:0:0:0:
64,192,43713,1,0,0:0:0:0:
448,192,43713,1,0,0:0:0:0:
320,192,43713,1,0,0:0:0:0:
192,192,43820,1,0,0:0:0:0:
320,192,43820,1,0,0:0:0:0:
448,192,43820,1,0,0:0:0:0:
64,192,43820,1,0,0:0:0:0:
64,192,44034,1,0,0:0:0:0:
320,192,44034,1,0,0:0:0:0:
192,192,44034,1,0,0:0:0:0:
64,192,44249,1,0,0:0:0:0:
320,192,44249,1,0,0:0:0:0:
448,192,44249,1,0,0:0:0:0:
192,192,44249,1,0,0:0:0:0:
64,192,44463,1,0,0:0:0:0:
192,192,44463,1,0,0:0:0:0:
320,192,44463,1,0,0:0:0:0:
64,192,44570,1,0,0:0:0:0:
448,192,44570,1,0,0:0:0:0:
320,192,44570,1,0,0:0:0:0:
192,192,44677,1,0,0:0:0:0:
320,192,44677,1,0,0:0:0:0:
448,192,44677,1,0,0:0:0:0:
64,192,44677,1,0,0:0:0:0:
64,192,44892,1,0,0:0:0:0:
320,192,44892,1,0,0:0:0:0:
192,192,44892,1,0,0:0:0:0:
64,192,45106,1,0,0:0:0:0:
448,192,45106,1,0,0:0:0:0:
192,192,45106,1,0,0:0:0:0:
320,192,45106,1,0,0:0:0:0:
64,192,45320,1,0,0:0:0:0:
192,192,45320,1,0,0:0:0:0:
320,192,45320,1,0,0:0:0:0:
64,192,45427,1,0,0:0:0:0:
448,192,45427,1,0,0:0:0:0:
320,192,45427,1,0,0:0:0:0:
192,192,45534,1,0,0:0:0:0:
320,192,45534,1,0,0:0:0:0:
448,192,45534,128,0,45909:0:0:0:0:
64,192,45534,1,0,0:0:0:0:
64,192,45749,1,0,0:0:0:0:
320,192,45749,1,0,0:0:0:0:
192,192,45749,1,0,0:0:0:0:
64,192,45963,1,0,0:0:0:0:
448,192,45963,1,0,0:0:0:0:
192,192,45963,1,0,0:0:0:0:
320,192,45963,1,0,0:0:0:0:
64,192,46177,1,0,0:0:0:0:
192,192,46177,1,0,0:0:0:0:
320,192,46177,1,0,0:0:0:0:
64,192,46284,1,0,0:0:0:0:
448,192,46284,1,0,0:0:0:0:
320,192,46284,1,0,0:0:0:0:
448,192,46392,1,0,0:0:0:0:
320,192,46392,1,0,0:0:0:0:
192,192,46392,1,0,0:0:0:0:
64,192,46392,1,0,0:0:0:0:
320,192,46606,1,0,0:0:0:0:
64,192,46606,1,0,0:0:0:0:
448,192,46606,1,0,0:0:0:0:
448,192,46820,1,0,0:0:0:0:
192,192,46820,1,0,0:0:0:0:
64,192,46820,1,0,0:0:0:0:
320,192,46820,1,0,0:0:0:0:
448,192,47034,1,0,0:0:0:0:
320,192,47034,1,0,0:0:0:0:
192,192,47034,1,0,0:0:0:0:
448,192,47142,1,0,0:0:0:0:
192,192,47142,1,0,0:0:0:0:
64,192,47142,1,0,0:0:0:0:
64,192,47249,1,0,0:0:0:0:
320,192,47249,1,0,0:0:0:0:
192,192,47249,1,0,0:0:0:0:
448,192,47249,1,0,0:0:0:0:
64,192,47463,1,0,0:0:0:0:
192,192,47463,1,0,0:0:0:0:
320,192,47463,1,0,0:0:0:0:
64,192,47570,1,0,0:0:0:0:
320,192,47570,1,0,0:0:0:0:
448,192,47570,1,0,0:0:0:0:
192,192,47677,1,0,0:0:0:0:
320,192,47677,1,0,0:0:0:0:
448,192,47677,1,0,0:0:0:0:
64,192,47677,1,0,0:0:0:0:
64,192,47892,1,0,0:0:0:0:
320,192,47892,1,0,0:0:0:0:
448,192,47892,1,0,0:0:0:0:
192,192,47999,1,0,0:0:0:0:
64,192,47999,1,0,0:0:0:0:
320,192,47999,1,0,0:0:0:0:
64,192,48106,1,0,0:0:0:0:
320,192,48106,1,0,0:0:0:0:
448,192,48106,1,0,0:0:0:0:
192,192,48106,1,0,0:0:0:0:
64,192,48320,1,0,0:0:0:0:
192,192,48320,1,0,0:0:0:0:
448,192,48320,1,0,0:0:0:0:
320,192,48427,1,0,0:0:0:0:
192,192,48427,1,0,0:0:0:0:
448,192,48427,1,0,0:0:0:0:
64,192,48534,1,0,0:0:0:0:
320,192,48534,1,0,0:0:0:0:
448,192,48534,1,0,0:0:0:0:
192,192,48642,1,0,0:0:0:0:
320,192,48642,1,0,0:0:0:0:
64,192,48642,1,0,0:0:0:0:
64,192,48749,1,0,0:0:0:0:
320,192,48749,1,0,0:0:0:0:
448,192,48749,1,0,0:0:0:0:
192,192,48856,1,0,0:0:0:0:
320,192,48856,1,0,0:0:0:0:
448,192,48856,1,0,0:0:0:0:
64,192,48963,1,0,0:0:0:0:
320,192,48963,1,0,0:0:0:0:
448,192,48963,1,0,0:0:0:0:
192,192,49070,1,0,0:0:0:0:
320,192,49070,1,0,0:0:0:0:
64,192,49070,1,0,0:0:0:0:
64,192,49177,1,0,0:0:0:0:
320,192,49177,1,0,0:0:0:0:
448,192,49177,1,0,0:0:0:0:
192,192,49284,1,0,0:0:0:0:
320,192,49284,1,0,0:0:0:0:
448,192,49284,1,0,0:0:0:0:
64,192,49392,1,0,0:0:0:0:
192,192,49392,1,0,0:0:0:0:
448,192,49392,1,0,0:0:0:0:
320,192,49392,1,0,0:0:0:0:
64,192,49499,1,0,0:0:0:0:
192,192,49499,1,0,0:0:0:0:
448,192,49499,1,0,0:0:0:0:
320,192,49499,1,0,0:0:0:0:
64,192,49606,1,0,0:0:0:0:
192,192,49606,1,0,0:0:0:0:
448,192,49606,1,0,0:0:0:0:
320,192,49606,1,0,0:0:0:0:
64,192,49713,1,0,0:0:0:0:
192,192,49713,1,0,0:0:0:0:
448,192,49713,1,0,0:0:0:0:
320,192,49713,1,0,0:0:0:0:
64,192,49820,1,0,0:0:0:0:
192,192,49820,1,0,0:0:0:0:
448,192,49820,1,0,0:0:0:0:
320,192,49820,1,0,0:0:0:0:
64,192,49927,1,0,0:0:0:0:
192,192,49927,1,0,0:0:0:0:
448,192,49927,1,0,0:0:0:0:
320,192,49927,1,0,0:0:0:0:
64,192,50034,1,0,0:0:0:0:
192,192,50034,1,0,0:0:0:0:
448,192,50034,1,0,0:0:0:0:
320,192,50034,1,0,0:0:0:0:
64,192,50142,1,0,0:0:0:0:
192,192,50142,1,0,0:0:0:0:
448,192,50142,1,0,0:0:0:0:
320,192,50142,1,0,0:0:0:0:
64,192,50249,1,0,0:0:0:0:
192,192,50249,1,0,0:0:0:0:
448,192,50249,128,0,50677:0:0:0:0:
320,192,50249,1,0,0:0:0:0:
320,192,50677,128,0,50892:0:0:0:0:
64,192,50677,128,0,51052:0:0:0:0:
192,192,50677,1,0,0:0:0:0:
192,192,50892,128,0,51106:0:0:0:0:
64,192,51106,128,0,51534:0:0:0:0:
320,192,51106,1,0,0:0:0:0:
448,192,51106,1,0,0:0:0:0:
320,192,51534,128,0,51963:0:0:0:0:
192,192,51534,1,0,0:0:0:0:
448,192,51534,1,0,0:0:0:0:
192,192,51963,128,0,52177:0:0:0:0:
448,192,51963,1,0,0:0:0:0:
64,192,51963,1,0,0:0:0:0:
64,192,52177,128,0,52392:0:0:0:0:
448,192,52392,128,0,52606:0:0:0:0:
192,192,52392,1,0,0:0:0:0:
320,192,52392,1,0,0:0:0:0:
320,192,52606,128,0,52820:0:0:0:0:
192,192,52820,128,0,53249:0:0:0:0:
64,192,52820,128,0,53142:0:0:0:0:
320,192,53142,1,0,0:0:0:0:
448,192,53142,1,0,0:0:0:0:
448,192,53249,1,0,0:0:0:0:
64,192,53249,1,0,0:0:0:0:
64,192,53463,1,0,0:0:0:0:
192,192,53463,1,0,0:0:0:0:
448,192,53463,1,0,0:0:0:0:
64,192,53677,5,0,0:0:0:0:
192,192,53677,1,0,0:0:0:0:
320,192,53677,1,0,0:0:0:0:
64,192,53892,1,0,0:0:0:0:
320,192,53892,1,0,0:0:0:0:
448,192,53892,1,0,0:0:0:0:
192,192,54106,1,0,0:0:0:0:
320,192,54106,1,0,0:0:0:0:
448,192,54106,1,0,0:0:0:0:
64,192,54320,1,0,0:0:0:0:
192,192,54320,1,0,0:0:0:0:
448,192,54320,1,0,0:0:0:0:
64,192,54534,1,0,0:0:0:0:
192,192,54534,1,0,0:0:0:0:
320,192,54534,1,0,0:0:0:0:
192,192,54749,1,0,0:0:0:0:
320,192,54749,1,0,0:0:0:0:
448,192,54749,1,0,0:0:0:0:
64,192,54963,1,0,0:0:0:0:
320,192,54963,1,0,0:0:0:0:
448,192,54963,1,0,0:0:0:0:
192,192,55177,1,0,0:0:0:0:
64,192,55177,1,0,0:0:0:0:
448,192,55177,1,0,0:0:0:0:
192,192,55392,1,0,0:0:0:0:
320,192,55392,1,0,0:0:0:0:
448,192,55392,1,0,0:0:0:0:
64,192,55606,1,0,0:0:0:0:
320,192,55606,1,0,0:0:0:0:
448,192,55606,1,0,0:0:0:0:
64,192,55820,1,0,0:0:0:0:
192,192,55820,1,0,0:0:0:0:
320,192,55820,1,0,0:0:0:0:
64,192,56034,1,0,0:0:0:0:
192,192,56034,1,0,0:0:0:0:
448,192,56034,1,0,0:0:0:0:
192,192,56249,1,0,0:0:0:0:
320,192,56249,1,0,0:0:0:0:
448,192,56249,1,0,0:0:0:0:
64,192,56463,1,0,0:0:0:0:
192,192,56463,1,0,0:0:0:0:
320,192,56463,1,0,0:0:0:0:
64,192,56677,1,0,0:0:0:0:
320,192,56677,1,0,0:0:0:0:
448,192,56677,1,0,0:0:0:0:
192,192,56731,1,0,0:0:0:0:
448,192,56784,1,0,0:0:0:0:
64,192,56784,1,0,0:0:0:0:
320,192,56784,1,0,0:0:0:0:
192,192,56838,1,0,0:0:0:0:
320,192,56892,1,0,0:0:0:0:
448,192,56892,1,0,0:0:0:0:
64,192,56945,1,0,0:0:0:0:
448,192,56999,1,0,0:0:0:0:
192,192,56999,1,0,0:0:0:0:
320,192,56999,1,0,0:0:0:0:
64,192,57052,1,0,0:0:0:0:
192,192,57106,1,0,0:0:0:0:
320,192,57106,1,0,0:0:0:0:
448,192,57106,1,0,0:0:0:0:
64,192,57320,1,0,0:0:0:0:
448,192,57320,1,0,0:0:0:0:
192,192,57320,1,0,0:0:0:0:
64,192,57534,1,0,0:0:0:0:
192,192,57534,1,0,0:0:0:0:
320,192,57534,1,0,0:0:0:0:
64,192,57749,1,0,0:0:0:0:
320,192,57749,1,0,0:0:0:0:
448,192,57749,1,0,0:0:0:0:
64,192,57963,1,0,0:0:0:0:
192,192,57963,1,0,0:0:0:0:
320,192,57963,1,0,0:0:0:0:
192,192,58177,1,0,0:0:0:0:
320,192,58177,1,0,0:0:0:0:
448,192,58177,1,0,0:0:0:0:
64,192,58392,1,0,0:0:0:0:
192,192,58392,1,0,0:0:0:0:
448,192,58392,1,0,0:0:0:0:
64,192,58606,1,0,0:0:0:0:
320,192,58606,1,0,0:0:0:0:
448,192,58606,1,0,0:0:0:0:
64,192,58820,1,0,0:0:0:0:
192,192,58820,1,0,0:0:0:0:
320,192,58820,1,0,0:0:0:0:
64,192,59034,1,0,0:0:0:0:
448,192,59034,1,0,0:0:0:0:
192,192,59034,1,0,0:0:0:0:
64,192,59249,1,0,0:0:0:0:
320,192,59249,1,0,0:0:0:0:
448,192,59249,1,0,0:0:0:0:
192,192,59463,1,0,0:0:0:0:
320,192,59463,1,0,0:0:0:0:
448,192,59463,1,0,0:0:0:0:
192,192,59677,1,0,0:0:0:0:
64,192,59677,1,0,0:0:0:0:
448,192,59677,1,0,0:0:0:0:
320,192,59731,1,0,0:0:0:0:
64,192,59784,1,0,0:0:0:0:
448,192,59784,1,0,0:0:0:0:
192,192,59784,1,0,0:0:0:0:
320,192,59838,1,0,0:0:0:0:
192,192,59892,1,0,0:0:0:0:
64,192,59892,1,0,0:0:0:0:
448,192,59945,1,0,0:0:0:0:
64,192,59999,1,0,0:0:0:0:
320,192,59999,1,0,0:0:0:0:
192,192,59999,1,0,0:0:0:0:
448,192,60052,1,0,0:0:0:0:
320,192,60106,1,0,0:0:0:0:
192,192,60106,1,0,0:0:0:0:
64,192,60159,1,0,0:0:0:0:
192,192,60213,1,0,0:0:0:0:
448,192,60213,1,0,0:0:0:0:
320,192,60213,1,0,0:0:0:0:
64,192,60267,1,0,0:0:0:0:
448,192,60320,1,0,0:0:0:0:
320,192,60320,1,0,0:0:0:0:
192,192,60374,1,0,0:0:0:0:
64,192,60427,1,0,0:0:0:0:
448,192,60427,1,0,0:0:0:0:
320,192,60427,1,0,0:0:0:0:
192,192,60481,1,0,0:0:0:0:
448,192,60534,1,0,0:0:0:0:
320,192,60534,1,0,0:0:0:0:
64,192,60534,1,0,0:0:0:0:
64,192,60749,1,0,0:0:0:0:
192,192,60749,1,0,0:0:0:0:
320,192,60749,1,0,0:0:0:0:
64,192,60963,1,0,0:0:0:0:
192,192,60963,1,0,0:0:0:0:
448,192,60963,1,0,0:0:0:0:
192,192,61177,1,0,0:0:0:0:
320,192,61177,1,0,0:0:0:0:
448,192,61177,1,0,0:0:0:0:
64,192,61392,1,0,0:0:0:0:
192,192,61392,1,0,0:0:0:0:
320,192,61392,1,0,0:0:0:0:
192,192,61606,1,0,0:0:0:0:
320,192,61606,1,0,0:0:0:0:
448,192,61606,1,0,0:0:0:0:
64,192,61820,1,0,0:0:0:0:
192,192,61820,1,0,0:0:0:0:
320,192,61820,1,0,0:0:0:0:
64,192,61963,1,0,0:0:0:0:
192,192,61963,1,0,0:0:0:0:
448,192,61963,1,0,0:0:0:0:
448,192,62106,1,0,0:0:0:0:
320,192,62106,1,0,0:0:0:0:
64,192,62106,1,0,0:0:0:0:
192,192,62249,1,0,0:0:0:0:
320,192,62249,1,0,0:0:0:0:
448,192,62249,1,0,0:0:0:0:
448,192,62463,1,0,0:0:0:0:
64,192,62463,1,0,0:0:0:0:
192,192,62463,1,0,0:0:0:0:
64,192,62677,1,0,0:0:0:0:
192,192,62677,1,0,0:0:0:0:
320,192,62677,1,0,0:0:0:0:
64,192,62892,1,0,0:0:0:0:
320,192,62892,1,0,0:0:0:0:
448,192,62892,1,0,0:0:0:0:
64,192,63106,1,0,0:0:0:0:
192,192,63106,1,0,0:0:0:0:
448,192,63106,1,0,0:0:0:0:
192,192,63320,1,0,0:0:0:0:
320,192,63320,1,0,0:0:0:0:
448,192,63320,1,0,0:0:0:0:
64,192,63534,1,0,0:0:0:0:
320,192,63534,1,0,0:0:0:0:
448,192,63534,1,0,0:0:0:0:
64,192,63642,1,0,0:0:0:0:
192,192,63642,1,0,0:0:0:0:
320,192,63642,1,0,0:0:0:0:
192,192,63856,1,0,0:0:0:0:
320,192,63856,1,0,0:0:0:0:
448,192,63856,1,0,0:0:0:0:
64,192,63963,1,0,0:0:0:0:
192,192,63963,1,0,0:0:0:0:
448,192,63963,1,0,0:0:0:0:
64,192,64177,1,0,0:0:0:0:
320,192,64177,1,0,0:0:0:0:
448,192,64177,1,0,0:0:0:0:
64,192,64392,1,0,0:0:0:0:
192,192,64392,1,0,0:0:0:0:
448,192,64392,1,0,0:0:0:0:
64,192,64606,1,0,0:0:0:0:
192,192,64606,1,0,0:0:0:0:
320,192,64606,1,0,0:0:0:0:
192,192,64820,1,0,0:0:0:0:
320,192,64820,1,0,0:0:0:0:
448,192,64820,1,0,0:0:0:0:
64,192,65034,1,0,0:0:0:0:
320,192,65034,1,0,0:0:0:0:
448,192,65034,1,0,0:0:0:0:
64,192,65142,1,0,0:0:0:0:
320,192,65142,1,0,0:0:0:0:
448,192,65142,1,0,0:0:0:0:
64,192,65249,1,0,0:0:0:0:
320,192,65249,1,0,0:0:0:0:
448,192,65249,1,0,0:0:0:0:
64,192,65463,1,0,0:0:0:0:
192,192,65463,1,0,0:0:0:0:
448,192,65463,1,0,0:0:0:0:
192,192,65677,1,0,0:0:0:0:
320,192,65677,1,0,0:0:0:0:
448,192,65677,1,0,0:0:0:0:
64,192,65731,1,0,0:0:0:0:
448,192,65784,1,0,0:0:0:0:
192,192,65784,1,0,0:0:0:0:
64,192,65838,1,0,0:0:0:0:
192,192,65892,1,0,0:0:0:0:
320,192,65945,1,0,0:0:0:0:
448,192,65999,1,0,0:0:0:0:
192,192,65999,1,0,0:0:0:0:
64,192,66052,1,0,0:0:0:0:
192,192,66106,1,0,0:0:0:0:
320,192,66106,1,0,0:0:0:0:
448,192,66159,1,0,0:0:0:0:
320,192,66213,1,0,0:0:0:0:
64,192,66213,1,0,0:0:0:0:
192,192,66267,1,0,0:0:0:0:
64,192,66320,1,0,0:0:0:0:
320,192,66320,1,0,0:0:0:0:
448,192,66374,1,0,0:0:0:0:
320,192,66427,1,0,0:0:0:0:
64,192,66427,1,0,0:0:0:0:
192,192,66481,1,0,0:0:0:0:
320,192,66534,1,0,0:0:0:0:
64,192,66534,1,0,0:0:0:0:
448,192,66534,1,0,0:0:0:0:
192,192,66642,1,0,0:0:0:0:
64,192,66642,1,0,0:0:0:0:
448,192,66642,1,0,0:0:0:0:
448,192,66749,1,0,0:0:0:0:
320,192,66749,1,0,0:0:0:0:
320,192,66856,1,0,0:0:0:0:
192,192,66856,1,0,0:0:0:0:
64,192,66856,1,0,0:0:0:0:
64,192,66963,1,0,0:0:0:0:
192,192,66963,1,0,0:0:0:0:
448,192,66963,1,0,0:0:0:0:
448,192,67070,1,0,0:0:0:0:
320,192,67070,1,0,0:0:0:0:
320,192,67177,1,0,0:0:0:0:
192,192,67177,1,0,0:0:0:0:
448,192,67177,1,0,0:0:0:0:
192,192,67284,1,0,0:0:0:0:
64,192,67284,1,0,0:0:0:0:
448,192,67392,1,0,0:0:0:0:
64,192,67392,1,0,0:0:0:0:
320,192,67392,1,0,0:0:0:0:
64,192,67713,1,0,0:0:0:0:
320,192,67713,1,0,0:0:0:0:
448,192,67713,1,0,0:0:0:0:
64,192,67820,1,0,0:0:0:0:
320,192,67820,1,0,0:0:0:0:
448,192,67820,1,0,0:0:0:0:
64,192,67927,1,0,0:0:0:0:
192,192,67927,1,0,0:0:0:0:
320,192,67927,1,0,0:0:0:0:
64,192,68142,1,0,0:0:0:0:
320,192,68142,1,0,0:0:0:0:
192,192,68142,1,0,0:0:0:0:
64,192,68356,1,0,0:0:0:0:
192,192,68356,1,0,0:0:0:0:
320,192,68356,1,0,0:0:0:0:
64,192,68463,1,0,0:0:0:0:
320,192,68463,1,0,0:0:0:0:
448,192,68463,1,0,0:0:0:0:
64,192,68677,1,0,0:0:0:0:
192,192,68677,1,0,0:0:0:0:
320,192,68677,1,0,0:0:0:0:
64,192,68838,1,0,0:0:0:0:
320,192,68838,1,0,0:0:0:0:
448,192,68838,1,0,0:0:0:0:
64,192,68999,1,0,0:0:0:0:
320,192,68999,1,0,0:0:0:0:
192,192,68999,1,0,0:0:0:0:
64,192,69213,1,0,0:0:0:0:
192,192,69213,1,0,0:0:0:0:
320,192,69213,1,0,0:0:0:0:
64,192,69320,1,0,0:0:0:0:
192,192,69320,1,0,0:0:0:0:
448,192,69320,1,0,0:0:0:0:
320,192,69374,1,0,0:0:0:0:
192,192,69427,1,0,0:0:0:0:
64,192,69427,1,0,0:0:0:0:
448,192,69481,1,0,0:0:0:0:
64,192,69534,1,0,0:0:0:0:
192,192,69534,1,0,0:0:0:0:
320,192,69534,1,0,0:0:0:0:
64,192,69642,1,0,0:0:0:0:
448,192,69642,1,0,0:0:0:0:
192,192,69642,1,0,0:0:0:0:
320,192,69695,1,0,0:0:0:0:
64,192,69749,1,0,0:0:0:0:
192,192,69749,1,0,0:0:0:0:
448,192,69802,1,0,0:0:0:0:
64,192,69856,1,0,0:0:0:0:
192,192,69856,1,0,0:0:0:0:
320,192,69856,1,0,0:0:0:0:
192,192,70070,1,0,0:0:0:0:
64,192,70070,1,0,0:0:0:0:
448,192,70070,1,0,0:0:0:0:
320,192,70097,1,0,0:0:0:0:
192,192,70124,1,0,0:0:0:0:
64,192,70151,1,0,0:0:0:0:
320,192,70177,1,0,0:0:0:0:
448,192,70177,1,0,0:0:0:0:
64,192,70204,1,0,0:0:0:0:
192,192,70231,1,0,0:0:0:0:
448,192,70258,1,0,0:0:0:0:
320,192,70284,1,0,0:0:0:0:
448,192,70338,1,0,0:0:0:0:
320,192,70365,1,0,0:0:0:0:
448,192,70392,1,0,0:0:0:0:
192,192,70392,1,0,0:0:0:0:
64,192,70392,1,0,0:0:0:0:
64,192,70606,1,0,0:0:0:0:
320,192,70606,1,0,0:0:0:0:
448,192,70606,1,0,0:0:0:0:
64,192,70713,1,0,0:0:0:0:
320,192,70713,1,0,0:0:0:0:
448,192,70713,1,0,0:0:0:0:
64,192,70820,1,0,0:0:0:0:
448,192,70820,1,0,0:0:0:0:
320,192,70820,1,0,0:0:0:0:
192,192,70874,1,0,0:0:0:0:
320,192,70927,1,0,0:0:0:0:
64,192,70981,1,0,0:0:0:0:
320,192,71034,1,0,0:0:0:0:
192,192,71088,1,0,0:0:0:0:
64,192,71142,1,0,0:0:0:0:
320,192,71142,1,0,0:0:0:0:
448,192,71142,1,0,0:0:0:0:
64,192,71249,1,0,0:0:0:0:
320,192,71249,1,0,0:0:0:0:
448,192,71249,1,0,0:0:0:0:
64,192,71356,1,0,0:0:0:0:
192,192,71356,1,0,0:0:0:0:
448,192,71356,1,0,0:0:0:0:
64,192,71570,1,0,0:0:0:0:
192,192,71570,1,0,0:0:0:0:
448,192,71570,1,0,0:0:0:0:
64,192,71784,1,0,0:0:0:0:
192,192,71784,1,0,0:0:0:0:
448,192,71784,1,0,0:0:0:0:
64,192,71892,1,0,0:0:0:0:
320,192,71892,1,0,0:0:0:0:
448,192,71892,1,0,0:0:0:0:
192,192,71945,1,0,0:0:0:0:
448,192,71999,1,0,0:0:0:0:
64,192,71999,1,0,0:0:0:0:
320,192,72052,1,0,0:0:0:0:
64,192,72106,1,0,0:0:0:0:
192,192,72106,1,0,0:0:0:0:
448,192,72106,1,0,0:0:0:0:
64,192,72320,1,0,0:0:0:0:
448,192,72320,1,0,0:0:0:0:
192,192,72320,1,0,0:0:0:0:
192,192,72427,1,0,0:0:0:0:
448,192,72427,1,0,0:0:0:0:
320,192,72427,1,0,0:0:0:0:
64,192,72427,1,0,0:0:0:0:
64,192,72642,1,0,0:0:0:0:
192,192,72642,1,0,0:0:0:0:
448,192,72642,1,0,0:0:0:0:
64,192,72749,1,0,0:0:0:0:
192,192,72749,1,0,0:0:0:0:
320,192,72749,1,0,0:0:0:0:
448,192,72749,1,0,0:0:0:0:
64,192,72963,1,0,0:0:0:0:
192,192,72963,1,0,0:0:0:0:
448,192,72963,1,0,0:0:0:0:
64,192,73070,1,0,0:0:0:0:
192,192,73070,1,0,0:0:0:0:
320,192,73070,1,0,0:0:0:0:
448,192,73070,1,0,0:0:0:0:
192,192,73284,1,0,0:0:0:0:
320,192,73284,1,0,0:0:0:0:
448,192,73284,1,0,0:0:0:0:
64,192,73392,1,0,0:0:0:0:
320,192,73392,1,0,0:0:0:0:
448,192,73392,1,0,0:0:0:0:
192,192,73445,1,0,0:0:0:0:
64,192,73499,1,0,0:0:0:0:
320,192,73499,1,0,0:0:0:0:
448,192,73552,1,0,0:0:0:0:
64,192,73606,1,0,0:0:0:0:
192,192,73606,1,0,0:0:0:0:
448,192,73659,1,0,0:0:0:0:
64,192,73713,1,0,0:0:0:0:
320,192,73713,1,0,0:0:0:0:
192,192,73767,1,0,0:0:0:0:
64,192,73820,1,0,0:0:0:0:
448,192,73820,1,0,0:0:0:0:
320,192,73874,1,0,0:0:0:0:
64,192,73927,1,0,0:0:0:0:
448,192,73927,1,0,0:0:0:0:
192,192,73981,1,0,0:0:0:0:
448,192,74034,1,0,0:0:0:0:
320,192,74034,128,0,74142:0:0:0:0:
64,192,74034,1,0,0:0:0:0:
192,192,74088,1,0,0:0:0:0:
64,192,74142,1,0,0:0:0:0:
448,192,74142,128,0,74249:0:0:0:0:
192,192,74249,128,0,74570:0:0:0:0:
64,192,74570,1,0,0:0:0:0:
320,192,74570,1,0,0:0:0:0:
448,192,74570,1,0,0:0:0:0:
64,192,74677,1,0,0:0:0:0:
320,192,74677,1,0,0:0:0:0:
448,192,74677,1,0,0:0:0:0:
64,192,74784,1,0,0:0:0:0:
192,192,74784,1,0,0:0:0:0:
320,192,74784,1,0,0:0:0:0:
64,192,74999,1,0,0:0:0:0:
320,192,74999,1,0,0:0:0:0:
192,192,74999,1,0,0:0:0:0:
64,192,75213,1,0,0:0:0:0:
192,192,75213,1,0,0:0:0:0:
320,192,75213,1,0,0:0:0:0:
64,192,75320,1,0,0:0:0:0:
320,192,75320,1,0,0:0:0:0:
448,192,75320,1,0,0:0:0:0:
64,192,75534,1,0,0:0:0:0:
192,192,75534,1,0,0:0:0:0:
320,192,75534,1,0,0:0:0:0:
320,192,75695,1,0,0:0:0:0:
448,192,75695,1,0,0:0:0:0:
192,192,75695,1,0,0:0:0:0:
64,192,75856,1,0,0:0:0:0:
448,192,75856,1,0,0:0:0:0:
320,192,75856,1,0,0:0:0:0:
320,192,76070,1,0,0:0:0:0:
192,192,76070,1,0,0:0:0:0:
448,192,76070,1,0,0:0:0:0:
192,192,76177,1,0,0:0:0:0:
320,192,76177,1,0,0:0:0:0:
64,192,76177,1,0,0:0:0:0:
64,192,76231,1,0,0:0:0:0:
320,192,76284,1,0,0:0:0:0:
192,192,76284,1,0,0:0:0:0:
448,192,76284,1,0,0:0:0:0:
448,192,76338,1,0,0:0:0:0:
64,192,76392,1,0,0:0:0:0:
192,192,76392,1,0,0:0:0:0:
320,192,76392,1,0,0:0:0:0:
448,192,76445,1,0,0:0:0:0:
192,192,76499,1,0,0:0:0:0:
320,192,76499,1,0,0:0:0:0:
64,192,76552,1,0,0:0:0:0:
192,192,76606,1,0,0:0:0:0:
320,192,76606,1,0,0:0:0:0:
448,192,76606,1,0,0:0:0:0:
64,192,76659,1,0,0:0:0:0:
448,192,76713,1,0,0:0:0:0:
320,192,76767,1,0,0:0:0:0:
192,192,76767,1,0,0:0:0:0:
64,192,76767,1,0,0:0:0:0:
448,192,76847,1,0,0:0:0:0:
192,192,76847,1,0,0:0:0:0:
64,192,76927,1,0,0:0:0:0:
192,192,76927,1,0,0:0:0:0:
320,192,76927,1,0,0:0:0:0:
64,192,77034,1,0,0:0:0:0:
320,192,77034,1,0,0:0:0:0:
448,192,77034,1,0,0:0:0:0:
192,192,77088,1,0,0:0:0:0:
448,192,77142,1,0,0:0:0:0:
64,192,77142,1,0,0:0:0:0:
192,192,77195,1,0,0:0:0:0:
448,192,77249,1,0,0:0:0:0:
64,192,77249,1,0,0:0:0:0:
320,192,77249,1,0,0:0:0:0:
64,192,77409,1,0,0:0:0:0:
448,192,77409,1,0,0:0:0:0:
192,192,77409,1,0,0:0:0:0:
64,192,77570,1,0,0:0:0:0:
448,192,77570,1,0,0:0:0:0:
320,192,77570,1,0,0:0:0:0:
192,192,77624,1,0,0:0:0:0:
64,192,77677,1,0,0:0:0:0:
320,192,77677,1,0,0:0:0:0:
448,192,77677,1,0,0:0:0:0:
192,192,77731,1,0,0:0:0:0:
320,192,77784,1,0,0:0:0:0:
64,192,77838,1,0,0:0:0:0:
448,192,77892,1,0,0:0:0:0:
192,192,77945,1,0,0:0:0:0:
64,192,77999,1,0,0:0:0:0:
320,192,77999,1,0,0:0:0:0:
448,192,77999,1,0,0:0:0:0:
192,192,78052,1,0,0:0:0:0:
64,192,78106,1,0,0:0:0:0:
448,192,78106,1,0,0:0:0:0:
320,192,78106,1,0,0:0:0:0:
320,192,78159,1,0,0:0:0:0:
64,192,78213,1,0,0:0:0:0:
448,192,78213,1,0,0:0:0:0:
192,192,78213,1,0,0:0:0:0:
320,192,78267,1,0,0:0:0:0:
64,192,78320,1,0,0:0:0:0:
64,192,78427,1,0,0:0:0:0:
192,192,78427,1,0,0:0:0:0:
448,192,78427,1,0,0:0:0:0:
320,192,78481,1,0,0:0:0:0:
64,192,78642,1,0,0:0:0:0:
448,192,78642,1,0,0:0:0:0:
192,192,78642,1,0,0:0:0:0:
64,192,78749,1,0,0:0:0:0:
320,192,78749,1,0,0:0:0:0:
448,192,78749,1,0,0:0:0:0:
64,192,78856,1,0,0:0:0:0:
192,192,78883,1,0,0:0:0:0:
448,192,78909,1,0,0:0:0:0:
320,192,78936,1,0,0:0:0:0:
64,192,78963,1,0,0:0:0:0:
192,192,78963,1,0,0:0:0:0:
448,192,78963,1,0,0:0:0:0:
64,192,79177,1,0,0:0:0:0:
448,192,79177,1,0,0:0:0:0:
320,192,79177,1,0,0:0:0:0:
192,192,79284,1,0,0:0:0:0:
448,192,79284,1,0,0:0:0:0:
320,192,79284,1,0,0:0:0:0:
64,192,79284,1,0,0:0:0:0:
64,192,79499,1,0,0:0:0:0:
448,192,79499,1,0,0:0:0:0:
320,192,79499,1,0,0:0:0:0:
64,192,79606,1,0,0:0:0:0:
192,192,79606,1,0,0:0:0:0:
320,192,79606,1,0,0:0:0:0:
448,192,79606,1,0,0:0:0:0:
64,192,79820,1,0,0:0:0:0:
448,192,79820,1,0,0:0:0:0:
320,192,79820,1,0,0:0:0:0:
64,192,79927,1,0,0:0:0:0:
192,192,79927,1,0,0:0:0:0:
320,192,79927,1,0,0:0:0:0:
448,192,79927,1,0,0:0:0:0:
192,192,80142,1,0,0:0:0:0:
320,192,80142,1,0,0:0:0:0:
448,192,80142,1,0,0:0:0:0:
192,192,80249,1,0,0:0:0:0:
64,192,80249,1,0,0:0:0:0:
320,192,80249,1,0,0:0:0:0:
448,192,80302,1,0,0:0:0:0:
192,192,80356,1,0,0:0:0:0:
448,192,80409,1,0,0:0:0:0:
320,192,80463,1,0,0:0:0:0:
192,192,80463,1,0,0:0:0:0:
64,192,80463,1,0,0:0:0:0:
448,192,80517,1,0,0:0:0:0:
64,192,80570,1,0,0:0:0:0:
192,192,80570,1,0,0:0:0:0:
320,192,80624,1,0,0:0:0:0:
64,192,80677,1,0,0:0:0:0:
448,192,80677,1,0,0:0:0:0:
192,192,80677,1,0,0:0:0:0:
320,192,81106,1,0,0:0:0:0:
64,192,81106,1,0,0:0:0:0:
448,192,81159,1,0,0:0:0:0:
64,192,81213,1,0,0:0:0:0:
192,192,81267,1,0,0:0:0:0:
64,192,81320,1,0,0:0:0:0:
448,192,81374,1,0,0:0:0:0:
192,192,81374,1,0,0:0:0:0:
320,192,81427,1,0,0:0:0:0:
448,192,81481,1,0,0:0:0:0:
64,192,81534,1,0,0:0:0:0:
192,192,81588,1,0,0:0:0:0:
64,192,81642,1,0,0:0:0:0:
448,192,81695,1,0,0:0:0:0:
192,192,81695,1,0,0:0:0:0:
320,192,81749,1,0,0:0:0:0:
448,192,81802,1,0,0:0:0:0:
64,192,81856,1,0,0:0:0:0:
192,192,81909,1,0,0:0:0:0:
448,192,81963,1,0,0:0:0:0:
320,192,81963,1,0,0:0:0:0:
64,192,81963,1,0,0:0:0:0:
64,192,82284,1,0,0:0:0:0:
320,192,82284,1,0,0:0:0:0:
448,192,82284,1,0,0:0:0:0:
192,192,82606,1,0,0:0:0:0:
320,192,82606,1,0,0:0:0:0:
448,192,82713,1,0,0:0:0:0:
64,192,82713,1,0,0:0:0:0:
192,192,82713,1,0,0:0:0:0:
192,192,82927,1,0,0:0:0:0:
320,192,82927,1,0,0:0:0:0:
64,192,82927,1,0,0:0:0:0:
448,192,82927,1,0,0:0:0:0:
448,192,83142,1,0,0:0:0:0:
192,192,83142,1,0,0:0:0:0:
64,192,83142,1,0,0:0:0:0:
192,192,83249,1,0,0:0:0:0:
320,192,83249,1,0,0:0:0:0:
448,192,83249,1,0,0:0:0:0:
320,192,83356,1,0,0:0:0:0:
64,192,83356,1,0,0:0:0:0:
448,192,83356,1,0,0:0:0:0:
64,192,83463,1,0,0:0:0:0:
192,192,83463,1,0,0:0:0:0:
320,192,83463,1,0,0:0:0:0:
320,192,83570,1,0,0:0:0:0:
448,192,83570,1,0,0:0:0:0:
192,192,83570,1,0,0:0:0:0:
64,192,83570,1,0,0:0:0:0:
64,192,83892,1,0,0:0:0:0:
320,192,83892,1,0,0:0:0:0:
448,192,83892,1,0,0:0:0:0:
64,192,84213,1,0,0:0:0:0:
192,192,84213,1,0,0:0:0:0:
320,192,84213,1,0,0:0:0:0:
64,192,84534,1,0,0:0:0:0:
192,192,84561,1,0,0:0:0:0:
320,192,84588,1,0,0:0:0:0:
448,192,84615,1,0,0:0:0:0:
320,192,84642,1,0,0:0:0:0:
192,192,84668,1,0,0:0:0:0:
64,192,84695,1,0,0:0:0:0:
448,192,84722,1,0,0:0:0:0:
320,192,84722,1,0,0:0:0:0:
192,192,84856,1,0,0:0:0:0:
64,192,84856,1,0,0:0:0:0:
448,192,84856,1,0,0:0:0:0:
192,192,84963,1,0,0:0:0:0:
320,192,84963,1,0,0:0:0:0:
64,192,84963,1,0,0:0:0:0:
448,192,85070,1,0,0:0:0:0:
320,192,85124,1,0,0:0:0:0:
64,192,85177,1,0,0:0:0:0:
192,192,85204,1,0,0:0:0:0:
320,192,85231,1,0,0:0:0:0:
192,192,85258,1,0,0:0:0:0:
64,192,85284,1,0,0:0:0:0:
448,192,85311,1,0,0:0:0:0:
320,192,85338,1,0,0:0:0:0:
192,192,85365,1,0,0:0:0:0:
448,192,85392,1,0,0:0:0:0:
64,192,85392,1,0,0:0:0:0:
448,192,85499,1,0,0:0:0:0:
192,192,85499,1,0,0:0:0:0:
320,192,85499,1,0,0:0:0:0:
64,192,85552,1,0,0:0:0:0:
320,192,85606,1,0,0:0:0:0:
448,192,85606,1,0,0:0:0:0:
192,192,85659,1,0,0:0:0:0:
320,192,85713,1,0,0:0:0:0:
64,192,85713,1,0,0:0:0:0:
448,192,85713,1,0,0:0:0:0:
192,192,85820,1,0,0:0:0:0:
320,192,85820,1,0,0:0:0:0:
64,192,85820,1,0,0:0:0:0:
448,192,85927,1,0,0:0:0:0:
192,192,85927,1,0,0:0:0:0:
64,192,85927,1,0,0:0:0:0:
320,192,85981,1,0,0:0:0:0:
64,192,86034,1,0,0:0:0:0:
448,192,86034,1,0,0:0:0:0:
192,192,86034,1,0,0:0:0:0:
320,192,86088,1,0,0:0:0:0:
192,192,86142,1,0,0:0:0:0:
64,192,86142,1,0,0:0:0:0:
448,192,86195,1,0,0:0:0:0:
192,192,86249,1,0,0:0:0:0:
320,192,86249,1,0,0:0:0:0:
64,192,86249,1,0,0:0:0:0:
448,192,86356,1,0,0:0:0:0:
320,192,86356,1,0,0:0:0:0:
64,192,86409,1,0,0:0:0:0:
192,192,86409,1,0,0:0:0:0:
448,192,86463,1,0,0:0:0:0:
320,192,86463,1,0,0:0:0:0:
64,192,86490,1,0,0:0:0:0:
192,192,86517,1,0,0:0:0:0:
448,192,86543,1,0,0:0:0:0:
320,192,86570,1,0,0:0:0:0:
192,192,86597,1,0,0:0:0:0:
320,192,86624,1,0,0:0:0:0:
448,192,86651,1,0,0:0:0:0:
320,192,86677,1,0,0:0:0:0:
64,192,86704,1,0,0:0:0:0:
192,192,86731,1,0,0:0:0:0:
320,192,86758,1,0,0:0:0:0:
448,192,86784,1,0,0:0:0:0:
320,192,86811,1,0,0:0:0:0:
192,192,86838,1,0,0:0:0:0:
64,192,86865,1,0,0:0:0:0:
448,192,86892,1,0,0:0:0:0:
320,192,86892,1,0,0:0:0:0:
64,192,86945,1,0,0:0:0:0:
320,192,86999,1,0,0:0:0:0:
448,192,87026,1,0,0:0:0:0:
64,192,87026,1,0,0:0:0:0:
192,192,87052,1,0,0:0:0:0:
320,192,87079,1,0,0:0:0:0:
448,192,87106,1,0,0:0:0:0:
192,192,87133,1,0,0:0:0:0:
64,192,87159,1,0,0:0:0:0:
320,192,87159,1,0,0:0:0:0:
64,192,87320,1,0,0:0:0:0:
192,192,87320,1,0,0:0:0:0:
320,192,87320,1,0,0:0:0:0:
192,192,87642,1,0,0:0:0:0:
320,192,87642,1,0,0:0:0:0:
448,192,87642,1,0,0:0:0:0:
64,192,87749,1,0,0:0:0:0:
192,192,87749,1,0,0:0:0:0:
320,192,87802,1,0,0:0:0:0:
192,192,87856,1,0,0:0:0:0:
64,192,87856,1,0,0:0:0:0:
448,192,87909,1,0,0:0:0:0:
64,192,87963,1,0,0:0:0:0:
192,192,87963,1,0,0:0:0:0:
320,192,87963,1,0,0:0:0:0:
448,192,88017,1,0,0:0:0:0:
192,192,88070,1,0,0:0:0:0:
320,192,88070,1,0,0:0:0:0:
448,192,88124,1,0,0:0:0:0:
320,192,88177,1,0,0:0:0:0:
192,192,88177,1,0,0:0:0:0:
64,192,88231,1,0,0:0:0:0:
192,192,88284,1,0,0:0:0:0:
448,192,88284,1,0,0:0:0:0:
320,192,88284,1,0,0:0:0:0:
64,192,88606,1,0,0:0:0:0:
192,192,88606,1,0,0:0:0:0:
448,192,88606,1,0,0:0:0:0:
448,192,88820,1,0,0:0:0:0:
64,192,88820,1,0,0:0:0:0:
320,192,88820,1,0,0:0:0:0:
448,192,89142,1,0,0:0:0:0:
192,192,89142,1,0,0:0:0:0:
320,192,89142,1,0,0:0:0:0:
64,192,89195,1,0,0:0:0:0:
320,192,89249,1,0,0:0:0:0:
192,192,89249,1,0,0:0:0:0:
64,192,89302,1,0,0:0:0:0:
192,192,89356,1,0,0:0:0:0:
448,192,89356,1,0,0:0:0:0:
320,192,89409,1,0,0:0:0:0:
64,192,89463,1,0,0:0:0:0:
192,192,89463,1,0,0:0:0:0:
448,192,89517,1,0,0:0:0:0:
192,192,89570,1,0,0:0:0:0:
64,192,89624,1,0,0:0:0:0:
192,192,89677,1,0,0:0:0:0:
320,192,89677,1,0,0:0:0:0:
448,192,89677,1,0,0:0:0:0:
64,192,89784,1,0,0:0:0:0:
320,192,89784,1,0,0:0:0:0:
448,192,89784,1,0,0:0:0:0:
192,192,89999,1,0,0:0:0:0:
448,192,89999,1,0,0:0:0:0:
64,192,90106,1,0,0:0:0:0:
192,192,90106,1,0,0:0:0:0:
320,192,90106,1,0,0:0:0:0:
320,192,90213,1,0,0:0:0:0:
448,192,90213,1,0,0:0:0:0:
64,192,90320,1,0,0:0:0:0:
448,192,90320,1,0,0:0:0:0:
192,192,90320,1,0,0:0:0:0:
320,192,90320,1,0,0:0:0:0:
64,192,90427,1,0,0:0:0:0:
320,192,90427,1,0,0:0:0:0:
448,192,90534,1,0,0:0:0:0:
192,192,90534,1,0,0:0:0:0:
320,192,90534,1,0,0:0:0:0:
64,192,90642,1,0,0:0:0:0:
192,192,90642,1,0,0:0:0:0:
320,192,90749,1,0,0:0:0:0:
448,192,90749,1,0,0:0:0:0:
64,192,90749,1,0,0:0:0:0:
192,192,90749,1,0,0:0:0:0:
64,192,90856,1,0,0:0:0:0:
320,192,90856,1,0,0:0:0:0:
192,192,90963,1,0,0:0:0:0:
320,192,90963,1,0,0:0:0:0:
448,192,90963,1,0,0:0:0:0:
448,192,91070,1,0,0:0:0:0:
64,192,91070,1,0,0:0:0:0:
64,192,91177,1,0,0:0:0:0:
320,192,91177,1,0,0:0:0:0:
192,192,91177,1,0,0:0:0:0:
448,192,91177,1,0,0:0:0:0:
192,192,91284,1,0,0:0:0:0:
448,192,91284,1,0,0:0:0:0:
64,192,91392,1,0,0:0:0:0:
192,192,91392,1,0,0:0:0:0:
448,192,91392,1,0,0:0:0:0:
64,192,91499,1,0,0:0:0:0:
320,192,91499,1,0,0:0:0:0:
448,192,91606,1,0,0:0:0:0:
64,192,91606,1,0,0:0:0:0:
320,192,91606,1,0,0:0:0:0:
192,192,91606,1,0,0:0:0:0:
320,192,91713,1,0,0:0:0:0:
192,192,91713,1,0,0:0:0:0:
320,192,91820,1,0,0:0:0:0:
448,192,91820,1,0,0:0:0:0:
192,192,91820,1,0,0:0:0:0:
64,192,91927,1,0,0:0:0:0:
192,192,91927,1,0,0:0:0:0:
192,192,92034,1,0,0:0:0:0:
448,192,92034,1,0,0:0:0:0:
320,192,92034,1,0,0:0:0:0:
64,192,92034,1,0,0:0:0:0:
64,192,92142,1,0,0:0:0:0:
320,192,92142,1,0,0:0:0:0:
64,192,92249,1,0,0:0:0:0:
320,192,92249,1,0,0:0:0:0:
448,192,92249,1,0,0:0:0:0:
192,192,92249,1,0,0:0:0:0:
448,192,92356,1,0,0:0:0:0:
192,192,92356,1,0,0:0:0:0:
64,192,92463,1,0,0:0:0:0:
320,192,92463,1,0,0:0:0:0:
448,192,92463,1,0,0:0:0:0:
192,192,92570,1,0,0:0:0:0:
448,192,92570,1,0,0:0:0:0:
320,192,92677,1,0,0:0:0:0:
192,192,92677,1,0,0:0:0:0:
448,192,92677,1,0,0:0:0:0:
64,192,92677,1,0,0:0:0:0:
320,192,92784,1,0,0:0:0:0:
448,192,92784,1,0,0:0:0:0:
64,192,92892,1,0,0:0:0:0:
192,192,92892,1,0,0:0:0:0:
448,192,92892,1,0,0:0:0:0:
64,192,92999,1,0,0:0:0:0:
448,192,92999,1,0,0:0:0:0:
192,192,93106,1,0,0:0:0:0:
320,192,93106,1,0,0:0:0:0:
64,192,93106,1,0,0:0:0:0:
448,192,93106,1,0,0:0:0:0:
64,192,93213,1,0,0:0:0:0:
192,192,93213,1,0,0:0:0:0:
320,192,93320,1,0,0:0:0:0:
64,192,93320,1,0,0:0:0:0:
448,192,93320,1,0,0:0:0:0:
192,192,93427,1,0,0:0:0:0:
448,192,93427,1,0,0:0:0:0:
192,192,93534,1,0,0:0:0:0:
320,192,93534,1,0,0:0:0:0:
448,192,93534,1,0,0:0:0:0:
64,192,93534,1,0,0:0:0:0:
320,192,93642,1,0,0:0:0:0:
64,192,93642,1,0,0:0:0:0:
64,192,93749,1,0,0:0:0:0:
192,192,93749,1,0,0:0:0:0:
448,192,93749,1,0,0:0:0:0:
192,192,93856,1,0,0:0:0:0:
448,192,93856,1,0,0:0:0:0:
64,192,93963,1,0,0:0:0:0:
320,192,93963,1,0,0:0:0:0:
192,192,93963,1,0,0:0:0:0:
448,192,93963,1,0,0:0:0:0:
192,192,94070,1,0,0:0:0:0:
448,192,94070,1,0,0:0:0:0:
320,192,94177,1,0,0:0:0:0:
448,192,94177,1,0,0:0:0:0:
64,192,94177,1,0,0:0:0:0:
64,192,94284,1,0,0:0:0:0:
320,192,94284,1,0,0:0:0:0:
192,192,94392,1,0,0:0:0:0:
448,192,94392,1,0,0:0:0:0:
320,192,94392,1,0,0:0:0:0:
64,192,94392,1,0,0:0:0:0:
64,192,94499,1,0,0:0:0:0:
320,192,94499,1,0,0:0:0:0:
192,192,94606,1,0,0:0:0:0:
320,192,94606,1,0,0:0:0:0:
64,192,94606,1,0,0:0:0:0:
448,192,94713,1,0,0:0:0:0:
64,192,94713,1,0,0:0:0:0:
64,192,94820,1,0,0:0:0:0:
192,192,94820,1,0,0:0:0:0:
448,192,94820,1,0,0:0:0:0:
320,192,94820,1,0,0:0:0:0:
320,192,94927,1,0,0:0:0:0:
448,192,94927,1,0,0:0:0:0:
192,192,95034,1,0,0:0:0:0:
448,192,95034,1,0,0:0:0:0:
320,192,95034,1,0,0:0:0:0:
64,192,95142,1,0,0:0:0:0:
192,192,95142,1,0,0:0:0:0:
320,192,95249,1,0,0:0:0:0:
448,192,95249,1,0,0:0:0:0:
64,192,95249,1,0,0:0:0:0:
192,192,95249,1,0,0:0:0:0:
192,192,95356,1,0,0:0:0:0:
448,192,95356,1,0,0:0:0:0:
64,192,95463,1,0,0:0:0:0:
320,192,95463,1,0,0:0:0:0:
192,192,95463,1,0,0:0:0:0:
320,192,95570,1,0,0:0:0:0:
448,192,95570,1,0,0:0:0:0:
64,192,95677,1,0,0:0:0:0:
192,192,95731,1,0,0:0:0:0:
320,192,95784,1,0,0:0:0:0:
192,192,95838,1,0,0:0:0:0:
64,192,95892,1,0,0:0:0:0:
448,192,95892,1,0,0:0:0:0:
320,192,95945,1,0,0:0:0:0:
192,192,95999,1,0,0:0:0:0:
320,192,96052,1,0,0:0:0:0:
192,192,96106,128,0,96427:0:0:0:0:
64,192,96106,128,0,96213:0:0:0:0:
320,192,96106,128,0,96213:0:0:0:0:
448,192,96106,1,0,0:0:0:0:
320,192,96320,128,0,96427:0:0:0:0:
448,192,96320,128,0,96427:0:0:0:0:
64,192,96320,128,0,96642:0:0:0:0:
192,192,96534,128,0,96642:0:0:0:0:
320,192,96534,128,0,96856:0:0:0:0:
448,192,96534,128,0,96642:0:0:0:0:
192,192,96749,128,0,96856:0:0:0:0:
64,192,96749,128,0,96856:0:0:0:0:
448,192,96749,128,0,97284:0:0:0:0:
320,192,96963,128,0,97284:0:0:0:0:
192,192,96963,128,0,97713:0:0:0:0:
64,192,96963,128,0,97284:0:0:0:0:
64,192,97392,128,0,97713:0:0:0:0:
320,192,97392,128,0,97713:0:0:0:0:
448,192,97392,128,0,97927:0:0:0:0:
320,192,97820,128,0,97927:0:0:0:0:
192,192,97820,128,0,97927:0:0:0:0:
64,192,97820,128,0,98142:0:0:0:0:
192,192,98034,128,0,98142:0:0:0:0:
320,192,98034,128,0,98356:0:0:0:0:
448,192,98034,128,0,98142:0:0:0:0:
448,192,98249,128,0,98356:0:0:0:0:
192,192,98249,128,0,98570:0:0:0:0:
64,192,98249,128,0,98356:0:0:0:0:
320,192,98463,128,0,98570:0:0:0:0:
448,192,98463,128,0,98570:0:0:0:0:
64,192,98463,128,0,98677:0:0:0:0:
192,192,98677,128,0,99320:0:0:0:0:
448,192,98677,128,0,99320:0:0:0:0:
320,192,98677,128,0,98784:0:0:0:0:
320,192,98892,1,0,0:0:0:0:
64,192,98892,128,0,98999:0:0:0:0:
64,192,99106,1,0,0:0:0:0:
320,192,99106,128,0,99213:0:0:0:0:
64,192,99320,1,0,0:0:0:0:
320,192,99320,1,0,0:0:0:0:
192,192,99534,1,0,0:0:0:0:
320,192,99534,1,0,0:0:0:0:
448,192,99534,1,0,0:0:0:0:
64,192,99588,1,0,0:0:0:0:
192,192,99642,1,0,0:0:0:0:
448,192,99642,1,0,0:0:0:0:
64,192,99695,1,0,0:0:0:0:
320,192,99695,1,0,0:0:0:0:
192,192,99749,1,0,0:0:0:0:
448,192,99749,1,0,0:0:0:0:
320,192,99802,1,0,0:0:0:0:
64,192,99856,1,0,0:0:0:0:
192,192,99856,1,0,0:0:0:0:
448,192,99856,1,0,0:0:0:0:
320,192,99909,1,0,0:0:0:0:
192,192,99963,1,0,0:0:0:0:
448,192,99963,1,0,0:0:0:0:
64,192,100017,1,0,0:0:0:0:
192,192,100070,1,0,0:0:0:0:
320,192,100124,1,0,0:0:0:0:
448,192,100124,1,0,0:0:0:0:
64,192,100177,1,0,0:0:0:0:
192,192,100231,1,0,0:0:0:0:
320,192,100231,1,0,0:0:0:0:
448,192,100284,1,0,0:0:0:0:
64,192,100284,1,0,0:0:0:0:
192,192,100320,1,0,0:0:0:0:
320,192,100356,1,0,0:0:0:0:
64,192,100392,1,0,0:0:0:0:
192,192,100392,1,0,0:0:0:0:
448,192,100392,1,0,0:0:0:0:
320,192,100445,1,0,0:0:0:0:
64,192,100499,1,0,0:0:0:0:
448,192,100499,1,0,0:0:0:0:
192,192,100552,1,0,0:0:0:0:
320,192,100552,1,0,0:0:0:0:
64,192,100606,1,0,0:0:0:0:
448,192,100606,1,0,0:0:0:0:
192,192,100659,1,0,0:0:0:0:
64,192,100713,1,0,0:0:0:0:
320,192,100713,1,0,0:0:0:0:
448,192,100713,1,0,0:0:0:0:
192,192,100767,1,0,0:0:0:0:
64,192,100820,1,0,0:0:0:0:
448,192,100820,1,0,0:0:0:0:
320,192,100820,1,0,0:0:0:0:
192,192,100874,1,0,0:0:0:0:
448,192,100927,1,0,0:0:0:0:
64,192,100927,1,0,0:0:0:0:
192,192,100981,1,0,0:0:0:0:
320,192,101034,1,0,0:0:0:0:
448,192,101034,1,0,0:0:0:0:
64,192,101088,1,0,0:0:0:0:
192,192,101142,1,0,0:0:0:0:
448,192,101142,1,0,0:0:0:0:
320,192,101195,1,0,0:0:0:0:
64,192,101249,1,0,0:0:0:0:
448,192,101249,1,0,0:0:0:0:
192,192,101249,1,0,0:0:0:0:
320,192,101302,1,0,0:0:0:0:
64,192,101356,1,0,0:0:0:0:
192,192,101356,1,0,0:0:0:0:
448,192,101409,1,0,0:0:0:0:
64,192,101463,1,0,0:0:0:0:
320,192,101463,1,0,0:0:0:0:
448,192,101517,1,0,0:0:0:0:
320,192,101570,1,0,0:0:0:0:
192,192,101570,1,0,0:0:0:0:
64,192,101570,1,0,0:0:0:0:
448,192,101624,1,0,0:0:0:0:
64,192,101677,1,0,0:0:0:0:
192,192,101677,1,0,0:0:0:0:
320,192,101731,1,0,0:0:0:0:
64,192,101784,1,0,0:0:0:0:
448,192,101784,1,0,0:0:0:0:
320,192,101838,1,0,0:0:0:0:
64,192,101892,1,0,0:0:0:0:
192,192,101892,1,0,0:0:0:0:
448,192,101892,1,0,0:0:0:0:
320,192,101945,1,0,0:0:0:0:
192,192,101999,1,0,0:0:0:0:
448,192,101999,1,0,0:0:0:0:
64,192,102052,1,0,0:0:0:0:
192,192,102106,1,0,0:0:0:0:
448,192,102106,1,0,0:0:0:0:
320,192,102106,1,0,0:0:0:0:
64,192,102159,1,0,0:0:0:0:
192,192,102213,1,0,0:0:0:0:
448,192,102213,1,0,0:0:0:0:
320,192,102267,1,0,0:0:0:0:
64,192,102320,1,0,0:0:0:0:
448,192,102320,1,0,0:0:0:0:
192,192,102374,1,0,0:0:0:0:
320,192,102427,1,0,0:0:0:0:
448,192,102427,1,0,0:0:0:0:
64,192,102427,1,0,0:0:0:0:
192,192,102481,1,0,0:0:0:0:
64,192,102534,1,0,0:0:0:0:
448,192,102534,1,0,0:0:0:0:
320,192,102588,1,0,0:0:0:0:
192,192,102642,1,0,0:0:0:0:
320,192,102695,1,0,0:0:0:0:
64,192,102695,1,0,0:0:0:0:
448,192,102749,1,0,0:0:0:0:
192,192,102802,1,0,0:0:0:0:
320,192,102802,1,0,0:0:0:0:
448,192,102856,1,0,0:0:0:0:
64,192,102856,1,0,0:0:0:0:
320,192,102909,1,0,0:0:0:0:
448,192,102963,1,0,0:0:0:0:
192,192,102963,1,0,0:0:0:0:
64,192,102963,1,0,0:0:0:0:
320,192,103017,1,0,0:0:0:0:
192,192,103070,1,0,0:0:0:0:
64,192,103070,1,0,0:0:0:0:
448,192,103124,1,0,0:0:0:0:
320,192,103177,1,0,0:0:0:0:
64,192,103177,1,0,0:0:0:0:
192,192,103231,1,0,0:0:0:0:
448,192,103284,1,0,0:0:0:0:
320,192,103284,1,0,0:0:0:0:
64,192,103284,1,0,0:0:0:0:
192,192,103338,1,0,0:0:0:0:
320,192,103392,1,0,0:0:0:0:
64,192,103392,1,0,0:0:0:0:
448,192,103445,1,0,0:0:0:0:
320,192,103499,1,0,0:0:0:0:
192,192,103552,1,0,0:0:0:0:
64,192,103552,1,0,0:0:0:0:
448,192,103606,1,0,0:0:0:0:
320,192,103659,1,0,0:0:0:0:
192,192,103659,1,0,0:0:0:0:
64,192,103713,1,0,0:0:0:0:
448,192,103713,1,0,0:0:0:0:
320,192,103749,1,0,0:0:0:0:
192,192,103784,1,0,0:0:0:0:
448,192,103820,1,0,0:0:0:0:
320,192,103820,1,0,0:0:0:0:
64,192,103820,1,0,0:0:0:0:
192,192,103874,1,0,0:0:0:0:
448,192,103927,1,0,0:0:0:0:
64,192,103927,1,0,0:0:0:0:
320,192,103981,1,0,0:0:0:0:
192,192,103981,1,0,0:0:0:0:
448,192,104034,1,0,0:0:0:0:
64,192,104034,1,0,0:0:0:0:
320,192,104088,1,0,0:0:0:0:
448,192,104142,1,0,0:0:0:0:
192,192,104142,1,0,0:0:0:0:
64,192,104142,1,0,0:0:0:0:
320,192,104195,1,0,0:0:0:0:
448,192,104249,1,0,0:0:0:0:
64,192,104249,1,0,0:0:0:0:
192,192,104249,1,0,0:0:0:0:
320,192,104302,1,0,0:0:0:0:
64,192,104356,1,0,0:0:0:0:
448,192,104356,1,0,0:0:0:0:
320,192,104409,1,0,0:0:0:0:
192,192,104463,1,0,0:0:0:0:
64,192,104463,1,0,0:0:0:0:
448,192,104517,1,0,0:0:0:0:
320,192,104570,1,0,0:0:0:0:
64,192,104570,1,0,0:0:0:0:
192,192,104624,1,0,0:0:0:0:
448,192,104677,1,0,0:0:0:0:
64,192,104677,1,0,0:0:0:0:
320,192,104677,1,0,0:0:0:0:
192,192,104731,1,0,0:0:0:0:
448,192,104784,1,0,0:0:0:0:
320,192,104784,1,0,0:0:0:0:
64,192,104838,1,0,0:0:0:0:
448,192,104892,1,0,0:0:0:0:
192,192,104892,1,0,0:0:0:0:
64,192,104945,1,0,0:0:0:0:
192,192,104999,1,0,0:0:0:0:
320,192,104999,1,0,0:0:0:0:
448,192,104999,1,0,0:0:0:0:
64,192,105052,1,0,0:0:0:0:
448,192,105106,1,0,0:0:0:0:
320,192,105106,1,0,0:0:0:0:
64,192,105159,1,0,0:0:0:0:
192,192,105159,1,0,0:0:0:0:
448,192,105213,1,0,0:0:0:0:
320,192,105213,1,0,0:0:0:0:
192,192,105267,1,0,0:0:0:0:
448,192,105320,1,0,0:0:0:0:
320,192,105320,1,0,0:0:0:0:
64,192,105320,1,0,0:0:0:0:
192,192,105374,1,0,0:0:0:0:
320,192,105427,1,0,0:0:0:0:
64,192,105427,1,0,0:0:0:0:
448,192,105481,1,0,0:0:0:0:
320,192,105534,1,0,0:0:0:0:
64,192,105534,1,0,0:0:0:0:
192,192,105534,1,0,0:0:0:0:
448,192,105588,1,0,0:0:0:0:
320,192,105642,1,0,0:0:0:0:
64,192,105642,1,0,0:0:0:0:
192,192,105695,1,0,0:0:0:0:
448,192,105695,1,0,0:0:0:0:
64,192,105749,1,0,0:0:0:0:
320,192,105749,1,0,0:0:0:0:
192,192,105802,1,0,0:0:0:0:
320,192,105856,1,0,0:0:0:0:
448,192,105856,1,0,0:0:0:0:
64,192,105909,1,0,0:0:0:0:
192,192,105909,1,0,0:0:0:0:
320,192,105963,1,0,0:0:0:0:
448,192,105963,1,0,0:0:0:0:
64,192,106017,1,0,0:0:0:0:
192,192,106070,1,0,0:0:0:0:
320,192,106070,1,0,0:0:0:0:
448,192,106124,1,0,0:0:0:0:
64,192,106124,1,0,0:0:0:0:
192,192,106177,1,0,0:0:0:0:
320,192,106177,1,0,0:0:0:0:
448,192,106231,1,0,0:0:0:0:
64,192,106231,1,0,0:0:0:0:
320,192,106284,1,0,0:0:0:0:
192,192,106284,1,0,0:0:0:0:
448,192,106338,1,0,0:0:0:0:
64,192,106392,1,0,0:0:0:0:
192,192,106392,1,0,0:0:0:0:
320,192,106392,1,0,0:0:0:0:
448,192,106445,1,0,0:0:0:0:
64,192,106499,1,0,0:0:0:0:
320,192,106499,1,0,0:0:0:0:
192,192,106552,1,0,0:0:0:0:
448,192,106552,1,0,0:0:0:0:
64,192,106606,1,0,0:0:0:0:
320,192,106606,1,0,0:0:0:0:
192,192,106659,1,0,0:0:0:0:
64,192,106713,1,0,0:0:0:0:
320,192,106713,1,0,0:0:0:0:
448,192,106713,1,0,0:0:0:0:
192,192,106767,1,0,0:0:0:0:
64,192,106820,1,0,0:0:0:0:
320,192,106820,1,0,0:0:0:0:
448,192,106874,1,0,0:0:0:0:
320,192,106927,1,0,0:0:0:0:
64,192,106981,1,0,0:0:0:0:
192,192,106981,1,0,0:0:0:0:
448,192,107034,1,0,0:0:0:0:
192,192,107088,1,0,0:0:0:0:
320,192,107088,1,0,0:0:0:0:
448,192,107142,1,0,0:0:0:0:
64,192,107142,1,0,0:0:0:0:
320,192,107177,1,0,0:0:0:0:
192,192,107213,1,0,0:0:0:0:
64,192,107249,1,0,0:0:0:0:
320,192,107249,1,0,0:0:0:0:
448,192,107249,1,0,0:0:0:0:
192,192,107302,1,0,0:0:0:0:
64,192,107356,1,0,0:0:0:0:
448,192,107356,1,0,0:0:0:0:
192,192,107409,1,0,0:0:0:0:
320,192,107409,1,0,0:0:0:0:
64,192,107463,1,0,0:0:0:0:
448,192,107463,1,0,0:0:0:0:
320,192,107517,1,0,0:0:0:0:
64,192,107570,1,0,0:0:0:0:
192,192,107570,1,0,0:0:0:0:
448,192,107570,1,0,0:0:0:0:
320,192,107624,1,0,0:0:0:0:
192,192,107677,1,0,0:0:0:0:
64,192,107677,1,0,0:0:0:0:
448,192,107677,1,0,0:0:0:0:
320,192,107731,1,0,0:0:0:0:
448,192,107784,1,0,0:0:0:0:
64,192,107784,1,0,0:0:0:0:
320,192,107838,1,0,0:0:0:0:
64,192,107892,1,0,0:0:0:0:
192,192,107892,1,0,0:0:0:0:
448,192,107945,1,0,0:0:0:0:
64,192,107999,1,0,0:0:0:0:
320,192,107999,1,0,0:0:0:0:
192,192,108052,1,0,0:0:0:0:
320,192,108106,1,0,0:0:0:0:
64,192,108106,1,0,0:0:0:0:
448,192,108106,1,0,0:0:0:0:
192,192,108159,1,0,0:0:0:0:
320,192,108213,1,0,0:0:0:0:
448,192,108213,1,0,0:0:0:0:
64,192,108267,1,0,0:0:0:0:
192,192,108320,1,0,0:0:0:0:
448,192,108320,1,0,0:0:0:0:
64,192,108374,1,0,0:0:0:0:
448,192,108427,1,0,0:0:0:0:
320,192,108427,1,0,0:0:0:0:
192,192,108427,1,0,0:0:0:0:
64,192,108481,1,0,0:0:0:0:
320,192,108534,1,0,0:0:0:0:
448,192,108534,1,0,0:0:0:0:
192,192,108588,1,0,0:0:0:0:
64,192,108642,1,0,0:0:0:0:
448,192,108642,1,0,0:0:0:0:
192,192,108695,1,0,0:0:0:0:
64,192,108749,1,0,0:0:0:0:
320,192,108749,1,0,0:0:0:0:
448,192,108749,1,0,0:0:0:0:
192,192,108802,1,0,0:0:0:0:
64,192,108856,1,0,0:0:0:0:
320,192,108856,1,0,0:0:0:0:
448,192,108909,1,0,0:0:0:0:
192,192,108963,1,0,0:0:0:0:
64,192,108963,1,0,0:0:0:0:
320,192,108963,1,0,0:0:0:0:
448,192,109017,1,0,0:0:0:0:
64,192,109070,1,0,0:0:0:0:
320,192,109070,1,0,0:0:0:0:
192,192,109124,1,0,0:0:0:0:
64,192,109177,1,0,0:0:0:0:
448,192,109177,1,0,0:0:0:0:
320,192,109231,1,0,0:0:0:0:
448,192,109284,1,0,0:0:0:0:
64,192,109284,1,0,0:0:0:0:
192,192,109284,1,0,0:0:0:0:
320,192,109338,1,0,0:0:0:0:
64,192,109392,1,0,0:0:0:0:
448,192,109392,1,0,0:0:0:0:
192,192,109445,1,0,0:0:0:0:
320,192,109499,1,0,0:0:0:0:
448,192,109552,1,0,0:0:0:0:
192,192,109552,1,0,0:0:0:0:
64,192,109606,1,0,0:0:0:0:
192,192,109659,1,0,0:0:0:0:
320,192,109659,1,0,0:0:0:0:
448,192,109713,1,0,0:0:0:0:
64,192,109713,1,0,0:0:0:0:
192,192,109767,1,0,0:0:0:0:
448,192,109820,1,0,0:0:0:0:
320,192,109820,1,0,0:0:0:0:
64,192,109820,1,0,0:0:0:0:
192,192,109874,1,0,0:0:0:0:
448,192,109927,1,0,0:0:0:0:
320,192,109927,1,0,0:0:0:0:
64,192,109981,1,0,0:0:0:0:
448,192,110034,1,0,0:0:0:0:
192,192,110034,1,0,0:0:0:0:
320,192,110088,1,0,0:0:0:0:
448,192,110142,1,0,0:0:0:0:
192,192,110142,1,0,0:0:0:0:
64,192,110142,1,0,0:0:0:0:
320,192,110195,1,0,0:0:0:0:
448,192,110249,1,0,0:0:0:0:
192,192,110249,1,0,0:0:0:0:
64,192,110302,1,0,0:0:0:0:
192,192,110356,1,0,0:0:0:0:
448,192,110409,1,0,0:0:0:0:
320,192,110409,1,0,0:0:0:0:
64,192,110463,1,0,0:0:0:0:
320,192,110517,1,0,0:0:0:0:
192,192,110517,1,0,0:0:0:0:
64,192,110570,1,0,0:0:0:0:
448,192,110570,1,0,0:0:0:0:
192,192,110606,1,0,0:0:0:0:
320,192,110642,1,0,0:0:0:0:
448,192,110677,1,0,0:0:0:0:
192,192,110677,1,0,0:0:0:0:
64,192,110677,1,0,0:0:0:0:
320,192,110731,1,0,0:0:0:0:
448,192,110784,1,0,0:0:0:0:
64,192,110784,1,0,0:0:0:0:
320,192,110838,1,0,0:0:0:0:
192,192,110838,1,0,0:0:0:0:
448,192,110892,1,0,0:0:0:0:
64,192,110892,1,0,0:0:0:0:
192,192,110945,1,0,0:0:0:0:
448,192,110999,1,0,0:0:0:0:
320,192,110999,1,0,0:0:0:0:
64,192,110999,1,0,0:0:0:0:
192,192,111052,1,0,0:0:0:0:
320,192,111106,1,0,0:0:0:0:
448,192,111106,1,0,0:0:0:0:
64,192,111106,1,0,0:0:0:0:
192,192,111159,1,0,0:0:0:0:
64,192,111213,1,0,0:0:0:0:
448,192,111213,1,0,0:0:0:0:
192,192,111267,1,0,0:0:0:0:
448,192,111320,1,0,0:0:0:0:
320,192,111320,1,0,0:0:0:0:
64,192,111374,1,0,0:0:0:0:
448,192,111427,1,0,0:0:0:0:
192,192,111427,1,0,0:0:0:0:
320,192,111481,1,0,0:0:0:0:
192,192,111534,1,0,0:0:0:0:
448,192,111534,1,0,0:0:0:0:
64,192,111534,1,0,0:0:0:0:
320,192,111588,1,0,0:0:0:0:
192,192,111642,1,0,0:0:0:0:
64,192,111642,1,0,0:0:0:0:
448,192,111695,1,0,0:0:0:0:
320,192,111749,1,0,0:0:0:0:
64,192,111749,1,0,0:0:0:0:
448,192,111802,1,0,0:0:0:0:
64,192,111856,1,0,0:0:0:0:
192,192,111856,1,0,0:0:0:0:
320,192,111856,1,0,0:0:0:0:
448,192,111909,1,0,0:0:0:0:
192,192,111963,1,0,0:0:0:0:
64,192,111963,1,0,0:0:0:0:
320,192,112017,1,0,0:0:0:0:
448,192,112017,1,0,0:0:0:0:
192,192,112070,1,0,0:0:0:0:
64,192,112070,1,0,0:0:0:0:
320,192,112124,1,0,0:0:0:0:
448,192,112177,1,0,0:0:0:0:
192,192,112177,1,0,0:0:0:0:
64,192,112177,1,0,0:0:0:0:
320,192,112231,1,0,0:0:0:0:
448,192,112284,1,0,0:0:0:0:
192,192,112284,1,0,0:0:0:0:
64,192,112338,1,0,0:0:0:0:
320,192,112392,1,0,0:0:0:0:
448,192,112392,1,0,0:0:0:0:
192,192,112392,1,0,0:0:0:0:
64,192,112606,1,0,0:0:0:0:
192,192,112606,1,0,0:0:0:0:
448,192,112606,1,0,0:0:0:0:
320,192,112820,1,0,0:0:0:0:
192,192,112820,1,0,0:0:0:0:
320,192,113034,1,0,0:0:0:0:
448,192,113034,1,0,0:0:0:0:
192,192,113249,1,0,0:0:0:0:
64,192,113249,1,0,0:0:0:0:
448,192,113249,1,0,0:0:0:0:
64,192,113570,1,0,0:0:0:0:
448,192,113570,1,0,0:0:0:0:
192,192,113570,1,0,0:0:0:0:
64,192,113677,1,0,0:0:0:0:
192,192,113677,1,0,0:0:0:0:
320,192,113677,1,0,0:0:0:0:
448,192,113677,1,0,0:0:0:0:
448,192,113892,1,0,0:0:0:0:
320,192,113892,1,0,0:0:0:0:
192,192,113892,1,0,0:0:0:0:
320,192,114106,1,0,0:0:0:0:
448,192,114106,1,0,0:0:0:0:
64,192,114106,1,0,0:0:0:0:
192,192,114106,1,0,0:0:0:0:
64,192,114427,1,0,0:0:0:0:
320,192,114427,1,0,0:0:0:0:
448,192,114427,1,0,0:0:0:0:
192,192,114534,1,0,0:0:0:0:
320,192,114534,1,0,0:0:0:0:
448,192,114534,1,0,0:0:0:0:
64,192,114534,1,0,0:0:0:0:
64,192,114749,1,0,0:0:0:0:
320,192,114749,1,0,0:0:0:0:
192,192,114749,1,0,0:0:0:0:
64,192,114963,1,0,0:0:0:0:
192,192,114963,1,0,0:0:0:0:
448,192,114963,1,0,0:0:0:0:
320,192,114963,1,0,0:0:0:0:
192,192,115070,1,0,0:0:0:0:
320,192,115070,1,0,0:0:0:0:
64,192,115177,1,0,0:0:0:0:
320,192,115177,1,0,0:0:0:0:
448,192,115177,1,0,0:0:0:0:
64,192,115392,1,0,0:0:0:0:
192,192,115392,1,0,0:0:0:0:
320,192,115392,1,0,0:0:0:0:
192,192,115606,1,0,0:0:0:0:
448,192,115606,1,0,0:0:0:0:
64,192,115606,1,0,0:0:0:0:
64,192,115820,1,0,0:0:0:0:
320,192,115820,1,0,0:0:0:0:
448,192,115820,1,0,0:0:0:0:
192,192,115820,1,0,0:0:0:0:
