osu file format v14

[General]
AudioFilename: audio.mp3
AudioLeadIn: 0
PreviewTime: 53624
Countdown: 0
SampleSet: Soft
StackLeniency: 0.7
Mode: 3
LetterboxInBreaks: 0
SpecialStyle: 0
WidescreenStoryboard: 1

[Editor]
DistanceSpacing: 1.2
BeatDivisor: 1
GridSize: 8
TimelineZoom: 2.6

[Metadata]
Title:Rave*it!! Rave*it!!
TitleUnicode:壊Rave*it!! 壊Rave*it!!
Artist:LeaF
ArtistUnicode:LeaF
Creator:ShioZeN_Gekkou
Version:BrEAkiNg EggSheLls
Source:
Tags:
BeatmapID:1360113
BeatmapSetID:641431

[Difficulty]
HPDrainRate:6
CircleSize:4
OverallDifficulty:6
ApproachRate:5
SliderMultiplier:1.4
SliderTickRate:1

[Events]
//Background and Video events
0,0,"Background.jpg",0,0
//Break Periods
//Storyboard Layer 0 (Background)
//Storyboard Layer 1 (Fail)
//Storyboard Layer 2 (Pass)
//Storyboard Layer 3 (Foreground)
//Storyboard Sound Samples

[TimingPoints]
535,214.285714285714,4,2,0,100,1,0
26034,-100,4,2,0,100,0,1
39320,-100,4,2,0,100,0,0
53677,-100,4,2,0,100,0,1
65677,-100,4,2,0,100,0,0

[HitObjects]
448,192,535,128,0,2249:0:0:0:0:
192,192,2249,1,0,0:0:0:0:
320,192,2677,1,0,0:0:0:0:
192,192,2892,1,0,0:0:0:0:
64,192,3106,1,0,0:0:0:0:
448,192,3320,1,0,0:0:0:0:
320,192,3534,128,0,3963:0:0:0:0:
64,192,4820,1,0,0:0:0:0:
320,192,5142,1,0,0:0:0:0:
192,192,5677,1,0,0:0:0:0:
448,192,5999,1,0,0:0:0:0:
320,192,6534,1,0,0:0:0:0:
64,192,6963,1,0,0:0:0:0:
448,192,7392,1,0,0:0:0:0:
192,192,7820,1,0,0:0:0:0:
448,192,8249,1,0,0:0:0:0:
192,192,8570,1,0,0:0:0:0:
320,192,9106,1,0,0:0:0:0:
64,192,9427,1,0,0:0:0:0:
448,192,9963,1,0,0:0:0:0:
192,192,10392,1,0,0:0:0:0:
320,192,10820,1,0,0:0:0:0:
64,192,11034,128,0,11677:0:0:0:0:
448,192,11677,1,0,0:0:0:0:
320,192,12534,128,0,13392:0:0:0:0:
64,192,13392,1,0,0:0:0:0:
192,192,13606,1,0,0:0:0:0:
320,192,13820,1,0,0:0:0:0:
448,192,14034,1,0,0:0:0:0:
64,192,14249,1,0,0:0:0:0:
192,192,14463,1,0,0:0:0:0:
448,192,14677,128,0,15106:0:0:0:0:
64,192,15106,1,0,0:0:0:0:
192,192,15749,128,0,16392:0:0:0:0:
320,192,16392,1,0,0:0:0:0:
448,192,16820,1,0,0:0:0:0:
320,192,17142,1,0,0:0:0:0:
64,192,17463,1,0,0:0:0:0:
192,192,17677,128,0,18534:0:0:0:0:
448,192,18534,1,0,0:0:0:0:
320,192,18749,128,0,19392:0:0:0:0:
64,192,19392,1,0,0:0:0:0:
448,192,19392,128,0,19820:0:0:0:0:
192,192,19820,128,0,20249:0:0:0:0:
64,192,20249,128,0,20677:0:0:0:0:
320,192,20677,128,0,21106:0:0:0:0:
64,192,21106,128,0,21534:0:0:0:0:
320,192,21534,128,0,21963:0:0:0:0:
192,192,21963,128,0,22392:0:0:0:0:
64,192,22392,128,0,22820:0:0:0:0:
448,192,22820,128,0,23249:0:0:0:0:
320,192,23249,128,0,23677:0:0:0:0:
64,192,23677,128,0,24106:0:0:0:0:
192,192,24106,128,0,24534:0:0:0:0:
320,192,24320,1,0,0:0:0:0:
448,192,24534,128,0,25392:0:0:0:0:
64,192,25392,128,0,26034:0:0:0:0:
448,192,26034,1,0,0:0:0:0:
192,192,26249,1,0,0:0:0:0:
320,192,26463,1,0,0:0:0:0:
64,192,26677,1,0,0:0:0:0:
448,192,26892,1,0,0:0:0:0:
192,192,27106,1,0,0:0:0:0:
320,192,27320,1,0,0:0:0:0:
64,192,27534,1,0,0:0:0:0:
448,192,27749,1,0,0:0:0:0:
320,192,27963,1,0,0:0:0:0:
192,192,28177,1,0,0:0:0:0:
64,192,28392,1,0,0:0:0:0:
448,192,28606,1,0,0:0:0:0:
64,192,28820,1,0,0:0:0:0:
320,192,29034,1,0,0:0:0:0:
192,192,29249,1,0,0:0:0:0:
64,192,29463,1,0,0:0:0:0:
320,192,29677,1,0,0:0:0:0:
192,192,29892,1,0,0:0:0:0:
448,192,30106,1,0,0:0:0:0:
64,192,30320,1,0,0:0:0:0:
320,192,30534,1,0,0:0:0:0:
192,192,30749,1,0,0:0:0:0:
448,192,30963,1,0,0:0:0:0:
64,192,31177,1,0,0:0:0:0:
192,192,31392,1,0,0:0:0:0:
320,192,31606,1,0,0:0:0:0:
448,192,31820,1,0,0:0:0:0:
64,192,32034,1,0,0:0:0:0:
320,192,32249,128,0,32677:0:0:0:0:
192,192,32677,1,0,0:0:0:0:
64,192,32892,1,0,0:0:0:0:
192,192,33106,1,0,0:0:0:0:
448,192,33320,1,0,0:0:0:0:
320,192,33534,1,0,0:0:0:0:
64,192,33749,1,0,0:0:0:0:
448,192,33963,1,0,0:0:0:0:
192,192,34177,1,0,0:0:0:0:
320,192,34392,1,0,0:0:0:0:
64,192,34606,1,0,0:0:0:0:
448,192,34820,1,0,0:0:0:0:
320,192,35034,1,0,0:0:0:0:
192,192,35249,1,0,0:0:0:0:
64,192,35463,1,0,0:0:0:0:
320,192,35677,1,0,0:0:0:0:
192,192,35892,1,0,0:0:0:0:
448,192,36106,1,0,0:0:0:0:
64,192,36320,1,0,0:0:0:0:
192,192,36534,1,0,0:0:0:0:
320,192,36749,1,0,0:0:0:0:
64,192,36963,1,0,0:0:0:0:
448,192,37177,1,0,0:0:0:0:
192,192,37392,1,0,0:0:0:0:
320,192,37606,1,0,0:0:0:0:
64,192,37820,1,0,0:0:0:0:
192,192,38034,1,0,0:0:0:0:
320,192,38249,1,0,0:0:0:0:
448,192,38463,1,0,0:0:0:0:
192,192,38677,1,0,0:0:0:0:
320,192,38892,1,0,0:0:0:0:
64,192,39106,1,0,0:0:0:0:
192,192,39320,1,0,0:0:0:0:
448,192,39534,1,0,0:0:0:0:
320,192,39749,1,0,0:0:0:0:
64,192,39963,128,0,40820:0:0:0:0:
320,192,40820,1,0,0:0:0:0:
320,192,41677,128,0,42534:0:0:0:0:
64,192,42534,1,0,0:0:0:0:
192,192,43392,128,0,43820:0:0:0:0:
448,192,43820,1,0,0:0:0:0:
448,192,44249,128,0,44677:0:0:0:0:
192,192,44677,1,0,0:0:0:0:
64,192,45106,128,0,45534:0:0:0:0:
320,192,45534,1,0,0:0:0:0:
320,192,45963,128,0,46392:0:0:0:0:
64,192,46392,1,0,0:0:0:0:
448,192,46820,1,0,0:0:0:0:
448,192,47249,1,0,0:0:0:0:
448,192,47677,1,0,0:0:0:0:
448,192,48106,1,0,0:0:0:0:
64,192,48534,1,0,0:0:0:0:
320,192,48749,1,0,0:0:0:0:
64,192,48963,1,0,0:0:0:0:
320,192,49177,1,0,0:0:0:0:
64,192,49392,128,0,50249:0:0:0:0:
320,192,50249,128,0,51106:0:0:0:0:
192,192,51106,128,0,51963:0:0:0:0:
448,192,51963,128,0,52820:0:0:0:0:
64,192,52820,128,0,53677:0:0:0:0:
320,192,53677,1,0,0:0:0:0:
448,192,53892,1,0,0:0:0:0:
64,192,54106,1,0,0:0:0:0:
192,192,54320,1,0,0:0:0:0:
320,192,54534,1,0,0:0:0:0:
64,192,54749,1,0,0:0:0:0:
448,192,54963,1,0,0:0:0:0:
192,192,55177,1,0,0:0:0:0:
320,192,55392,1,0,0:0:0:0:
192,192,55606,1,0,0:0:0:0:
64,192,55820,1,0,0:0:0:0:
448,192,56034,1,0,0:0:0:0:
192,192,56249,1,0,0:0:0:0:
64,192,56463,1,0,0:0:0:0:
320,192,56677,128,0,57106:0:0:0:0:
192,192,57106,1,0,0:0:0:0:
448,192,57320,1,0,0:0:0:0:
64,192,57534,1,0,0:0:0:0:
320,192,57749,1,0,0:0:0:0:
192,192,57963,1,0,0:0:0:0:
64,192,58177,1,0,0:0:0:0:
448,192,58392,1,0,0:0:0:0:
320,192,58606,1,0,0:0:0:0:
64,192,58820,1,0,0:0:0:0:
192,192,59034,1,0,0:0:0:0:
320,192,59249,1,0,0:0:0:0:
448,192,59463,1,0,0:0:0:0:
64,192,59677,128,0,60106:0:0:0:0:
320,192,60106,128,0,60534:0:0:0:0:
192,192,60534,1,0,0:0:0:0:
448,192,60749,1,0,0:0:0:0:
64,192,60963,1,0,0:0:0:0:
192,192,61177,1,0,0:0:0:0:
448,192,61392,1,0,0:0:0:0:
320,192,61606,1,0,0:0:0:0:
64,192,61820,128,0,62249:0:0:0:0:
448,192,62249,1,0,0:0:0:0:
192,192,62463,1,0,0:0:0:0:
448,192,62677,1,0,0:0:0:0:
320,192,62892,1,0,0:0:0:0:
64,192,63106,1,0,0:0:0:0:
192,192,63320,1,0,0:0:0:0:
448,192,63534,1,0,0:0:0:0:
320,192,63856,1,0,0:0:0:0:
64,192,64177,1,0,0:0:0:0:
192,192,64392,1,0,0:0:0:0:
448,192,64606,1,0,0:0:0:0:
64,192,64820,1,0,0:0:0:0:
320,192,65034,1,0,0:0:0:0:
192,192,65249,1,0,0:0:0:0:
448,192,65463,1,0,0:0:0:0:
64,192,65677,128,0,66534:0:0:0:0:
192,192,66534,1,0,0:0:0:0:
320,192,66749,1,0,0:0:0:0:
448,192,66963,1,0,0:0:0:0:
192,192,67177,1,0,0:0:0:0:
320,192,67392,1,0,0:0:0:0:
320,192,67713,128,0,68142:0:0:0:0:
64,192,68142,128,0,69213:0:0:0:0:
448,192,69213,128,0,70070:0:0:0:0:
320,192,70070,128,0,70820:0:0:0:0:
64,192,70820,128,0,72427:0:0:0:0:
448,192,72427,1,0,0:0:0:0:
448,192,72749,1,0,0:0:0:0:
448,192,73070,1,0,0:0:0:0:
320,192,73392,128,0,74142:0:0:0:0:
64,192,73820,128,0,74142:0:0:0:0:
192,192,74142,128,0,74570:0:0:0:0:
448,192,74570,128,0,75856:0:0:0:0:
320,192,75856,128,0,76927:0:0:0:0:
64,192,76927,128,0,77677:0:0:0:0:
320,192,77677,128,0,79284:0:0:0:0:
192,192,79284,1,0,0:0:0:0:
192,192,79606,1,0,0:0:0:0:
192,192,79927,1,0,0:0:0:0:
320,192,80249,1,0,0:0:0:0:
64,192,80677,1,0,0:0:0:0:
448,192,81106,128,0,81963:0:0:0:0:
192,192,81963,1,0,0:0:0:0:
64,192,82284,1,0,0:0:0:0:
320,192,82606,1,0,0:0:0:0:
64,192,82927,1,0,0:0:0:0:
448,192,83142,128,0,83570:0:0:0:0:
192,192,83892,1,0,0:0:0:0:
64,192,84213,1,0,0:0:0:0:
192,192,84534,128,0,84749:0:0:0:0:
448,192,84856,128,0,87106:0:0:0:0:
192,192,87320,1,0,0:0:0:0:
320,192,87642,1,0,0:0:0:0:
64,192,87963,1,0,0:0:0:0:
448,192,88284,1,0,0:0:0:0:
192,192,88606,1,0,0:0:0:0:
320,192,88820,1,0,0:0:0:0:
320,192,89142,1,0,0:0:0:0:
64,192,89677,1,0,0:0:0:0:
64,192,89999,1,0,0:0:0:0:
448,192,90534,1,0,0:0:0:0:
320,192,90963,1,0,0:0:0:0:
192,192,91392,1,0,0:0:0:0:
64,192,91820,1,0,0:0:0:0:
192,192,92249,1,0,0:0:0:0:
192,192,92570,1,0,0:0:0:0:
448,192,93106,1,0,0:0:0:0:
448,192,93427,1,0,0:0:0:0:
64,192,93963,1,0,0:0:0:0:
192,192,94392,1,0,0:0:0:0:
320,192,94820,1,0,0:0:0:0:
448,192,95249,1,0,0:0:0:0:
192,192,95677,128,0,96106:0:0:0:0:
64,192,96106,1,0,0:0:0:0:
320,192,96534,1,0,0:0:0:0:
192,192,96963,1,0,0:0:0:0:
448,192,97392,1,0,0:0:0:0:
64,192,97820,1,0,0:0:0:0:
192,192,98249,1,0,0:0:0:0:
64,192,98677,1,0,0:0:0:0:
448,192,98892,1,0,0:0:0:0:
64,192,99106,1,0,0:0:0:0:
448,192,99320,1,0,0:0:0:0:
64,192,99534,1,0,0:0:0:0:
320,192,99856,1,0,0:0:0:0:
192,192,100392,1,0,0:0:0:0:
448,192,100713,1,0,0:0:0:0:
64,192,101249,1,0,0:0:0:0:
320,192,101677,1,0,0:0:0:0:
192,192,102106,1,0,0:0:0:0:
448,192,102534,1,0,0:0:0:0:
320,192,102963,1,0,0:0:0:0:
64,192,103284,1,0,0:0:0:0:
448,192,103820,1,0,0:0:0:0:
192,192,104142,1,0,0:0:0:0:
448,192,104677,1,0,0:0:0:0:
192,192,105106,1,0,0:0:0:0:
320,192,105534,128,0,105963:0:0:0:0:
64,192,106392,1,0,0:0:0:0:
320,192,106713,1,0,0:0:0:0:
192,192,107249,1,0,0:0:0:0:
448,192,107570,1,0,0:0:0:0:
64,192,108106,1,0,0:0:0:0:
320,192,108534,1,0,0:0:0:0:
192,192,108963,1,0,0:0:0:0:
448,192,109392,1,0,0:0:0:0:
320,192,109820,1,0,0:0:0:0:
64,192,110142,1,0,0:0:0:0:
448,192,110677,1,0,0:0:0:0:
192,192,110999,1,0,0:0:0:0:
64,192,111534,1,0,0:0:0:0:
320,192,111963,1,0,0:0:0:0:
192,192,112392,128,0,112820:0:0:0:0:
448,192,113249,1,0,0:0:0:0:
192,192,113677,1,0,0:0:0:0:
320,192,114106,1,0,0:0:0:0:
64,192,114534,1,0,0:0:0:0:
448,192,114963,1,0,0:0:0:0:
192,192,115392,1,0,0:0:0:0:
448,192,115820,1,0,0:0:0:0:
