osu file format v14

[General]
AudioFilename: audio.mp3
AudioLeadIn: 0
PreviewTime: 53624
Countdown: 0
SampleSet: None
StackLeniency: 0.7
Mode: 3
LetterboxInBreaks: 0
SpecialStyle: 0
WidescreenStoryboard: 1

[Editor]
DistanceSpacing: 1.2
BeatDivisor: 4
GridSize: 8
TimelineZoom: 2.6

[Metadata]
Title:Rave*it!! Rave*it!!
TitleUnicode:壊Rave*it!! 壊Rave*it!!
Artist:LeaF
ArtistUnicode:LeaF
Creator:ShioZeN_Gekkou
Version:Vio*LeNt CLaWs [SV Master]
Source:
Tags:
BeatmapID:1360122
BeatmapSetID:641431

[Difficulty]
HPDrainRate:8.3
CircleSize:4
OverallDifficulty:8.5
ApproachRate:5
SliderMultiplier:1.4
SliderTickRate:1

[Events]
//Background and Video events
0,0,"Background.jpg",0,0
//Break Periods
//Storyboard Layer 0 (Background)
//Storyboard Layer 1 (Fail)
//Storyboard Layer 2 (Pass)
//Storyboard Layer 3 (Foreground)
//Storyboard Sound Samples

[TimingPoints]
535,214.285714285714,4,2,0,100,1,0
535,-100,4,2,0,100,0,0
536,-68.9655172413793,4,2,0,100,0,0
588,-133.333333333333,4,2,0,100,0,0
642,-68.9655172413793,4,2,0,100,0,0
695,-133.333333333333,4,2,0,100,0,0
749,-68.9655172413793,4,2,0,100,0,0
802,-133.333333333333,4,2,0,100,0,0
856,-68.9655172413793,4,2,0,100,0,0
909,-133.333333333333,4,2,0,100,0,0
963,-68.9655172413793,4,2,0,100,0,0
1017,-133.333333333333,4,2,0,100,0,0
1070,-68.9655172413793,4,2,0,100,0,0
1124,-133.333333333333,4,2,0,100,0,0
1177,-68.9655172413793,4,2,0,100,0,0
1231,-133.333333333333,4,2,0,100,0,0
1284,-68.9655172413793,4,2,0,100,0,0
1338,-133.333333333333,4,2,0,100,0,0
1392,-68.9655172413793,4,2,0,100,0,0
1445,-133.333333333333,4,2,0,100,0,0
1499,-68.9655172413793,4,2,0,100,0,0
1552,-133.333333333333,4,2,0,100,0,0
1606,-68.9655172413793,4,2,0,100,0,0
1659,-133.333333333333,4,2,0,100,0,0
1713,-68.9655172413793,4,2,0,100,0,0
1767,-133.333333333333,4,2,0,100,0,0
1820,-68.9655172413793,4,2,0,100,0,0
1874,-133.333333333333,4,2,0,100,0,0
1927,-68.9655172413793,4,2,0,100,0,0
1981,-133.333333333333,4,2,0,100,0,0
2034,-68.9655172413793,4,2,0,100,0,0
2088,-133.333333333333,4,2,0,100,0,0
2142,-68.9655172413793,4,2,0,100,0,0
2195,-133.333333333333,4,2,0,100,0,0
2249,6,4,2,0,100,1,0
2249,-10,4,2,0,100,0,0
2250,4000,4,2,0,100,1,0
2251,214.285714285714,4,2,0,100,1,0
2251,-57.1428571428571,4,2,0,100,0,0
2461,-400,4,2,0,100,0,0
2514,-200,4,2,0,100,0,0
2568,-133.333333333333,4,2,0,100,0,0
2621,-100,4,2,0,100,0,0
2648,-80,4,2,0,100,0,0
2677,4000,4,2,0,100,1,0
2678,214.285714285714,4,2,0,100,1,0
2678,-57.1428571428571,4,2,0,100,0,0
2784,-200,4,2,0,100,0,0
2837,-133.333333333333,4,2,0,100,0,0
2891,-66.6666666666667,4,2,0,100,0,0
2998,-200,4,2,0,100,0,0
3051,-133.333333333333,4,2,0,100,0,0
3105,-66.6666666666667,4,2,0,100,0,0
3212,-200,4,2,0,100,0,0
3266,-133.333333333333,4,2,0,100,0,0
3319,-66.6666666666667,4,2,0,100,0,0
3426,-200,4,2,0,100,0,0
3480,-133.333333333333,4,2,0,100,0,0
3535,-57.1428571428571,4,2,0,100,0,0
3560,-133.333333333333,4,2,0,100,0,0
3587,-57.1428571428571,4,2,0,100,0,0
3614,-133.333333333333,4,2,0,100,0,0
3641,-57.1428571428571,4,2,0,100,0,0
3667,-133.333333333333,4,2,0,100,0,0
3694,-57.1428571428571,4,2,0,100,0,0
3721,-133.333333333333,4,2,0,100,0,0
3748,-57.1428571428571,4,2,0,100,0,0
3775,-133.333333333333,4,2,0,100,0,0
3801,-57.1428571428571,4,2,0,100,0,0
3828,-133.333333333333,4,2,0,100,0,0
3855,-57.1428571428571,4,2,0,100,0,0
3882,-133.333333333333,4,2,0,100,0,0
3908,-57.1428571428571,4,2,0,100,0,0
3935,-133.333333333333,4,2,0,100,0,0
3962,214.285714285714,4,2,0,100,1,0
3962,-1600,4,2,0,100,0,0
4015,-833.333333333333,4,2,0,100,0,0
4069,-555.555555555556,4,2,0,100,0,0
4122,-400,4,2,0,100,0,0
4176,-322.58064516129,4,2,0,100,0,0
4229,-270.27027027027,4,2,0,100,0,0
4283,-232.558139534884,4,2,0,100,0,0
4336,-200,4,2,0,100,0,0
4390,-178.571428571429,4,2,0,100,0,0
4444,-161.290322580645,4,2,0,100,0,0
4497,-147.058823529412,4,2,0,100,0,0
4551,-133.333333333333,4,2,0,100,0,0
4604,-123.456790123457,4,2,0,100,0,0
4658,-114.942528735632,4,2,0,100,0,0
4711,-107.52688172043,4,2,0,100,0,0
4765,-66.6666666666667,4,2,0,100,0,0
4819,-100,4,2,0,100,0,0
10820,-57.1428571428571,4,2,0,100,0,0
10874,-133.333333333333,4,2,0,100,0,0
11034,-57.1428571428571,4,2,0,100,0,0
11088,-133.333333333333,4,2,0,100,0,0
11249,-57.1428571428571,4,2,0,100,0,0
11302,-133.333333333333,4,2,0,100,0,0
11463,-57.1428571428571,4,2,0,100,0,0
11517,-133.333333333333,4,2,0,100,0,0
11677,-57.1428571428571,4,2,0,100,0,0
11731,-133.333333333333,4,2,0,100,0,0
11892,-57.1428571428571,4,2,0,100,0,0
11945,-133.333333333333,4,2,0,100,0,0
12106,-57.1428571428571,4,2,0,100,0,0
12159,-133.333333333333,4,2,0,100,0,0
12320,-57.1428571428571,4,2,0,100,0,0
12374,-133.333333333333,4,2,0,100,0,0
12534,-80,4,2,0,100,0,0
12588,-133.333333333333,4,2,0,100,0,0
12642,-80,4,2,0,100,0,0
12695,-133.333333333333,4,2,0,100,0,0
12749,-80,4,2,0,100,0,0
12802,-133.333333333333,4,2,0,100,0,0
12856,-80,4,2,0,100,0,0
12909,-133.333333333333,4,2,0,100,0,0
12963,-100,4,2,0,100,0,0
13070,-57.1428571428571,4,2,0,100,0,0
13097,-133.333333333333,4,2,0,100,0,0
13124,-57.1428571428571,4,2,0,100,0,0
13151,-133.333333333333,4,2,0,100,0,0
13177,-66.6666666666667,4,2,0,100,0,0
13231,-133.333333333333,4,2,0,100,0,0
13284,-66.6666666666667,4,2,0,100,0,0
13338,-133.333333333333,4,2,0,100,0,0
13392,-66.6666666666667,4,2,0,100,0,0
13499,-133.333333333333,4,2,0,100,0,0
13606,-66.6666666666667,4,2,0,100,0,0
13713,-133.333333333333,4,2,0,100,0,0
13820,-66.6666666666667,4,2,0,100,0,0
13927,-133.333333333333,4,2,0,100,0,0
14034,-66.6666666666667,4,2,0,100,0,0
14142,-133.333333333333,4,2,0,100,0,0
14249,-66.6666666666667,4,2,0,100,0,0
14356,-133.333333333333,4,2,0,100,0,0
14463,-66.6666666666667,4,2,0,100,0,0
14570,-133.333333333333,4,2,0,100,0,0
14677,-57.1428571428571,4,2,0,100,0,0
14704,-133.333333333333,4,2,0,100,0,0
14731,-57.1428571428571,4,2,0,100,0,0
14758,-133.333333333333,4,2,0,100,0,0
14784,-57.1428571428571,4,2,0,100,0,0
14811,-133.333333333333,4,2,0,100,0,0
14838,-57.1428571428571,4,2,0,100,0,0
14865,-133.333333333333,4,2,0,100,0,0
14892,-57.1428571428571,4,2,0,100,0,0
14918,-133.333333333333,4,2,0,100,0,0
14945,-57.1428571428571,4,2,0,100,0,0
14972,-133.333333333333,4,2,0,100,0,0
14999,-57.1428571428571,4,2,0,100,0,0
15026,-133.333333333333,4,2,0,100,0,0
15052,-57.1428571428571,4,2,0,100,0,0
15079,-133.333333333333,4,2,0,100,0,0
15106,-66.6666666666667,4,2,0,100,0,0
15159,-133.333333333333,4,2,0,100,0,0
15320,-66.6666666666667,4,2,0,100,0,0
15374,-133.333333333333,4,2,0,100,0,0
15534,-66.6666666666667,4,2,0,100,0,0
15588,-133.333333333333,4,2,0,100,0,0
15749,-66.6666666666667,4,2,0,100,0,0
15802,-133.333333333333,4,2,0,100,0,0
15856,-66.6666666666667,4,2,0,100,0,0
15909,-133.333333333333,4,2,0,100,0,0
15963,-66.6666666666667,4,2,0,100,0,0
16017,-133.333333333333,4,2,0,100,0,0
16070,-66.6666666666667,4,2,0,100,0,0
16124,-133.333333333333,4,2,0,100,0,0
16284,-66.6666666666667,4,2,0,100,0,0
16338,-133.333333333333,4,2,0,100,0,0
16392,-66.6666666666667,4,2,0,100,0,0
16499,-133.333333333333,4,2,0,100,0,0
16606,-66.6666666666667,4,2,0,100,0,0
16659,-133.333333333333,4,2,0,100,0,0
16820,-80,4,2,0,100,0,0
16927,-133.333333333333,4,2,0,100,0,0
17142,-80,4,2,0,100,0,0
17249,-133.333333333333,4,2,0,100,0,0
17463,-80,4,2,0,100,0,0
17570,-133.333333333333,4,2,0,100,0,0
17624,-100,4,2,0,100,0,0
17677,-62.5,4,2,0,100,0,0
17704,-133.333333333333,4,2,0,100,0,0
17731,-62.5,4,2,0,100,0,0
17758,-133.333333333333,4,2,0,100,0,0
17784,-62.5,4,2,0,100,0,0
17811,-133.333333333333,4,2,0,100,0,0
17838,-62.5,4,2,0,100,0,0
17865,-133.333333333333,4,2,0,100,0,0
17892,-62.5,4,2,0,100,0,0
17918,-133.333333333333,4,2,0,100,0,0
17945,-62.5,4,2,0,100,0,0
17972,-133.333333333333,4,2,0,100,0,0
17999,-62.5,4,2,0,100,0,0
18026,-133.333333333333,4,2,0,100,0,0
18052,-62.5,4,2,0,100,0,0
18079,-133.333333333333,4,2,0,100,0,0
18106,-62.5,4,2,0,100,0,0
18133,-133.333333333333,4,2,0,100,0,0
18159,-62.5,4,2,0,100,0,0
18186,-133.333333333333,4,2,0,100,0,0
18213,-62.5,4,2,0,100,0,0
18240,-133.333333333333,4,2,0,100,0,0
18267,-62.5,4,2,0,100,0,0
18293,-133.333333333333,4,2,0,100,0,0
18320,-62.5,4,2,0,100,0,0
18347,-133.333333333333,4,2,0,100,0,0
18374,-62.5,4,2,0,100,0,0
18401,-133.333333333333,4,2,0,100,0,0
18427,-62.5,4,2,0,100,0,0
18454,-133.333333333333,4,2,0,100,0,0
18481,-62.5,4,2,0,100,0,0
18508,-133.333333333333,4,2,0,100,0,0
18534,-66.6666666666667,4,2,0,100,0,0
18588,-133.333333333333,4,2,0,100,0,0
18749,-95.2380952380952,4,2,0,100,0,0
24320,-100,4,2,0,100,0,0
24534,-66.6666666666667,4,2,0,100,0,0
24668,-133.333333333333,4,2,0,100,0,0
24749,-66.6666666666667,4,2,0,100,0,0
24802,-200,4,2,0,100,0,0
24856,-66.6666666666667,4,2,0,100,0,0
24883,-133.333333333333,4,2,0,100,0,0
24909,-66.6666666666667,4,2,0,100,0,0
24936,-200,4,2,0,100,0,0
24963,-66.6666666666667,4,2,0,100,0,0
25017,-200,4,2,0,100,0,0
25070,-66.6666666666667,4,2,0,100,0,0
25124,-200,4,2,0,100,0,0
25177,-66.6666666666667,4,2,0,100,0,0
25204,-133.333333333333,4,2,0,100,0,0
25231,-66.6666666666667,4,2,0,100,0,0
25258,-133.333333333333,4,2,0,100,0,0
25284,-66.6666666666667,4,2,0,100,0,0
25311,-133.333333333333,4,2,0,100,0,0
25338,-66.6666666666667,4,2,0,100,0,0
25365,-133.333333333333,4,2,0,100,0,0
25392,-66.6666666666667,4,2,0,100,0,0
25445,-200,4,2,0,100,0,0
25499,-66.6666666666667,4,2,0,100,0,0
25552,-200,4,2,0,100,0,0
25606,-66.6666666666667,4,2,0,100,0,0
25633,-133.333333333333,4,2,0,100,0,0
25659,-66.6666666666667,4,2,0,100,0,0
25686,-133.333333333333,4,2,0,100,0,0
25713,-66.6666666666667,4,2,0,100,0,0
25740,-133.333333333333,4,2,0,100,0,0
25767,-66.6666666666667,4,2,0,100,0,0
25793,-133.333333333333,4,2,0,100,0,0
25820,-66.6666666666667,4,2,0,100,0,0
25847,-133.333333333333,4,2,0,100,0,0
25874,-66.6666666666667,4,2,0,100,0,0
25901,-133.333333333333,4,2,0,100,0,0
25927,-66.6666666666667,4,2,0,100,0,0
25954,-133.333333333333,4,2,0,100,0,0
25981,-66.6666666666667,4,2,0,100,0,0
26008,-133.333333333333,4,2,0,100,0,0
26033,-100,4,2,0,100,0,1
29249,-133.333333333333,4,2,0,100,0,1
29383,-66.6666666666667,4,2,0,100,0,1
29463,-100,4,2,0,100,0,1
30963,-133.333333333333,4,2,0,100,0,1
31097,-66.6666666666667,4,2,0,100,0,1
31177,-100,4,2,0,100,0,1
32463,-133.333333333333,4,2,0,100,0,1
32597,-66.6666666666667,4,2,0,100,0,1
32677,-133.333333333333,4,2,0,100,0,1
32811,-66.6666666666667,4,2,0,100,0,1
32892,-100,4,2,0,100,0,1
35892,-133.333333333333,4,2,0,100,0,1
36026,-66.6666666666667,4,2,0,100,0,1
36106,-100,4,2,0,100,0,1
37606,-133.333333333333,4,2,0,100,0,1
37740,-66.6666666666667,4,2,0,100,0,1
37820,-133.333333333333,4,2,0,100,0,1
37954,-66.6666666666667,4,2,0,100,0,1
38034,-100,4,2,0,100,0,1
39320,-133.333333333333,4,2,0,100,0,1
39454,-66.6666666666667,4,2,0,100,0,0
39534,-133.333333333333,4,2,0,100,0,0
39668,-66.6666666666667,4,2,0,100,0,0
39749,-133.333333333333,4,2,0,100,0,0
39883,-66.6666666666667,4,2,0,100,0,0
39963,-100,4,2,0,100,0,0
40177,-66.6666666666667,4,2,0,100,0,0
40231,-133.333333333333,4,2,0,100,0,0
40284,-66.6666666666667,4,2,0,100,0,0
40338,-133.333333333333,4,2,0,100,0,0
40392,-100,4,2,0,100,0,0
40606,-1000,4,2,0,100,0,0
40659,-76.9230769230769,4,2,0,100,0,0
40820,-100,4,2,0,100,0,0
41249,-133.333333333333,4,2,0,100,0,0
41356,-66.6666666666667,4,2,0,100,0,0
41463,-133.333333333333,4,2,0,100,0,0
41570,-66.6666666666667,4,2,0,100,0,0
41677,-100,4,2,0,100,0,0
41892,-66.6666666666667,4,2,0,100,0,0
41945,-133.333333333333,4,2,0,100,0,0
41999,-66.6666666666667,4,2,0,100,0,0
42052,-133.333333333333,4,2,0,100,0,0
42106,-100,4,2,0,100,0,0
42320,-500,4,2,0,100,0,0
42374,-76.9230769230769,4,2,0,100,0,0
42534,-100,4,2,0,100,0,0
42963,-133.333333333333,4,2,0,100,0,0
43070,-66.6666666666667,4,2,0,100,0,0
43177,-133.333333333333,4,2,0,100,0,0
43284,-80,4,2,0,100,0,0
43338,-100,4,2,0,100,0,0
43392,-66.6666666666667,4,2,0,100,0,0
43499,-133.333333333333,4,2,0,100,0,0
43606,-100,4,2,0,100,0,0
43820,-66.6666666666667,4,2,0,100,0,0
43927,-133.333333333333,4,2,0,100,0,0
44034,-66.6666666666667,4,2,0,100,0,0
44142,-133.333333333333,4,2,0,100,0,0
44249,-66.6666666666667,4,2,0,100,0,0
44356,-133.333333333333,4,2,0,100,0,0
44463,-100,4,2,0,100,0,0
44677,-66.6666666666667,4,2,0,100,0,0
44784,-133.333333333333,4,2,0,100,0,0
44892,-66.6666666666667,4,2,0,100,0,0
44999,-133.333333333333,4,2,0,100,0,0
45106,-66.6666666666667,4,2,0,100,0,0
45213,-133.333333333333,4,2,0,100,0,0
45320,-100,4,2,0,100,0,0
45534,-66.6666666666667,4,2,0,100,0,0
45642,-133.333333333333,4,2,0,100,0,0
45749,-66.6666666666667,4,2,0,100,0,0
45856,-133.333333333333,4,2,0,100,0,0
45963,-66.6666666666667,4,2,0,100,0,0
46070,-133.333333333333,4,2,0,100,0,0
46177,-100,4,2,0,100,0,0
46392,-66.6666666666667,4,2,0,100,0,0
46499,-133.333333333333,4,2,0,100,0,0
46606,-66.6666666666667,4,2,0,100,0,0
46713,-133.333333333333,4,2,0,100,0,0
46820,-66.6666666666667,4,2,0,100,0,0
46927,-133.333333333333,4,2,0,100,0,0
47034,-100,4,2,0,100,0,0
47249,-66.6666666666667,4,2,0,100,0,0
47356,-133.333333333333,4,2,0,100,0,0
47463,-100,4,2,0,100,0,0
47677,-66.6666666666667,4,2,0,100,0,0
47784,-133.333333333333,4,2,0,100,0,0
47892,-100,4,2,0,100,0,0
48106,-66.6666666666667,4,2,0,100,0,0
48213,-133.333333333333,4,2,0,100,0,0
48320,-100,4,2,0,100,0,0
48534,-76.9230769230769,4,2,0,100,0,0
48588,-133.333333333333,4,2,0,100,0,0
48642,-76.9230769230769,4,2,0,100,0,0
48695,-133.333333333333,4,2,0,100,0,0
48749,-76.9230769230769,4,2,0,100,0,0
48802,-133.333333333333,4,2,0,100,0,0
48856,-76.9230769230769,4,2,0,100,0,0
48909,-133.333333333333,4,2,0,100,0,0
48963,-76.9230769230769,4,2,0,100,0,0
49017,-133.333333333333,4,2,0,100,0,0
49070,-76.9230769230769,4,2,0,100,0,0
49124,-133.333333333333,4,2,0,100,0,0
49177,-76.9230769230769,4,2,0,100,0,0
49231,-133.333333333333,4,2,0,100,0,0
49284,-76.9230769230769,4,2,0,100,0,0
49338,-133.333333333333,4,2,0,100,0,0
49392,-76.9230769230769,4,2,0,100,0,0
49445,-133.333333333333,4,2,0,100,0,0
49499,-76.9230769230769,4,2,0,100,0,0
49552,-133.333333333333,4,2,0,100,0,0
49606,-76.9230769230769,4,2,0,100,0,0
49659,-133.333333333333,4,2,0,100,0,0
49713,-76.9230769230769,4,2,0,100,0,0
49767,-133.333333333333,4,2,0,100,0,0
49820,-76.9230769230769,4,2,0,100,0,0
49874,-133.333333333333,4,2,0,100,0,0
49927,-76.9230769230769,4,2,0,100,0,0
49981,-133.333333333333,4,2,0,100,0,0
50034,-76.9230769230769,4,2,0,100,0,0
50088,-133.333333333333,4,2,0,100,0,0
50142,-76.9230769230769,4,2,0,100,0,0
50195,-133.333333333333,4,2,0,100,0,0
50249,-71.4285714285714,4,2,0,100,0,0
50356,-133.333333333333,4,2,0,100,0,0
50463,-100,4,2,0,100,0,0
50677,-71.4285714285714,4,2,0,100,0,0
50784,-133.333333333333,4,2,0,100,0,0
50892,-100,4,2,0,100,0,0
51106,-71.4285714285714,4,2,0,100,0,0
51213,-133.333333333333,4,2,0,100,0,0
51320,-100,4,2,0,100,0,0
51534,-71.4285714285714,4,2,0,100,0,0
51642,-133.333333333333,4,2,0,100,0,0
51749,-100,4,2,0,100,0,0
51963,-71.4285714285714,4,2,0,100,0,0
52070,-133.333333333333,4,2,0,100,0,0
52177,-100,4,2,0,100,0,0
52392,-71.4285714285714,4,2,0,100,0,0
52499,-133.333333333333,4,2,0,100,0,0
52606,-100,4,2,0,100,0,0
52820,-71.4285714285714,4,2,0,100,0,0
52927,-133.333333333333,4,2,0,100,0,0
53034,-100,4,2,0,100,0,0
53249,-66.6666666666667,4,2,0,100,0,0
53356,-133.333333333333,4,2,0,100,0,0
53463,-66.6666666666667,4,2,0,100,0,0
53570,-133.333333333333,4,2,0,100,0,0
53677,6,4,2,0,100,1,1
53677,-10,4,2,0,100,0,1
53678,600000000,4,2,0,100,1,1
53679,214.285714285714,4,2,0,100,1,1
53892,6,4,2,0,100,1,1
53892,-10,4,2,0,100,0,1
53893,600000000,4,2,0,100,1,1
53894,214.285714285714,4,2,0,100,1,1
54106,6,4,2,0,100,1,1
54106,-10,4,2,0,100,0,1
54107,600000000,4,2,0,100,1,1
54108,214.285714285714,4,2,0,100,1,1
54320,6,4,2,0,100,1,1
54320,-10,4,2,0,100,0,1
54321,600000000,4,2,0,100,1,1
54322,214.285714285714,4,2,0,100,1,1
54534,6,4,2,0,100,1,1
54534,-10,4,2,0,100,0,1
54535,600000000,4,2,0,100,1,1
54536,214.285714285714,4,2,0,100,1,1
54749,6,4,2,0,100,1,1
54749,-10,4,2,0,100,0,1
54750,600000000,4,2,0,100,1,1
54751,214.285714285714,4,2,0,100,1,1
54963,6,4,2,0,100,1,1
54963,-10,4,2,0,100,0,1
54964,600000000,4,2,0,100,1,1
54965,214.285714285714,4,2,0,100,1,1
55177,6,4,2,0,100,1,1
55177,-10,4,2,0,100,0,1
55178,600000000,4,2,0,100,1,1
55179,214.285714285714,4,2,0,100,1,1
55392,6,4,2,0,100,1,1
55392,-10,4,2,0,100,0,1
55393,600000000,4,2,0,100,1,1
55394,214.285714285714,4,2,0,100,1,1
55606,6,4,2,0,100,1,1
55606,-10,4,2,0,100,0,1
55607,600000000,4,2,0,100,1,1
55608,214.285714285714,4,2,0,100,1,1
55820,6,4,2,0,100,1,1
55820,-10,4,2,0,100,0,1
55821,600000000,4,2,0,100,1,1
55822,214.285714285714,4,2,0,100,1,1
56034,6,4,2,0,100,1,1
56034,-10,4,2,0,100,0,1
56035,600000000,4,2,0,100,1,1
56036,214.285714285714,4,2,0,100,1,1
56249,6,4,2,0,100,1,1
56249,-10,4,2,0,100,0,1
56250,600000000,4,2,0,100,1,1
56251,214.285714285714,4,2,0,100,1,1
56463,6,4,2,0,100,1,1
56463,-10,4,2,0,100,0,1
56464,600000000,4,2,0,100,1,1
56465,214.285714285714,4,2,0,100,1,1
56677,-66.6666666666667,4,2,0,100,0,1
56704,-133.333333333333,4,2,0,100,0,1
56731,-66.6666666666667,4,2,0,100,0,1
56758,-133.333333333333,4,2,0,100,0,1
56784,-66.6666666666667,4,2,0,100,0,1
56811,-133.333333333333,4,2,0,100,0,1
56838,-66.6666666666667,4,2,0,100,0,1
56865,-133.333333333333,4,2,0,100,0,1
56892,-66.6666666666667,4,2,0,100,0,1
56918,-133.333333333333,4,2,0,100,0,1
56945,-66.6666666666667,4,2,0,100,0,1
56972,-133.333333333333,4,2,0,100,0,1
56999,-66.6666666666667,4,2,0,100,0,1
57026,-133.333333333333,4,2,0,100,0,1
57052,-66.6666666666667,4,2,0,100,0,1
57079,-133.333333333333,4,2,0,100,0,1
57106,6,4,2,0,100,1,1
57106,-10,4,2,0,100,0,1
57107,600000000,4,2,0,100,1,1
57108,214.285714285714,4,2,0,100,1,1
57320,6,4,2,0,100,1,1
57320,-10,4,2,0,100,0,1
57321,600000000,4,2,0,100,1,1
57322,214.285714285714,4,2,0,100,1,1
57534,6,4,2,0,100,1,1
57534,-10,4,2,0,100,0,1
57535,600000000,4,2,0,100,1,1
57536,214.285714285714,4,2,0,100,1,1
57749,6,4,2,0,100,1,1
57749,-10,4,2,0,100,0,1
57750,600000000,4,2,0,100,1,1
57751,214.285714285714,4,2,0,100,1,1
57963,6,4,2,0,100,1,1
57963,-10,4,2,0,100,0,1
57964,600000000,4,2,0,100,1,1
57965,214.285714285714,4,2,0,100,1,1
58177,6,4,2,0,100,1,1
58177,-10,4,2,0,100,0,1
58178,600000000,4,2,0,100,1,1
58179,214.285714285714,4,2,0,100,1,1
58392,6,4,2,0,100,1,1
58392,-10,4,2,0,100,0,1
58393,600000000,4,2,0,100,1,1
58394,214.285714285714,4,2,0,100,1,1
58606,6,4,2,0,100,1,1
58606,-10,4,2,0,100,0,1
58607,600000000,4,2,0,100,1,1
58608,214.285714285714,4,2,0,100,1,1
58820,6,4,2,0,100,1,1
58820,-10,4,2,0,100,0,1
58821,600000000,4,2,0,100,1,1
58822,214.285714285714,4,2,0,100,1,1
59034,6,4,2,0,100,1,1
59034,-10,4,2,0,100,0,1
59035,600000000,4,2,0,100,1,1
59036,214.285714285714,4,2,0,100,1,1
59249,6,4,2,0,100,1,1
59249,-10,4,2,0,100,0,1
59250,600000000,4,2,0,100,1,1
59251,214.285714285714,4,2,0,100,1,1
59463,6,4,2,0,100,1,1
59463,-10,4,2,0,100,0,1
59464,600000000,4,2,0,100,1,1
59465,214.285714285714,4,2,0,100,1,1
59677,-66.6666666666667,4,2,0,100,0,1
59704,-133.333333333333,4,2,0,100,0,1
59731,-66.6666666666667,4,2,0,100,0,1
59758,-133.333333333333,4,2,0,100,0,1
59784,-66.6666666666667,4,2,0,100,0,1
59811,-133.333333333333,4,2,0,100,0,1
59838,-66.6666666666667,4,2,0,100,0,1
59865,-133.333333333333,4,2,0,100,0,1
59892,-66.6666666666667,4,2,0,100,0,1
59918,-133.333333333333,4,2,0,100,0,1
59945,-66.6666666666667,4,2,0,100,0,1
59972,-133.333333333333,4,2,0,100,0,1
59999,-66.6666666666667,4,2,0,100,0,1
60026,-133.333333333333,4,2,0,100,0,1
60052,-66.6666666666667,4,2,0,100,0,1
60079,-133.333333333333,4,2,0,100,0,1
60106,-66.6666666666667,4,2,0,100,0,1
60133,-133.333333333333,4,2,0,100,0,1
60159,-66.6666666666667,4,2,0,100,0,1
60186,-133.333333333333,4,2,0,100,0,1
60213,-66.6666666666667,4,2,0,100,0,1
60240,-133.333333333333,4,2,0,100,0,1
60267,-66.6666666666667,4,2,0,100,0,1
60293,-133.333333333333,4,2,0,100,0,1
60320,-66.6666666666667,4,2,0,100,0,1
60347,-133.333333333333,4,2,0,100,0,1
60374,-66.6666666666667,4,2,0,100,0,1
60401,-133.333333333333,4,2,0,100,0,1
60427,-66.6666666666667,4,2,0,100,0,1
60454,-133.333333333333,4,2,0,100,0,1
60481,-66.6666666666667,4,2,0,100,0,1
60508,-133.333333333333,4,2,0,100,0,1
60534,6,4,2,0,100,1,1
60534,-10,4,2,0,100,0,1
60535,600000000,4,2,0,100,1,1
60536,214.285714285714,4,2,0,100,1,1
60749,6,4,2,0,100,1,1
60749,-10,4,2,0,100,0,1
60750,600000000,4,2,0,100,1,1
60751,214.285714285714,4,2,0,100,1,1
60963,6,4,2,0,100,1,1
60963,-10,4,2,0,100,0,1
60964,600000000,4,2,0,100,1,1
60965,214.285714285714,4,2,0,100,1,1
61177,6,4,2,0,100,1,1
61177,-10,4,2,0,100,0,1
61178,600000000,4,2,0,100,1,1
61179,214.285714285714,4,2,0,100,1,1
61392,6,4,2,0,100,1,1
61392,-10,4,2,0,100,0,1
61393,600000000,4,2,0,100,1,1
61394,214.285714285714,4,2,0,100,1,1
61606,6,4,2,0,100,1,1
61606,-10,4,2,0,100,0,1
61607,600000000,4,2,0,100,1,1
61608,214.285714285714,4,2,0,100,1,1
62249,6,4,2,0,100,1,1
62249,-10,4,2,0,100,0,1
62250,600000000,4,2,0,100,1,1
62251,214.285714285714,4,2,0,100,1,1
62463,6,4,2,0,100,1,1
62463,-10,4,2,0,100,0,1
62464,600000000,4,2,0,100,1,1
62465,214.285714285714,4,2,0,100,1,1
62677,6,4,2,0,100,1,1
62677,-10,4,2,0,100,0,1
62678,600000000,4,2,0,100,1,1
62679,214.285714285714,4,2,0,100,1,1
62892,6,4,2,0,100,1,1
62892,-10,4,2,0,100,0,1
62893,600000000,4,2,0,100,1,1
62894,214.285714285714,4,2,0,100,1,1
63106,6,4,2,0,100,1,1
63106,-10,4,2,0,100,0,1
63107,600000000,4,2,0,100,1,1
63108,214.285714285714,4,2,0,100,1,1
63320,6,4,2,0,100,1,1
63320,-10,4,2,0,100,0,1
63321,600000000,4,2,0,100,1,1
63322,214.285714285714,4,2,0,100,1,1
63677,6,4,2,0,100,1,1
63677,-10,4,2,0,100,0,1
63678,600000000,4,2,0,100,1,1
63679,214.285714285714,4,2,0,100,1,1
63963,6,4,2,0,100,1,1
63963,-10,4,2,0,100,0,1
63964,600000000,4,2,0,100,1,1
63965,214.285714285714,4,2,0,100,1,1
64177,6,4,2,0,100,1,1
64177,-10,4,2,0,100,0,1
64178,600000000,4,2,0,100,1,1
64179,214.285714285714,4,2,0,100,1,1
64392,6,4,2,0,100,1,1
64392,-10,4,2,0,100,0,1
64393,600000000,4,2,0,100,1,1
64394,214.285714285714,4,2,0,100,1,1
64606,6,4,2,0,100,1,1
64606,-10,4,2,0,100,0,1
64607,600000000,4,2,0,100,1,1
64608,214.285714285714,4,2,0,100,1,1
64820,6,4,2,0,100,1,1
64820,-10,4,2,0,100,0,1
64821,600000000,4,2,0,100,1,1
64822,214.285714285714,4,2,0,100,1,1
65249,6,4,2,0,100,1,1
65249,-10,4,2,0,100,0,1
65250,600000000,4,2,0,100,1,1
65251,214.285714285714,4,2,0,100,1,1
65465,6,4,2,0,100,1,1
65465,-10,4,2,0,100,0,1
65466,600000000,4,2,0,100,1,1
65467,214.285714285714,4,2,0,100,1,1
65677,-100,4,2,0,100,0,0
66538,-57.1428571428571,4,2,0,100,0,0
66588,-133.333333333333,4,2,0,100,0,0
66642,-57.1428571428571,4,2,0,100,0,0
66695,-200,4,2,0,100,0,0
66749,-57.1428571428571,4,2,0,100,0,0
66802,-200,4,2,0,100,0,0
66856,-57.1428571428571,4,2,0,100,0,0
66909,-200,4,2,0,100,0,0
66963,-57.1428571428571,4,2,0,100,0,0
67017,-200,4,2,0,100,0,0
67070,-57.1428571428571,4,2,0,100,0,0
67124,-200,4,2,0,100,0,0
67177,-57.1428571428571,4,2,0,100,0,0
67231,-200,4,2,0,100,0,0
67284,-57.1428571428571,4,2,0,100,0,0
67338,-200,4,2,0,100,0,0
67392,-133.333333333333,4,2,0,100,0,0
67606,-66.6666666666667,4,2,0,100,0,0
67713,-57.1428571428571,4,2,0,100,0,0
67767,-200,4,2,0,100,0,0
67820,-57.1428571428571,4,2,0,100,0,0
67874,-200,4,2,0,100,0,0
67927,-133.333333333333,4,2,0,100,0,0
68061,-66.6666666666667,4,2,0,100,0,0
68142,-133.333333333333,4,2,0,100,0,0
68276,-66.6666666666667,4,2,0,100,0,0
68356,-57.1428571428571,4,2,0,100,0,0
68409,-200,4,2,0,100,0,0
68463,-133.333333333333,4,2,0,100,0,0
68597,-66.6666666666667,4,2,0,100,0,0
68677,-133.333333333333,4,2,0,100,0,0
68784,-66.6666666666667,4,2,0,100,0,0
68838,-133.333333333333,4,2,0,100,0,0
68945,-66.6666666666667,4,2,0,100,0,0
68999,-133.333333333333,4,2,0,100,0,0
69133,-66.6666666666667,4,2,0,100,0,0
69213,-100,4,2,0,100,0,0
69320,-57.1428571428571,4,2,0,100,0,0
69347,-200,4,2,0,100,0,0
69374,-57.1428571428571,4,2,0,100,0,0
69401,-200,4,2,0,100,0,0
69427,-57.1428571428571,4,2,0,100,0,0
69454,-200,4,2,0,100,0,0
69481,-57.1428571428571,4,2,0,100,0,0
69508,-200,4,2,0,100,0,0
69534,-57.1428571428571,4,2,0,100,0,0
69588,-200,4,2,0,100,0,0
69642,-57.1428571428571,4,2,0,100,0,0
69668,-200,4,2,0,100,0,0
69695,-57.1428571428571,4,2,0,100,0,0
69722,-200,4,2,0,100,0,0
69749,-57.1428571428571,4,2,0,100,0,0
69776,-200,4,2,0,100,0,0
69802,-57.1428571428571,4,2,0,100,0,0
69829,-200,4,2,0,100,0,0
69856,-133.333333333333,4,2,0,100,0,0
69990,-66.6666666666667,4,2,0,100,0,0
70070,-100,4,2,0,100,0,0
70392,-133.333333333333,4,2,0,100,0,0
70526,-66.6666666666667,4,2,0,100,0,0
70606,-100,4,2,0,100,0,0
70820,-57.1428571428571,4,2,0,100,0,0
70847,-200,4,2,0,100,0,0
70874,-57.1428571428571,4,2,0,100,0,0
70901,-200,4,2,0,100,0,0
70927,-57.1428571428571,4,2,0,100,0,0
70954,-200,4,2,0,100,0,0
70981,-57.1428571428571,4,2,0,100,0,0
71008,-200,4,2,0,100,0,0
71034,-57.1428571428571,4,2,0,100,0,0
71061,-200,4,2,0,100,0,0
71088,-57.1428571428571,4,2,0,100,0,0
71115,-200,4,2,0,100,0,0
71142,-57.1428571428571,4,2,0,100,0,0
71195,-200,4,2,0,100,0,0
71249,-57.1428571428571,4,2,0,100,0,0
71302,-200,4,2,0,100,0,0
71356,-133.333333333333,4,2,0,100,0,0
71490,-66.6666666666667,4,2,0,100,0,0
71570,-133.333333333333,4,2,0,100,0,0
71704,-66.6666666666667,4,2,0,100,0,0
71784,-100,4,2,0,100,0,0
71892,-57.1428571428571,4,2,0,100,0,0
71918,-200,4,2,0,100,0,0
71945,-57.1428571428571,4,2,0,100,0,0
71972,-200,4,2,0,100,0,0
71999,-57.1428571428571,4,2,0,100,0,0
72026,-200,4,2,0,100,0,0
72052,-57.1428571428571,4,2,0,100,0,0
72079,-200,4,2,0,100,0,0
72106,-133.333333333333,4,2,0,100,0,0
72240,-66.6666666666667,4,2,0,100,0,0
72320,-57.1428571428571,4,2,0,100,0,0
72374,-200,4,2,0,100,0,0
72427,-133.333333333333,4,2,0,100,0,0
72561,-66.6666666666667,4,2,0,100,0,0
72642,-57.1428571428571,4,2,0,100,0,0
72695,-200,4,2,0,100,0,0
72749,-133.333333333333,4,2,0,100,0,0
72883,-57.1428571428571,4,2,0,100,0,0
72963,-57.1428571428571,4,2,0,100,0,0
73017,-200,4,2,0,100,0,0
73070,-133.333333333333,4,2,0,100,0,0
73204,-66.6666666666667,4,2,0,100,0,0
73284,-57.1428571428571,4,2,0,100,0,0
73338,-200,4,2,0,100,0,0
73392,-57.1428571428571,4,2,0,100,0,0
73418,-200,4,2,0,100,0,0
73445,-57.1428571428571,4,2,0,100,0,0
73472,-200,4,2,0,100,0,0
73499,-57.1428571428571,4,2,0,100,0,0
73526,-200,4,2,0,100,0,0
73552,-57.1428571428571,4,2,0,100,0,0
73579,-200,4,2,0,100,0,0
73606,-57.1428571428571,4,2,0,100,0,0
73633,-200,4,2,0,100,0,0
73659,-57.1428571428571,4,2,0,100,0,0
73686,-200,4,2,0,100,0,0
73713,-57.1428571428571,4,2,0,100,0,0
73740,-200,4,2,0,100,0,0
73767,-57.1428571428571,4,2,0,100,0,0
73793,-200,4,2,0,100,0,0
73820,-57.1428571428571,4,2,0,100,0,0
73847,-200,4,2,0,100,0,0
73874,-57.1428571428571,4,2,0,100,0,0
73901,-200,4,2,0,100,0,0
73927,-57.1428571428571,4,2,0,100,0,0
73954,-200,4,2,0,100,0,0
73981,-57.1428571428571,4,2,0,100,0,0
74008,-200,4,2,0,100,0,0
74034,-100,4,2,0,100,0,0
74249,-66.6666666666667,4,2,0,100,0,0
74463,-100,4,2,0,100,0,0
74570,-57.1428571428571,4,2,0,100,0,0
74624,-200,4,2,0,100,0,0
74677,-57.1428571428571,4,2,0,100,0,0
74731,-200,4,2,0,100,0,0
74784,-133.333333333333,4,2,0,100,0,0
74918,-66.6666666666667,4,2,0,100,0,0
74999,-133.333333333333,4,2,0,100,0,0
75133,-66.6666666666667,4,2,0,100,0,0
75213,-57.1428571428571,4,2,0,100,0,0
75267,-200,4,2,0,100,0,0
75320,-133.333333333333,4,2,0,100,0,0
75454,-66.6666666666667,4,2,0,100,0,0
75534,-133.333333333333,4,2,0,100,0,0
75642,-66.6666666666667,4,2,0,100,0,0
75695,-133.333333333333,4,2,0,100,0,0
75802,-66.6666666666667,4,2,0,100,0,0
75856,-133.333333333333,4,2,0,100,0,0
75990,-66.6666666666667,4,2,0,100,0,0
76070,-57.1428571428571,4,2,0,100,0,0
76124,-200,4,2,0,100,0,0
76177,-100,4,2,0,100,0,0
76927,-57.1428571428571,4,2,0,100,0,0
76981,-200,4,2,0,100,0,0
77034,-57.1428571428571,4,2,0,100,0,0
77061,-133.333333333333,4,2,0,100,0,0
77088,-57.1428571428571,4,2,0,100,0,0
77115,-133.333333333333,4,2,0,100,0,0
77142,-57.1428571428571,4,2,0,100,0,0
77168,-133.333333333333,4,2,0,100,0,0
77195,-57.1428571428571,4,2,0,100,0,0
77222,-200,4,2,0,100,0,0
77249,-133.333333333333,4,2,0,100,0,0
77356,-66.6666666666667,4,2,0,100,0,0
77409,-133.333333333333,4,2,0,100,0,0
77517,-66.6666666666667,4,2,0,100,0,0
77570,-100,4,2,0,100,0,0
77677,-57.1428571428571,4,2,0,100,0,0
77704,-200,4,2,0,100,0,0
77731,-57.1428571428571,4,2,0,100,0,0
77758,-200,4,2,0,100,0,0
77784,-57.1428571428571,4,2,0,100,0,0
77811,-200,4,2,0,100,0,0
77838,-57.1428571428571,4,2,0,100,0,0
77865,-200,4,2,0,100,0,0
77892,-57.1428571428571,4,2,0,100,0,0
77918,-200,4,2,0,100,0,0
77945,-57.1428571428571,4,2,0,100,0,0
77972,-200,4,2,0,100,0,0
77999,-100,4,2,0,100,0,0
78213,-57.1428571428571,4,2,0,100,0,0
78240,-200,4,2,0,100,0,0
78267,-57.1428571428571,4,2,0,100,0,0
78293,-200,4,2,0,100,0,0
78320,-57.1428571428571,4,2,0,100,0,0
78374,-200,4,2,0,100,0,0
78427,-57.1428571428571,4,2,0,100,0,0
78454,-200,4,2,0,100,0,0
78481,-133.333333333333,4,2,0,100,0,0
78561,-66.6666666666667,4,2,0,100,0,0
78642,-57.1428571428571,4,2,0,100,0,0
78695,-200,4,2,0,100,0,0
78749,-57.1428571428571,4,2,0,100,0,0
78802,-200,4,2,0,100,0,0
78856,-100,4,2,0,100,0,0
78963,-133.333333333333,4,2,0,100,0,0
79097,-66.6666666666667,4,2,0,100,0,0
79177,-57.1428571428571,4,2,0,100,0,0
79231,-200,4,2,0,100,0,0
79284,-133.333333333333,4,2,0,100,0,0
79418,-66.6666666666667,4,2,0,100,0,0
79499,-57.1428571428571,4,2,0,100,0,0
79552,-200,4,2,0,100,0,0
79606,-133.333333333333,4,2,0,100,0,0
79740,-66.6666666666667,4,2,0,100,0,0
79820,-57.1428571428571,4,2,0,100,0,0
79874,-200,4,2,0,100,0,0
79927,-133.333333333333,4,2,0,100,0,0
80061,-66.6666666666667,4,2,0,100,0,0
80142,-57.1428571428571,4,2,0,100,0,0
80195,-200,4,2,0,100,0,0
80249,-57.1428571428571,4,2,0,100,0,0
80276,-200,4,2,0,100,0,0
80302,-57.1428571428571,4,2,0,100,0,0
80329,-200,4,2,0,100,0,0
80356,-57.1428571428571,4,2,0,100,0,0
80383,-200,4,2,0,100,0,0
80409,-57.1428571428571,4,2,0,100,0,0
80436,-200,4,2,0,100,0,0
80463,-57.1428571428571,4,2,0,100,0,0
80490,-200,4,2,0,100,0,0
80517,-57.1428571428571,4,2,0,100,0,0
80543,-200,4,2,0,100,0,0
80570,-57.1428571428571,4,2,0,100,0,0
80597,-200,4,2,0,100,0,0
80624,-57.1428571428571,4,2,0,100,0,0
80651,-200,4,2,0,100,0,0
80677,-100,4,2,0,100,0,0
81106,-66.6666666666667,4,2,0,100,0,0
81133,-133.333333333333,4,2,0,100,0,0
81159,-66.6666666666667,4,2,0,100,0,0
81186,-133.333333333333,4,2,0,100,0,0
81213,-66.6666666666667,4,2,0,100,0,0
81240,-133.333333333333,4,2,0,100,0,0
81267,-66.6666666666667,4,2,0,100,0,0
81293,-133.333333333333,4,2,0,100,0,0
81320,-66.6666666666667,4,2,0,100,0,0
81347,-133.333333333333,4,2,0,100,0,0
81374,-66.6666666666667,4,2,0,100,0,0
81401,-133.333333333333,4,2,0,100,0,0
81427,-66.6666666666667,4,2,0,100,0,0
81454,-133.333333333333,4,2,0,100,0,0
81481,-66.6666666666667,4,2,0,100,0,0
81508,-133.333333333333,4,2,0,100,0,0
81534,-66.6666666666667,4,2,0,100,0,0
81561,-133.333333333333,4,2,0,100,0,0
81588,-66.6666666666667,4,2,0,100,0,0
81615,-133.333333333333,4,2,0,100,0,0
81642,-66.6666666666667,4,2,0,100,0,0
81668,-133.333333333333,4,2,0,100,0,0
81695,-66.6666666666667,4,2,0,100,0,0
81722,-133.333333333333,4,2,0,100,0,0
81749,-66.6666666666667,4,2,0,100,0,0
81776,-133.333333333333,4,2,0,100,0,0
81802,-66.6666666666667,4,2,0,100,0,0
81829,-133.333333333333,4,2,0,100,0,0
81856,-66.6666666666667,4,2,0,100,0,0
81883,-133.333333333333,4,2,0,100,0,0
81909,-66.6666666666667,4,2,0,100,0,0
81936,-133.333333333333,4,2,0,100,0,0
81963,-66.6666666666667,4,2,0,100,0,0
82177,-133.333333333333,4,2,0,100,0,0
82284,-66.6666666666667,4,2,0,100,0,0
82499,-133.333333333333,4,2,0,100,0,0
82606,-57.1428571428571,4,2,0,100,0,0
82659,-200,4,2,0,100,0,0
82713,-66.6666666666667,4,2,0,100,0,0
82847,-133.333333333333,4,2,0,100,0,0
82927,-57.1428571428571,4,2,0,100,0,0
83061,-133.333333333333,4,2,0,100,0,0
83142,-66.6666666666667,4,2,0,100,0,0
83195,-133.333333333333,4,2,0,100,0,0
83249,-66.6666666666667,4,2,0,100,0,0
83302,-133.333333333333,4,2,0,100,0,0
83356,-66.6666666666667,4,2,0,100,0,0
83409,-133.333333333333,4,2,0,100,0,0
83463,-66.6666666666667,4,2,0,100,0,0
83517,-133.333333333333,4,2,0,100,0,0
83570,-66.6666666666667,4,2,0,100,0,0
83677,-100,4,2,0,100,0,0
83892,-66.6666666666667,4,2,0,100,0,0
84106,-133.333333333333,4,2,0,100,0,0
84213,-66.6666666666667,4,2,0,100,0,0
84427,-133.333333333333,4,2,0,100,0,0
84534,-66.6666666666667,4,2,0,100,0,0
84548,-133.333333333333,4,2,0,100,0,0
84561,-66.6666666666667,4,2,0,100,0,0
84575,-133.333333333333,4,2,0,100,0,0
84588,-66.6666666666667,4,2,0,100,0,0
84601,-133.333333333333,4,2,0,100,0,0
84615,-66.6666666666667,4,2,0,100,0,0
84628,-133.333333333333,4,2,0,100,0,0
84642,-66.6666666666667,4,2,0,100,0,0
84655,-133.333333333333,4,2,0,100,0,0
84668,-66.6666666666667,4,2,0,100,0,0
84682,-133.333333333333,4,2,0,100,0,0
84695,-66.6666666666667,4,2,0,100,0,0
84709,-133.333333333333,4,2,0,100,0,0
84722,-100,4,2,0,100,0,0
85177,-66.6666666666667,4,2,0,100,0,0
85191,-133.333333333333,4,2,0,100,0,0
85204,-66.6666666666667,4,2,0,100,0,0
85218,-133.333333333333,4,2,0,100,0,0
85231,-66.6666666666667,4,2,0,100,0,0
85244,-133.333333333333,4,2,0,100,0,0
85258,-66.6666666666667,4,2,0,100,0,0
85271,-133.333333333333,4,2,0,100,0,0
85284,-66.6666666666667,4,2,0,100,0,0
85298,-133.333333333333,4,2,0,100,0,0
85311,-66.6666666666667,4,2,0,100,0,0
85325,-133.333333333333,4,2,0,100,0,0
85338,-66.6666666666667,4,2,0,100,0,0
85351,-133.333333333333,4,2,0,100,0,0
85365,-66.6666666666667,4,2,0,100,0,0
85378,-133.333333333333,4,2,0,100,0,0
85392,-100,4,2,0,100,0,0
85499,-57.1428571428571,4,2,0,100,0,0
85526,-200,4,2,0,100,0,0
85552,-57.1428571428571,4,2,0,100,0,0
85579,-200,4,2,0,100,0,0
85606,-57.1428571428571,4,2,0,100,0,0
85633,-200,4,2,0,100,0,0
85659,-57.1428571428571,4,2,0,100,0,0
85686,-200,4,2,0,100,0,0
85713,-57.1428571428571,4,2,0,100,0,0
85767,-200,4,2,0,100,0,0
85820,-57.1428571428571,4,2,0,100,0,0
85874,-200,4,2,0,100,0,0
85927,-57.1428571428571,4,2,0,100,0,0
85954,-200,4,2,0,100,0,0
85981,-57.1428571428571,4,2,0,100,0,0
86008,-200,4,2,0,100,0,0
86034,-57.1428571428571,4,2,0,100,0,0
86061,-200,4,2,0,100,0,0
86088,-57.1428571428571,4,2,0,100,0,0
86115,-200,4,2,0,100,0,0
86142,-57.1428571428571,4,2,0,100,0,0
86168,-200,4,2,0,100,0,0
86195,-57.1428571428571,4,2,0,100,0,0
86222,-200,4,2,0,100,0,0
86249,-100,4,2,0,100,0,0
87320,-66.6666666666667,4,2,0,100,0,0
87534,-133.333333333333,4,2,0,100,0,0
87642,-57.1428571428571,4,2,0,100,0,0
87695,-200,4,2,0,100,0,0
87749,-57.1428571428571,4,2,0,100,0,0
87776,-200,4,2,0,100,0,0
87802,-57.1428571428571,4,2,0,100,0,0
87829,-200,4,2,0,100,0,0
87856,-57.1428571428571,4,2,0,100,0,0
87883,-200,4,2,0,100,0,0
87909,-57.1428571428571,4,2,0,100,0,0
87936,-200,4,2,0,100,0,0
87963,-57.1428571428571,4,2,0,100,0,0
87990,-200,4,2,0,100,0,0
88017,-57.1428571428571,4,2,0,100,0,0
88043,-200,4,2,0,100,0,0
88070,-57.1428571428571,4,2,0,100,0,0
88097,-200,4,2,0,100,0,0
88124,-57.1428571428571,4,2,0,100,0,0
88151,-200,4,2,0,100,0,0
88177,-57.1428571428571,4,2,0,100,0,0
88204,-200,4,2,0,100,0,0
88231,-57.1428571428571,4,2,0,100,0,0
88258,-200,4,2,0,100,0,0
88284,-66.6666666666667,4,2,0,100,0,0
88499,-133.333333333333,4,2,0,100,0,0
88606,-66.6666666666667,4,2,0,100,0,0
88740,-133.333333333333,4,2,0,100,0,0
88820,-66.6666666666667,4,2,0,100,0,0
89034,-133.333333333333,4,2,0,100,0,0
89142,-57.1428571428571,4,2,0,100,0,0
89168,-200,4,2,0,100,0,0
89195,-57.1428571428571,4,2,0,100,0,0
89222,-200,4,2,0,100,0,0
89249,-57.1428571428571,4,2,0,100,0,0
89276,-200,4,2,0,100,0,0
89302,-57.1428571428571,4,2,0,100,0,0
89329,-200,4,2,0,100,0,0
89356,-57.1428571428571,4,2,0,100,0,0
89383,-200,4,2,0,100,0,0
89409,-57.1428571428571,4,2,0,100,0,0
89436,-200,4,2,0,100,0,0
89463,-57.1428571428571,4,2,0,100,0,0
89490,-200,4,2,0,100,0,0
89517,-57.1428571428571,4,2,0,100,0,0
89543,-200,4,2,0,100,0,0
89570,-57.1428571428571,4,2,0,100,0,0
89597,-200,4,2,0,100,0,0
89624,-57.1428571428571,4,2,0,100,0,0
89651,-200,4,2,0,100,0,0
89677,-57.1428571428571,4,2,0,100,0,0
89731,-200,4,2,0,100,0,0
89784,-66.6666666666667,4,2,0,100,0,0
89918,-133.333333333333,4,2,0,100,0,0
89999,-66.6666666666667,4,2,0,100,0,0
90052,-133.333333333333,4,2,0,100,0,0
90106,-66.6666666666667,4,2,0,100,0,0
90159,-133.333333333333,4,2,0,100,0,0
90213,-66.6666666666667,4,2,0,100,0,0
90267,-133.333333333333,4,2,0,100,0,0
90320,-66.6666666666667,4,2,0,100,0,0
90374,-133.333333333333,4,2,0,100,0,0
90427,-66.6666666666667,4,2,0,100,0,0
90481,-133.333333333333,4,2,0,100,0,0
90534,-100,4,2,0,100,0,0
90749,-66.6666666666667,4,2,0,100,0,0
90802,-133.333333333333,4,2,0,100,0,0
90856,-66.6666666666667,4,2,0,100,0,0
90909,-133.333333333333,4,2,0,100,0,0
90963,-66.6666666666667,4,2,0,100,0,0
91017,-133.333333333333,4,2,0,100,0,0
91070,-66.6666666666667,4,2,0,100,0,0
91124,-133.333333333333,4,2,0,100,0,0
91177,-66.6666666666667,4,2,0,100,0,0
91231,-133.333333333333,4,2,0,100,0,0
91284,-66.6666666666667,4,2,0,100,0,0
91338,-133.333333333333,4,2,0,100,0,0
91392,-66.6666666666667,4,2,0,100,0,0
91445,-133.333333333333,4,2,0,100,0,0
91499,-66.6666666666667,4,2,0,100,0,0
91552,-133.333333333333,4,2,0,100,0,0
91606,-66.6666666666667,4,2,0,100,0,0
91659,-133.333333333333,4,2,0,100,0,0
91713,-66.6666666666667,4,2,0,100,0,0
91767,-133.333333333333,4,2,0,100,0,0
91820,-66.6666666666667,4,2,0,100,0,0
91874,-133.333333333333,4,2,0,100,0,0
91927,-66.6666666666667,4,2,0,100,0,0
91981,-133.333333333333,4,2,0,100,0,0
92034,-66.6666666666667,4,2,0,100,0,0
92088,-133.333333333333,4,2,0,100,0,0
92142,-66.6666666666667,4,2,0,100,0,0
92195,-133.333333333333,4,2,0,100,0,0
92249,-66.6666666666667,4,2,0,100,0,0
92302,-133.333333333333,4,2,0,100,0,0
92356,-66.6666666666667,4,2,0,100,0,0
92409,-133.333333333333,4,2,0,100,0,0
92463,-66.6666666666667,4,2,0,100,0,0
92517,-133.333333333333,4,2,0,100,0,0
92570,-66.6666666666667,4,2,0,100,0,0
92624,-133.333333333333,4,2,0,100,0,0
92677,-66.6666666666667,4,2,0,100,0,0
92731,-133.333333333333,4,2,0,100,0,0
92784,-66.6666666666667,4,2,0,100,0,0
92838,-133.333333333333,4,2,0,100,0,0
92892,-66.6666666666667,4,2,0,100,0,0
92945,-133.333333333333,4,2,0,100,0,0
92999,-66.6666666666667,4,2,0,100,0,0
93052,-133.333333333333,4,2,0,100,0,0
93106,-66.6666666666667,4,2,0,100,0,0
93159,-133.333333333333,4,2,0,100,0,0
93213,-66.6666666666667,4,2,0,100,0,0
93267,-133.333333333333,4,2,0,100,0,0
93320,-66.6666666666667,4,2,0,100,0,0
93374,-133.333333333333,4,2,0,100,0,0
93427,-66.6666666666667,4,2,0,100,0,0
93481,-133.333333333333,4,2,0,100,0,0
93534,-66.6666666666667,4,2,0,100,0,0
93588,-133.333333333333,4,2,0,100,0,0
93642,-66.6666666666667,4,2,0,100,0,0
93695,-133.333333333333,4,2,0,100,0,0
93749,-66.6666666666667,4,2,0,100,0,0
93802,-133.333333333333,4,2,0,100,0,0
93856,-66.6666666666667,4,2,0,100,0,0
93909,-133.333333333333,4,2,0,100,0,0
93963,-66.6666666666667,4,2,0,100,0,0
94017,-133.333333333333,4,2,0,100,0,0
94070,-66.6666666666667,4,2,0,100,0,0
94124,-133.333333333333,4,2,0,100,0,0
94177,-66.6666666666667,4,2,0,100,0,0
94231,-133.333333333333,4,2,0,100,0,0
94284,-66.6666666666667,4,2,0,100,0,0
94338,-133.333333333333,4,2,0,100,0,0
94392,-66.6666666666667,4,2,0,100,0,0
94445,-133.333333333333,4,2,0,100,0,0
94499,-66.6666666666667,4,2,0,100,0,0
94552,-133.333333333333,4,2,0,100,0,0
94606,-66.6666666666667,4,2,0,100,0,0
94659,-133.333333333333,4,2,0,100,0,0
94713,-66.6666666666667,4,2,0,100,0,0
94767,-133.333333333333,4,2,0,100,0,0
94820,-66.6666666666667,4,2,0,100,0,0
94874,-133.333333333333,4,2,0,100,0,0
94927,-66.6666666666667,4,2,0,100,0,0
94981,-133.333333333333,4,2,0,100,0,0
95034,-66.6666666666667,4,2,0,100,0,0
95088,-133.333333333333,4,2,0,100,0,0
95142,-66.6666666666667,4,2,0,100,0,0
95195,-133.333333333333,4,2,0,100,0,0
95249,-66.6666666666667,4,2,0,100,0,0
95302,-133.333333333333,4,2,0,100,0,0
95356,-66.6666666666667,4,2,0,100,0,0
95409,-133.333333333333,4,2,0,100,0,0
95463,-66.6666666666667,4,2,0,100,0,0
95517,-133.333333333333,4,2,0,100,0,0
95570,-66.6666666666667,4,2,0,100,0,0
95624,-133.333333333333,4,2,0,100,0,0
95677,-66.6666666666667,4,2,0,100,0,0
95731,-133.333333333333,4,2,0,100,0,0
95758,-133.333333333333,4,2,0,100,0,0
95784,-66.6666666666667,4,2,0,100,0,0
95811,-133.333333333333,4,2,0,100,0,0
95838,-66.6666666666667,4,2,0,100,0,0
95865,-133.333333333333,4,2,0,100,0,0
95892,-66.6666666666667,4,2,0,100,0,0
95918,-133.333333333333,4,2,0,100,0,0
95945,-66.6666666666667,4,2,0,100,0,0
95972,-133.333333333333,4,2,0,100,0,0
95999,-66.6666666666667,4,2,0,100,0,0
96026,-133.333333333333,4,2,0,100,0,0
96052,-66.6666666666667,4,2,0,100,0,0
96079,-133.333333333333,4,2,0,100,0,0
96106,-100,4,2,0,100,0,0
98892,-66.6666666666667,4,2,0,100,0,0
98999,-133.333333333333,4,2,0,100,0,0
99106,-66.6666666666667,4,2,0,100,0,0
99213,-133.333333333333,4,2,0,100,0,0
99320,-66.6666666666667,4,2,0,100,0,0
99347,-133.333333333333,4,2,0,100,0,0
99454,-66.6666666666667,4,2,0,100,0,0
99534,-100,4,2,0,100,0,0
105749,-57.1428571428571,4,2,0,100,0,0
105802,-200,4,2,0,100,0,0
105856,-57.1428571428571,4,2,0,100,0,0
105909,-200,4,2,0,100,0,0
105963,-57.1428571428571,4,2,0,100,0,0
106017,-200,4,2,0,100,0,0
106070,-57.1428571428571,4,2,0,100,0,0
106124,-200,4,2,0,100,0,0
106177,-57.1428571428571,4,2,0,100,0,0
106231,-200,4,2,0,100,0,0
106284,-57.1428571428571,4,2,0,100,0,0
106338,-200,4,2,0,100,0,0
106392,-100,4,2,0,100,0,0
112392,-133.333333333333,4,2,0,100,0,0
112526,-66.6666666666667,4,2,0,100,0,0
112606,-133.333333333333,4,2,0,100,0,0
112740,-66.6666666666667,4,2,0,100,0,0
112820,-133.333333333333,4,2,0,100,0,0
112954,-66.6666666666667,4,2,0,100,0,0
113034,-133.333333333333,4,2,0,100,0,0
113168,-66.6666666666667,4,2,0,100,0,0
113249,-133.333333333333,4,2,0,100,0,0
113463,-66.6666666666667,4,2,0,100,0,0
113570,-57.1428571428571,4,2,0,100,0,0
113624,-200,4,2,0,100,0,0
113677,-133.333333333333,4,2,0,100,0,0
113811,-66.6666666666667,4,2,0,100,0,0
113892,-133.333333333333,4,2,0,100,0,0
114026,-66.6666666666667,4,2,0,100,0,0
114106,-133.333333333333,4,2,0,100,0,0
114320,-66.6666666666667,4,2,0,100,0,0
114427,-57.1428571428571,4,2,0,100,0,0
114481,-200,4,2,0,100,0,0
114534,-133.333333333333,4,2,0,100,0,0
114668,-66.6666666666667,4,2,0,100,0,0
114749,-133.333333333333,4,2,0,100,0,0
114883,-66.6666666666667,4,2,0,100,0,0
114963,-57.1428571428571,4,2,0,100,0,0
115017,-200,4,2,0,100,0,0
115070,-57.1428571428571,4,2,0,100,0,0
115124,-200,4,2,0,100,0,0
115177,-133.333333333333,4,2,0,100,0,0
115311,-66.6666666666667,4,2,0,100,0,0
115392,-133.333333333333,4,2,0,100,0,0
115526,-66.6666666666667,4,2,0,100,0,0
115606,-133.333333333333,4,2,0,100,0,0
115740,-66.6666666666667,4,2,0,100,0,0
115820,-100,4,2,0,100,0,0

[HitObjects]
64,192,535,5,0,0:0:0:0:
320,192,535,1,0,0:0:0:0:
192,192,535,1,0,0:0:0:0:
448,192,535,1,0,0:0:0:0:
192,192,642,1,0,0:0:0:0:
64,192,642,1,0,0:0:0:0:
320,192,749,1,0,0:0:0:0:
448,192,749,1,0,0:0:0:0:
192,192,856,1,0,0:0:0:0:
64,192,963,1,0,0:0:0:0:
192,192,963,1,0,0:0:0:0:
320,192,963,1,0,0:0:0:0:
448,192,963,1,0,0:0:0:0:
448,192,1070,1,0,0:0:0:0:
320,192,1070,1,0,0:0:0:0:
64,192,1177,1,0,0:0:0:0:
192,192,1177,1,0,0:0:0:0:
320,192,1284,1,0,0:0:0:0:
64,192,1392,1,0,0:0:0:0:
192,192,1392,1,0,0:0:0:0:
320,192,1392,1,0,0:0:0:0:
448,192,1392,1,0,0:0:0:0:
64,192,1499,1,0,0:0:0:0:
192,192,1499,1,0,0:0:0:0:
320,192,1606,1,0,0:0:0:0:
448,192,1606,1,0,0:0:0:0:
64,192,1713,1,0,0:0:0:0:
64,192,1820,1,0,0:0:0:0:
192,192,1820,1,0,0:0:0:0:
320,192,1820,1,0,0:0:0:0:
448,192,1820,1,0,0:0:0:0:
320,192,1927,1,0,0:0:0:0:
448,192,1927,1,0,0:0:0:0:
64,192,2034,1,0,0:0:0:0:
192,192,2034,1,0,0:0:0:0:
448,192,2142,1,0,0:0:0:0:
64,192,2249,1,0,0:0:0:0:
192,192,2249,1,0,0:0:0:0:
320,192,2249,1,0,0:0:0:0:
448,192,2249,1,0,0:0:0:0:
320,192,2677,1,0,0:0:0:0:
192,192,2677,1,0,0:0:0:0:
448,192,2677,1,0,0:0:0:0:
64,192,2892,1,0,0:0:0:0:
192,192,2892,1,0,0:0:0:0:
320,192,2892,1,0,0:0:0:0:
64,192,3106,1,0,0:0:0:0:
192,192,3106,1,0,0:0:0:0:
320,192,3106,1,0,0:0:0:0:
64,192,3320,1,0,0:0:0:0:
192,192,3320,1,0,0:0:0:0:
320,192,3320,1,0,0:0:0:0:
64,192,3534,1,0,0:0:0:0:
192,192,3534,1,0,0:0:0:0:
448,192,3534,1,0,0:0:0:0:
320,192,3588,1,0,0:0:0:0:
448,192,3642,1,0,0:0:0:0:
64,192,3695,1,0,0:0:0:0:
448,192,3749,1,0,0:0:0:0:
320,192,3802,1,0,0:0:0:0:
64,192,3856,1,0,0:0:0:0:
320,192,3909,1,0,0:0:0:0:
448,192,3963,1,0,0:0:0:0:
192,192,3963,1,0,0:0:0:0:
64,192,4820,1,0,0:0:0:0:
192,192,4820,1,0,0:0:0:0:
320,192,4820,1,0,0:0:0:0:
448,192,4820,1,0,0:0:0:0:
448,192,4927,1,0,0:0:0:0:
64,192,4927,1,0,0:0:0:0:
192,192,4927,1,0,0:0:0:0:
320,192,5034,1,0,0:0:0:0:
64,192,5034,1,0,0:0:0:0:
64,192,5142,1,0,0:0:0:0:
192,192,5142,1,0,0:0:0:0:
320,192,5142,1,0,0:0:0:0:
448,192,5142,1,0,0:0:0:0:
448,192,5249,1,0,0:0:0:0:
192,192,5249,1,0,0:0:0:0:
320,192,5249,1,0,0:0:0:0:
64,192,5356,1,0,0:0:0:0:
320,192,5356,1,0,0:0:0:0:
192,192,5463,1,0,0:0:0:0:
64,192,5463,1,0,0:0:0:0:
448,192,5570,1,0,0:0:0:0:
64,192,5570,1,0,0:0:0:0:
192,192,5606,1,0,0:0:0:0:
320,192,5642,1,0,0:0:0:0:
64,192,5677,1,0,0:0:0:0:
192,192,5677,1,0,0:0:0:0:
448,192,5677,1,0,0:0:0:0:
64,192,5784,1,0,0:0:0:0:
320,192,5784,1,0,0:0:0:0:
192,192,5784,1,0,0:0:0:0:
192,192,5892,1,0,0:0:0:0:
448,192,5892,1,0,0:0:0:0:
64,192,5999,1,0,0:0:0:0:
192,192,5999,1,0,0:0:0:0:
320,192,5999,1,0,0:0:0:0:
448,192,5999,1,0,0:0:0:0:
64,192,6106,1,0,0:0:0:0:
192,192,6106,1,0,0:0:0:0:
448,192,6106,1,0,0:0:0:0:
320,192,6159,1,0,0:0:0:0:
448,192,6213,1,0,0:0:0:0:
64,192,6213,1,0,0:0:0:0:
320,192,6320,1,0,0:0:0:0:
448,192,6320,1,0,0:0:0:0:
64,192,6427,1,0,0:0:0:0:
320,192,6427,1,0,0:0:0:0:
64,192,6534,1,0,0:0:0:0:
320,192,6534,1,0,0:0:0:0:
448,192,6534,1,0,0:0:0:0:
192,192,6534,1,0,0:0:0:0:
64,192,6642,1,0,0:0:0:0:
320,192,6642,1,0,0:0:0:0:
448,192,6642,1,0,0:0:0:0:
192,192,6749,1,0,0:0:0:0:
448,192,6749,1,0,0:0:0:0:
320,192,6856,1,0,0:0:0:0:
448,192,6856,1,0,0:0:0:0:
192,192,6856,1,0,0:0:0:0:
64,192,6856,1,0,0:0:0:0:
192,192,6963,1,0,0:0:0:0:
448,192,6963,1,0,0:0:0:0:
64,192,6963,1,0,0:0:0:0:
64,192,7070,1,0,0:0:0:0:
320,192,7070,1,0,0:0:0:0:
64,192,7177,1,0,0:0:0:0:
192,192,7177,1,0,0:0:0:0:
320,192,7177,1,0,0:0:0:0:
448,192,7177,1,0,0:0:0:0:
192,192,7284,1,0,0:0:0:0:
320,192,7284,1,0,0:0:0:0:
64,192,7392,1,0,0:0:0:0:
192,192,7392,1,0,0:0:0:0:
320,192,7392,1,0,0:0:0:0:
448,192,7392,1,0,0:0:0:0:
64,192,7499,1,0,0:0:0:0:
448,192,7499,1,0,0:0:0:0:
192,192,7499,1,0,0:0:0:0:
448,192,7606,1,0,0:0:0:0:
320,192,7606,1,0,0:0:0:0:
64,192,7713,1,0,0:0:0:0:
192,192,7713,1,0,0:0:0:0:
448,192,7820,1,0,0:0:0:0:
320,192,7820,1,0,0:0:0:0:
192,192,7820,1,0,0:0:0:0:
64,192,7927,1,0,0:0:0:0:
320,192,7927,1,0,0:0:0:0:
448,192,8034,1,0,0:0:0:0:
64,192,8034,1,0,0:0:0:0:
320,192,8088,1,0,0:0:0:0:
448,192,8142,1,0,0:0:0:0:
192,192,8142,1,0,0:0:0:0:
320,192,8195,1,0,0:0:0:0:
448,192,8249,1,0,0:0:0:0:
192,192,8249,1,0,0:0:0:0:
64,192,8249,1,0,0:0:0:0:
64,192,8356,1,0,0:0:0:0:
448,192,8356,1,0,0:0:0:0:
320,192,8356,1,0,0:0:0:0:
192,192,8463,1,0,0:0:0:0:
448,192,8463,1,0,0:0:0:0:
448,192,8570,1,0,0:0:0:0:
320,192,8570,1,0,0:0:0:0:
192,192,8570,1,0,0:0:0:0:
64,192,8570,1,0,0:0:0:0:
64,192,8677,1,0,0:0:0:0:
320,192,8677,1,0,0:0:0:0:
192,192,8677,1,0,0:0:0:0:
448,192,8784,1,0,0:0:0:0:
192,192,8784,1,0,0:0:0:0:
320,192,8892,1,0,0:0:0:0:
448,192,8892,1,0,0:0:0:0:
64,192,8999,1,0,0:0:0:0:
448,192,8999,1,0,0:0:0:0:
320,192,9034,1,0,0:0:0:0:
192,192,9070,1,0,0:0:0:0:
448,192,9106,1,0,0:0:0:0:
320,192,9106,1,0,0:0:0:0:
64,192,9106,1,0,0:0:0:0:
448,192,9213,1,0,0:0:0:0:
192,192,9213,1,0,0:0:0:0:
320,192,9213,1,0,0:0:0:0:
320,192,9320,1,0,0:0:0:0:
64,192,9320,1,0,0:0:0:0:
448,192,9427,1,0,0:0:0:0:
320,192,9427,1,0,0:0:0:0:
192,192,9427,1,0,0:0:0:0:
64,192,9427,1,0,0:0:0:0:
448,192,9534,1,0,0:0:0:0:
320,192,9534,1,0,0:0:0:0:
64,192,9534,1,0,0:0:0:0:
192,192,9588,1,0,0:0:0:0:
64,192,9642,1,0,0:0:0:0:
448,192,9642,1,0,0:0:0:0:
192,192,9749,1,0,0:0:0:0:
64,192,9749,1,0,0:0:0:0:
448,192,9856,1,0,0:0:0:0:
192,192,9856,1,0,0:0:0:0:
448,192,9963,1,0,0:0:0:0:
320,192,9963,1,0,0:0:0:0:
192,192,9963,1,0,0:0:0:0:
64,192,9963,1,0,0:0:0:0:
448,192,10070,1,0,0:0:0:0:
192,192,10070,1,0,0:0:0:0:
64,192,10070,1,0,0:0:0:0:
320,192,10177,1,0,0:0:0:0:
64,192,10177,1,0,0:0:0:0:
192,192,10284,1,0,0:0:0:0:
64,192,10284,1,0,0:0:0:0:
320,192,10284,1,0,0:0:0:0:
448,192,10284,1,0,0:0:0:0:
320,192,10392,1,0,0:0:0:0:
64,192,10392,1,0,0:0:0:0:
448,192,10392,1,0,0:0:0:0:
448,192,10499,1,0,0:0:0:0:
192,192,10499,1,0,0:0:0:0:
448,192,10606,1,0,0:0:0:0:
320,192,10606,1,0,0:0:0:0:
192,192,10606,1,0,0:0:0:0:
64,192,10606,1,0,0:0:0:0:
320,192,10713,1,0,0:0:0:0:
192,192,10713,1,0,0:0:0:0:
448,192,10820,1,0,0:0:0:0:
320,192,10820,1,0,0:0:0:0:
192,192,10820,1,0,0:0:0:0:
64,192,10820,1,0,0:0:0:0:
64,192,11034,1,0,0:0:0:0:
192,192,11034,1,0,0:0:0:0:
320,192,11034,1,0,0:0:0:0:
192,192,11249,1,0,0:0:0:0:
320,192,11249,1,0,0:0:0:0:
448,192,11249,1,0,0:0:0:0:
448,192,11463,1,0,0:0:0:0:
64,192,11463,1,0,0:0:0:0:
320,192,11463,1,0,0:0:0:0:
64,192,11677,1,0,0:0:0:0:
448,192,11677,1,0,0:0:0:0:
192,192,11677,1,0,0:0:0:0:
448,192,11892,1,0,0:0:0:0:
320,192,11892,1,0,0:0:0:0:
448,192,12106,1,0,0:0:0:0:
64,192,12106,1,0,0:0:0:0:
64,192,12320,1,0,0:0:0:0:
192,192,12320,1,0,0:0:0:0:
192,192,12534,1,0,0:0:0:0:
320,192,12534,1,0,0:0:0:0:
64,192,12642,1,0,0:0:0:0:
320,192,12642,1,0,0:0:0:0:
192,192,12749,1,0,0:0:0:0:
320,192,12749,1,0,0:0:0:0:
64,192,12856,1,0,0:0:0:0:
320,192,12856,1,0,0:0:0:0:
192,192,12963,1,0,0:0:0:0:
320,192,12963,1,0,0:0:0:0:
448,192,13070,1,0,0:0:0:0:
64,192,13070,1,0,0:0:0:0:
192,192,13124,1,0,0:0:0:0:
320,192,13177,1,0,0:0:0:0:
64,192,13177,1,0,0:0:0:0:
448,192,13284,1,0,0:0:0:0:
64,192,13284,1,0,0:0:0:0:
192,192,13284,1,0,0:0:0:0:
192,192,13392,1,0,0:0:0:0:
320,192,13392,1,0,0:0:0:0:
448,192,13392,1,0,0:0:0:0:
64,192,13606,1,0,0:0:0:0:
192,192,13606,1,0,0:0:0:0:
320,192,13606,1,0,0:0:0:0:
64,192,13820,1,0,0:0:0:0:
192,192,13820,1,0,0:0:0:0:
448,192,13820,1,0,0:0:0:0:
64,192,14034,1,0,0:0:0:0:
320,192,14034,1,0,0:0:0:0:
448,192,14034,1,0,0:0:0:0:
64,192,14249,1,0,0:0:0:0:
192,192,14249,1,0,0:0:0:0:
320,192,14249,1,0,0:0:0:0:
64,192,14463,1,0,0:0:0:0:
320,192,14463,1,0,0:0:0:0:
448,192,14463,1,0,0:0:0:0:
192,192,14677,1,0,0:0:0:0:
448,192,14677,1,0,0:0:0:0:
320,192,14677,1,0,0:0:0:0:
64,192,14731,1,0,0:0:0:0:
448,192,14784,1,0,0:0:0:0:
192,192,14784,1,0,0:0:0:0:
320,192,14838,1,0,0:0:0:0:
64,192,14892,1,0,0:0:0:0:
192,192,14892,1,0,0:0:0:0:
448,192,14945,1,0,0:0:0:0:
192,192,14999,1,0,0:0:0:0:
64,192,14999,1,0,0:0:0:0:
320,192,15052,1,0,0:0:0:0:
64,192,15106,1,0,0:0:0:0:
448,192,15106,1,0,0:0:0:0:
192,192,15106,1,0,0:0:0:0:
64,192,15320,1,0,0:0:0:0:
320,192,15320,1,0,0:0:0:0:
64,192,15534,1,0,0:0:0:0:
448,192,15534,1,0,0:0:0:0:
448,192,15749,1,0,0:0:0:0:
192,192,15749,1,0,0:0:0:0:
320,192,15856,1,0,0:0:0:0:
192,192,15856,1,0,0:0:0:0:
64,192,15856,1,0,0:0:0:0:
448,192,15963,1,0,0:0:0:0:
192,192,15963,1,0,0:0:0:0:
320,192,16070,1,0,0:0:0:0:
192,192,16070,1,0,0:0:0:0:
64,192,16070,1,0,0:0:0:0:
320,192,16284,1,0,0:0:0:0:
64,192,16284,1,0,0:0:0:0:
448,192,16392,1,0,0:0:0:0:
192,192,16392,1,0,0:0:0:0:
64,192,16392,1,0,0:0:0:0:
64,192,16606,1,0,0:0:0:0:
320,192,16606,1,0,0:0:0:0:
64,192,16820,1,0,0:0:0:0:
448,192,16820,1,0,0:0:0:0:
320,192,16820,1,0,0:0:0:0:
192,192,16927,1,0,0:0:0:0:
320,192,16927,1,0,0:0:0:0:
448,192,16927,1,0,0:0:0:0:
64,192,16927,1,0,0:0:0:0:
192,192,17142,1,0,0:0:0:0:
320,192,17142,1,0,0:0:0:0:
448,192,17142,1,0,0:0:0:0:
64,192,17249,1,0,0:0:0:0:
192,192,17249,1,0,0:0:0:0:
320,192,17249,1,0,0:0:0:0:
448,192,17249,1,0,0:0:0:0:
64,192,17463,1,0,0:0:0:0:
448,192,17463,1,0,0:0:0:0:
192,192,17463,1,0,0:0:0:0:
320,192,17570,1,0,0:0:0:0:
192,192,17570,1,0,0:0:0:0:
448,192,17570,1,0,0:0:0:0:
64,192,17677,1,0,0:0:0:0:
192,192,17677,1,0,0:0:0:0:
320,192,17677,1,0,0:0:0:0:
448,192,17731,1,0,0:0:0:0:
320,192,17784,1,0,0:0:0:0:
64,192,17784,1,0,0:0:0:0:
448,192,17838,1,0,0:0:0:0:
192,192,17892,1,0,0:0:0:0:
64,192,17892,1,0,0:0:0:0:
320,192,17945,1,0,0:0:0:0:
192,192,17999,1,0,0:0:0:0:
448,192,17999,1,0,0:0:0:0:
64,192,18052,1,0,0:0:0:0:
448,192,18106,1,0,0:0:0:0:
192,192,18106,1,0,0:0:0:0:
320,192,18159,1,0,0:0:0:0:
448,192,18213,1,0,0:0:0:0:
192,192,18213,1,0,0:0:0:0:
64,192,18267,1,0,0:0:0:0:
192,192,18320,1,0,0:0:0:0:
448,192,18320,1,0,0:0:0:0:
64,192,18374,1,0,0:0:0:0:
320,192,18427,1,0,0:0:0:0:
192,192,18427,1,0,0:0:0:0:
448,192,18481,1,0,0:0:0:0:
64,192,18534,1,0,0:0:0:0:
192,192,18534,1,0,0:0:0:0:
320,192,18534,1,0,0:0:0:0:
320,192,18749,1,0,0:0:0:0:
192,192,18749,1,0,0:0:0:0:
64,192,18749,1,0,0:0:0:0:
320,192,18856,1,0,0:0:0:0:
64,192,18856,1,0,0:0:0:0:
192,192,18963,1,0,0:0:0:0:
448,192,18963,1,0,0:0:0:0:
64,192,18963,1,0,0:0:0:0:
64,192,19070,1,0,0:0:0:0:
192,192,19070,1,0,0:0:0:0:
448,192,19177,1,0,0:0:0:0:
320,192,19177,1,0,0:0:0:0:
64,192,19177,1,0,0:0:0:0:
320,192,19284,1,0,0:0:0:0:
192,192,19284,1,0,0:0:0:0:
64,192,19392,128,0,20088:0:0:0:0:
192,192,19392,1,0,0:0:0:0:
448,192,19392,1,0,0:0:0:0:
320,192,19392,1,0,0:0:0:0:
192,192,19606,1,0,0:0:0:0:
320,192,19606,1,0,0:0:0:0:
192,192,19820,1,0,0:0:0:0:
320,192,19820,1,0,0:0:0:0:
448,192,19820,1,0,0:0:0:0:
448,192,19927,1,0,0:0:0:0:
192,192,20034,1,0,0:0:0:0:
320,192,20034,1,0,0:0:0:0:
64,192,20142,1,0,0:0:0:0:
320,192,20142,1,0,0:0:0:0:
192,192,20249,1,0,0:0:0:0:
448,192,20249,1,0,0:0:0:0:
320,192,20249,1,0,0:0:0:0:
448,192,20463,1,0,0:0:0:0:
320,192,20463,1,0,0:0:0:0:
64,192,20570,1,0,0:0:0:0:
192,192,20570,1,0,0:0:0:0:
448,192,20677,1,0,0:0:0:0:
320,192,20677,1,0,0:0:0:0:
64,192,20677,1,0,0:0:0:0:
320,192,20784,1,0,0:0:0:0:
192,192,20784,1,0,0:0:0:0:
320,192,20892,1,0,0:0:0:0:
64,192,20892,1,0,0:0:0:0:
320,192,20999,1,0,0:0:0:0:
192,192,20999,1,0,0:0:0:0:
448,192,20999,1,0,0:0:0:0:
448,192,21106,1,0,0:0:0:0:
64,192,21106,1,0,0:0:0:0:
320,192,21106,1,0,0:0:0:0:
320,192,21320,1,0,0:0:0:0:
192,192,21320,1,0,0:0:0:0:
320,192,21427,1,0,0:0:0:0:
192,192,21427,1,0,0:0:0:0:
320,192,21534,1,0,0:0:0:0:
64,192,21534,1,0,0:0:0:0:
192,192,21534,1,0,0:0:0:0:
192,192,21749,1,0,0:0:0:0:
448,192,21749,1,0,0:0:0:0:
448,192,21963,1,0,0:0:0:0:
64,192,21963,1,0,0:0:0:0:
192,192,22177,1,0,0:0:0:0:
448,192,22177,1,0,0:0:0:0:
64,192,22392,1,0,0:0:0:0:
320,192,22392,1,0,0:0:0:0:
192,192,22392,1,0,0:0:0:0:
448,192,22820,1,0,0:0:0:0:
192,192,22820,1,0,0:0:0:0:
320,192,22820,1,0,0:0:0:0:
64,192,23034,1,0,0:0:0:0:
320,192,23034,1,0,0:0:0:0:
320,192,23142,1,0,0:0:0:0:
192,192,23142,1,0,0:0:0:0:
192,192,23249,1,0,0:0:0:0:
448,192,23249,1,0,0:0:0:0:
64,192,23463,1,0,0:0:0:0:
320,192,23463,1,0,0:0:0:0:
64,192,23677,1,0,0:0:0:0:
192,192,23677,1,0,0:0:0:0:
448,192,23677,1,0,0:0:0:0:
192,192,23892,1,0,0:0:0:0:
448,192,23892,1,0,0:0:0:0:
64,192,23892,1,0,0:0:0:0:
64,192,23999,1,0,0:0:0:0:
320,192,23999,1,0,0:0:0:0:
320,192,24106,1,0,0:0:0:0:
192,192,24106,1,0,0:0:0:0:
448,192,24106,1,0,0:0:0:0:
64,192,24213,1,0,0:0:0:0:
192,192,24213,1,0,0:0:0:0:
320,192,24320,128,0,24481:0:0:0:0:
64,192,24320,128,0,24481:0:0:0:0:
192,192,24427,128,0,24481:0:0:0:0:
448,192,24427,128,0,24481:0:0:0:0:
64,192,24534,1,0,0:0:0:0:
192,192,24534,1,0,0:0:0:0:
448,192,24534,1,0,0:0:0:0:
320,192,24534,1,0,0:0:0:0:
64,192,24749,1,0,0:0:0:0:
192,192,24749,1,0,0:0:0:0:
320,192,24749,1,0,0:0:0:0:
64,192,24856,1,0,0:0:0:0:
448,192,24856,1,0,0:0:0:0:
192,192,24909,1,0,0:0:0:0:
320,192,24963,1,0,0:0:0:0:
448,192,24963,1,0,0:0:0:0:
64,192,24963,1,0,0:0:0:0:
192,192,25070,1,0,0:0:0:0:
320,192,25070,1,0,0:0:0:0:
448,192,25177,1,0,0:0:0:0:
320,192,25231,1,0,0:0:0:0:
192,192,25284,1,0,0:0:0:0:
320,192,25338,1,0,0:0:0:0:
448,192,25392,1,0,0:0:0:0:
192,192,25392,1,0,0:0:0:0:
64,192,25392,1,0,0:0:0:0:
192,192,25499,1,0,0:0:0:0:
320,192,25499,1,0,0:0:0:0:
64,192,25606,1,0,0:0:0:0:
192,192,25659,1,0,0:0:0:0:
320,192,25713,1,0,0:0:0:0:
192,192,25767,1,0,0:0:0:0:
64,192,25820,1,0,0:0:0:0:
448,192,25820,1,0,0:0:0:0:
320,192,25820,1,0,0:0:0:0:
192,192,25874,1,0,0:0:0:0:
64,192,25927,1,0,0:0:0:0:
448,192,25927,1,0,0:0:0:0:
320,192,25981,1,0,0:0:0:0:
192,192,26034,1,0,0:0:0:0:
64,192,26034,1,0,0:0:0:0:
448,192,26142,1,0,0:0:0:0:
192,192,26142,1,0,0:0:0:0:
64,192,26249,5,0,0:0:0:0:
320,192,26249,1,0,0:0:0:0:
448,192,26249,1,0,0:0:0:0:
192,192,26249,1,0,0:0:0:0:
64,192,26356,1,0,0:0:0:0:
448,192,26356,1,0,0:0:0:0:
192,192,26356,1,0,0:0:0:0:
192,192,26463,1,0,0:0:0:0:
320,192,26463,1,0,0:0:0:0:
448,192,26463,1,0,0:0:0:0:
192,192,26570,1,0,0:0:0:0:
64,192,26570,1,0,0:0:0:0:
64,192,26677,1,0,0:0:0:0:
320,192,26677,1,0,0:0:0:0:
448,192,26677,1,0,0:0:0:0:
192,192,26677,1,0,0:0:0:0:
320,192,26784,1,0,0:0:0:0:
192,192,26784,1,0,0:0:0:0:
64,192,26784,1,0,0:0:0:0:
64,192,26892,1,0,0:0:0:0:
192,192,26892,1,0,0:0:0:0:
448,192,26892,1,0,0:0:0:0:
448,192,26999,1,0,0:0:0:0:
320,192,26999,1,0,0:0:0:0:
64,192,27106,1,0,0:0:0:0:
192,192,27106,1,0,0:0:0:0:
320,192,27106,1,0,0:0:0:0:
448,192,27106,1,0,0:0:0:0:
192,192,27213,1,0,0:0:0:0:
448,192,27213,1,0,0:0:0:0:
320,192,27213,1,0,0:0:0:0:
64,192,27320,1,0,0:0:0:0:
448,192,27320,1,0,0:0:0:0:
320,192,27320,1,0,0:0:0:0:
64,192,27427,1,0,0:0:0:0:
192,192,27427,1,0,0:0:0:0:
192,192,27534,1,0,0:0:0:0:
320,192,27534,1,0,0:0:0:0:
448,192,27534,1,0,0:0:0:0:
64,192,27534,1,0,0:0:0:0:
320,192,27642,1,0,0:0:0:0:
64,192,27642,1,0,0:0:0:0:
448,192,27642,1,0,0:0:0:0:
64,192,27749,1,0,0:0:0:0:
192,192,27749,1,0,0:0:0:0:
448,192,27749,1,0,0:0:0:0:
448,192,27856,1,0,0:0:0:0:
320,192,27856,1,0,0:0:0:0:
64,192,27963,1,0,0:0:0:0:
192,192,27963,1,0,0:0:0:0:
320,192,27963,1,0,0:0:0:0:
448,192,27963,1,0,0:0:0:0:
192,192,28070,1,0,0:0:0:0:
448,192,28070,1,0,0:0:0:0:
64,192,28070,1,0,0:0:0:0:
64,192,28177,1,0,0:0:0:0:
320,192,28177,1,0,0:0:0:0:
448,192,28177,1,0,0:0:0:0:
320,192,28284,1,0,0:0:0:0:
192,192,28284,1,0,0:0:0:0:
64,192,28392,1,0,0:0:0:0:
192,192,28392,1,0,0:0:0:0:
448,192,28392,1,0,0:0:0:0:
320,192,28392,1,0,0:0:0:0:
64,192,28499,1,0,0:0:0:0:
320,192,28499,1,0,0:0:0:0:
448,192,28499,1,0,0:0:0:0:
192,192,28606,1,0,0:0:0:0:
320,192,28606,1,0,0:0:0:0:
448,192,28606,1,0,0:0:0:0:
192,192,28713,1,0,0:0:0:0:
64,192,28713,1,0,0:0:0:0:
64,192,28820,1,0,0:0:0:0:
320,192,28820,1,0,0:0:0:0:
448,192,28820,1,0,0:0:0:0:
192,192,28820,1,0,0:0:0:0:
448,192,28927,1,0,0:0:0:0:
192,192,28927,1,0,0:0:0:0:
320,192,28927,1,0,0:0:0:0:
192,192,29034,1,0,0:0:0:0:
320,192,29034,1,0,0:0:0:0:
64,192,29034,1,0,0:0:0:0:
320,192,29142,1,0,0:0:0:0:
448,192,29142,1,0,0:0:0:0:
64,192,29249,1,0,0:0:0:0:
192,192,29249,1,0,0:0:0:0:
448,192,29249,1,0,0:0:0:0:
320,192,29249,1,0,0:0:0:0:
64,192,29463,1,0,0:0:0:0:
192,192,29463,1,0,0:0:0:0:
448,192,29463,1,0,0:0:0:0:
320,192,29570,1,0,0:0:0:0:
448,192,29570,1,0,0:0:0:0:
64,192,29677,1,0,0:0:0:0:
320,192,29677,1,0,0:0:0:0:
192,192,29677,1,0,0:0:0:0:
448,192,29677,1,0,0:0:0:0:
64,192,29784,1,0,0:0:0:0:
448,192,29784,1,0,0:0:0:0:
320,192,29784,1,0,0:0:0:0:
192,192,29892,1,0,0:0:0:0:
320,192,29892,1,0,0:0:0:0:
448,192,29892,1,0,0:0:0:0:
192,192,29999,1,0,0:0:0:0:
64,192,29999,1,0,0:0:0:0:
64,192,30106,1,0,0:0:0:0:
320,192,30106,1,0,0:0:0:0:
448,192,30106,1,0,0:0:0:0:
192,192,30106,1,0,0:0:0:0:
320,192,30213,1,0,0:0:0:0:
192,192,30213,1,0,0:0:0:0:
64,192,30213,1,0,0:0:0:0:
64,192,30320,1,0,0:0:0:0:
192,192,30320,1,0,0:0:0:0:
448,192,30320,1,0,0:0:0:0:
448,192,30427,1,0,0:0:0:0:
320,192,30427,1,0,0:0:0:0:
64,192,30534,1,0,0:0:0:0:
192,192,30534,1,0,0:0:0:0:
320,192,30534,1,0,0:0:0:0:
448,192,30534,1,0,0:0:0:0:
192,192,30642,1,0,0:0:0:0:
448,192,30642,1,0,0:0:0:0:
320,192,30642,1,0,0:0:0:0:
64,192,30749,1,0,0:0:0:0:
320,192,30749,1,0,0:0:0:0:
448,192,30749,1,0,0:0:0:0:
320,192,30856,1,0,0:0:0:0:
192,192,30856,1,0,0:0:0:0:
64,192,30963,1,0,0:0:0:0:
192,192,30963,1,0,0:0:0:0:
448,192,30963,1,0,0:0:0:0:
320,192,30963,1,0,0:0:0:0:
192,192,31177,1,0,0:0:0:0:
320,192,31177,1,0,0:0:0:0:
448,192,31177,1,0,0:0:0:0:
448,192,31284,1,0,0:0:0:0:
64,192,31284,1,0,0:0:0:0:
64,192,31392,1,0,0:0:0:0:
192,192,31392,1,0,0:0:0:0:
320,192,31392,1,0,0:0:0:0:
448,192,31392,1,0,0:0:0:0:
192,192,31499,1,0,0:0:0:0:
448,192,31499,1,0,0:0:0:0:
64,192,31499,1,0,0:0:0:0:
64,192,31606,1,0,0:0:0:0:
320,192,31606,1,0,0:0:0:0:
448,192,31606,1,0,0:0:0:0:
64,192,31713,1,0,0:0:0:0:
192,192,31713,1,0,0:0:0:0:
192,192,31820,1,0,0:0:0:0:
320,192,31820,1,0,0:0:0:0:
448,192,31820,1,0,0:0:0:0:
64,192,31820,1,0,0:0:0:0:
320,192,31927,1,0,0:0:0:0:
64,192,31927,1,0,0:0:0:0:
448,192,31927,1,0,0:0:0:0:
64,192,32034,1,0,0:0:0:0:
192,192,32034,1,0,0:0:0:0:
448,192,32034,1,0,0:0:0:0:
192,192,32142,1,0,0:0:0:0:
320,192,32142,1,0,0:0:0:0:
64,192,32249,1,0,0:0:0:0:
320,192,32249,1,0,0:0:0:0:
448,192,32249,1,0,0:0:0:0:
192,192,32249,1,0,0:0:0:0:
64,192,32356,1,0,0:0:0:0:
320,192,32356,1,0,0:0:0:0:
448,192,32356,1,0,0:0:0:0:
64,192,32463,1,0,0:0:0:0:
320,192,32463,1,0,0:0:0:0:
448,192,32463,1,0,0:0:0:0:
192,192,32463,1,0,0:0:0:0:
64,192,32677,1,0,0:0:0:0:
192,192,32677,1,0,0:0:0:0:
320,192,32677,1,0,0:0:0:0:
448,192,32892,1,0,0:0:0:0:
192,192,32892,1,0,0:0:0:0:
64,192,32892,1,0,0:0:0:0:
192,192,32999,1,0,0:0:0:0:
320,192,32999,1,0,0:0:0:0:
448,192,33106,1,0,0:0:0:0:
320,192,33106,1,0,0:0:0:0:
64,192,33106,1,0,0:0:0:0:
192,192,33106,1,0,0:0:0:0:
64,192,33213,1,0,0:0:0:0:
192,192,33213,1,0,0:0:0:0:
320,192,33213,1,0,0:0:0:0:
448,192,33320,1,0,0:0:0:0:
320,192,33320,1,0,0:0:0:0:
192,192,33320,1,0,0:0:0:0:
320,192,33427,1,0,0:0:0:0:
64,192,33427,1,0,0:0:0:0:
448,192,33534,1,0,0:0:0:0:
64,192,33534,1,0,0:0:0:0:
192,192,33534,1,0,0:0:0:0:
320,192,33534,1,0,0:0:0:0:
448,192,33642,1,0,0:0:0:0:
320,192,33642,1,0,0:0:0:0:
64,192,33642,1,0,0:0:0:0:
320,192,33749,1,0,0:0:0:0:
192,192,33749,1,0,0:0:0:0:
64,192,33749,1,0,0:0:0:0:
192,192,33856,1,0,0:0:0:0:
448,192,33856,1,0,0:0:0:0:
448,192,33963,1,0,0:0:0:0:
320,192,33963,1,0,0:0:0:0:
64,192,33963,1,0,0:0:0:0:
192,192,33963,1,0,0:0:0:0:
64,192,34070,1,0,0:0:0:0:
192,192,34070,1,0,0:0:0:0:
448,192,34070,1,0,0:0:0:0:
448,192,34177,1,0,0:0:0:0:
320,192,34177,1,0,0:0:0:0:
192,192,34177,1,0,0:0:0:0:
320,192,34284,1,0,0:0:0:0:
64,192,34284,1,0,0:0:0:0:
448,192,34392,1,0,0:0:0:0:
192,192,34392,1,0,0:0:0:0:
64,192,34392,1,0,0:0:0:0:
320,192,34392,1,0,0:0:0:0:
192,192,34499,1,0,0:0:0:0:
320,192,34499,1,0,0:0:0:0:
448,192,34499,1,0,0:0:0:0:
448,192,34606,1,0,0:0:0:0:
320,192,34606,1,0,0:0:0:0:
64,192,34606,1,0,0:0:0:0:
448,192,34713,1,0,0:0:0:0:
192,192,34713,1,0,0:0:0:0:
320,192,34820,1,0,0:0:0:0:
192,192,34820,1,0,0:0:0:0:
64,192,34820,1,0,0:0:0:0:
448,192,34820,1,0,0:0:0:0:
64,192,34927,1,0,0:0:0:0:
448,192,34927,1,0,0:0:0:0:
320,192,34927,1,0,0:0:0:0:
448,192,35034,1,0,0:0:0:0:
192,192,35034,1,0,0:0:0:0:
320,192,35034,1,0,0:0:0:0:
448,192,35142,1,0,0:0:0:0:
64,192,35142,1,0,0:0:0:0:
192,192,35249,1,0,0:0:0:0:
320,192,35249,1,0,0:0:0:0:
64,192,35249,1,0,0:0:0:0:
448,192,35249,1,0,0:0:0:0:
320,192,35356,1,0,0:0:0:0:
448,192,35356,1,0,0:0:0:0:
192,192,35356,1,0,0:0:0:0:
64,192,35463,1,0,0:0:0:0:
192,192,35463,1,0,0:0:0:0:
448,192,35463,1,0,0:0:0:0:
64,192,35570,1,0,0:0:0:0:
320,192,35570,1,0,0:0:0:0:
192,192,35677,1,0,0:0:0:0:
320,192,35677,1,0,0:0:0:0:
448,192,35677,1,0,0:0:0:0:
64,192,35677,1,0,0:0:0:0:
192,192,35784,1,0,0:0:0:0:
64,192,35784,1,0,0:0:0:0:
320,192,35784,1,0,0:0:0:0:
64,192,35892,1,0,0:0:0:0:
320,192,35892,1,0,0:0:0:0:
448,192,35892,1,0,0:0:0:0:
320,192,36106,1,0,0:0:0:0:
192,192,36106,1,0,0:0:0:0:
64,192,36106,1,0,0:0:0:0:
448,192,36106,1,0,0:0:0:0:
320,192,36213,1,0,0:0:0:0:
448,192,36213,1,0,0:0:0:0:
64,192,36213,1,0,0:0:0:0:
448,192,36320,1,0,0:0:0:0:
192,192,36320,1,0,0:0:0:0:
64,192,36320,1,0,0:0:0:0:
192,192,36427,1,0,0:0:0:0:
320,192,36427,1,0,0:0:0:0:
448,192,36534,1,0,0:0:0:0:
320,192,36534,1,0,0:0:0:0:
64,192,36534,1,0,0:0:0:0:
192,192,36534,1,0,0:0:0:0:
64,192,36642,1,0,0:0:0:0:
192,192,36642,1,0,0:0:0:0:
320,192,36642,1,0,0:0:0:0:
448,192,36749,1,0,0:0:0:0:
320,192,36749,1,0,0:0:0:0:
192,192,36749,1,0,0:0:0:0:
320,192,36856,1,0,0:0:0:0:
64,192,36856,1,0,0:0:0:0:
448,192,36963,1,0,0:0:0:0:
192,192,36963,1,0,0:0:0:0:
64,192,36963,1,0,0:0:0:0:
320,192,36963,1,0,0:0:0:0:
448,192,37070,1,0,0:0:0:0:
320,192,37070,1,0,0:0:0:0:
192,192,37070,1,0,0:0:0:0:
320,192,37177,1,0,0:0:0:0:
64,192,37177,1,0,0:0:0:0:
192,192,37177,1,0,0:0:0:0:
192,192,37284,1,0,0:0:0:0:
448,192,37284,1,0,0:0:0:0:
320,192,37392,1,0,0:0:0:0:
64,192,37392,1,0,0:0:0:0:
448,192,37392,1,0,0:0:0:0:
192,192,37392,1,0,0:0:0:0:
64,192,37499,1,0,0:0:0:0:
192,192,37499,1,0,0:0:0:0:
448,192,37499,1,0,0:0:0:0:
448,192,37606,1,0,0:0:0:0:
320,192,37606,1,0,0:0:0:0:
192,192,37606,1,0,0:0:0:0:
448,192,37820,1,0,0:0:0:0:
192,192,37820,1,0,0:0:0:0:
64,192,37820,1,0,0:0:0:0:
320,192,38034,1,0,0:0:0:0:
192,192,38034,1,0,0:0:0:0:
64,192,38034,1,0,0:0:0:0:
64,192,38142,1,0,0:0:0:0:
448,192,38142,1,0,0:0:0:0:
448,192,38249,1,0,0:0:0:0:
320,192,38249,1,0,0:0:0:0:
192,192,38249,1,0,0:0:0:0:
64,192,38249,1,0,0:0:0:0:
320,192,38356,1,0,0:0:0:0:
192,192,38356,1,0,0:0:0:0:
448,192,38356,1,0,0:0:0:0:
448,192,38463,1,0,0:0:0:0:
192,192,38463,1,0,0:0:0:0:
64,192,38463,1,0,0:0:0:0:
192,192,38570,1,0,0:0:0:0:
320,192,38570,1,0,0:0:0:0:
320,192,38677,1,0,0:0:0:0:
448,192,38677,1,0,0:0:0:0:
64,192,38677,1,0,0:0:0:0:
192,192,38677,1,0,0:0:0:0:
448,192,38784,1,0,0:0:0:0:
192,192,38784,1,0,0:0:0:0:
64,192,38784,1,0,0:0:0:0:
64,192,38892,1,0,0:0:0:0:
192,192,38892,1,0,0:0:0:0:
320,192,38892,1,0,0:0:0:0:
192,192,38999,1,0,0:0:0:0:
448,192,38999,1,0,0:0:0:0:
64,192,39106,1,0,0:0:0:0:
320,192,39106,1,0,0:0:0:0:
448,192,39106,1,0,0:0:0:0:
192,192,39106,1,0,0:0:0:0:
64,192,39213,1,0,0:0:0:0:
320,192,39213,1,0,0:0:0:0:
448,192,39213,1,0,0:0:0:0:
448,192,39320,1,0,0:0:0:0:
64,192,39320,1,0,0:0:0:0:
320,192,39320,1,0,0:0:0:0:
192,192,39320,1,0,0:0:0:0:
64,192,39534,1,0,0:0:0:0:
192,192,39534,1,0,0:0:0:0:
320,192,39534,1,0,0:0:0:0:
192,192,39749,1,0,0:0:0:0:
320,192,39749,1,0,0:0:0:0:
448,192,39749,1,0,0:0:0:0:
64,192,39963,1,0,0:0:0:0:
192,192,39963,1,0,0:0:0:0:
448,192,39963,1,0,0:0:0:0:
64,192,40177,1,0,0:0:0:0:
320,192,40177,1,0,0:0:0:0:
64,192,40284,1,0,0:0:0:0:
320,192,40284,1,0,0:0:0:0:
448,192,40284,1,0,0:0:0:0:
64,192,40392,1,0,0:0:0:0:
320,192,40392,1,0,0:0:0:0:
64,192,40606,1,0,0:0:0:0:
448,192,40606,1,0,0:0:0:0:
192,192,40606,1,0,0:0:0:0:
64,192,40820,1,0,0:0:0:0:
192,192,40820,1,0,0:0:0:0:
320,192,40820,1,0,0:0:0:0:
448,192,40820,1,0,0:0:0:0:
192,192,41249,128,0,41624:0:0:0:0:
320,192,41249,128,0,41624:0:0:0:0:
448,192,41249,1,0,0:0:0:0:
64,192,41463,1,0,0:0:0:0:
448,192,41677,1,0,0:0:0:0:
192,192,41677,1,0,0:0:0:0:
64,192,41677,1,0,0:0:0:0:
64,192,41892,1,0,0:0:0:0:
448,192,41892,1,0,0:0:0:0:
64,192,41999,1,0,0:0:0:0:
448,192,41999,1,0,0:0:0:0:
192,192,41999,1,0,0:0:0:0:
64,192,42106,1,0,0:0:0:0:
448,192,42106,1,0,0:0:0:0:
64,192,42320,1,0,0:0:0:0:
192,192,42320,1,0,0:0:0:0:
448,192,42320,1,0,0:0:0:0:
64,192,42534,1,0,0:0:0:0:
192,192,42534,1,0,0:0:0:0:
320,192,42534,1,0,0:0:0:0:
448,192,42534,1,0,0:0:0:0:
448,192,42963,1,0,0:0:0:0:
192,192,42963,128,0,43338:0:0:0:0:
64,192,43177,1,0,0:0:0:0:
192,192,43392,1,0,0:0:0:0:
448,192,43392,1,0,0:0:0:0:
64,192,43392,1,0,0:0:0:0:
64,192,43606,1,0,0:0:0:0:
192,192,43606,1,0,0:0:0:0:
320,192,43606,1,0,0:0:0:0:
64,192,43713,1,0,0:0:0:0:
448,192,43713,1,0,0:0:0:0:
320,192,43713,1,0,0:0:0:0:
192,192,43820,1,0,0:0:0:0:
320,192,43820,1,0,0:0:0:0:
448,192,43820,1,0,0:0:0:0:
64,192,44034,1,0,0:0:0:0:
320,192,44034,1,0,0:0:0:0:
64,192,44249,1,0,0:0:0:0:
320,192,44249,1,0,0:0:0:0:
448,192,44249,1,0,0:0:0:0:
64,192,44463,1,0,0:0:0:0:
192,192,44463,1,0,0:0:0:0:
320,192,44463,1,0,0:0:0:0:
64,192,44570,1,0,0:0:0:0:
448,192,44570,1,0,0:0:0:0:
320,192,44570,1,0,0:0:0:0:
192,192,44677,1,0,0:0:0:0:
320,192,44677,1,0,0:0:0:0:
448,192,44677,1,0,0:0:0:0:
64,192,44892,1,0,0:0:0:0:
320,192,44892,1,0,0:0:0:0:
64,192,45106,1,0,0:0:0:0:
448,192,45106,1,0,0:0:0:0:
192,192,45106,1,0,0:0:0:0:
64,192,45320,1,0,0:0:0:0:
192,192,45320,1,0,0:0:0:0:
320,192,45320,1,0,0:0:0:0:
64,192,45427,1,0,0:0:0:0:
448,192,45427,1,0,0:0:0:0:
320,192,45427,1,0,0:0:0:0:
192,192,45534,1,0,0:0:0:0:
320,192,45534,1,0,0:0:0:0:
448,192,45534,128,0,45909:0:0:0:0:
64,192,45749,1,0,0:0:0:0:
320,192,45749,1,0,0:0:0:0:
64,192,45963,1,0,0:0:0:0:
448,192,45963,1,0,0:0:0:0:
192,192,45963,1,0,0:0:0:0:
64,192,46177,1,0,0:0:0:0:
192,192,46177,1,0,0:0:0:0:
320,192,46177,1,0,0:0:0:0:
64,192,46284,1,0,0:0:0:0:
448,192,46284,1,0,0:0:0:0:
320,192,46284,1,0,0:0:0:0:
448,192,46392,1,0,0:0:0:0:
320,192,46392,1,0,0:0:0:0:
192,192,46392,1,0,0:0:0:0:
320,192,46606,1,0,0:0:0:0:
64,192,46606,1,0,0:0:0:0:
448,192,46820,1,0,0:0:0:0:
192,192,46820,1,0,0:0:0:0:
64,192,46820,1,0,0:0:0:0:
64,192,47034,1,0,0:0:0:0:
448,192,47034,1,0,0:0:0:0:
320,192,47034,1,0,0:0:0:0:
448,192,47142,1,0,0:0:0:0:
192,192,47142,1,0,0:0:0:0:
64,192,47249,1,0,0:0:0:0:
320,192,47249,1,0,0:0:0:0:
192,192,47249,1,0,0:0:0:0:
448,192,47249,1,0,0:0:0:0:
64,192,47463,1,0,0:0:0:0:
192,192,47463,1,0,0:0:0:0:
448,192,47463,1,0,0:0:0:0:
64,192,47570,1,0,0:0:0:0:
320,192,47570,1,0,0:0:0:0:
192,192,47677,1,0,0:0:0:0:
320,192,47677,1,0,0:0:0:0:
448,192,47677,1,0,0:0:0:0:
64,192,47677,1,0,0:0:0:0:
64,192,47892,1,0,0:0:0:0:
192,192,47892,1,0,0:0:0:0:
320,192,47892,1,0,0:0:0:0:
192,192,47999,1,0,0:0:0:0:
448,192,47999,1,0,0:0:0:0:
64,192,48106,1,0,0:0:0:0:
320,192,48106,1,0,0:0:0:0:
448,192,48106,1,0,0:0:0:0:
192,192,48106,1,0,0:0:0:0:
64,192,48320,1,0,0:0:0:0:
192,192,48320,1,0,0:0:0:0:
448,192,48320,1,0,0:0:0:0:
320,192,48427,1,0,0:0:0:0:
192,192,48427,1,0,0:0:0:0:
64,192,48534,1,0,0:0:0:0:
320,192,48534,1,0,0:0:0:0:
448,192,48534,1,0,0:0:0:0:
192,192,48642,1,0,0:0:0:0:
320,192,48642,1,0,0:0:0:0:
64,192,48749,1,0,0:0:0:0:
320,192,48749,1,0,0:0:0:0:
448,192,48749,1,0,0:0:0:0:
192,192,48856,1,0,0:0:0:0:
320,192,48856,1,0,0:0:0:0:
64,192,48963,1,0,0:0:0:0:
320,192,48963,1,0,0:0:0:0:
448,192,48963,1,0,0:0:0:0:
192,192,49070,1,0,0:0:0:0:
320,192,49070,1,0,0:0:0:0:
64,192,49177,1,0,0:0:0:0:
320,192,49177,1,0,0:0:0:0:
448,192,49177,1,0,0:0:0:0:
192,192,49284,1,0,0:0:0:0:
320,192,49284,1,0,0:0:0:0:
64,192,49392,1,0,0:0:0:0:
192,192,49392,1,0,0:0:0:0:
448,192,49392,1,0,0:0:0:0:
320,192,49392,1,0,0:0:0:0:
64,192,49499,1,0,0:0:0:0:
192,192,49499,1,0,0:0:0:0:
448,192,49499,1,0,0:0:0:0:
64,192,49606,1,0,0:0:0:0:
192,192,49606,1,0,0:0:0:0:
448,192,49606,1,0,0:0:0:0:
320,192,49606,1,0,0:0:0:0:
64,192,49713,1,0,0:0:0:0:
192,192,49713,1,0,0:0:0:0:
448,192,49713,1,0,0:0:0:0:
64,192,49820,1,0,0:0:0:0:
192,192,49820,1,0,0:0:0:0:
448,192,49820,1,0,0:0:0:0:
320,192,49820,1,0,0:0:0:0:
64,192,49927,1,0,0:0:0:0:
192,192,49927,1,0,0:0:0:0:
448,192,49927,1,0,0:0:0:0:
64,192,50034,1,0,0:0:0:0:
192,192,50034,1,0,0:0:0:0:
448,192,50034,1,0,0:0:0:0:
320,192,50034,1,0,0:0:0:0:
64,192,50142,1,0,0:0:0:0:
192,192,50142,1,0,0:0:0:0:
448,192,50142,1,0,0:0:0:0:
64,192,50249,1,0,0:0:0:0:
192,192,50249,1,0,0:0:0:0:
448,192,50249,128,0,50677:0:0:0:0:
320,192,50249,1,0,0:0:0:0:
320,192,50677,128,0,50892:0:0:0:0:
64,192,50677,128,0,51052:0:0:0:0:
192,192,50892,128,0,51106:0:0:0:0:
64,192,51106,128,0,51534:0:0:0:0:
320,192,51106,1,0,0:0:0:0:
448,192,51106,1,0,0:0:0:0:
320,192,51534,128,0,51963:0:0:0:0:
192,192,51534,1,0,0:0:0:0:
448,192,51534,1,0,0:0:0:0:
192,192,51963,128,0,52177:0:0:0:0:
448,192,51963,1,0,0:0:0:0:
64,192,51963,1,0,0:0:0:0:
64,192,52177,128,0,52392:0:0:0:0:
448,192,52392,128,0,52606:0:0:0:0:
192,192,52392,1,0,0:0:0:0:
320,192,52392,1,0,0:0:0:0:
320,192,52606,128,0,52820:0:0:0:0:
192,192,52820,128,0,53249:0:0:0:0:
64,192,52820,128,0,53142:0:0:0:0:
320,192,53142,1,0,0:0:0:0:
448,192,53142,1,0,0:0:0:0:
448,192,53249,1,0,0:0:0:0:
64,192,53249,1,0,0:0:0:0:
64,192,53463,1,0,0:0:0:0:
192,192,53463,1,0,0:0:0:0:
448,192,53463,1,0,0:0:0:0:
64,192,53677,5,0,0:0:0:0:
192,192,53677,1,0,0:0:0:0:
320,192,53677,1,0,0:0:0:0:
64,192,53892,1,0,0:0:0:0:
320,192,53892,1,0,0:0:0:0:
448,192,53892,1,0,0:0:0:0:
192,192,54106,1,0,0:0:0:0:
320,192,54106,1,0,0:0:0:0:
448,192,54106,1,0,0:0:0:0:
64,192,54320,1,0,0:0:0:0:
192,192,54320,1,0,0:0:0:0:
448,192,54320,1,0,0:0:0:0:
64,192,54534,1,0,0:0:0:0:
192,192,54534,1,0,0:0:0:0:
320,192,54534,1,0,0:0:0:0:
192,192,54749,1,0,0:0:0:0:
320,192,54749,1,0,0:0:0:0:
448,192,54749,1,0,0:0:0:0:
64,192,54963,1,0,0:0:0:0:
320,192,54963,1,0,0:0:0:0:
448,192,54963,1,0,0:0:0:0:
192,192,55177,1,0,0:0:0:0:
64,192,55177,1,0,0:0:0:0:
448,192,55177,1,0,0:0:0:0:
192,192,55392,1,0,0:0:0:0:
320,192,55392,1,0,0:0:0:0:
448,192,55392,1,0,0:0:0:0:
64,192,55606,1,0,0:0:0:0:
320,192,55606,1,0,0:0:0:0:
448,192,55606,1,0,0:0:0:0:
64,192,55820,1,0,0:0:0:0:
192,192,55820,1,0,0:0:0:0:
320,192,55820,1,0,0:0:0:0:
64,192,56034,1,0,0:0:0:0:
192,192,56034,1,0,0:0:0:0:
448,192,56034,1,0,0:0:0:0:
192,192,56249,1,0,0:0:0:0:
320,192,56249,1,0,0:0:0:0:
448,192,56249,1,0,0:0:0:0:
64,192,56463,1,0,0:0:0:0:
192,192,56463,1,0,0:0:0:0:
320,192,56463,1,0,0:0:0:0:
64,192,56677,1,0,0:0:0:0:
320,192,56677,1,0,0:0:0:0:
448,192,56677,1,0,0:0:0:0:
192,192,56731,1,0,0:0:0:0:
448,192,56784,1,0,0:0:0:0:
64,192,56784,1,0,0:0:0:0:
192,192,56838,1,0,0:0:0:0:
320,192,56892,1,0,0:0:0:0:
448,192,56892,1,0,0:0:0:0:
64,192,56945,1,0,0:0:0:0:
448,192,56999,1,0,0:0:0:0:
192,192,56999,1,0,0:0:0:0:
64,192,57052,1,0,0:0:0:0:
192,192,57106,1,0,0:0:0:0:
320,192,57106,1,0,0:0:0:0:
448,192,57106,1,0,0:0:0:0:
64,192,57320,1,0,0:0:0:0:
448,192,57320,1,0,0:0:0:0:
192,192,57320,1,0,0:0:0:0:
64,192,57534,1,0,0:0:0:0:
192,192,57534,1,0,0:0:0:0:
320,192,57534,1,0,0:0:0:0:
64,192,57749,1,0,0:0:0:0:
320,192,57749,1,0,0:0:0:0:
448,192,57749,1,0,0:0:0:0:
64,192,57963,1,0,0:0:0:0:
192,192,57963,1,0,0:0:0:0:
320,192,57963,1,0,0:0:0:0:
192,192,58177,1,0,0:0:0:0:
320,192,58177,1,0,0:0:0:0:
448,192,58177,1,0,0:0:0:0:
64,192,58392,1,0,0:0:0:0:
192,192,58392,1,0,0:0:0:0:
448,192,58392,1,0,0:0:0:0:
64,192,58606,1,0,0:0:0:0:
320,192,58606,1,0,0:0:0:0:
448,192,58606,1,0,0:0:0:0:
64,192,58820,1,0,0:0:0:0:
192,192,58820,1,0,0:0:0:0:
320,192,58820,1,0,0:0:0:0:
64,192,59034,1,0,0:0:0:0:
448,192,59034,1,0,0:0:0:0:
192,192,59034,1,0,0:0:0:0:
64,192,59249,1,0,0:0:0:0:
320,192,59249,1,0,0:0:0:0:
448,192,59249,1,0,0:0:0:0:
192,192,59463,1,0,0:0:0:0:
320,192,59463,1,0,0:0:0:0:
448,192,59463,1,0,0:0:0:0:
192,192,59677,1,0,0:0:0:0:
64,192,59677,1,0,0:0:0:0:
448,192,59677,1,0,0:0:0:0:
320,192,59731,1,0,0:0:0:0:
64,192,59784,1,0,0:0:0:0:
448,192,59784,1,0,0:0:0:0:
320,192,59838,1,0,0:0:0:0:
192,192,59892,1,0,0:0:0:0:
64,192,59892,1,0,0:0:0:0:
448,192,59945,1,0,0:0:0:0:
64,192,59999,1,0,0:0:0:0:
320,192,59999,1,0,0:0:0:0:
448,192,60052,1,0,0:0:0:0:
320,192,60106,1,0,0:0:0:0:
192,192,60106,1,0,0:0:0:0:
64,192,60159,1,0,0:0:0:0:
192,192,60213,1,0,0:0:0:0:
448,192,60213,1,0,0:0:0:0:
64,192,60267,1,0,0:0:0:0:
448,192,60320,1,0,0:0:0:0:
320,192,60320,1,0,0:0:0:0:
192,192,60374,1,0,0:0:0:0:
64,192,60427,1,0,0:0:0:0:
448,192,60427,1,0,0:0:0:0:
192,192,60481,1,0,0:0:0:0:
448,192,60534,1,0,0:0:0:0:
320,192,60534,1,0,0:0:0:0:
64,192,60534,1,0,0:0:0:0:
64,192,60749,1,0,0:0:0:0:
192,192,60749,1,0,0:0:0:0:
320,192,60749,1,0,0:0:0:0:
64,192,60963,1,0,0:0:0:0:
192,192,60963,1,0,0:0:0:0:
448,192,60963,1,0,0:0:0:0:
192,192,61177,1,0,0:0:0:0:
320,192,61177,1,0,0:0:0:0:
448,192,61177,1,0,0:0:0:0:
64,192,61392,1,0,0:0:0:0:
192,192,61392,1,0,0:0:0:0:
320,192,61392,1,0,0:0:0:0:
192,192,61606,1,0,0:0:0:0:
320,192,61606,1,0,0:0:0:0:
448,192,61606,1,0,0:0:0:0:
64,192,61820,1,0,0:0:0:0:
192,192,61820,1,0,0:0:0:0:
320,192,61820,1,0,0:0:0:0:
64,192,61963,1,0,0:0:0:0:
192,192,61963,1,0,0:0:0:0:
448,192,61963,1,0,0:0:0:0:
448,192,62106,1,0,0:0:0:0:
320,192,62106,1,0,0:0:0:0:
64,192,62106,1,0,0:0:0:0:
192,192,62249,1,0,0:0:0:0:
320,192,62249,1,0,0:0:0:0:
448,192,62249,1,0,0:0:0:0:
448,192,62463,1,0,0:0:0:0:
64,192,62463,1,0,0:0:0:0:
192,192,62463,1,0,0:0:0:0:
64,192,62677,1,0,0:0:0:0:
192,192,62677,1,0,0:0:0:0:
320,192,62677,1,0,0:0:0:0:
64,192,62892,1,0,0:0:0:0:
320,192,62892,1,0,0:0:0:0:
448,192,62892,1,0,0:0:0:0:
64,192,63106,1,0,0:0:0:0:
192,192,63106,1,0,0:0:0:0:
448,192,63106,1,0,0:0:0:0:
192,192,63320,1,0,0:0:0:0:
320,192,63320,1,0,0:0:0:0:
448,192,63320,1,0,0:0:0:0:
64,192,63534,1,0,0:0:0:0:
320,192,63534,1,0,0:0:0:0:
448,192,63534,1,0,0:0:0:0:
64,192,63642,1,0,0:0:0:0:
192,192,63642,1,0,0:0:0:0:
320,192,63642,1,0,0:0:0:0:
192,192,63856,1,0,0:0:0:0:
320,192,63856,1,0,0:0:0:0:
448,192,63856,1,0,0:0:0:0:
64,192,63963,1,0,0:0:0:0:
192,192,63963,1,0,0:0:0:0:
448,192,63963,1,0,0:0:0:0:
64,192,64177,1,0,0:0:0:0:
320,192,64177,1,0,0:0:0:0:
448,192,64177,1,0,0:0:0:0:
64,192,64392,1,0,0:0:0:0:
192,192,64392,1,0,0:0:0:0:
448,192,64392,1,0,0:0:0:0:
64,192,64606,1,0,0:0:0:0:
192,192,64606,1,0,0:0:0:0:
320,192,64606,1,0,0:0:0:0:
192,192,64820,1,0,0:0:0:0:
320,192,64820,1,0,0:0:0:0:
448,192,64820,1,0,0:0:0:0:
64,192,65034,1,0,0:0:0:0:
320,192,65034,1,0,0:0:0:0:
448,192,65034,1,0,0:0:0:0:
64,192,65142,1,0,0:0:0:0:
320,192,65142,1,0,0:0:0:0:
448,192,65142,1,0,0:0:0:0:
64,192,65249,1,0,0:0:0:0:
320,192,65249,1,0,0:0:0:0:
448,192,65249,1,0,0:0:0:0:
64,192,65463,1,0,0:0:0:0:
192,192,65463,1,0,0:0:0:0:
448,192,65463,1,0,0:0:0:0:
192,192,65677,1,0,0:0:0:0:
320,192,65677,1,0,0:0:0:0:
448,192,65677,1,0,0:0:0:0:
64,192,65731,1,0,0:0:0:0:
448,192,65784,1,0,0:0:0:0:
64,192,65838,1,0,0:0:0:0:
192,192,65892,1,0,0:0:0:0:
320,192,65945,1,0,0:0:0:0:
448,192,65999,1,0,0:0:0:0:
64,192,66052,1,0,0:0:0:0:
192,192,66106,1,0,0:0:0:0:
448,192,66159,1,0,0:0:0:0:
320,192,66213,1,0,0:0:0:0:
192,192,66267,1,0,0:0:0:0:
64,192,66320,1,0,0:0:0:0:
448,192,66374,1,0,0:0:0:0:
320,192,66427,1,0,0:0:0:0:
192,192,66481,1,0,0:0:0:0:
320,192,66534,1,0,0:0:0:0:
64,192,66534,1,0,0:0:0:0:
448,192,66534,1,0,0:0:0:0:
192,192,66642,1,0,0:0:0:0:
320,192,66642,1,0,0:0:0:0:
64,192,66749,1,0,0:0:0:0:
192,192,66749,1,0,0:0:0:0:
448,192,66749,1,0,0:0:0:0:
448,192,66856,1,0,0:0:0:0:
320,192,66856,1,0,0:0:0:0:
64,192,66963,1,0,0:0:0:0:
192,192,66963,1,0,0:0:0:0:
320,192,66963,1,0,0:0:0:0:
448,192,67070,1,0,0:0:0:0:
64,192,67070,1,0,0:0:0:0:
192,192,67177,1,0,0:0:0:0:
320,192,67177,1,0,0:0:0:0:
448,192,67177,1,0,0:0:0:0:
192,192,67284,1,0,0:0:0:0:
64,192,67284,1,0,0:0:0:0:
448,192,67392,1,0,0:0:0:0:
64,192,67392,1,0,0:0:0:0:
320,192,67392,1,0,0:0:0:0:
64,192,67713,1,0,0:0:0:0:
320,192,67713,1,0,0:0:0:0:
448,192,67713,1,0,0:0:0:0:
64,192,67820,1,0,0:0:0:0:
320,192,67820,1,0,0:0:0:0:
448,192,67820,1,0,0:0:0:0:
64,192,67927,1,0,0:0:0:0:
192,192,67927,1,0,0:0:0:0:
320,192,67927,1,0,0:0:0:0:
64,192,68142,1,0,0:0:0:0:
320,192,68142,1,0,0:0:0:0:
192,192,68142,1,0,0:0:0:0:
64,192,68356,1,0,0:0:0:0:
192,192,68356,1,0,0:0:0:0:
320,192,68356,1,0,0:0:0:0:
64,192,68463,1,0,0:0:0:0:
320,192,68463,1,0,0:0:0:0:
448,192,68463,1,0,0:0:0:0:
64,192,68677,1,0,0:0:0:0:
192,192,68677,1,0,0:0:0:0:
320,192,68677,1,0,0:0:0:0:
64,192,68838,1,0,0:0:0:0:
320,192,68838,1,0,0:0:0:0:
448,192,68838,1,0,0:0:0:0:
64,192,68999,1,0,0:0:0:0:
320,192,68999,1,0,0:0:0:0:
192,192,68999,1,0,0:0:0:0:
64,192,69213,1,0,0:0:0:0:
192,192,69213,1,0,0:0:0:0:
320,192,69213,1,0,0:0:0:0:
64,192,69320,1,0,0:0:0:0:
192,192,69320,1,0,0:0:0:0:
448,192,69320,1,0,0:0:0:0:
320,192,69374,1,0,0:0:0:0:
192,192,69427,1,0,0:0:0:0:
448,192,69481,1,0,0:0:0:0:
64,192,69534,1,0,0:0:0:0:
192,192,69534,1,0,0:0:0:0:
320,192,69534,1,0,0:0:0:0:
64,192,69642,1,0,0:0:0:0:
448,192,69642,1,0,0:0:0:0:
192,192,69642,1,0,0:0:0:0:
320,192,69695,1,0,0:0:0:0:
64,192,69749,1,0,0:0:0:0:
448,192,69802,1,0,0:0:0:0:
64,192,69856,1,0,0:0:0:0:
192,192,69856,1,0,0:0:0:0:
320,192,69856,1,0,0:0:0:0:
192,192,70070,1,0,0:0:0:0:
64,192,70070,1,0,0:0:0:0:
448,192,70070,1,0,0:0:0:0:
320,192,70097,1,0,0:0:0:0:
64,192,70124,1,0,0:0:0:0:
192,192,70151,1,0,0:0:0:0:
320,192,70177,1,0,0:0:0:0:
448,192,70177,1,0,0:0:0:0:
64,192,70204,1,0,0:0:0:0:
192,192,70231,1,0,0:0:0:0:
448,192,70258,1,0,0:0:0:0:
320,192,70284,1,0,0:0:0:0:
448,192,70338,1,0,0:0:0:0:
320,192,70365,1,0,0:0:0:0:
448,192,70392,1,0,0:0:0:0:
192,192,70392,1,0,0:0:0:0:
64,192,70392,1,0,0:0:0:0:
64,192,70606,1,0,0:0:0:0:
320,192,70606,1,0,0:0:0:0:
448,192,70606,1,0,0:0:0:0:
64,192,70713,1,0,0:0:0:0:
320,192,70713,1,0,0:0:0:0:
448,192,70713,1,0,0:0:0:0:
64,192,70820,1,0,0:0:0:0:
448,192,70820,1,0,0:0:0:0:
320,192,70820,1,0,0:0:0:0:
192,192,70874,1,0,0:0:0:0:
320,192,70927,1,0,0:0:0:0:
448,192,70981,1,0,0:0:0:0:
64,192,71034,1,0,0:0:0:0:
192,192,71088,1,0,0:0:0:0:
64,192,71142,1,0,0:0:0:0:
320,192,71142,1,0,0:0:0:0:
448,192,71142,1,0,0:0:0:0:
64,192,71249,1,0,0:0:0:0:
320,192,71249,1,0,0:0:0:0:
448,192,71249,1,0,0:0:0:0:
64,192,71356,1,0,0:0:0:0:
192,192,71356,1,0,0:0:0:0:
448,192,71356,1,0,0:0:0:0:
64,192,71570,1,0,0:0:0:0:
192,192,71570,1,0,0:0:0:0:
448,192,71570,1,0,0:0:0:0:
64,192,71784,1,0,0:0:0:0:
192,192,71784,1,0,0:0:0:0:
448,192,71784,1,0,0:0:0:0:
64,192,71892,1,0,0:0:0:0:
320,192,71892,1,0,0:0:0:0:
448,192,71892,1,0,0:0:0:0:
192,192,71945,1,0,0:0:0:0:
448,192,71999,1,0,0:0:0:0:
320,192,72052,1,0,0:0:0:0:
64,192,72106,1,0,0:0:0:0:
192,192,72106,1,0,0:0:0:0:
448,192,72106,1,0,0:0:0:0:
64,192,72320,1,0,0:0:0:0:
448,192,72320,1,0,0:0:0:0:
192,192,72320,1,0,0:0:0:0:
192,192,72427,1,0,0:0:0:0:
448,192,72427,1,0,0:0:0:0:
320,192,72427,1,0,0:0:0:0:
64,192,72427,1,0,0:0:0:0:
64,192,72642,1,0,0:0:0:0:
192,192,72642,1,0,0:0:0:0:
448,192,72642,1,0,0:0:0:0:
64,192,72749,1,0,0:0:0:0:
192,192,72749,1,0,0:0:0:0:
320,192,72749,1,0,0:0:0:0:
448,192,72749,1,0,0:0:0:0:
64,192,72963,1,0,0:0:0:0:
192,192,72963,1,0,0:0:0:0:
448,192,72963,1,0,0:0:0:0:
64,192,73070,1,0,0:0:0:0:
192,192,73070,1,0,0:0:0:0:
320,192,73070,1,0,0:0:0:0:
448,192,73070,1,0,0:0:0:0:
192,192,73284,1,0,0:0:0:0:
320,192,73284,1,0,0:0:0:0:
448,192,73284,1,0,0:0:0:0:
64,192,73392,1,0,0:0:0:0:
320,192,73392,1,0,0:0:0:0:
448,192,73392,1,0,0:0:0:0:
192,192,73445,1,0,0:0:0:0:
64,192,73499,1,0,0:0:0:0:
448,192,73552,1,0,0:0:0:0:
192,192,73606,1,0,0:0:0:0:
64,192,73606,1,0,0:0:0:0:
320,192,73659,1,0,0:0:0:0:
64,192,73713,1,0,0:0:0:0:
448,192,73767,1,0,0:0:0:0:
192,192,73820,1,0,0:0:0:0:
64,192,73820,1,0,0:0:0:0:
320,192,73874,1,0,0:0:0:0:
64,192,73927,1,0,0:0:0:0:
192,192,73981,1,0,0:0:0:0:
448,192,74034,1,0,0:0:0:0:
320,192,74034,128,0,74142:0:0:0:0:
192,192,74088,1,0,0:0:0:0:
64,192,74142,1,0,0:0:0:0:
448,192,74142,128,0,74249:0:0:0:0:
192,192,74249,128,0,74570:0:0:0:0:
64,192,74570,1,0,0:0:0:0:
320,192,74570,1,0,0:0:0:0:
448,192,74570,1,0,0:0:0:0:
64,192,74677,1,0,0:0:0:0:
320,192,74677,1,0,0:0:0:0:
448,192,74677,1,0,0:0:0:0:
64,192,74784,1,0,0:0:0:0:
192,192,74784,1,0,0:0:0:0:
320,192,74784,1,0,0:0:0:0:
64,192,74999,1,0,0:0:0:0:
320,192,74999,1,0,0:0:0:0:
192,192,74999,1,0,0:0:0:0:
64,192,75213,1,0,0:0:0:0:
192,192,75213,1,0,0:0:0:0:
320,192,75213,1,0,0:0:0:0:
64,192,75320,1,0,0:0:0:0:
320,192,75320,1,0,0:0:0:0:
448,192,75320,1,0,0:0:0:0:
64,192,75534,1,0,0:0:0:0:
192,192,75534,1,0,0:0:0:0:
320,192,75534,1,0,0:0:0:0:
320,192,75695,1,0,0:0:0:0:
448,192,75695,1,0,0:0:0:0:
192,192,75695,1,0,0:0:0:0:
64,192,75856,1,0,0:0:0:0:
448,192,75856,1,0,0:0:0:0:
320,192,75856,1,0,0:0:0:0:
320,192,76070,1,0,0:0:0:0:
192,192,76070,1,0,0:0:0:0:
448,192,76070,1,0,0:0:0:0:
192,192,76177,1,0,0:0:0:0:
320,192,76177,1,0,0:0:0:0:
64,192,76177,1,0,0:0:0:0:
448,192,76231,1,0,0:0:0:0:
320,192,76284,1,0,0:0:0:0:
64,192,76284,1,0,0:0:0:0:
192,192,76284,1,0,0:0:0:0:
448,192,76338,1,0,0:0:0:0:
64,192,76392,1,0,0:0:0:0:
192,192,76392,1,0,0:0:0:0:
320,192,76392,1,0,0:0:0:0:
448,192,76445,1,0,0:0:0:0:
192,192,76499,1,0,0:0:0:0:
64,192,76552,1,0,0:0:0:0:
192,192,76606,1,0,0:0:0:0:
320,192,76606,1,0,0:0:0:0:
448,192,76606,1,0,0:0:0:0:
64,192,76659,1,0,0:0:0:0:
448,192,76713,1,0,0:0:0:0:
320,192,76767,1,0,0:0:0:0:
192,192,76767,1,0,0:0:0:0:
64,192,76767,1,0,0:0:0:0:
448,192,76847,1,0,0:0:0:0:
192,192,76847,1,0,0:0:0:0:
64,192,76927,1,0,0:0:0:0:
192,192,76927,1,0,0:0:0:0:
320,192,76927,1,0,0:0:0:0:
64,192,77034,1,0,0:0:0:0:
320,192,77034,1,0,0:0:0:0:
448,192,77034,1,0,0:0:0:0:
192,192,77088,1,0,0:0:0:0:
320,192,77142,1,0,0:0:0:0:
192,192,77195,1,0,0:0:0:0:
448,192,77249,1,0,0:0:0:0:
64,192,77249,1,0,0:0:0:0:
320,192,77249,1,0,0:0:0:0:
64,192,77409,1,0,0:0:0:0:
448,192,77409,1,0,0:0:0:0:
192,192,77409,1,0,0:0:0:0:
64,192,77570,1,0,0:0:0:0:
448,192,77570,1,0,0:0:0:0:
320,192,77570,1,0,0:0:0:0:
192,192,77624,1,0,0:0:0:0:
64,192,77677,1,0,0:0:0:0:
320,192,77677,1,0,0:0:0:0:
448,192,77677,1,0,0:0:0:0:
192,192,77731,1,0,0:0:0:0:
320,192,77784,1,0,0:0:0:0:
448,192,77838,1,0,0:0:0:0:
64,192,77892,1,0,0:0:0:0:
192,192,77945,1,0,0:0:0:0:
64,192,77999,1,0,0:0:0:0:
320,192,77999,1,0,0:0:0:0:
448,192,77999,1,0,0:0:0:0:
192,192,78052,1,0,0:0:0:0:
64,192,78106,1,0,0:0:0:0:
448,192,78106,1,0,0:0:0:0:
320,192,78106,128,0,78159:0:0:0:0:
64,192,78213,1,0,0:0:0:0:
448,192,78213,1,0,0:0:0:0:
192,192,78213,1,0,0:0:0:0:
320,192,78267,1,0,0:0:0:0:
64,192,78320,1,0,0:0:0:0:
64,192,78427,1,0,0:0:0:0:
192,192,78427,1,0,0:0:0:0:
448,192,78427,1,0,0:0:0:0:
320,192,78481,1,0,0:0:0:0:
64,192,78642,1,0,0:0:0:0:
448,192,78642,1,0,0:0:0:0:
192,192,78642,1,0,0:0:0:0:
64,192,78749,1,0,0:0:0:0:
320,192,78749,1,0,0:0:0:0:
448,192,78749,1,0,0:0:0:0:
64,192,78856,1,0,0:0:0:0:
192,192,78883,1,0,0:0:0:0:
448,192,78909,1,0,0:0:0:0:
320,192,78936,1,0,0:0:0:0:
64,192,78963,1,0,0:0:0:0:
192,192,78963,1,0,0:0:0:0:
448,192,78963,1,0,0:0:0:0:
64,192,79177,1,0,0:0:0:0:
448,192,79177,1,0,0:0:0:0:
320,192,79177,1,0,0:0:0:0:
192,192,79284,1,0,0:0:0:0:
448,192,79284,1,0,0:0:0:0:
320,192,79284,1,0,0:0:0:0:
64,192,79284,1,0,0:0:0:0:
64,192,79499,1,0,0:0:0:0:
448,192,79499,1,0,0:0:0:0:
320,192,79499,1,0,0:0:0:0:
64,192,79606,1,0,0:0:0:0:
192,192,79606,1,0,0:0:0:0:
320,192,79606,1,0,0:0:0:0:
448,192,79606,1,0,0:0:0:0:
64,192,79820,1,0,0:0:0:0:
448,192,79820,1,0,0:0:0:0:
320,192,79820,1,0,0:0:0:0:
64,192,79927,1,0,0:0:0:0:
192,192,79927,1,0,0:0:0:0:
320,192,79927,1,0,0:0:0:0:
448,192,79927,1,0,0:0:0:0:
192,192,80142,1,0,0:0:0:0:
320,192,80142,1,0,0:0:0:0:
448,192,80142,1,0,0:0:0:0:
192,192,80249,1,0,0:0:0:0:
64,192,80249,1,0,0:0:0:0:
320,192,80249,1,0,0:0:0:0:
448,192,80302,1,0,0:0:0:0:
192,192,80356,1,0,0:0:0:0:
448,192,80409,1,0,0:0:0:0:
320,192,80463,1,0,0:0:0:0:
192,192,80463,1,0,0:0:0:0:
64,192,80463,1,0,0:0:0:0:
448,192,80517,1,0,0:0:0:0:
64,192,80570,1,0,0:0:0:0:
320,192,80624,1,0,0:0:0:0:
64,192,80677,1,0,0:0:0:0:
448,192,80677,1,0,0:0:0:0:
192,192,80677,1,0,0:0:0:0:
448,192,81106,1,0,0:0:0:0:
64,192,81106,1,0,0:0:0:0:
320,192,81159,1,0,0:0:0:0:
192,192,81213,1,0,0:0:0:0:
64,192,81267,1,0,0:0:0:0:
448,192,81320,1,0,0:0:0:0:
192,192,81320,1,0,0:0:0:0:
320,192,81374,1,0,0:0:0:0:
192,192,81427,1,0,0:0:0:0:
64,192,81481,1,0,0:0:0:0:
448,192,81534,1,0,0:0:0:0:
192,192,81534,1,0,0:0:0:0:
320,192,81588,1,0,0:0:0:0:
192,192,81642,1,0,0:0:0:0:
64,192,81695,1,0,0:0:0:0:
448,192,81749,1,0,0:0:0:0:
192,192,81749,1,0,0:0:0:0:
320,192,81802,1,0,0:0:0:0:
192,192,81856,1,0,0:0:0:0:
64,192,81909,1,0,0:0:0:0:
192,192,81963,1,0,0:0:0:0:
448,192,81963,1,0,0:0:0:0:
320,192,81963,1,0,0:0:0:0:
64,192,82284,1,0,0:0:0:0:
320,192,82284,1,0,0:0:0:0:
192,192,82606,1,0,0:0:0:0:
320,192,82606,1,0,0:0:0:0:
320,192,82713,1,0,0:0:0:0:
448,192,82713,1,0,0:0:0:0:
64,192,82713,1,0,0:0:0:0:
192,192,82927,1,0,0:0:0:0:
320,192,82927,1,0,0:0:0:0:
64,192,82927,1,0,0:0:0:0:
448,192,83142,1,0,0:0:0:0:
192,192,83142,1,0,0:0:0:0:
64,192,83142,1,0,0:0:0:0:
192,192,83249,1,0,0:0:0:0:
320,192,83249,1,0,0:0:0:0:
320,192,83356,1,0,0:0:0:0:
64,192,83356,1,0,0:0:0:0:
448,192,83356,1,0,0:0:0:0:
64,192,83463,1,0,0:0:0:0:
192,192,83463,1,0,0:0:0:0:
320,192,83570,1,0,0:0:0:0:
448,192,83570,1,0,0:0:0:0:
192,192,83570,1,0,0:0:0:0:
64,192,83570,1,0,0:0:0:0:
64,192,83892,1,0,0:0:0:0:
320,192,83892,1,0,0:0:0:0:
448,192,83892,1,0,0:0:0:0:
64,192,84213,1,0,0:0:0:0:
192,192,84213,1,0,0:0:0:0:
320,192,84213,1,0,0:0:0:0:
64,192,84534,1,0,0:0:0:0:
192,192,84561,1,0,0:0:0:0:
320,192,84588,1,0,0:0:0:0:
448,192,84615,1,0,0:0:0:0:
64,192,84642,1,0,0:0:0:0:
192,192,84668,1,0,0:0:0:0:
320,192,84695,1,0,0:0:0:0:
448,192,84722,1,0,0:0:0:0:
192,192,84856,1,0,0:0:0:0:
64,192,84856,1,0,0:0:0:0:
448,192,84856,1,0,0:0:0:0:
192,192,84963,1,0,0:0:0:0:
320,192,84963,1,0,0:0:0:0:
64,192,84963,1,0,0:0:0:0:
448,192,85070,1,0,0:0:0:0:
320,192,85124,1,0,0:0:0:0:
192,192,85177,1,0,0:0:0:0:
64,192,85204,1,0,0:0:0:0:
448,192,85231,1,0,0:0:0:0:
320,192,85258,1,0,0:0:0:0:
192,192,85284,1,0,0:0:0:0:
64,192,85311,1,0,0:0:0:0:
448,192,85338,1,0,0:0:0:0:
320,192,85365,1,0,0:0:0:0:
192,192,85392,1,0,0:0:0:0:
64,192,85392,1,0,0:0:0:0:
448,192,85499,1,0,0:0:0:0:
192,192,85499,1,0,0:0:0:0:
64,192,85552,1,0,0:0:0:0:
320,192,85606,1,0,0:0:0:0:
448,192,85606,1,0,0:0:0:0:
192,192,85659,1,0,0:0:0:0:
320,192,85713,1,0,0:0:0:0:
64,192,85713,1,0,0:0:0:0:
192,192,85820,1,0,0:0:0:0:
320,192,85820,1,0,0:0:0:0:
448,192,85927,1,0,0:0:0:0:
192,192,85927,1,0,0:0:0:0:
320,192,85981,1,0,0:0:0:0:
64,192,86034,1,0,0:0:0:0:
448,192,86034,1,0,0:0:0:0:
320,192,86088,1,0,0:0:0:0:
192,192,86142,1,0,0:0:0:0:
64,192,86142,1,0,0:0:0:0:
448,192,86195,1,0,0:0:0:0:
192,192,86249,1,0,0:0:0:0:
320,192,86249,1,0,0:0:0:0:
448,192,86356,1,0,0:0:0:0:
320,192,86356,1,0,0:0:0:0:
64,192,86409,1,0,0:0:0:0:
192,192,86409,1,0,0:0:0:0:
448,192,86463,1,0,0:0:0:0:
320,192,86463,1,0,0:0:0:0:
192,192,86490,1,0,0:0:0:0:
64,192,86517,1,0,0:0:0:0:
448,192,86543,1,0,0:0:0:0:
320,192,86570,1,0,0:0:0:0:
64,192,86597,1,0,0:0:0:0:
192,192,86624,1,0,0:0:0:0:
320,192,86651,1,0,0:0:0:0:
448,192,86677,1,0,0:0:0:0:
64,192,86704,1,0,0:0:0:0:
192,192,86731,1,0,0:0:0:0:
320,192,86758,1,0,0:0:0:0:
448,192,86784,1,0,0:0:0:0:
320,192,86811,1,0,0:0:0:0:
192,192,86838,1,0,0:0:0:0:
64,192,86865,1,0,0:0:0:0:
448,192,86892,1,0,0:0:0:0:
320,192,86892,1,0,0:0:0:0:
64,192,86945,1,0,0:0:0:0:
320,192,86999,1,0,0:0:0:0:
448,192,87026,1,0,0:0:0:0:
64,192,87026,1,0,0:0:0:0:
192,192,87052,1,0,0:0:0:0:
320,192,87079,1,0,0:0:0:0:
448,192,87106,1,0,0:0:0:0:
64,192,87133,1,0,0:0:0:0:
192,192,87159,1,0,0:0:0:0:
64,192,87320,1,0,0:0:0:0:
192,192,87320,1,0,0:0:0:0:
320,192,87320,1,0,0:0:0:0:
192,192,87642,1,0,0:0:0:0:
320,192,87642,1,0,0:0:0:0:
448,192,87642,1,0,0:0:0:0:
64,192,87749,1,0,0:0:0:0:
320,192,87802,1,0,0:0:0:0:
192,192,87856,1,0,0:0:0:0:
448,192,87909,1,0,0:0:0:0:
64,192,87963,1,0,0:0:0:0:
192,192,87963,1,0,0:0:0:0:
320,192,87963,1,0,0:0:0:0:
448,192,88017,1,0,0:0:0:0:
192,192,88070,1,0,0:0:0:0:
448,192,88124,1,0,0:0:0:0:
320,192,88177,1,0,0:0:0:0:
64,192,88231,1,0,0:0:0:0:
192,192,88284,1,0,0:0:0:0:
448,192,88284,1,0,0:0:0:0:
320,192,88284,1,0,0:0:0:0:
64,192,88606,1,0,0:0:0:0:
192,192,88606,1,0,0:0:0:0:
448,192,88606,1,0,0:0:0:0:
448,192,88820,1,0,0:0:0:0:
64,192,88820,1,0,0:0:0:0:
320,192,88820,1,0,0:0:0:0:
448,192,89142,1,0,0:0:0:0:
192,192,89142,1,0,0:0:0:0:
64,192,89195,1,0,0:0:0:0:
320,192,89249,1,0,0:0:0:0:
64,192,89302,1,0,0:0:0:0:
192,192,89356,1,0,0:0:0:0:
448,192,89356,1,0,0:0:0:0:
320,192,89409,1,0,0:0:0:0:
64,192,89463,1,0,0:0:0:0:
192,192,89463,1,0,0:0:0:0:
448,192,89517,1,0,0:0:0:0:
192,192,89570,1,0,0:0:0:0:
64,192,89624,1,0,0:0:0:0:
192,192,89677,1,0,0:0:0:0:
320,192,89677,1,0,0:0:0:0:
64,192,89784,1,0,0:0:0:0:
320,192,89784,1,0,0:0:0:0:
448,192,89784,1,0,0:0:0:0:
192,192,89999,1,0,0:0:0:0:
448,192,89999,1,0,0:0:0:0:
64,192,90106,1,0,0:0:0:0:
192,192,90106,1,0,0:0:0:0:
320,192,90106,1,0,0:0:0:0:
320,192,90213,1,0,0:0:0:0:
448,192,90213,1,0,0:0:0:0:
64,192,90320,1,0,0:0:0:0:
192,192,90320,1,0,0:0:0:0:
448,192,90320,1,0,0:0:0:0:
64,192,90427,1,0,0:0:0:0:
320,192,90427,1,0,0:0:0:0:
448,192,90534,1,0,0:0:0:0:
192,192,90534,1,0,0:0:0:0:
320,192,90534,1,0,0:0:0:0:
64,192,90642,1,0,0:0:0:0:
192,192,90642,1,0,0:0:0:0:
320,192,90749,1,0,0:0:0:0:
448,192,90749,1,0,0:0:0:0:
64,192,90749,1,0,0:0:0:0:
64,192,90856,1,0,0:0:0:0:
192,192,90856,1,0,0:0:0:0:
192,192,90963,1,0,0:0:0:0:
320,192,90963,1,0,0:0:0:0:
448,192,90963,1,0,0:0:0:0:
448,192,91070,1,0,0:0:0:0:
64,192,91070,1,0,0:0:0:0:
64,192,91177,1,0,0:0:0:0:
320,192,91177,1,0,0:0:0:0:
192,192,91177,1,0,0:0:0:0:
192,192,91284,1,0,0:0:0:0:
448,192,91284,1,0,0:0:0:0:
64,192,91392,1,0,0:0:0:0:
192,192,91392,1,0,0:0:0:0:
448,192,91392,1,0,0:0:0:0:
64,192,91499,1,0,0:0:0:0:
320,192,91499,1,0,0:0:0:0:
192,192,91606,1,0,0:0:0:0:
448,192,91606,1,0,0:0:0:0:
320,192,91606,1,0,0:0:0:0:
64,192,91713,1,0,0:0:0:0:
320,192,91713,1,0,0:0:0:0:
448,192,91820,1,0,0:0:0:0:
192,192,91820,1,0,0:0:0:0:
64,192,91820,1,0,0:0:0:0:
192,192,91927,1,0,0:0:0:0:
448,192,91927,1,0,0:0:0:0:
192,192,92034,1,0,0:0:0:0:
448,192,92034,1,0,0:0:0:0:
320,192,92034,1,0,0:0:0:0:
64,192,92034,1,0,0:0:0:0:
64,192,92142,1,0,0:0:0:0:
320,192,92142,1,0,0:0:0:0:
64,192,92249,1,0,0:0:0:0:
320,192,92249,1,0,0:0:0:0:
448,192,92249,1,0,0:0:0:0:
192,192,92249,1,0,0:0:0:0:
448,192,92356,1,0,0:0:0:0:
192,192,92356,1,0,0:0:0:0:
64,192,92463,1,0,0:0:0:0:
320,192,92463,1,0,0:0:0:0:
192,192,92570,1,0,0:0:0:0:
448,192,92570,1,0,0:0:0:0:
320,192,92677,1,0,0:0:0:0:
192,192,92677,1,0,0:0:0:0:
64,192,92677,1,0,0:0:0:0:
320,192,92784,1,0,0:0:0:0:
448,192,92784,1,0,0:0:0:0:
64,192,92892,1,0,0:0:0:0:
192,192,92892,1,0,0:0:0:0:
448,192,92892,1,0,0:0:0:0:
64,192,92999,1,0,0:0:0:0:
320,192,92999,1,0,0:0:0:0:
192,192,93106,1,0,0:0:0:0:
320,192,93106,1,0,0:0:0:0:
448,192,93106,1,0,0:0:0:0:
64,192,93213,1,0,0:0:0:0:
192,192,93213,1,0,0:0:0:0:
320,192,93320,1,0,0:0:0:0:
64,192,93320,1,0,0:0:0:0:
448,192,93320,1,0,0:0:0:0:
192,192,93427,1,0,0:0:0:0:
448,192,93427,1,0,0:0:0:0:
192,192,93534,1,0,0:0:0:0:
320,192,93534,1,0,0:0:0:0:
64,192,93534,1,0,0:0:0:0:
320,192,93642,1,0,0:0:0:0:
64,192,93642,1,0,0:0:0:0:
64,192,93749,1,0,0:0:0:0:
192,192,93749,1,0,0:0:0:0:
448,192,93749,1,0,0:0:0:0:
192,192,93856,1,0,0:0:0:0:
448,192,93856,1,0,0:0:0:0:
64,192,93963,1,0,0:0:0:0:
320,192,93963,1,0,0:0:0:0:
192,192,93963,1,0,0:0:0:0:
192,192,94070,1,0,0:0:0:0:
448,192,94070,1,0,0:0:0:0:
320,192,94177,1,0,0:0:0:0:
448,192,94177,1,0,0:0:0:0:
64,192,94177,1,0,0:0:0:0:
64,192,94284,1,0,0:0:0:0:
320,192,94284,1,0,0:0:0:0:
192,192,94392,1,0,0:0:0:0:
448,192,94392,1,0,0:0:0:0:
320,192,94392,1,0,0:0:0:0:
64,192,94499,1,0,0:0:0:0:
320,192,94499,1,0,0:0:0:0:
192,192,94606,1,0,0:0:0:0:
320,192,94606,1,0,0:0:0:0:
64,192,94606,1,0,0:0:0:0:
448,192,94713,1,0,0:0:0:0:
192,192,94713,1,0,0:0:0:0:
64,192,94820,1,0,0:0:0:0:
192,192,94820,1,0,0:0:0:0:
448,192,94820,1,0,0:0:0:0:
320,192,94927,1,0,0:0:0:0:
64,192,94927,1,0,0:0:0:0:
192,192,95034,1,0,0:0:0:0:
448,192,95034,1,0,0:0:0:0:
320,192,95034,1,0,0:0:0:0:
64,192,95142,1,0,0:0:0:0:
192,192,95142,1,0,0:0:0:0:
320,192,95249,1,0,0:0:0:0:
448,192,95249,1,0,0:0:0:0:
64,192,95249,1,0,0:0:0:0:
192,192,95356,1,0,0:0:0:0:
448,192,95356,1,0,0:0:0:0:
64,192,95463,1,0,0:0:0:0:
320,192,95463,1,0,0:0:0:0:
192,192,95463,1,0,0:0:0:0:
320,192,95570,1,0,0:0:0:0:
448,192,95570,1,0,0:0:0:0:
64,192,95677,1,0,0:0:0:0:
320,192,95677,1,0,0:0:0:0:
192,192,95731,1,0,0:0:0:0:
448,192,95731,1,0,0:0:0:0:
320,192,95784,1,0,0:0:0:0:
64,192,95784,1,0,0:0:0:0:
448,192,95838,1,0,0:0:0:0:
192,192,95838,1,0,0:0:0:0:
64,192,95892,1,0,0:0:0:0:
320,192,95892,1,0,0:0:0:0:
192,192,95945,1,0,0:0:0:0:
448,192,95945,1,0,0:0:0:0:
320,192,95999,1,0,0:0:0:0:
448,192,96052,1,0,0:0:0:0:
192,192,96106,128,0,96427:0:0:0:0:
64,192,96106,128,0,96213:0:0:0:0:
320,192,96106,128,0,96213:0:0:0:0:
320,192,96320,128,0,96427:0:0:0:0:
448,192,96320,128,0,96427:0:0:0:0:
64,192,96320,128,0,96642:0:0:0:0:
192,192,96534,128,0,96642:0:0:0:0:
320,192,96534,128,0,96856:0:0:0:0:
448,192,96534,128,0,96642:0:0:0:0:
192,192,96749,128,0,96856:0:0:0:0:
64,192,96749,128,0,96856:0:0:0:0:
448,192,96749,128,0,97284:0:0:0:0:
320,192,96963,128,0,97284:0:0:0:0:
192,192,96963,128,0,97713:0:0:0:0:
64,192,96963,128,0,97284:0:0:0:0:
64,192,97392,128,0,97713:0:0:0:0:
320,192,97392,128,0,97713:0:0:0:0:
448,192,97392,128,0,97927:0:0:0:0:
320,192,97820,128,0,97927:0:0:0:0:
192,192,97820,128,0,97927:0:0:0:0:
64,192,97820,128,0,98142:0:0:0:0:
192,192,98034,128,0,98142:0:0:0:0:
320,192,98034,128,0,98356:0:0:0:0:
448,192,98034,128,0,98142:0:0:0:0:
448,192,98249,128,0,98356:0:0:0:0:
192,192,98249,128,0,98570:0:0:0:0:
64,192,98249,128,0,98356:0:0:0:0:
320,192,98463,128,0,98570:0:0:0:0:
448,192,98463,128,0,98570:0:0:0:0:
64,192,98463,128,0,98677:0:0:0:0:
192,192,98677,128,0,99320:0:0:0:0:
448,192,98677,128,0,99320:0:0:0:0:
320,192,98677,128,0,98784:0:0:0:0:
64,192,98892,1,0,0:0:0:0:
320,192,98892,1,0,0:0:0:0:
64,192,99106,1,0,0:0:0:0:
320,192,99106,1,0,0:0:0:0:
64,192,99320,1,0,0:0:0:0:
320,192,99320,1,0,0:0:0:0:
64,192,99534,5,0,0:0:0:0:
192,192,99534,1,0,0:0:0:0:
320,192,99534,1,0,0:0:0:0:
448,192,99534,1,0,0:0:0:0:
448,192,99642,1,0,0:0:0:0:
64,192,99642,1,0,0:0:0:0:
192,192,99642,1,0,0:0:0:0:
320,192,99749,1,0,0:0:0:0:
64,192,99749,1,0,0:0:0:0:
64,192,99856,1,0,0:0:0:0:
192,192,99856,1,0,0:0:0:0:
320,192,99856,1,0,0:0:0:0:
448,192,99856,1,0,0:0:0:0:
448,192,99963,1,0,0:0:0:0:
192,192,99963,1,0,0:0:0:0:
320,192,99963,1,0,0:0:0:0:
64,192,100070,1,0,0:0:0:0:
320,192,100070,1,0,0:0:0:0:
192,192,100177,1,0,0:0:0:0:
64,192,100177,1,0,0:0:0:0:
448,192,100284,1,0,0:0:0:0:
64,192,100284,1,0,0:0:0:0:
192,192,100320,1,0,0:0:0:0:
320,192,100356,1,0,0:0:0:0:
64,192,100392,1,0,0:0:0:0:
192,192,100392,1,0,0:0:0:0:
448,192,100392,1,0,0:0:0:0:
64,192,100499,1,0,0:0:0:0:
320,192,100499,1,0,0:0:0:0:
192,192,100499,1,0,0:0:0:0:
192,192,100606,1,0,0:0:0:0:
448,192,100606,1,0,0:0:0:0:
64,192,100713,1,0,0:0:0:0:
192,192,100713,1,0,0:0:0:0:
320,192,100713,1,0,0:0:0:0:
448,192,100713,1,0,0:0:0:0:
64,192,100820,1,0,0:0:0:0:
192,192,100820,1,0,0:0:0:0:
448,192,100820,1,0,0:0:0:0:
320,192,100874,1,0,0:0:0:0:
448,192,100927,1,0,0:0:0:0:
64,192,100927,1,0,0:0:0:0:
320,192,101034,1,0,0:0:0:0:
448,192,101034,1,0,0:0:0:0:
64,192,101142,1,0,0:0:0:0:
320,192,101142,1,0,0:0:0:0:
64,192,101249,1,0,0:0:0:0:
320,192,101249,1,0,0:0:0:0:
448,192,101249,1,0,0:0:0:0:
192,192,101249,1,0,0:0:0:0:
64,192,101356,1,0,0:0:0:0:
320,192,101356,1,0,0:0:0:0:
448,192,101356,1,0,0:0:0:0:
192,192,101463,1,0,0:0:0:0:
448,192,101463,1,0,0:0:0:0:
320,192,101570,1,0,0:0:0:0:
448,192,101570,1,0,0:0:0:0:
192,192,101570,1,0,0:0:0:0:
64,192,101570,1,0,0:0:0:0:
192,192,101677,1,0,0:0:0:0:
448,192,101677,1,0,0:0:0:0:
64,192,101677,1,0,0:0:0:0:
64,192,101784,1,0,0:0:0:0:
320,192,101784,1,0,0:0:0:0:
64,192,101892,1,0,0:0:0:0:
192,192,101892,1,0,0:0:0:0:
320,192,101892,1,0,0:0:0:0:
448,192,101892,1,0,0:0:0:0:
192,192,101999,1,0,0:0:0:0:
320,192,101999,1,0,0:0:0:0:
64,192,102106,1,0,0:0:0:0:
192,192,102106,1,0,0:0:0:0:
320,192,102106,1,0,0:0:0:0:
448,192,102106,1,0,0:0:0:0:
64,192,102213,1,0,0:0:0:0:
448,192,102213,1,0,0:0:0:0:
192,192,102213,1,0,0:0:0:0:
448,192,102320,1,0,0:0:0:0:
320,192,102320,1,0,0:0:0:0:
64,192,102427,1,0,0:0:0:0:
192,192,102427,1,0,0:0:0:0:
448,192,102534,1,0,0:0:0:0:
320,192,102534,1,0,0:0:0:0:
192,192,102534,1,0,0:0:0:0:
64,192,102642,1,0,0:0:0:0:
320,192,102642,1,0,0:0:0:0:
448,192,102749,1,0,0:0:0:0:
64,192,102749,1,0,0:0:0:0:
320,192,102802,1,0,0:0:0:0:
448,192,102856,1,0,0:0:0:0:
192,192,102856,1,0,0:0:0:0:
320,192,102909,1,0,0:0:0:0:
448,192,102963,1,0,0:0:0:0:
192,192,102963,1,0,0:0:0:0:
64,192,102963,1,0,0:0:0:0:
64,192,103070,1,0,0:0:0:0:
448,192,103070,1,0,0:0:0:0:
320,192,103070,1,0,0:0:0:0:
192,192,103177,1,0,0:0:0:0:
448,192,103177,1,0,0:0:0:0:
448,192,103284,1,0,0:0:0:0:
320,192,103284,1,0,0:0:0:0:
192,192,103284,1,0,0:0:0:0:
64,192,103284,1,0,0:0:0:0:
64,192,103392,1,0,0:0:0:0:
320,192,103392,1,0,0:0:0:0:
192,192,103392,1,0,0:0:0:0:
448,192,103499,1,0,0:0:0:0:
192,192,103499,1,0,0:0:0:0:
320,192,103606,1,0,0:0:0:0:
448,192,103606,1,0,0:0:0:0:
64,192,103713,1,0,0:0:0:0:
448,192,103713,1,0,0:0:0:0:
320,192,103749,1,0,0:0:0:0:
192,192,103784,1,0,0:0:0:0:
448,192,103820,1,0,0:0:0:0:
320,192,103820,1,0,0:0:0:0:
64,192,103820,1,0,0:0:0:0:
448,192,103927,1,0,0:0:0:0:
192,192,103927,1,0,0:0:0:0:
320,192,103927,1,0,0:0:0:0:
320,192,104034,1,0,0:0:0:0:
64,192,104034,1,0,0:0:0:0:
448,192,104142,1,0,0:0:0:0:
320,192,104142,1,0,0:0:0:0:
192,192,104142,1,0,0:0:0:0:
64,192,104142,1,0,0:0:0:0:
448,192,104249,1,0,0:0:0:0:
320,192,104249,1,0,0:0:0:0:
64,192,104249,1,0,0:0:0:0:
192,192,104302,1,0,0:0:0:0:
64,192,104356,1,0,0:0:0:0:
448,192,104356,1,0,0:0:0:0:
192,192,104463,1,0,0:0:0:0:
64,192,104463,1,0,0:0:0:0:
448,192,104570,1,0,0:0:0:0:
192,192,104570,1,0,0:0:0:0:
448,192,104677,1,0,0:0:0:0:
320,192,104677,1,0,0:0:0:0:
192,192,104677,1,0,0:0:0:0:
64,192,104677,1,0,0:0:0:0:
448,192,104784,1,0,0:0:0:0:
192,192,104784,1,0,0:0:0:0:
64,192,104784,1,0,0:0:0:0:
320,192,104892,1,0,0:0:0:0:
64,192,104892,1,0,0:0:0:0:
192,192,104999,1,0,0:0:0:0:
64,192,104999,1,0,0:0:0:0:
320,192,104999,1,0,0:0:0:0:
448,192,104999,1,0,0:0:0:0:
320,192,105106,1,0,0:0:0:0:
64,192,105106,1,0,0:0:0:0:
448,192,105106,1,0,0:0:0:0:
448,192,105213,1,0,0:0:0:0:
192,192,105213,1,0,0:0:0:0:
448,192,105320,1,0,0:0:0:0:
320,192,105320,1,0,0:0:0:0:
192,192,105320,1,0,0:0:0:0:
64,192,105320,1,0,0:0:0:0:
320,192,105427,1,0,0:0:0:0:
192,192,105427,1,0,0:0:0:0:
448,192,105534,1,0,0:0:0:0:
320,192,105534,1,0,0:0:0:0:
192,192,105534,1,0,0:0:0:0:
64,192,105534,1,0,0:0:0:0:
64,192,105642,1,0,0:0:0:0:
320,192,105642,1,0,0:0:0:0:
192,192,105695,1,0,0:0:0:0:
320,192,105749,1,0,0:0:0:0:
448,192,105749,1,0,0:0:0:0:
64,192,105856,1,0,0:0:0:0:
192,192,105856,1,0,0:0:0:0:
448,192,105856,1,0,0:0:0:0:
320,192,105963,1,0,0:0:0:0:
448,192,105963,1,0,0:0:0:0:
64,192,105963,1,0,0:0:0:0:
64,192,106070,1,0,0:0:0:0:
192,192,106070,1,0,0:0:0:0:
320,192,106070,1,0,0:0:0:0:
320,192,106177,1,0,0:0:0:0:
448,192,106177,1,0,0:0:0:0:
192,192,106177,1,0,0:0:0:0:
64,192,106284,1,0,0:0:0:0:
320,192,106284,1,0,0:0:0:0:
320,192,106392,1,0,0:0:0:0:
448,192,106392,1,0,0:0:0:0:
64,192,106392,1,0,0:0:0:0:
192,192,106392,1,0,0:0:0:0:
192,192,106499,1,0,0:0:0:0:
64,192,106499,1,0,0:0:0:0:
448,192,106499,1,0,0:0:0:0:
64,192,106606,1,0,0:0:0:0:
320,192,106606,1,0,0:0:0:0:
320,192,106713,1,0,0:0:0:0:
448,192,106713,1,0,0:0:0:0:
64,192,106713,1,0,0:0:0:0:
192,192,106713,1,0,0:0:0:0:
320,192,106820,1,0,0:0:0:0:
192,192,106820,1,0,0:0:0:0:
448,192,106820,1,0,0:0:0:0:
320,192,106927,1,0,0:0:0:0:
64,192,106927,1,0,0:0:0:0:
64,192,107034,1,0,0:0:0:0:
192,192,107034,1,0,0:0:0:0:
64,192,107142,1,0,0:0:0:0:
448,192,107142,1,0,0:0:0:0:
192,192,107177,1,0,0:0:0:0:
320,192,107213,1,0,0:0:0:0:
448,192,107249,1,0,0:0:0:0:
192,192,107249,1,0,0:0:0:0:
64,192,107249,1,0,0:0:0:0:
192,192,107356,1,0,0:0:0:0:
320,192,107356,1,0,0:0:0:0:
64,192,107356,1,0,0:0:0:0:
448,192,107463,1,0,0:0:0:0:
192,192,107463,1,0,0:0:0:0:
320,192,107570,1,0,0:0:0:0:
448,192,107570,1,0,0:0:0:0:
64,192,107570,1,0,0:0:0:0:
192,192,107570,1,0,0:0:0:0:
448,192,107677,1,0,0:0:0:0:
192,192,107677,1,0,0:0:0:0:
64,192,107677,1,0,0:0:0:0:
320,192,107731,1,0,0:0:0:0:
64,192,107784,1,0,0:0:0:0:
448,192,107784,1,0,0:0:0:0:
448,192,107892,1,0,0:0:0:0:
320,192,107892,1,0,0:0:0:0:
320,192,107999,1,0,0:0:0:0:
64,192,107999,1,0,0:0:0:0:
448,192,108106,1,0,0:0:0:0:
192,192,108106,1,0,0:0:0:0:
64,192,108106,1,0,0:0:0:0:
320,192,108106,1,0,0:0:0:0:
448,192,108213,1,0,0:0:0:0:
320,192,108213,1,0,0:0:0:0:
64,192,108213,1,0,0:0:0:0:
448,192,108320,1,0,0:0:0:0:
192,192,108320,1,0,0:0:0:0:
192,192,108427,1,0,0:0:0:0:
64,192,108427,1,0,0:0:0:0:
320,192,108427,1,0,0:0:0:0:
448,192,108427,1,0,0:0:0:0:
64,192,108534,1,0,0:0:0:0:
448,192,108534,1,0,0:0:0:0:
192,192,108534,1,0,0:0:0:0:
320,192,108642,1,0,0:0:0:0:
64,192,108642,1,0,0:0:0:0:
320,192,108749,1,0,0:0:0:0:
448,192,108749,1,0,0:0:0:0:
64,192,108749,1,0,0:0:0:0:
192,192,108749,1,0,0:0:0:0:
320,192,108856,1,0,0:0:0:0:
192,192,108856,1,0,0:0:0:0:
320,192,108963,1,0,0:0:0:0:
448,192,108963,1,0,0:0:0:0:
64,192,108963,1,0,0:0:0:0:
192,192,108963,1,0,0:0:0:0:
192,192,109070,1,0,0:0:0:0:
448,192,109070,1,0,0:0:0:0:
64,192,109070,1,0,0:0:0:0:
320,192,109177,1,0,0:0:0:0:
448,192,109177,1,0,0:0:0:0:
192,192,109284,1,0,0:0:0:0:
64,192,109284,1,0,0:0:0:0:
192,192,109392,1,0,0:0:0:0:
320,192,109392,1,0,0:0:0:0:
448,192,109392,1,0,0:0:0:0:
320,192,109499,1,0,0:0:0:0:
64,192,109499,1,0,0:0:0:0:
64,192,109606,1,0,0:0:0:0:
448,192,109606,1,0,0:0:0:0:
320,192,109659,1,0,0:0:0:0:
192,192,109713,1,0,0:0:0:0:
448,192,109713,1,0,0:0:0:0:
320,192,109767,1,0,0:0:0:0:
64,192,109820,1,0,0:0:0:0:
192,192,109820,1,0,0:0:0:0:
448,192,109820,1,0,0:0:0:0:
320,192,109927,1,0,0:0:0:0:
448,192,109927,1,0,0:0:0:0:
64,192,109927,1,0,0:0:0:0:
448,192,110034,1,0,0:0:0:0:
192,192,110034,1,0,0:0:0:0:
192,192,110142,1,0,0:0:0:0:
64,192,110142,1,0,0:0:0:0:
448,192,110142,1,0,0:0:0:0:
320,192,110142,1,0,0:0:0:0:
192,192,110249,1,0,0:0:0:0:
320,192,110249,1,0,0:0:0:0:
64,192,110249,1,0,0:0:0:0:
192,192,110356,1,0,0:0:0:0:
448,192,110356,1,0,0:0:0:0:
448,192,110463,1,0,0:0:0:0:
320,192,110463,1,0,0:0:0:0:
448,192,110570,1,0,0:0:0:0:
64,192,110570,1,0,0:0:0:0:
320,192,110606,1,0,0:0:0:0:
192,192,110642,1,0,0:0:0:0:
64,192,110677,1,0,0:0:0:0:
320,192,110677,1,0,0:0:0:0:
448,192,110677,1,0,0:0:0:0:
320,192,110784,1,0,0:0:0:0:
192,192,110784,1,0,0:0:0:0:
448,192,110784,1,0,0:0:0:0:
64,192,110892,1,0,0:0:0:0:
320,192,110892,1,0,0:0:0:0:
192,192,110999,1,0,0:0:0:0:
64,192,110999,1,0,0:0:0:0:
448,192,110999,1,0,0:0:0:0:
320,192,110999,1,0,0:0:0:0:
64,192,111106,1,0,0:0:0:0:
320,192,111106,1,0,0:0:0:0:
448,192,111106,1,0,0:0:0:0:
192,192,111159,1,0,0:0:0:0:
448,192,111213,1,0,0:0:0:0:
64,192,111213,1,0,0:0:0:0:
64,192,111320,1,0,0:0:0:0:
192,192,111320,1,0,0:0:0:0:
192,192,111427,1,0,0:0:0:0:
448,192,111427,1,0,0:0:0:0:
192,192,111534,1,0,0:0:0:0:
64,192,111534,1,0,0:0:0:0:
448,192,111534,1,0,0:0:0:0:
320,192,111534,1,0,0:0:0:0:
64,192,111642,1,0,0:0:0:0:
192,192,111642,1,0,0:0:0:0:
448,192,111642,1,0,0:0:0:0:
64,192,111749,1,0,0:0:0:0:
320,192,111749,1,0,0:0:0:0:
320,192,111856,1,0,0:0:0:0:
448,192,111856,1,0,0:0:0:0:
192,192,111856,1,0,0:0:0:0:
64,192,111856,1,0,0:0:0:0:
448,192,111963,1,0,0:0:0:0:
64,192,111963,1,0,0:0:0:0:
320,192,111963,1,0,0:0:0:0:
192,192,112070,1,0,0:0:0:0:
448,192,112070,1,0,0:0:0:0:
192,192,112177,1,0,0:0:0:0:
64,192,112177,1,0,0:0:0:0:
448,192,112177,1,0,0:0:0:0:
320,192,112177,1,0,0:0:0:0:
192,192,112284,1,0,0:0:0:0:
320,192,112284,1,0,0:0:0:0:
192,192,112392,1,0,0:0:0:0:
64,192,112392,1,0,0:0:0:0:
448,192,112392,1,0,0:0:0:0:
320,192,112392,1,0,0:0:0:0:
64,192,112606,1,0,0:0:0:0:
192,192,112606,1,0,0:0:0:0:
320,192,112820,1,0,0:0:0:0:
192,192,112820,1,0,0:0:0:0:
320,192,113034,1,0,0:0:0:0:
448,192,113034,1,0,0:0:0:0:
192,192,113249,1,0,0:0:0:0:
64,192,113249,1,0,0:0:0:0:
448,192,113249,1,0,0:0:0:0:
64,192,113570,1,0,0:0:0:0:
448,192,113570,1,0,0:0:0:0:
192,192,113570,1,0,0:0:0:0:
64,192,113677,1,0,0:0:0:0:
192,192,113677,1,0,0:0:0:0:
320,192,113677,1,0,0:0:0:0:
448,192,113892,1,0,0:0:0:0:
320,192,113892,1,0,0:0:0:0:
192,192,113892,1,0,0:0:0:0:
320,192,114106,1,0,0:0:0:0:
448,192,114106,1,0,0:0:0:0:
64,192,114106,1,0,0:0:0:0:
64,192,114427,1,0,0:0:0:0:
320,192,114427,1,0,0:0:0:0:
448,192,114427,1,0,0:0:0:0:
192,192,114534,1,0,0:0:0:0:
320,192,114534,1,0,0:0:0:0:
448,192,114534,1,0,0:0:0:0:
64,192,114749,1,0,0:0:0:0:
320,192,114749,1,0,0:0:0:0:
192,192,114749,1,0,0:0:0:0:
64,192,114963,1,0,0:0:0:0:
192,192,114963,1,0,0:0:0:0:
448,192,114963,1,0,0:0:0:0:
192,192,115070,1,0,0:0:0:0:
64,192,115177,1,0,0:0:0:0:
320,192,115177,1,0,0:0:0:0:
64,192,115392,1,0,0:0:0:0:
192,192,115392,1,0,0:0:0:0:
320,192,115392,1,0,0:0:0:0:
192,192,115606,1,0,0:0:0:0:
448,192,115606,1,0,0:0:0:0:
64,192,115820,1,0,0:0:0:0:
320,192,115820,1,0,0:0:0:0:
448,192,115820,1,0,0:0:0:0:
