osu file format v14

[General]
AudioFilename: audio.mp3
AudioLeadIn: 0
PreviewTime: 70555
Countdown: 0
SampleSet: None
StackLeniency: 0.7
Mode: 3
LetterboxInBreaks: 0
SpecialStyle: 0
WidescreenStoryboard: 0

[Editor]
DistanceSpacing: 1.2
BeatDivisor: 4
GridSize: 32
TimelineZoom: 2.1

[Metadata]
Title:Poison AND / OR Affection
TitleUnicode:Poison AND÷OR Affection
Artist:LeaF
ArtistUnicode:LeaF
Creator:pwhk
Version:Anaphrodisiac
Source:BMS
Tags:of figthers 2014 G2R2014 dependence music
BeatmapID:1739368
BeatmapSetID:830154

[Difficulty]
HPDrainRate:8
CircleSize:4
OverallDifficulty:9
ApproachRate:5
SliderMultiplier:1.4
SliderTickRate:1

[Events]
//Background and Video events
0,0,"heather-schwartz-493953-unsplash.jpg",0,0
//Break Periods
//Storyboard Layer 0 (Background)
//Storyboard Layer 1 (Fail)
//Storyboard Layer 2 (Pass)
//Storyboard Layer 3 (Foreground)
//Storyboard Sound Samples

[TimingPoints]
305.980454229552,500,4,2,0,5,1,0
72180,-100,4,2,0,5,0,1
88180,-100,4,2,0,5,0,0
212305,500,6,2,0,5,1,0
215180,-100,6,2,0,5,0,1
215305,500,4,2,0,5,1,1
249305,-100,4,2,0,5,0,0
263180,-100,4,2,0,5,0,1
285305,-100,4,2,0,5,0,0

[HitObjects]
192,192,305,5,0,0:0:0:0:
448,192,305,128,0,2305:0:0:0:0:
64,192,305,128,0,2305:0:0:0:0:
320,192,430,1,0,0:0:0:0:
192,192,555,1,0,0:0:0:0:
320,192,680,1,0,0:0:0:0:
192,192,805,1,0,0:0:0:0:
320,192,1055,1,0,0:0:0:0:
192,192,1180,1,0,0:0:0:0:
320,192,1305,128,0,2305:0:0:0:0:
192,192,1805,128,0,2305:0:0:0:0:
448,192,2555,1,0,0:0:0:0:
192,192,2805,1,0,0:0:0:0:
64,192,3055,1,0,0:0:0:0:
320,192,3305,1,0,0:0:0:0:
448,192,3430,1,0,0:0:0:0:
192,192,3493,1,0,0:0:0:0:
64,192,3555,1,0,0:0:0:0:
320,192,3555,1,0,0:0:0:0:
192,192,3680,1,0,0:0:0:0:
64,192,3805,1,0,0:0:0:0:
448,192,3805,1,0,0:0:0:0:
192,192,3930,1,0,0:0:0:0:
320,192,4055,1,0,0:0:0:0:
192,192,4118,1,0,0:0:0:0:
64,192,4180,1,0,0:0:0:0:
448,192,4180,1,0,0:0:0:0:
320,192,4180,1,0,0:0:0:0:
192,192,4430,1,0,0:0:0:0:
320,192,4555,1,0,0:0:0:0:
448,192,4680,1,0,0:0:0:0:
64,192,4930,1,0,0:0:0:0:
192,192,5055,1,0,0:0:0:0:
320,192,5180,1,0,0:0:0:0:
192,192,5430,1,0,0:0:0:0:
320,192,5555,1,0,0:0:0:0:
448,192,5680,1,0,0:0:0:0:
192,192,5930,1,0,0:0:0:0:
320,192,6055,1,0,0:0:0:0:
448,192,6180,1,0,0:0:0:0:
64,192,6180,1,0,0:0:0:0:
192,192,6305,1,0,0:0:0:0:
320,192,6555,1,0,0:0:0:0:
192,192,7055,1,0,0:0:0:0:
64,192,7305,1,0,0:0:0:0:
192,192,7555,1,0,0:0:0:0:
320,192,7930,1,0,0:0:0:0:
192,192,8055,1,0,0:0:0:0:
448,192,8180,1,0,0:0:0:0:
64,192,8430,1,0,0:0:0:0:
448,192,8555,1,0,0:0:0:0:
192,192,8555,1,0,0:0:0:0:
320,192,8680,1,0,0:0:0:0:
192,192,8805,1,0,0:0:0:0:
64,192,8930,1,0,0:0:0:0:
192,192,9055,1,0,0:0:0:0:
320,192,9180,1,0,0:0:0:0:
64,192,9305,1,0,0:0:0:0:
192,192,9430,1,0,0:0:0:0:
320,192,9555,1,0,0:0:0:0:
448,192,9680,1,0,0:0:0:0:
320,192,9805,1,0,0:0:0:0:
192,192,9930,1,0,0:0:0:0:
320,192,10055,1,0,0:0:0:0:
448,192,10180,1,0,0:0:0:0:
320,192,10305,1,0,0:0:0:0:
192,192,10430,1,0,0:0:0:0:
64,192,10555,1,0,0:0:0:0:
448,192,10680,1,0,0:0:0:0:
320,192,10805,1,0,0:0:0:0:
192,192,10930,1,0,0:0:0:0:
64,192,11055,1,0,0:0:0:0:
192,192,11180,1,0,0:0:0:0:
64,192,11305,1,0,0:0:0:0:
320,192,11305,1,0,0:0:0:0:
448,192,11430,1,0,0:0:0:0:
320,192,11493,1,0,0:0:0:0:
192,192,11555,1,0,0:0:0:0:
64,192,11680,1,0,0:0:0:0:
320,192,11930,1,0,0:0:0:0:
64,192,12180,1,0,0:0:0:0:
448,192,12180,1,0,0:0:0:0:
64,192,12430,1,0,0:0:0:0:
192,192,12555,1,0,0:0:0:0:
448,192,12555,1,0,0:0:0:0:
320,192,12680,1,0,0:0:0:0:
448,192,12805,1,0,0:0:0:0:
64,192,12930,1,0,0:0:0:0:
192,192,13055,1,0,0:0:0:0:
320,192,13180,1,0,0:0:0:0:
64,192,13305,1,0,0:0:0:0:
448,192,13305,1,0,0:0:0:0:
192,192,13430,1,0,0:0:0:0:
320,192,13555,1,0,0:0:0:0:
448,192,13680,1,0,0:0:0:0:
64,192,13805,1,0,0:0:0:0:
192,192,13930,1,0,0:0:0:0:
320,192,14055,1,0,0:0:0:0:
448,192,14180,1,0,0:0:0:0:
320,192,14305,128,0,15055:0:0:0:0:
192,192,14555,1,0,0:0:0:0:
448,192,15055,1,0,0:0:0:0:
64,192,15180,1,0,0:0:0:0:
192,192,15305,128,0,16305:0:0:0:0:
64,192,15555,1,0,0:0:0:0:
320,192,15680,1,0,0:0:0:0:
320,192,16055,1,0,0:0:0:0:
448,192,16180,1,0,0:0:0:0:
64,192,16430,1,0,0:0:0:0:
448,192,16555,1,0,0:0:0:0:
192,192,16555,1,0,0:0:0:0:
320,192,16680,1,0,0:0:0:0:
192,192,16805,1,0,0:0:0:0:
64,192,16930,1,0,0:0:0:0:
448,192,16930,1,0,0:0:0:0:
192,192,17055,1,0,0:0:0:0:
320,192,17180,1,0,0:0:0:0:
64,192,17305,1,0,0:0:0:0:
448,192,17305,1,0,0:0:0:0:
192,192,17430,1,0,0:0:0:0:
320,192,17555,1,0,0:0:0:0:
448,192,17680,1,0,0:0:0:0:
320,192,17805,1,0,0:0:0:0:
64,192,17805,1,0,0:0:0:0:
192,192,17930,1,0,0:0:0:0:
320,192,18055,1,0,0:0:0:0:
448,192,18180,1,0,0:0:0:0:
64,192,18305,1,0,0:0:0:0:
320,192,18305,1,0,0:0:0:0:
192,192,18305,1,0,0:0:0:0:
448,192,18805,1,0,0:0:0:0:
320,192,19055,1,0,0:0:0:0:
448,192,19305,1,0,0:0:0:0:
320,192,19368,1,0,0:0:0:0:
192,192,19430,1,0,0:0:0:0:
64,192,19493,1,0,0:0:0:0:
448,192,19555,1,0,0:0:0:0:
192,192,19618,1,0,0:0:0:0:
320,192,19680,1,0,0:0:0:0:
64,192,19743,1,0,0:0:0:0:
320,192,19805,1,0,0:0:0:0:
192,192,19868,1,0,0:0:0:0:
448,192,19930,1,0,0:0:0:0:
320,192,19993,1,0,0:0:0:0:
64,192,20055,1,0,0:0:0:0:
192,192,20118,1,0,0:0:0:0:
320,192,20180,1,0,0:0:0:0:
192,192,20305,1,0,0:0:0:0:
64,192,20305,128,0,21805:0:0:0:0:
448,192,20305,128,0,21805:0:0:0:0:
320,192,20430,1,0,0:0:0:0:
192,192,20555,1,0,0:0:0:0:
320,192,20805,1,0,0:0:0:0:
192,192,21055,1,0,0:0:0:0:
320,192,21305,1,0,0:0:0:0:
192,192,21555,1,0,0:0:0:0:
320,192,21680,1,0,0:0:0:0:
192,192,21805,128,0,21930:0:0:0:0:
64,192,22305,1,0,0:0:0:0:
448,192,22305,1,0,0:0:0:0:
320,192,22555,1,0,0:0:0:0:
192,192,22805,1,0,0:0:0:0:
448,192,22805,1,0,0:0:0:0:
320,192,23055,1,0,0:0:0:0:
64,192,23305,1,0,0:0:0:0:
192,192,23555,1,0,0:0:0:0:
448,192,23805,1,0,0:0:0:0:
64,192,23805,1,0,0:0:0:0:
320,192,24055,1,0,0:0:0:0:
192,192,24305,1,0,0:0:0:0:
320,192,24555,1,0,0:0:0:0:
64,192,24805,1,0,0:0:0:0:
448,192,24805,1,0,0:0:0:0:
320,192,25055,1,0,0:0:0:0:
64,192,25305,1,0,0:0:0:0:
192,192,25555,1,0,0:0:0:0:
320,192,25805,1,0,0:0:0:0:
448,192,25805,128,0,26180:0:0:0:0:
64,192,26305,1,0,0:0:0:0:
320,192,26555,1,0,0:0:0:0:
448,192,26805,1,0,0:0:0:0:
192,192,26805,1,0,0:0:0:0:
320,192,27055,1,0,0:0:0:0:
64,192,27305,1,0,0:0:0:0:
192,192,27555,1,0,0:0:0:0:
64,192,27805,1,0,0:0:0:0:
448,192,27805,1,0,0:0:0:0:
320,192,28055,1,0,0:0:0:0:
192,192,28305,1,0,0:0:0:0:
320,192,28555,1,0,0:0:0:0:
448,192,28805,1,0,0:0:0:0:
64,192,28805,1,0,0:0:0:0:
320,192,29055,1,0,0:0:0:0:
64,192,29305,1,0,0:0:0:0:
192,192,29555,1,0,0:0:0:0:
448,192,29555,128,0,29618:0:0:0:0:
320,192,29805,1,0,0:0:0:0:
64,192,29805,128,0,29868:0:0:0:0:
448,192,29805,128,0,30180:0:0:0:0:
192,192,30055,128,0,30118:0:0:0:0:
320,192,30305,128,0,30368:0:0:0:0:
64,192,30305,1,0,0:0:0:0:
320,192,30555,1,0,0:0:0:0:
192,192,30805,1,0,0:0:0:0:
448,192,30805,1,0,0:0:0:0:
320,192,31055,1,0,0:0:0:0:
64,192,31305,1,0,0:0:0:0:
192,192,31305,128,0,31368:0:0:0:0:
192,192,31555,1,0,0:0:0:0:
448,192,31805,1,0,0:0:0:0:
64,192,31805,1,0,0:0:0:0:
320,192,32055,1,0,0:0:0:0:
192,192,32305,1,0,0:0:0:0:
448,192,32305,128,0,32368:0:0:0:0:
320,192,32555,1,0,0:0:0:0:
64,192,32805,1,0,0:0:0:0:
448,192,32805,1,0,0:0:0:0:
320,192,33055,1,0,0:0:0:0:
64,192,33305,128,0,33368:0:0:0:0:
448,192,33305,1,0,0:0:0:0:
192,192,33555,1,0,0:0:0:0:
320,192,33805,1,0,0:0:0:0:
448,192,33805,128,0,34180:0:0:0:0:
64,192,34305,1,0,0:0:0:0:
320,192,34305,128,0,34368:0:0:0:0:
320,192,34555,1,0,0:0:0:0:
448,192,34805,1,0,0:0:0:0:
192,192,34805,1,0,0:0:0:0:
320,192,35055,1,0,0:0:0:0:
64,192,35305,1,0,0:0:0:0:
192,192,35305,128,0,35368:0:0:0:0:
320,192,35555,1,0,0:0:0:0:
64,192,35805,1,0,0:0:0:0:
448,192,35805,1,0,0:0:0:0:
320,192,36055,1,0,0:0:0:0:
192,192,36305,1,0,0:0:0:0:
64,192,36305,128,0,36368:0:0:0:0:
320,192,36555,1,0,0:0:0:0:
448,192,36805,1,0,0:0:0:0:
64,192,36805,1,0,0:0:0:0:
320,192,36805,128,0,36868:0:0:0:0:
192,192,37055,1,0,0:0:0:0:
64,192,37305,1,0,0:0:0:0:
192,192,37305,128,0,37368:0:0:0:0:
320,192,37555,1,0,0:0:0:0:
64,192,37555,1,0,0:0:0:0:
64,192,37805,1,0,0:0:0:0:
448,192,37805,128,0,38180:0:0:0:0:
320,192,37805,1,0,0:0:0:0:
192,192,38055,128,0,38118:0:0:0:0:
64,192,38305,1,0,0:0:0:0:
320,192,38305,128,0,38368:0:0:0:0:
448,192,38305,1,0,0:0:0:0:
192,192,38555,1,0,0:0:0:0:
320,192,38805,1,0,0:0:0:0:
64,192,38805,1,0,0:0:0:0:
192,192,39055,1,0,0:0:0:0:
448,192,39305,1,0,0:0:0:0:
192,192,39305,128,0,39368:0:0:0:0:
320,192,39555,1,0,0:0:0:0:
64,192,39805,1,0,0:0:0:0:
448,192,39805,1,0,0:0:0:0:
192,192,40055,1,0,0:0:0:0:
320,192,40305,128,0,40368:0:0:0:0:
448,192,40305,1,0,0:0:0:0:
192,192,40555,1,0,0:0:0:0:
448,192,40805,1,0,0:0:0:0:
64,192,40805,1,0,0:0:0:0:
192,192,41055,1,0,0:0:0:0:
448,192,41305,1,0,0:0:0:0:
64,192,41305,128,0,41368:0:0:0:0:
320,192,41555,1,0,0:0:0:0:
64,192,41805,128,0,42180:0:0:0:0:
192,192,41805,1,0,0:0:0:0:
320,192,42305,128,0,42368:0:0:0:0:
448,192,42305,1,0,0:0:0:0:
192,192,42555,1,0,0:0:0:0:
64,192,42805,1,0,0:0:0:0:
320,192,42805,1,0,0:0:0:0:
192,192,43055,1,0,0:0:0:0:
192,192,43305,128,0,43368:0:0:0:0:
448,192,43305,1,0,0:0:0:0:
320,192,43555,1,0,0:0:0:0:
448,192,43805,1,0,0:0:0:0:
64,192,43805,1,0,0:0:0:0:
192,192,44055,1,0,0:0:0:0:
448,192,44305,1,0,0:0:0:0:
64,192,44305,128,0,44368:0:0:0:0:
192,192,44555,1,0,0:0:0:0:
64,192,44805,1,0,0:0:0:0:
448,192,44805,1,0,0:0:0:0:
320,192,44805,128,0,44868:0:0:0:0:
192,192,45055,1,0,0:0:0:0:
192,192,45305,128,0,45368:0:0:0:0:
448,192,45305,1,0,0:0:0:0:
320,192,45555,1,0,0:0:0:0:
64,192,45805,128,0,46180:0:0:0:0:
192,192,45805,1,0,0:0:0:0:
448,192,45805,1,0,0:0:0:0:
192,192,46305,128,0,46805:0:0:0:0:
320,192,46305,1,0,0:0:0:0:
448,192,46305,1,0,0:0:0:0:
448,192,46555,1,0,0:0:0:0:
448,192,46805,128,0,47180:0:0:0:0:
64,192,46805,1,0,0:0:0:0:
320,192,46805,1,0,0:0:0:0:
192,192,47055,1,0,0:0:0:0:
64,192,47305,1,0,0:0:0:0:
320,192,47305,1,0,0:0:0:0:
192,192,47555,1,0,0:0:0:0:
64,192,47805,1,0,0:0:0:0:
448,192,47805,1,0,0:0:0:0:
320,192,48055,1,0,0:0:0:0:
192,192,48305,128,0,48805:0:0:0:0:
320,192,48305,1,0,0:0:0:0:
64,192,48305,1,0,0:0:0:0:
448,192,48555,1,0,0:0:0:0:
448,192,48805,128,0,49180:0:0:0:0:
64,192,48805,1,0,0:0:0:0:
320,192,48805,1,0,0:0:0:0:
192,192,49055,1,0,0:0:0:0:
64,192,49305,1,0,0:0:0:0:
320,192,49305,1,0,0:0:0:0:
192,192,49555,1,0,0:0:0:0:
64,192,49805,1,0,0:0:0:0:
320,192,49805,128,0,50180:0:0:0:0:
448,192,49805,1,0,0:0:0:0:
64,192,50305,1,0,0:0:0:0:
192,192,50305,1,0,0:0:0:0:
64,192,50555,1,0,0:0:0:0:
320,192,50555,1,0,0:0:0:0:
192,192,50805,1,0,0:0:0:0:
448,192,50805,1,0,0:0:0:0:
64,192,50805,1,0,0:0:0:0:
192,192,51055,1,0,0:0:0:0:
320,192,51055,1,0,0:0:0:0:
64,192,51305,1,0,0:0:0:0:
192,192,51305,1,0,0:0:0:0:
64,192,51555,1,0,0:0:0:0:
320,192,51555,1,0,0:0:0:0:
448,192,51805,1,0,0:0:0:0:
64,192,51805,1,0,0:0:0:0:
192,192,51805,1,0,0:0:0:0:
320,192,52055,1,0,0:0:0:0:
192,192,52055,1,0,0:0:0:0:
64,192,52305,1,0,0:0:0:0:
320,192,52305,1,0,0:0:0:0:
448,192,52555,1,0,0:0:0:0:
192,192,52805,1,0,0:0:0:0:
320,192,52805,1,0,0:0:0:0:
448,192,53055,1,0,0:0:0:0:
320,192,53305,1,0,0:0:0:0:
64,192,53430,1,0,0:0:0:0:
192,192,53493,1,0,0:0:0:0:
320,192,53555,1,0,0:0:0:0:
448,192,53680,1,0,0:0:0:0:
192,192,53805,1,0,0:0:0:0:
64,192,53805,128,0,53930:0:0:0:0:
64,192,54305,128,0,54805:0:0:0:0:
448,192,54305,128,0,54805:0:0:0:0:
448,192,55055,1,0,0:0:0:0:
320,192,55118,1,0,0:0:0:0:
192,192,55180,1,0,0:0:0:0:
64,192,55243,1,0,0:0:0:0:
320,192,55305,1,0,0:0:0:0:
448,192,55555,1,0,0:0:0:0:
192,192,55805,1,0,0:0:0:0:
64,192,56055,1,0,0:0:0:0:
320,192,56305,1,0,0:0:0:0:
448,192,56555,1,0,0:0:0:0:
320,192,56805,1,0,0:0:0:0:
192,192,57055,1,0,0:0:0:0:
64,192,57305,1,0,0:0:0:0:
448,192,57555,1,0,0:0:0:0:
192,192,57805,1,0,0:0:0:0:
64,192,58055,1,0,0:0:0:0:
64,192,58305,128,0,58805:0:0:0:0:
448,192,58305,128,0,58805:0:0:0:0:
448,192,59055,1,0,0:0:0:0:
320,192,59118,1,0,0:0:0:0:
192,192,59180,1,0,0:0:0:0:
64,192,59243,1,0,0:0:0:0:
320,192,59305,1,0,0:0:0:0:
448,192,59555,1,0,0:0:0:0:
192,192,59805,1,0,0:0:0:0:
64,192,60055,1,0,0:0:0:0:
320,192,60305,1,0,0:0:0:0:
448,192,60555,1,0,0:0:0:0:
320,192,60805,1,0,0:0:0:0:
192,192,61055,1,0,0:0:0:0:
64,192,61305,1,0,0:0:0:0:
448,192,61555,1,0,0:0:0:0:
320,192,61805,1,0,0:0:0:0:
192,192,62055,1,0,0:0:0:0:
64,192,62305,1,0,0:0:0:0:
448,192,62305,1,0,0:0:0:0:
64,192,62805,1,0,0:0:0:0:
448,192,63055,1,0,0:0:0:0:
320,192,63118,1,0,0:0:0:0:
192,192,63180,1,0,0:0:0:0:
64,192,63243,1,0,0:0:0:0:
320,192,63305,1,0,0:0:0:0:
448,192,63305,1,0,0:0:0:0:
448,192,63555,1,0,0:0:0:0:
64,192,63805,1,0,0:0:0:0:
320,192,63805,1,0,0:0:0:0:
192,192,64055,1,0,0:0:0:0:
320,192,64305,1,0,0:0:0:0:
64,192,64305,1,0,0:0:0:0:
448,192,64555,1,0,0:0:0:0:
320,192,64805,1,0,0:0:0:0:
64,192,64805,1,0,0:0:0:0:
192,192,65055,1,0,0:0:0:0:
64,192,65305,1,0,0:0:0:0:
448,192,65305,1,0,0:0:0:0:
320,192,65555,1,0,0:0:0:0:
192,192,65805,1,0,0:0:0:0:
448,192,65805,1,0,0:0:0:0:
64,192,66055,1,0,0:0:0:0:
320,192,66305,1,0,0:0:0:0:
448,192,66305,128,0,70305:0:0:0:0:
64,192,66305,128,0,70305:0:0:0:0:
192,192,66430,1,0,0:0:0:0:
320,192,66555,1,0,0:0:0:0:
192,192,66805,1,0,0:0:0:0:
320,192,67055,1,0,0:0:0:0:
192,192,67305,1,0,0:0:0:0:
320,192,67555,1,0,0:0:0:0:
192,192,67680,1,0,0:0:0:0:
320,192,67805,1,0,0:0:0:0:
192,192,68055,1,0,0:0:0:0:
320,192,68305,1,0,0:0:0:0:
192,192,68430,1,0,0:0:0:0:
320,192,68555,1,0,0:0:0:0:
192,192,68680,1,0,0:0:0:0:
320,192,68805,1,0,0:0:0:0:
192,192,69055,1,0,0:0:0:0:
320,192,69180,1,0,0:0:0:0:
192,192,69305,128,0,70305:0:0:0:0:
320,192,69805,128,0,70305:0:0:0:0:
448,192,70555,1,0,0:0:0:0:
320,192,70805,1,0,0:0:0:0:
64,192,71055,1,0,0:0:0:0:
192,192,71305,1,0,0:0:0:0:
448,192,71430,1,0,0:0:0:0:
192,192,71493,1,0,0:0:0:0:
320,192,71555,1,0,0:0:0:0:
64,192,71555,1,0,0:0:0:0:
192,192,71680,1,0,0:0:0:0:
64,192,71805,1,0,0:0:0:0:
448,192,71805,1,0,0:0:0:0:
192,192,71930,128,0,72180:0:0:0:0:
64,192,72180,1,0,0:0:0:0:
448,192,72180,1,0,0:0:0:0:
320,192,72180,1,0,0:0:0:0:
64,192,72805,1,0,0:0:0:0:
320,192,72805,1,0,0:0:0:0:
448,192,72805,1,0,0:0:0:0:
64,192,73305,1,0,0:0:0:0:
320,192,73305,1,0,0:0:0:0:
448,192,73305,1,0,0:0:0:0:
64,192,73805,1,0,0:0:0:0:
448,192,73805,1,0,0:0:0:0:
192,192,73805,1,0,0:0:0:0:
64,192,74305,1,0,0:0:0:0:
320,192,74305,1,0,0:0:0:0:
64,192,74805,1,0,0:0:0:0:
192,192,74805,1,0,0:0:0:0:
448,192,74805,1,0,0:0:0:0:
448,192,75305,1,0,0:0:0:0:
320,192,75305,1,0,0:0:0:0:
64,192,75555,1,0,0:0:0:0:
192,192,75805,1,0,0:0:0:0:
320,192,75805,1,0,0:0:0:0:
320,192,75930,1,0,0:0:0:0:
192,192,75930,1,0,0:0:0:0:
64,192,76180,1,0,0:0:0:0:
320,192,76180,1,0,0:0:0:0:
448,192,76180,1,0,0:0:0:0:
192,192,76555,1,0,0:0:0:0:
448,192,76805,1,0,0:0:0:0:
320,192,76805,1,0,0:0:0:0:
192,192,77055,1,0,0:0:0:0:
64,192,77305,1,0,0:0:0:0:
320,192,77305,1,0,0:0:0:0:
64,192,77555,1,0,0:0:0:0:
192,192,77618,1,0,0:0:0:0:
320,192,77680,1,0,0:0:0:0:
448,192,77743,1,0,0:0:0:0:
64,192,77805,1,0,0:0:0:0:
64,192,77930,1,0,0:0:0:0:
192,192,77930,1,0,0:0:0:0:
192,192,78055,1,0,0:0:0:0:
320,192,78055,1,0,0:0:0:0:
320,192,78180,1,0,0:0:0:0:
448,192,78180,1,0,0:0:0:0:
448,192,78305,1,0,0:0:0:0:
64,192,78305,1,0,0:0:0:0:
320,192,78430,1,0,0:0:0:0:
448,192,78430,1,0,0:0:0:0:
320,192,78680,1,0,0:0:0:0:
192,192,78680,1,0,0:0:0:0:
64,192,78930,1,0,0:0:0:0:
448,192,78930,1,0,0:0:0:0:
320,192,79180,1,0,0:0:0:0:
64,192,79180,1,0,0:0:0:0:
64,192,79305,1,0,0:0:0:0:
192,192,79305,1,0,0:0:0:0:
448,192,79430,1,0,0:0:0:0:
320,192,79493,1,0,0:0:0:0:
192,192,79555,1,0,0:0:0:0:
64,192,79618,1,0,0:0:0:0:
448,192,79680,1,0,0:0:0:0:
320,192,79805,1,0,0:0:0:0:
448,192,79930,1,0,0:0:0:0:
192,192,79930,1,0,0:0:0:0:
320,192,80180,1,0,0:0:0:0:
448,192,80180,1,0,0:0:0:0:
64,192,80180,1,0,0:0:0:0:
448,192,80805,1,0,0:0:0:0:
320,192,80805,1,0,0:0:0:0:
64,192,80805,1,0,0:0:0:0:
448,192,81305,1,0,0:0:0:0:
320,192,81305,1,0,0:0:0:0:
64,192,81305,1,0,0:0:0:0:
192,192,81805,1,0,0:0:0:0:
448,192,81805,1,0,0:0:0:0:
64,192,81805,1,0,0:0:0:0:
320,192,82305,1,0,0:0:0:0:
64,192,82305,1,0,0:0:0:0:
448,192,82805,1,0,0:0:0:0:
192,192,82805,1,0,0:0:0:0:
64,192,82805,1,0,0:0:0:0:
320,192,83305,1,0,0:0:0:0:
448,192,83305,1,0,0:0:0:0:
64,192,83555,1,0,0:0:0:0:
320,192,83805,1,0,0:0:0:0:
192,192,83805,1,0,0:0:0:0:
192,192,83930,1,0,0:0:0:0:
320,192,83930,1,0,0:0:0:0:
448,192,84180,1,0,0:0:0:0:
320,192,84180,1,0,0:0:0:0:
64,192,84180,1,0,0:0:0:0:
192,192,84555,1,0,0:0:0:0:
448,192,84805,1,0,0:0:0:0:
320,192,84805,1,0,0:0:0:0:
192,192,85055,1,0,0:0:0:0:
64,192,85305,1,0,0:0:0:0:
320,192,85305,1,0,0:0:0:0:
64,192,85555,1,0,0:0:0:0:
192,192,85618,1,0,0:0:0:0:
320,192,85680,1,0,0:0:0:0:
448,192,85743,1,0,0:0:0:0:
64,192,85805,1,0,0:0:0:0:
64,192,85930,1,0,0:0:0:0:
192,192,85930,1,0,0:0:0:0:
192,192,86055,1,0,0:0:0:0:
320,192,86055,1,0,0:0:0:0:
320,192,86180,1,0,0:0:0:0:
448,192,86180,1,0,0:0:0:0:
448,192,86305,1,0,0:0:0:0:
64,192,86305,1,0,0:0:0:0:
320,192,86430,1,0,0:0:0:0:
448,192,86430,1,0,0:0:0:0:
320,192,86680,1,0,0:0:0:0:
192,192,86680,1,0,0:0:0:0:
64,192,86930,1,0,0:0:0:0:
448,192,86930,1,0,0:0:0:0:
320,192,87180,1,0,0:0:0:0:
64,192,87180,1,0,0:0:0:0:
64,192,87305,1,0,0:0:0:0:
192,192,87305,1,0,0:0:0:0:
448,192,87430,1,0,0:0:0:0:
320,192,87493,1,0,0:0:0:0:
192,192,87555,1,0,0:0:0:0:
64,192,87618,1,0,0:0:0:0:
448,192,87680,1,0,0:0:0:0:
320,192,87805,1,0,0:0:0:0:
448,192,87930,1,0,0:0:0:0:
192,192,87930,1,0,0:0:0:0:
448,192,88180,1,0,0:0:0:0:
320,192,88180,1,0,0:0:0:0:
64,192,88180,1,0,0:0:0:0:
64,192,88555,1,0,0:0:0:0:
192,192,88680,1,0,0:0:0:0:
448,192,88805,1,0,0:0:0:0:
320,192,88805,1,0,0:0:0:0:
320,192,89055,1,0,0:0:0:0:
192,192,89118,1,0,0:0:0:0:
64,192,89180,1,0,0:0:0:0:
448,192,89243,1,0,0:0:0:0:
320,192,89305,1,0,0:0:0:0:
192,192,89305,1,0,0:0:0:0:
64,192,89430,1,0,0:0:0:0:
192,192,89493,1,0,0:0:0:0:
320,192,89555,1,0,0:0:0:0:
448,192,89680,1,0,0:0:0:0:
320,192,89805,1,0,0:0:0:0:
64,192,89805,1,0,0:0:0:0:
64,192,90055,1,0,0:0:0:0:
192,192,90118,1,0,0:0:0:0:
320,192,90180,1,0,0:0:0:0:
192,192,90305,1,0,0:0:0:0:
448,192,90305,1,0,0:0:0:0:
320,192,90430,128,0,90805:0:0:0:0:
192,192,90430,1,0,0:0:0:0:
448,192,90805,1,0,0:0:0:0:
64,192,90805,1,0,0:0:0:0:
64,192,91055,1,0,0:0:0:0:
192,192,91118,1,0,0:0:0:0:
320,192,91180,1,0,0:0:0:0:
448,192,91243,1,0,0:0:0:0:
192,192,91305,1,0,0:0:0:0:
64,192,91305,1,0,0:0:0:0:
192,192,91555,1,0,0:0:0:0:
448,192,91680,1,0,0:0:0:0:
64,192,91805,1,0,0:0:0:0:
320,192,91805,1,0,0:0:0:0:
64,192,91930,1,0,0:0:0:0:
192,192,91930,1,0,0:0:0:0:
320,192,92055,1,0,0:0:0:0:
448,192,92180,1,0,0:0:0:0:
192,192,92180,1,0,0:0:0:0:
64,192,92305,1,0,0:0:0:0:
192,192,92430,1,0,0:0:0:0:
320,192,92555,1,0,0:0:0:0:
448,192,92555,1,0,0:0:0:0:
64,192,92805,1,0,0:0:0:0:
448,192,92805,1,0,0:0:0:0:
192,192,92805,1,0,0:0:0:0:
192,192,93055,1,0,0:0:0:0:
320,192,93055,1,0,0:0:0:0:
64,192,93305,1,0,0:0:0:0:
448,192,93305,1,0,0:0:0:0:
192,192,93555,1,0,0:0:0:0:
320,192,93555,1,0,0:0:0:0:
64,192,93805,1,0,0:0:0:0:
320,192,93805,1,0,0:0:0:0:
448,192,93805,1,0,0:0:0:0:
64,192,94055,1,0,0:0:0:0:
320,192,94180,1,0,0:0:0:0:
64,192,94305,1,0,0:0:0:0:
448,192,94305,1,0,0:0:0:0:
192,192,94430,1,0,0:0:0:0:
320,192,94555,1,0,0:0:0:0:
448,192,94555,1,0,0:0:0:0:
192,192,94805,1,0,0:0:0:0:
320,192,94805,1,0,0:0:0:0:
64,192,94805,1,0,0:0:0:0:
192,192,95055,1,0,0:0:0:0:
448,192,95055,1,0,0:0:0:0:
64,192,95305,1,0,0:0:0:0:
320,192,95305,1,0,0:0:0:0:
192,192,95555,1,0,0:0:0:0:
320,192,95555,1,0,0:0:0:0:
64,192,95805,1,0,0:0:0:0:
448,192,95805,1,0,0:0:0:0:
448,192,95930,1,0,0:0:0:0:
64,192,95930,1,0,0:0:0:0:
64,192,96180,1,0,0:0:0:0:
192,192,96180,1,0,0:0:0:0:
448,192,96180,1,0,0:0:0:0:
64,192,96555,1,0,0:0:0:0:
192,192,96680,1,0,0:0:0:0:
320,192,96805,1,0,0:0:0:0:
448,192,96805,1,0,0:0:0:0:
320,192,97055,1,0,0:0:0:0:
192,192,97118,1,0,0:0:0:0:
64,192,97180,1,0,0:0:0:0:
448,192,97243,1,0,0:0:0:0:
192,192,97305,1,0,0:0:0:0:
320,192,97305,1,0,0:0:0:0:
64,192,97430,1,0,0:0:0:0:
192,192,97555,1,0,0:0:0:0:
320,192,97680,1,0,0:0:0:0:
64,192,97805,1,0,0:0:0:0:
448,192,97805,1,0,0:0:0:0:
64,192,98055,1,0,0:0:0:0:
192,192,98118,1,0,0:0:0:0:
320,192,98180,1,0,0:0:0:0:
448,192,98305,1,0,0:0:0:0:
192,192,98305,1,0,0:0:0:0:
192,192,98430,1,0,0:0:0:0:
320,192,98430,128,0,98805:0:0:0:0:
64,192,98805,1,0,0:0:0:0:
448,192,98805,1,0,0:0:0:0:
64,192,99055,1,0,0:0:0:0:
192,192,99118,1,0,0:0:0:0:
320,192,99180,1,0,0:0:0:0:
448,192,99243,1,0,0:0:0:0:
64,192,99305,1,0,0:0:0:0:
192,192,99305,1,0,0:0:0:0:
192,192,99555,1,0,0:0:0:0:
448,192,99680,1,0,0:0:0:0:
320,192,99805,1,0,0:0:0:0:
64,192,99805,1,0,0:0:0:0:
64,192,99930,1,0,0:0:0:0:
192,192,99930,1,0,0:0:0:0:
320,192,100055,1,0,0:0:0:0:
192,192,100180,1,0,0:0:0:0:
448,192,100180,1,0,0:0:0:0:
64,192,100305,1,0,0:0:0:0:
320,192,100430,1,0,0:0:0:0:
448,192,100555,1,0,0:0:0:0:
192,192,100555,1,0,0:0:0:0:
448,192,100805,1,0,0:0:0:0:
320,192,100805,1,0,0:0:0:0:
64,192,100805,1,0,0:0:0:0:
320,192,101055,1,0,0:0:0:0:
192,192,101055,1,0,0:0:0:0:
448,192,101305,1,0,0:0:0:0:
64,192,101305,1,0,0:0:0:0:
320,192,101555,1,0,0:0:0:0:
192,192,101555,1,0,0:0:0:0:
320,192,101805,1,0,0:0:0:0:
192,192,101805,1,0,0:0:0:0:
448,192,101805,1,0,0:0:0:0:
64,192,101930,1,0,0:0:0:0:
192,192,101930,1,0,0:0:0:0:
64,192,102055,1,0,0:0:0:0:
192,192,102055,1,0,0:0:0:0:
64,192,102180,1,0,0:0:0:0:
192,192,102180,1,0,0:0:0:0:
64,192,102305,1,0,0:0:0:0:
192,192,102305,1,0,0:0:0:0:
448,192,102430,128,0,103180:0:0:0:0:
320,192,102430,128,0,103180:0:0:0:0:
64,192,102430,128,0,103305:0:0:0:0:
448,192,103305,1,0,0:0:0:0:
320,192,103368,1,0,0:0:0:0:
192,192,103430,1,0,0:0:0:0:
64,192,103493,1,0,0:0:0:0:
448,192,103555,1,0,0:0:0:0:
192,192,103618,1,0,0:0:0:0:
320,192,103680,1,0,0:0:0:0:
64,192,103743,1,0,0:0:0:0:
448,192,103805,1,0,0:0:0:0:
192,192,103868,1,0,0:0:0:0:
64,192,103930,1,0,0:0:0:0:
320,192,103993,1,0,0:0:0:0:
64,192,104055,1,0,0:0:0:0:
192,192,104118,1,0,0:0:0:0:
320,192,104180,1,0,0:0:0:0:
192,192,104305,1,0,0:0:0:0:
64,192,104305,128,0,104805:0:0:0:0:
448,192,104305,128,0,104805:0:0:0:0:
320,192,104555,1,0,0:0:0:0:
320,192,104805,128,0,105180:0:0:0:0:
192,192,104805,1,0,0:0:0:0:
448,192,105055,1,0,0:0:0:0:
192,192,105305,1,0,0:0:0:0:
64,192,105305,1,0,0:0:0:0:
320,192,105555,1,0,0:0:0:0:
192,192,105805,1,0,0:0:0:0:
448,192,105805,1,0,0:0:0:0:
64,192,106055,1,0,0:0:0:0:
320,192,106305,1,0,0:0:0:0:
64,192,106305,128,0,106805:0:0:0:0:
192,192,106305,1,0,0:0:0:0:
448,192,106555,1,0,0:0:0:0:
192,192,106805,1,0,0:0:0:0:
320,192,106805,128,0,107180:0:0:0:0:
448,192,106805,1,0,0:0:0:0:
64,192,107055,1,0,0:0:0:0:
64,192,107305,1,0,0:0:0:0:
448,192,107305,1,0,0:0:0:0:
320,192,107555,1,0,0:0:0:0:
192,192,107555,1,0,0:0:0:0:
448,192,107555,1,0,0:0:0:0:
64,192,107805,1,0,0:0:0:0:
192,192,107805,1,0,0:0:0:0:
320,192,108055,1,0,0:0:0:0:
192,192,108305,1,0,0:0:0:0:
64,192,108305,128,0,108805:0:0:0:0:
448,192,108305,128,0,108805:0:0:0:0:
320,192,108305,1,0,0:0:0:0:
320,192,108555,1,0,0:0:0:0:
320,192,108805,128,0,109180:0:0:0:0:
192,192,108805,1,0,0:0:0:0:
448,192,109055,1,0,0:0:0:0:
192,192,109305,1,0,0:0:0:0:
448,192,109305,1,0,0:0:0:0:
320,192,109555,1,0,0:0:0:0:
64,192,109555,1,0,0:0:0:0:
448,192,109555,1,0,0:0:0:0:
192,192,109805,1,0,0:0:0:0:
320,192,109805,1,0,0:0:0:0:
64,192,110055,1,0,0:0:0:0:
320,192,110305,1,0,0:0:0:0:
64,192,110305,128,0,110805:0:0:0:0:
192,192,110305,1,0,0:0:0:0:
448,192,110555,1,0,0:0:0:0:
192,192,110805,1,0,0:0:0:0:
320,192,110805,128,0,111180:0:0:0:0:
448,192,110805,1,0,0:0:0:0:
64,192,111055,1,0,0:0:0:0:
64,192,111305,1,0,0:0:0:0:
448,192,111305,1,0,0:0:0:0:
320,192,111555,1,0,0:0:0:0:
192,192,111555,1,0,0:0:0:0:
64,192,111805,1,0,0:0:0:0:
192,192,111805,1,0,0:0:0:0:
448,192,111805,1,0,0:0:0:0:
320,192,112055,1,0,0:0:0:0:
448,192,112305,128,0,112805:0:0:0:0:
64,192,112305,128,0,112805:0:0:0:0:
192,192,112305,1,0,0:0:0:0:
320,192,112305,1,0,0:0:0:0:
320,192,112555,1,0,0:0:0:0:
192,192,112805,1,0,0:0:0:0:
320,192,112805,128,0,113180:0:0:0:0:
448,192,113055,1,0,0:0:0:0:
64,192,113305,1,0,0:0:0:0:
192,192,113305,1,0,0:0:0:0:
320,192,113555,1,0,0:0:0:0:
192,192,113805,1,0,0:0:0:0:
448,192,113805,1,0,0:0:0:0:
64,192,114055,1,0,0:0:0:0:
320,192,114305,1,0,0:0:0:0:
64,192,114305,128,0,114805:0:0:0:0:
448,192,114555,1,0,0:0:0:0:
192,192,114805,1,0,0:0:0:0:
320,192,114805,128,0,115180:0:0:0:0:
64,192,115055,1,0,0:0:0:0:
448,192,115305,1,0,0:0:0:0:
64,192,115305,1,0,0:0:0:0:
320,192,115555,1,0,0:0:0:0:
192,192,115805,1,0,0:0:0:0:
64,192,115805,1,0,0:0:0:0:
320,192,116055,1,0,0:0:0:0:
192,192,116305,1,0,0:0:0:0:
64,192,116305,128,0,116805:0:0:0:0:
448,192,116305,128,0,116805:0:0:0:0:
320,192,116555,1,0,0:0:0:0:
320,192,116805,128,0,117180:0:0:0:0:
192,192,116805,1,0,0:0:0:0:
448,192,117055,1,0,0:0:0:0:
192,192,117305,1,0,0:0:0:0:
64,192,117305,1,0,0:0:0:0:
448,192,117305,1,0,0:0:0:0:
320,192,117555,1,0,0:0:0:0:
192,192,117805,1,0,0:0:0:0:
448,192,117805,1,0,0:0:0:0:
64,192,118055,1,0,0:0:0:0:
320,192,118305,1,0,0:0:0:0:
64,192,118305,128,0,118805:0:0:0:0:
192,192,118305,1,0,0:0:0:0:
448,192,118555,1,0,0:0:0:0:
192,192,118805,1,0,0:0:0:0:
320,192,118805,128,0,119180:0:0:0:0:
448,192,118805,1,0,0:0:0:0:
64,192,119055,1,0,0:0:0:0:
64,192,119305,1,0,0:0:0:0:
448,192,119305,1,0,0:0:0:0:
320,192,119555,1,0,0:0:0:0:
192,192,119555,1,0,0:0:0:0:
64,192,119555,1,0,0:0:0:0:
64,192,119805,1,0,0:0:0:0:
192,192,119805,1,0,0:0:0:0:
448,192,119805,1,0,0:0:0:0:
64,192,120305,128,0,120805:0:0:0:0:
448,192,120305,128,0,120805:0:0:0:0:
320,192,120305,1,0,0:0:0:0:
192,192,120555,1,0,0:0:0:0:
320,192,120805,1,0,0:0:0:0:
448,192,121055,1,0,0:0:0:0:
64,192,121055,1,0,0:0:0:0:
320,192,121118,1,0,0:0:0:0:
192,192,121180,1,0,0:0:0:0:
64,192,121243,1,0,0:0:0:0:
320,192,121305,1,0,0:0:0:0:
448,192,121305,1,0,0:0:0:0:
448,192,121555,1,0,0:0:0:0:
192,192,121555,1,0,0:0:0:0:
192,192,121805,1,0,0:0:0:0:
64,192,121805,1,0,0:0:0:0:
448,192,121805,1,0,0:0:0:0:
64,192,122055,1,0,0:0:0:0:
320,192,122055,1,0,0:0:0:0:
192,192,122305,1,0,0:0:0:0:
64,192,122305,1,0,0:0:0:0:
320,192,122305,1,0,0:0:0:0:
448,192,122555,1,0,0:0:0:0:
192,192,122555,1,0,0:0:0:0:
320,192,122805,1,0,0:0:0:0:
64,192,122805,1,0,0:0:0:0:
448,192,122805,1,0,0:0:0:0:
192,192,123055,1,0,0:0:0:0:
320,192,123055,1,0,0:0:0:0:
64,192,123305,1,0,0:0:0:0:
192,192,123305,1,0,0:0:0:0:
320,192,123305,1,0,0:0:0:0:
448,192,123555,1,0,0:0:0:0:
192,192,123555,1,0,0:0:0:0:
320,192,123805,1,0,0:0:0:0:
64,192,123805,1,0,0:0:0:0:
64,192,124305,128,0,124805:0:0:0:0:
448,192,124305,128,0,124805:0:0:0:0:
320,192,124305,1,0,0:0:0:0:
192,192,124555,1,0,0:0:0:0:
320,192,124805,1,0,0:0:0:0:
448,192,125055,1,0,0:0:0:0:
64,192,125055,1,0,0:0:0:0:
320,192,125118,1,0,0:0:0:0:
192,192,125180,1,0,0:0:0:0:
64,192,125243,1,0,0:0:0:0:
320,192,125305,1,0,0:0:0:0:
448,192,125305,1,0,0:0:0:0:
448,192,125555,1,0,0:0:0:0:
192,192,125555,1,0,0:0:0:0:
192,192,125805,1,0,0:0:0:0:
64,192,125805,1,0,0:0:0:0:
448,192,125805,1,0,0:0:0:0:
64,192,126055,1,0,0:0:0:0:
320,192,126055,1,0,0:0:0:0:
192,192,126305,1,0,0:0:0:0:
64,192,126305,1,0,0:0:0:0:
320,192,126305,1,0,0:0:0:0:
448,192,126555,1,0,0:0:0:0:
192,192,126555,1,0,0:0:0:0:
320,192,126805,1,0,0:0:0:0:
64,192,126805,1,0,0:0:0:0:
448,192,126805,1,0,0:0:0:0:
192,192,127055,1,0,0:0:0:0:
320,192,127055,1,0,0:0:0:0:
64,192,127305,1,0,0:0:0:0:
192,192,127305,1,0,0:0:0:0:
448,192,127305,1,0,0:0:0:0:
448,192,127555,1,0,0:0:0:0:
192,192,127555,1,0,0:0:0:0:
64,192,127555,1,0,0:0:0:0:
320,192,127805,1,0,0:0:0:0:
64,192,127805,1,0,0:0:0:0:
192,192,127805,1,0,0:0:0:0:
448,192,127805,1,0,0:0:0:0:
320,192,128305,1,0,0:0:0:0:
448,192,128305,128,0,128805:0:0:0:0:
64,192,128305,128,0,128805:0:0:0:0:
192,192,128555,1,0,0:0:0:0:
320,192,128805,1,0,0:0:0:0:
64,192,129055,1,0,0:0:0:0:
448,192,129055,1,0,0:0:0:0:
320,192,129118,1,0,0:0:0:0:
192,192,129180,1,0,0:0:0:0:
64,192,129243,1,0,0:0:0:0:
448,192,129305,1,0,0:0:0:0:
320,192,129305,1,0,0:0:0:0:
192,192,129555,1,0,0:0:0:0:
448,192,129555,1,0,0:0:0:0:
448,192,129805,1,0,0:0:0:0:
64,192,129805,1,0,0:0:0:0:
192,192,129805,1,0,0:0:0:0:
320,192,130055,1,0,0:0:0:0:
64,192,130055,1,0,0:0:0:0:
320,192,130305,1,0,0:0:0:0:
64,192,130305,1,0,0:0:0:0:
192,192,130305,1,0,0:0:0:0:
192,192,130555,1,0,0:0:0:0:
448,192,130555,1,0,0:0:0:0:
448,192,130805,1,0,0:0:0:0:
64,192,130805,1,0,0:0:0:0:
320,192,130805,1,0,0:0:0:0:
320,192,131055,1,0,0:0:0:0:
192,192,131055,1,0,0:0:0:0:
320,192,131305,1,0,0:0:0:0:
192,192,131305,1,0,0:0:0:0:
64,192,131305,1,0,0:0:0:0:
64,192,131555,128,0,131805:0:0:0:0:
320,192,131555,128,0,131805:0:0:0:0:
192,192,131930,128,0,132180:0:0:0:0:
448,192,131930,128,0,132180:0:0:0:0:
448,192,132305,128,0,132805:0:0:0:0:
320,192,132305,1,0,0:0:0:0:
64,192,132305,1,0,0:0:0:0:
192,192,132555,1,0,0:0:0:0:
64,192,132555,1,0,0:0:0:0:
320,192,132805,1,0,0:0:0:0:
64,192,132805,1,0,0:0:0:0:
448,192,133055,1,0,0:0:0:0:
64,192,133055,1,0,0:0:0:0:
320,192,133118,1,0,0:0:0:0:
192,192,133180,1,0,0:0:0:0:
64,192,133243,1,0,0:0:0:0:
320,192,133305,1,0,0:0:0:0:
448,192,133305,1,0,0:0:0:0:
448,192,133555,1,0,0:0:0:0:
320,192,133555,1,0,0:0:0:0:
192,192,133555,1,0,0:0:0:0:
192,192,133680,1,0,0:0:0:0:
448,192,133805,1,0,0:0:0:0:
320,192,133805,1,0,0:0:0:0:
64,192,133805,1,0,0:0:0:0:
448,192,134055,1,0,0:0:0:0:
64,192,134055,1,0,0:0:0:0:
192,192,134055,1,0,0:0:0:0:
64,192,134305,1,0,0:0:0:0:
192,192,134555,1,0,0:0:0:0:
64,192,134805,1,0,0:0:0:0:
192,192,135055,1,0,0:0:0:0:
64,192,135305,1,0,0:0:0:0:
448,192,135430,1,0,0:0:0:0:
320,192,135493,1,0,0:0:0:0:
192,192,135555,1,0,0:0:0:0:
448,192,135680,1,0,0:0:0:0:
64,192,135805,128,0,135930:0:0:0:0:
64,192,136180,1,0,0:0:0:0:
448,192,136180,1,0,0:0:0:0:
192,192,136180,128,0,136680:0:0:0:0:
64,192,136805,1,0,0:0:0:0:
448,192,136805,1,0,0:0:0:0:
192,192,136930,1,0,0:0:0:0:
320,192,137055,1,0,0:0:0:0:
448,192,137180,1,0,0:0:0:0:
320,192,137305,1,0,0:0:0:0:
64,192,137305,1,0,0:0:0:0:
192,192,137555,1,0,0:0:0:0:
64,192,137805,1,0,0:0:0:0:
192,192,137805,1,0,0:0:0:0:
192,192,137930,1,0,0:0:0:0:
320,192,137930,1,0,0:0:0:0:
320,192,138055,1,0,0:0:0:0:
448,192,138055,1,0,0:0:0:0:
64,192,138180,1,0,0:0:0:0:
448,192,138180,1,0,0:0:0:0:
192,192,138180,1,0,0:0:0:0:
320,192,138555,1,0,0:0:0:0:
448,192,138805,1,0,0:0:0:0:
192,192,138805,1,0,0:0:0:0:
64,192,138930,1,0,0:0:0:0:
192,192,139055,1,0,0:0:0:0:
320,192,139118,1,0,0:0:0:0:
448,192,139180,1,0,0:0:0:0:
64,192,139305,1,0,0:0:0:0:
320,192,139305,1,0,0:0:0:0:
192,192,139430,1,0,0:0:0:0:
64,192,139555,1,0,0:0:0:0:
192,192,139680,1,0,0:0:0:0:
320,192,139805,1,0,0:0:0:0:
448,192,139805,1,0,0:0:0:0:
192,192,139930,1,0,0:0:0:0:
320,192,140055,1,0,0:0:0:0:
192,192,140180,1,0,0:0:0:0:
64,192,140305,128,0,140805:0:0:0:0:
192,192,140805,1,0,0:0:0:0:
448,192,140805,1,0,0:0:0:0:
320,192,140930,1,0,0:0:0:0:
448,192,141055,1,0,0:0:0:0:
192,192,141180,1,0,0:0:0:0:
448,192,141305,1,0,0:0:0:0:
64,192,141305,1,0,0:0:0:0:
320,192,141430,1,0,0:0:0:0:
192,192,141555,1,0,0:0:0:0:
64,192,141680,1,0,0:0:0:0:
64,192,141805,1,0,0:0:0:0:
192,192,141805,1,0,0:0:0:0:
192,192,141930,1,0,0:0:0:0:
320,192,141930,1,0,0:0:0:0:
320,192,142055,1,0,0:0:0:0:
448,192,142055,1,0,0:0:0:0:
64,192,142180,1,0,0:0:0:0:
448,192,142180,1,0,0:0:0:0:
192,192,142180,1,0,0:0:0:0:
64,192,142430,1,0,0:0:0:0:
192,192,142555,1,0,0:0:0:0:
320,192,142680,1,0,0:0:0:0:
192,192,142805,1,0,0:0:0:0:
64,192,142805,1,0,0:0:0:0:
448,192,142930,1,0,0:0:0:0:
192,192,143055,1,0,0:0:0:0:
64,192,143180,1,0,0:0:0:0:
320,192,143305,1,0,0:0:0:0:
448,192,143305,1,0,0:0:0:0:
192,192,143430,1,0,0:0:0:0:
64,192,143555,1,0,0:0:0:0:
192,192,143680,1,0,0:0:0:0:
320,192,143805,1,0,0:0:0:0:
448,192,143805,1,0,0:0:0:0:
192,192,143930,1,0,0:0:0:0:
64,192,144055,1,0,0:0:0:0:
192,192,144180,1,0,0:0:0:0:
320,192,144180,128,0,144430:0:0:0:0:
448,192,144180,128,0,144680:0:0:0:0:
64,192,144430,1,0,0:0:0:0:
192,192,144555,1,0,0:0:0:0:
320,192,144618,1,0,0:0:0:0:
64,192,144805,1,0,0:0:0:0:
320,192,144805,1,0,0:0:0:0:
192,192,144930,1,0,0:0:0:0:
320,192,145055,1,0,0:0:0:0:
192,192,145180,1,0,0:0:0:0:
448,192,145305,1,0,0:0:0:0:
64,192,145305,1,0,0:0:0:0:
192,192,145555,1,0,0:0:0:0:
64,192,145805,1,0,0:0:0:0:
192,192,145805,1,0,0:0:0:0:
192,192,145930,1,0,0:0:0:0:
320,192,145930,1,0,0:0:0:0:
320,192,146055,1,0,0:0:0:0:
448,192,146055,1,0,0:0:0:0:
64,192,146180,1,0,0:0:0:0:
448,192,146180,1,0,0:0:0:0:
192,192,146180,1,0,0:0:0:0:
320,192,146555,1,0,0:0:0:0:
64,192,146805,1,0,0:0:0:0:
448,192,146805,1,0,0:0:0:0:
192,192,146930,1,0,0:0:0:0:
320,192,147055,1,0,0:0:0:0:
448,192,147180,1,0,0:0:0:0:
192,192,147305,1,0,0:0:0:0:
320,192,147305,1,0,0:0:0:0:
64,192,147430,1,0,0:0:0:0:
320,192,147555,1,0,0:0:0:0:
192,192,147680,1,0,0:0:0:0:
64,192,147805,1,0,0:0:0:0:
448,192,147805,1,0,0:0:0:0:
192,192,147930,1,0,0:0:0:0:
64,192,148055,1,0,0:0:0:0:
192,192,148180,1,0,0:0:0:0:
448,192,148305,1,0,0:0:0:0:
320,192,148368,1,0,0:0:0:0:
192,192,148430,1,0,0:0:0:0:
64,192,148493,1,0,0:0:0:0:
448,192,148555,1,0,0:0:0:0:
320,192,148618,1,0,0:0:0:0:
192,192,148680,1,0,0:0:0:0:
64,192,148743,1,0,0:0:0:0:
192,192,148805,1,0,0:0:0:0:
448,192,148805,1,0,0:0:0:0:
320,192,148930,1,0,0:0:0:0:
448,192,149055,1,0,0:0:0:0:
192,192,149180,1,0,0:0:0:0:
448,192,149305,1,0,0:0:0:0:
64,192,149305,1,0,0:0:0:0:
320,192,149430,1,0,0:0:0:0:
192,192,149555,1,0,0:0:0:0:
64,192,149680,1,0,0:0:0:0:
64,192,149805,1,0,0:0:0:0:
192,192,149805,1,0,0:0:0:0:
192,192,149930,1,0,0:0:0:0:
320,192,149930,1,0,0:0:0:0:
320,192,150055,1,0,0:0:0:0:
448,192,150055,1,0,0:0:0:0:
448,192,150180,1,0,0:0:0:0:
64,192,150180,1,0,0:0:0:0:
192,192,150180,1,0,0:0:0:0:
64,192,150430,1,0,0:0:0:0:
192,192,150555,1,0,0:0:0:0:
320,192,150680,1,0,0:0:0:0:
192,192,150805,1,0,0:0:0:0:
64,192,150805,1,0,0:0:0:0:
448,192,150930,1,0,0:0:0:0:
192,192,151055,1,0,0:0:0:0:
64,192,151180,1,0,0:0:0:0:
192,192,151305,1,0,0:0:0:0:
448,192,151305,1,0,0:0:0:0:
320,192,151430,1,0,0:0:0:0:
192,192,151555,1,0,0:0:0:0:
64,192,151680,1,0,0:0:0:0:
192,192,151805,1,0,0:0:0:0:
448,192,151805,1,0,0:0:0:0:
320,192,151805,1,0,0:0:0:0:
64,192,152180,1,0,0:0:0:0:
320,192,152180,1,0,0:0:0:0:
448,192,152180,1,0,0:0:0:0:
64,192,152430,1,0,0:0:0:0:
192,192,152555,1,0,0:0:0:0:
320,192,152680,1,0,0:0:0:0:
192,192,152805,1,0,0:0:0:0:
64,192,152805,1,0,0:0:0:0:
448,192,152930,1,0,0:0:0:0:
320,192,153055,1,0,0:0:0:0:
192,192,153180,1,0,0:0:0:0:
320,192,153305,1,0,0:0:0:0:
64,192,153305,1,0,0:0:0:0:
448,192,153430,1,0,0:0:0:0:
320,192,153493,1,0,0:0:0:0:
192,192,153555,1,0,0:0:0:0:
320,192,153680,1,0,0:0:0:0:
64,192,153805,1,0,0:0:0:0:
192,192,153805,1,0,0:0:0:0:
448,192,153930,1,0,0:0:0:0:
320,192,154055,1,0,0:0:0:0:
192,192,154180,1,0,0:0:0:0:
64,192,154305,1,0,0:0:0:0:
448,192,154305,1,0,0:0:0:0:
192,192,154430,1,0,0:0:0:0:
320,192,154493,1,0,0:0:0:0:
448,192,154555,1,0,0:0:0:0:
64,192,154680,1,0,0:0:0:0:
192,192,154805,1,0,0:0:0:0:
320,192,154805,1,0,0:0:0:0:
448,192,154930,1,0,0:0:0:0:
192,192,155055,1,0,0:0:0:0:
320,192,155180,1,0,0:0:0:0:
448,192,155305,1,0,0:0:0:0:
64,192,155305,1,0,0:0:0:0:
320,192,155430,1,0,0:0:0:0:
192,192,155493,1,0,0:0:0:0:
64,192,155555,1,0,0:0:0:0:
320,192,155680,1,0,0:0:0:0:
64,192,155805,1,0,0:0:0:0:
448,192,155805,1,0,0:0:0:0:
320,192,155930,1,0,0:0:0:0:
192,192,156055,1,0,0:0:0:0:
320,192,156180,1,0,0:0:0:0:
64,192,156305,1,0,0:0:0:0:
448,192,156305,1,0,0:0:0:0:
192,192,156430,1,0,0:0:0:0:
320,192,156555,1,0,0:0:0:0:
448,192,156680,1,0,0:0:0:0:
192,192,156805,1,0,0:0:0:0:
64,192,156805,1,0,0:0:0:0:
448,192,156930,1,0,0:0:0:0:
320,192,157055,1,0,0:0:0:0:
192,192,157180,1,0,0:0:0:0:
320,192,157305,1,0,0:0:0:0:
64,192,157305,1,0,0:0:0:0:
448,192,157430,1,0,0:0:0:0:
320,192,157493,1,0,0:0:0:0:
192,192,157555,1,0,0:0:0:0:
64,192,157680,1,0,0:0:0:0:
320,192,157805,1,0,0:0:0:0:
448,192,157805,1,0,0:0:0:0:
192,192,157930,1,0,0:0:0:0:
64,192,158055,1,0,0:0:0:0:
320,192,158180,1,0,0:0:0:0:
64,192,158305,1,0,0:0:0:0:
448,192,158305,1,0,0:0:0:0:
192,192,158430,1,0,0:0:0:0:
320,192,158493,1,0,0:0:0:0:
448,192,158555,1,0,0:0:0:0:
64,192,158680,1,0,0:0:0:0:
448,192,158805,1,0,0:0:0:0:
192,192,158805,1,0,0:0:0:0:
320,192,158930,1,0,0:0:0:0:
192,192,159055,1,0,0:0:0:0:
320,192,159180,1,0,0:0:0:0:
64,192,159305,1,0,0:0:0:0:
192,192,159305,1,0,0:0:0:0:
64,192,159555,1,0,0:0:0:0:
320,192,159555,1,0,0:0:0:0:
192,192,159555,1,0,0:0:0:0:
64,192,159805,1,0,0:0:0:0:
448,192,159805,1,0,0:0:0:0:
320,192,159805,1,0,0:0:0:0:
64,192,159930,1,0,0:0:0:0:
64,192,160055,1,0,0:0:0:0:
64,192,160305,1,0,0:0:0:0:
448,192,160305,1,0,0:0:0:0:
192,192,160430,1,0,0:0:0:0:
320,192,160555,1,0,0:0:0:0:
448,192,160680,1,0,0:0:0:0:
192,192,160805,1,0,0:0:0:0:
64,192,160805,1,0,0:0:0:0:
448,192,160930,1,0,0:0:0:0:
320,192,161055,1,0,0:0:0:0:
192,192,161180,1,0,0:0:0:0:
320,192,161305,1,0,0:0:0:0:
64,192,161305,1,0,0:0:0:0:
448,192,161430,1,0,0:0:0:0:
320,192,161493,1,0,0:0:0:0:
192,192,161555,1,0,0:0:0:0:
64,192,161680,1,0,0:0:0:0:
320,192,161805,1,0,0:0:0:0:
448,192,161805,1,0,0:0:0:0:
192,192,161930,1,0,0:0:0:0:
64,192,162055,1,0,0:0:0:0:
192,192,162180,1,0,0:0:0:0:
64,192,162305,1,0,0:0:0:0:
448,192,162305,1,0,0:0:0:0:
192,192,162430,1,0,0:0:0:0:
320,192,162493,1,0,0:0:0:0:
448,192,162555,1,0,0:0:0:0:
192,192,162680,1,0,0:0:0:0:
64,192,162805,1,0,0:0:0:0:
448,192,162805,1,0,0:0:0:0:
192,192,162930,1,0,0:0:0:0:
320,192,163055,1,0,0:0:0:0:
192,192,163180,1,0,0:0:0:0:
448,192,163305,1,0,0:0:0:0:
64,192,163305,1,0,0:0:0:0:
320,192,163368,1,0,0:0:0:0:
192,192,163430,1,0,0:0:0:0:
64,192,163555,1,0,0:0:0:0:
320,192,163680,1,0,0:0:0:0:
64,192,163805,1,0,0:0:0:0:
448,192,163805,1,0,0:0:0:0:
320,192,163930,1,0,0:0:0:0:
64,192,164055,1,0,0:0:0:0:
192,192,164180,1,0,0:0:0:0:
64,192,164305,1,0,0:0:0:0:
320,192,164305,1,0,0:0:0:0:
192,192,164430,1,0,0:0:0:0:
320,192,164555,1,0,0:0:0:0:
64,192,164555,1,0,0:0:0:0:
448,192,164680,1,0,0:0:0:0:
192,192,164805,1,0,0:0:0:0:
64,192,164805,1,0,0:0:0:0:
448,192,164930,1,0,0:0:0:0:
320,192,165055,1,0,0:0:0:0:
64,192,165055,1,0,0:0:0:0:
192,192,165180,1,0,0:0:0:0:
64,192,165305,1,0,0:0:0:0:
448,192,165430,1,0,0:0:0:0:
192,192,165430,1,0,0:0:0:0:
320,192,165493,1,0,0:0:0:0:
192,192,165555,1,0,0:0:0:0:
64,192,165680,1,0,0:0:0:0:
448,192,165680,1,0,0:0:0:0:
192,192,165805,1,0,0:0:0:0:
320,192,165805,1,0,0:0:0:0:
448,192,165930,1,0,0:0:0:0:
320,192,166055,1,0,0:0:0:0:
64,192,166055,1,0,0:0:0:0:
64,192,166305,1,0,0:0:0:0:
192,192,166305,1,0,0:0:0:0:
320,192,166305,1,0,0:0:0:0:
448,192,166430,1,0,0:0:0:0:
448,192,166555,1,0,0:0:0:0:
320,192,166618,1,0,0:0:0:0:
192,192,166680,1,0,0:0:0:0:
64,192,166805,1,0,0:0:0:0:
192,192,166930,1,0,0:0:0:0:
320,192,167055,1,0,0:0:0:0:
448,192,167180,1,0,0:0:0:0:
448,192,167305,1,0,0:0:0:0:
320,192,167368,1,0,0:0:0:0:
192,192,167430,1,0,0:0:0:0:
64,192,167555,1,0,0:0:0:0:
192,192,167680,1,0,0:0:0:0:
64,192,167805,1,0,0:0:0:0:
192,192,168055,1,0,0:0:0:0:
320,192,168180,128,0,168305:0:0:0:0:
192,192,168305,128,0,168680:0:0:0:0:
64,192,168305,128,0,168680:0:0:0:0:
448,192,168305,128,0,168680:0:0:0:0:
320,192,168805,1,0,0:0:0:0:
64,192,169055,1,0,0:0:0:0:
192,192,169305,1,0,0:0:0:0:
448,192,169555,1,0,0:0:0:0:
320,192,169618,1,0,0:0:0:0:
192,192,169805,1,0,0:0:0:0:
64,192,170055,1,0,0:0:0:0:
192,192,170305,128,0,170680:0:0:0:0:
320,192,170305,128,0,170680:0:0:0:0:
448,192,170305,128,0,170680:0:0:0:0:
64,192,170805,1,0,0:0:0:0:
320,192,171055,1,0,0:0:0:0:
192,192,171305,1,0,0:0:0:0:
64,192,171555,1,0,0:0:0:0:
64,192,171805,1,0,0:0:0:0:
192,192,171805,1,0,0:0:0:0:
64,192,172305,1,0,0:0:0:0:
192,192,172305,1,0,0:0:0:0:
448,192,172305,1,0,0:0:0:0:
320,192,172555,1,0,0:0:0:0:
192,192,172680,1,0,0:0:0:0:
64,192,172805,1,0,0:0:0:0:
192,192,172805,1,0,0:0:0:0:
320,192,173055,1,0,0:0:0:0:
64,192,173055,1,0,0:0:0:0:
448,192,173305,1,0,0:0:0:0:
64,192,173305,1,0,0:0:0:0:
320,192,173555,1,0,0:0:0:0:
64,192,173555,1,0,0:0:0:0:
192,192,173618,1,0,0:0:0:0:
320,192,173680,1,0,0:0:0:0:
448,192,173743,1,0,0:0:0:0:
192,192,173805,1,0,0:0:0:0:
64,192,173805,1,0,0:0:0:0:
64,192,174055,1,0,0:0:0:0:
192,192,174055,1,0,0:0:0:0:
192,192,174180,1,0,0:0:0:0:
320,192,174180,1,0,0:0:0:0:
448,192,174305,1,0,0:0:0:0:
320,192,174305,1,0,0:0:0:0:
448,192,174430,1,0,0:0:0:0:
192,192,174430,1,0,0:0:0:0:
320,192,174680,1,0,0:0:0:0:
192,192,174680,1,0,0:0:0:0:
64,192,174930,1,0,0:0:0:0:
320,192,174930,1,0,0:0:0:0:
64,192,175180,1,0,0:0:0:0:
192,192,175180,1,0,0:0:0:0:
192,192,175305,1,0,0:0:0:0:
64,192,175305,128,0,177305:0:0:0:0:
320,192,176305,1,0,0:0:0:0:
192,192,177305,1,0,0:0:0:0:
320,192,177368,1,0,0:0:0:0:
448,192,177430,1,0,0:0:0:0:
64,192,177493,1,0,0:0:0:0:
320,192,177555,1,0,0:0:0:0:
192,192,177618,1,0,0:0:0:0:
64,192,177680,1,0,0:0:0:0:
448,192,177743,1,0,0:0:0:0:
192,192,177805,1,0,0:0:0:0:
320,192,177868,1,0,0:0:0:0:
64,192,177930,1,0,0:0:0:0:
192,192,177993,1,0,0:0:0:0:
320,192,178055,1,0,0:0:0:0:
448,192,178118,1,0,0:0:0:0:
64,192,178180,128,0,178680:0:0:0:0:
192,192,178180,128,0,178680:0:0:0:0:
320,192,178805,1,0,0:0:0:0:
448,192,178805,1,0,0:0:0:0:
64,192,178930,1,0,0:0:0:0:
192,192,179055,1,0,0:0:0:0:
448,192,179180,1,0,0:0:0:0:
320,192,179305,1,0,0:0:0:0:
192,192,179305,1,0,0:0:0:0:
64,192,179430,1,0,0:0:0:0:
320,192,179555,1,0,0:0:0:0:
448,192,179555,1,0,0:0:0:0:
448,192,179680,1,0,0:0:0:0:
320,192,179680,1,0,0:0:0:0:
192,192,179805,1,0,0:0:0:0:
320,192,179805,1,0,0:0:0:0:
192,192,179930,1,0,0:0:0:0:
320,192,179930,1,0,0:0:0:0:
64,192,180180,1,0,0:0:0:0:
192,192,180180,1,0,0:0:0:0:
320,192,180180,1,0,0:0:0:0:
64,192,180680,1,0,0:0:0:0:
448,192,180743,1,0,0:0:0:0:
192,192,180805,1,0,0:0:0:0:
320,192,180805,1,0,0:0:0:0:
192,192,180930,1,0,0:0:0:0:
320,192,180930,1,0,0:0:0:0:
64,192,181055,1,0,0:0:0:0:
448,192,181180,1,0,0:0:0:0:
192,192,181305,1,0,0:0:0:0:
320,192,181305,1,0,0:0:0:0:
448,192,181555,1,0,0:0:0:0:
320,192,181618,1,0,0:0:0:0:
192,192,181680,1,0,0:0:0:0:
64,192,181805,1,0,0:0:0:0:
320,192,181805,1,0,0:0:0:0:
64,192,181930,1,0,0:0:0:0:
320,192,181930,1,0,0:0:0:0:
64,192,182180,1,0,0:0:0:0:
448,192,182180,1,0,0:0:0:0:
192,192,182180,1,0,0:0:0:0:
192,192,182430,1,0,0:0:0:0:
320,192,182555,1,0,0:0:0:0:
448,192,182680,1,0,0:0:0:0:
64,192,182805,1,0,0:0:0:0:
320,192,182805,1,0,0:0:0:0:
192,192,182930,1,0,0:0:0:0:
448,192,183055,1,0,0:0:0:0:
192,192,183180,1,0,0:0:0:0:
64,192,183305,1,0,0:0:0:0:
320,192,183305,1,0,0:0:0:0:
192,192,183680,1,0,0:0:0:0:
320,192,183680,1,0,0:0:0:0:
192,192,183805,1,0,0:0:0:0:
320,192,183805,1,0,0:0:0:0:
192,192,183930,1,0,0:0:0:0:
448,192,183930,1,0,0:0:0:0:
448,192,184180,1,0,0:0:0:0:
64,192,184180,1,0,0:0:0:0:
64,192,184430,1,0,0:0:0:0:
192,192,184555,1,0,0:0:0:0:
320,192,184680,1,0,0:0:0:0:
448,192,184805,1,0,0:0:0:0:
64,192,184805,1,0,0:0:0:0:
320,192,184930,1,0,0:0:0:0:
448,192,185055,1,0,0:0:0:0:
64,192,185305,1,0,0:0:0:0:
320,192,185305,1,0,0:0:0:0:
448,192,185430,1,0,0:0:0:0:
192,192,185430,1,0,0:0:0:0:
320,192,185493,1,0,0:0:0:0:
64,192,185555,1,0,0:0:0:0:
192,192,185618,1,0,0:0:0:0:
448,192,185680,1,0,0:0:0:0:
64,192,185805,1,0,0:0:0:0:
320,192,185930,1,0,0:0:0:0:
64,192,186180,1,0,0:0:0:0:
192,192,186180,1,0,0:0:0:0:
448,192,186180,1,0,0:0:0:0:
448,192,186555,1,0,0:0:0:0:
320,192,186618,1,0,0:0:0:0:
192,192,186680,1,0,0:0:0:0:
64,192,186805,1,0,0:0:0:0:
448,192,186805,1,0,0:0:0:0:
192,192,186930,1,0,0:0:0:0:
320,192,187055,1,0,0:0:0:0:
448,192,187180,1,0,0:0:0:0:
64,192,187305,1,0,0:0:0:0:
320,192,187430,1,0,0:0:0:0:
448,192,187430,1,0,0:0:0:0:
448,192,187555,1,0,0:0:0:0:
320,192,187555,1,0,0:0:0:0:
320,192,187680,1,0,0:0:0:0:
448,192,187680,1,0,0:0:0:0:
192,192,187805,1,0,0:0:0:0:
320,192,187805,1,0,0:0:0:0:
192,192,187930,1,0,0:0:0:0:
320,192,187930,1,0,0:0:0:0:
64,192,188180,1,0,0:0:0:0:
192,192,188180,1,0,0:0:0:0:
448,192,188180,1,0,0:0:0:0:
64,192,188680,1,0,0:0:0:0:
448,192,188743,1,0,0:0:0:0:
320,192,188805,1,0,0:0:0:0:
192,192,188805,1,0,0:0:0:0:
192,192,188930,1,0,0:0:0:0:
320,192,188930,1,0,0:0:0:0:
64,192,189055,1,0,0:0:0:0:
448,192,189180,1,0,0:0:0:0:
192,192,189305,1,0,0:0:0:0:
320,192,189305,1,0,0:0:0:0:
448,192,189555,1,0,0:0:0:0:
320,192,189618,1,0,0:0:0:0:
192,192,189680,1,0,0:0:0:0:
64,192,189805,1,0,0:0:0:0:
320,192,189805,1,0,0:0:0:0:
320,192,189930,1,0,0:0:0:0:
64,192,189930,1,0,0:0:0:0:
64,192,190180,1,0,0:0:0:0:
192,192,190180,1,0,0:0:0:0:
64,192,190430,1,0,0:0:0:0:
192,192,190555,1,0,0:0:0:0:
320,192,190680,1,0,0:0:0:0:
448,192,190805,1,0,0:0:0:0:
64,192,190805,1,0,0:0:0:0:
192,192,190930,1,0,0:0:0:0:
320,192,191055,1,0,0:0:0:0:
192,192,191180,1,0,0:0:0:0:
448,192,191305,1,0,0:0:0:0:
320,192,191305,1,0,0:0:0:0:
64,192,191680,1,0,0:0:0:0:
192,192,191680,1,0,0:0:0:0:
64,192,191805,1,0,0:0:0:0:
192,192,191805,1,0,0:0:0:0:
192,192,191930,1,0,0:0:0:0:
320,192,191930,1,0,0:0:0:0:
192,192,192180,1,0,0:0:0:0:
448,192,192180,1,0,0:0:0:0:
64,192,192430,1,0,0:0:0:0:
192,192,192555,1,0,0:0:0:0:
320,192,192680,1,0,0:0:0:0:
64,192,192805,1,0,0:0:0:0:
192,192,192805,1,0,0:0:0:0:
320,192,192930,1,0,0:0:0:0:
448,192,193055,1,0,0:0:0:0:
64,192,193305,1,0,0:0:0:0:
448,192,193305,1,0,0:0:0:0:
320,192,193430,1,0,0:0:0:0:
192,192,193493,1,0,0:0:0:0:
64,192,193555,1,0,0:0:0:0:
320,192,193680,1,0,0:0:0:0:
192,192,193743,1,0,0:0:0:0:
64,192,193805,1,0,0:0:0:0:
320,192,193930,1,0,0:0:0:0:
64,192,194180,1,0,0:0:0:0:
192,192,194180,1,0,0:0:0:0:
448,192,194180,1,0,0:0:0:0:
64,192,194805,1,0,0:0:0:0:
192,192,194930,1,0,0:0:0:0:
320,192,195055,1,0,0:0:0:0:
448,192,195180,1,0,0:0:0:0:
320,192,195305,1,0,0:0:0:0:
192,192,195430,1,0,0:0:0:0:
64,192,195555,1,0,0:0:0:0:
192,192,195680,1,0,0:0:0:0:
192,192,195930,1,0,0:0:0:0:
320,192,196055,1,0,0:0:0:0:
448,192,196180,1,0,0:0:0:0:
320,192,196305,1,0,0:0:0:0:
64,192,196805,1,0,0:0:0:0:
192,192,196930,1,0,0:0:0:0:
320,192,197055,1,0,0:0:0:0:
448,192,197180,1,0,0:0:0:0:
320,192,197305,1,0,0:0:0:0:
192,192,197430,1,0,0:0:0:0:
64,192,197555,1,0,0:0:0:0:
320,192,197680,1,0,0:0:0:0:
192,192,197930,1,0,0:0:0:0:
320,192,198055,1,0,0:0:0:0:
448,192,198180,1,0,0:0:0:0:
64,192,198305,1,0,0:0:0:0:
64,192,198805,1,0,0:0:0:0:
192,192,198930,1,0,0:0:0:0:
320,192,199055,1,0,0:0:0:0:
448,192,199180,1,0,0:0:0:0:
320,192,199305,1,0,0:0:0:0:
192,192,199430,1,0,0:0:0:0:
64,192,199555,1,0,0:0:0:0:
192,192,199680,1,0,0:0:0:0:
192,192,199930,1,0,0:0:0:0:
320,192,200055,1,0,0:0:0:0:
448,192,200180,1,0,0:0:0:0:
320,192,200305,1,0,0:0:0:0:
192,192,200680,1,0,0:0:0:0:
192,192,200930,1,0,0:0:0:0:
320,192,201055,1,0,0:0:0:0:
448,192,201180,1,0,0:0:0:0:
320,192,201305,1,0,0:0:0:0:
192,192,201430,1,0,0:0:0:0:
64,192,201680,1,0,0:0:0:0:
64,192,201930,1,0,0:0:0:0:
192,192,202055,1,0,0:0:0:0:
448,192,202305,1,0,0:0:0:0:
64,192,202305,1,0,0:0:0:0:
64,192,202805,1,0,0:0:0:0:
448,192,202805,1,0,0:0:0:0:
192,192,202930,1,0,0:0:0:0:
320,192,203055,1,0,0:0:0:0:
448,192,203180,1,0,0:0:0:0:
320,192,203305,1,0,0:0:0:0:
64,192,203305,1,0,0:0:0:0:
192,192,203430,1,0,0:0:0:0:
64,192,203555,1,0,0:0:0:0:
320,192,203680,1,0,0:0:0:0:
64,192,203805,1,0,0:0:0:0:
192,192,203930,1,0,0:0:0:0:
320,192,204055,1,0,0:0:0:0:
448,192,204180,1,0,0:0:0:0:
64,192,204305,1,0,0:0:0:0:
320,192,204305,128,0,204680:0:0:0:0:
64,192,204805,1,0,0:0:0:0:
192,192,204930,1,0,0:0:0:0:
320,192,205055,1,0,0:0:0:0:
448,192,205180,1,0,0:0:0:0:
320,192,205305,1,0,0:0:0:0:
64,192,205305,1,0,0:0:0:0:
192,192,205430,1,0,0:0:0:0:
64,192,205555,1,0,0:0:0:0:
192,192,205680,1,0,0:0:0:0:
64,192,205805,1,0,0:0:0:0:
192,192,205930,1,0,0:0:0:0:
320,192,206055,1,0,0:0:0:0:
448,192,206180,1,0,0:0:0:0:
64,192,206305,1,0,0:0:0:0:
320,192,206305,128,0,206680:0:0:0:0:
64,192,206555,1,0,0:0:0:0:
64,192,206805,1,0,0:0:0:0:
192,192,206805,1,0,0:0:0:0:
320,192,206930,1,0,0:0:0:0:
64,192,207055,1,0,0:0:0:0:
448,192,207055,1,0,0:0:0:0:
192,192,207180,1,0,0:0:0:0:
448,192,207305,1,0,0:0:0:0:
64,192,207305,1,0,0:0:0:0:
320,192,207430,1,0,0:0:0:0:
64,192,207555,1,0,0:0:0:0:
192,192,207555,1,0,0:0:0:0:
320,192,207680,1,0,0:0:0:0:
64,192,207805,1,0,0:0:0:0:
448,192,207805,1,0,0:0:0:0:
192,192,207930,1,0,0:0:0:0:
64,192,208055,1,0,0:0:0:0:
320,192,208055,1,0,0:0:0:0:
448,192,208180,1,0,0:0:0:0:
64,192,208305,128,0,210180:0:0:0:0:
192,192,208305,1,0,0:0:0:0:
320,192,208430,1,0,0:0:0:0:
192,192,208555,1,0,0:0:0:0:
320,192,208680,1,0,0:0:0:0:
192,192,208805,1,0,0:0:0:0:
320,192,208930,1,0,0:0:0:0:
192,192,209055,1,0,0:0:0:0:
320,192,209180,1,0,0:0:0:0:
448,192,209305,1,0,0:0:0:0:
320,192,209368,1,0,0:0:0:0:
192,192,209430,1,0,0:0:0:0:
320,192,209555,1,0,0:0:0:0:
448,192,209680,1,0,0:0:0:0:
320,192,209743,1,0,0:0:0:0:
192,192,209805,1,0,0:0:0:0:
320,192,209930,1,0,0:0:0:0:
448,192,210055,1,0,0:0:0:0:
192,192,210180,1,0,0:0:0:0:
320,192,210305,1,0,0:0:0:0:
448,192,210305,128,0,212305:0:0:0:0:
64,192,210305,128,0,212305:0:0:0:0:
192,192,210430,1,0,0:0:0:0:
320,192,210555,1,0,0:0:0:0:
192,192,210680,1,0,0:0:0:0:
320,192,210805,1,0,0:0:0:0:
192,192,211055,1,0,0:0:0:0:
320,192,211180,1,0,0:0:0:0:
192,192,211305,128,0,212305:0:0:0:0:
320,192,211805,128,0,212305:0:0:0:0:
64,192,212805,1,0,0:0:0:0:
192,192,212805,1,0,0:0:0:0:
320,192,212805,1,0,0:0:0:0:
448,192,212805,1,0,0:0:0:0:
448,192,213555,1,0,0:0:0:0:
320,192,213805,1,0,0:0:0:0:
64,192,214055,1,0,0:0:0:0:
192,192,214305,1,0,0:0:0:0:
448,192,214430,1,0,0:0:0:0:
64,192,214492,1,0,0:0:0:0:
192,192,214555,1,0,0:0:0:0:
320,192,214555,1,0,0:0:0:0:
448,192,214617,1,0,0:0:0:0:
64,192,214680,1,0,0:0:0:0:
192,192,214805,1,0,0:0:0:0:
448,192,214805,1,0,0:0:0:0:
320,192,214930,1,0,0:0:0:0:
448,192,215055,1,0,0:0:0:0:
320,192,215117,1,0,0:0:0:0:
64,192,215180,1,0,0:0:0:0:
192,192,215180,128,0,215680:0:0:0:0:
448,192,215180,128,0,215680:0:0:0:0:
64,192,215805,1,0,0:0:0:0:
448,192,215805,1,0,0:0:0:0:
192,192,215930,1,0,0:0:0:0:
320,192,216055,1,0,0:0:0:0:
64,192,216055,1,0,0:0:0:0:
448,192,216180,1,0,0:0:0:0:
320,192,216305,1,0,0:0:0:0:
64,192,216305,1,0,0:0:0:0:
192,192,216430,1,0,0:0:0:0:
320,192,216555,1,0,0:0:0:0:
64,192,216680,1,0,0:0:0:0:
448,192,216805,1,0,0:0:0:0:
64,192,216930,1,0,0:0:0:0:
448,192,217055,1,0,0:0:0:0:
192,192,217055,1,0,0:0:0:0:
64,192,217305,128,0,217555:0:0:0:0:
448,192,217305,1,0,0:0:0:0:
320,192,217305,1,0,0:0:0:0:
192,192,217555,1,0,0:0:0:0:
320,192,217680,1,0,0:0:0:0:
448,192,217805,1,0,0:0:0:0:
64,192,217930,1,0,0:0:0:0:
192,192,218055,1,0,0:0:0:0:
448,192,218055,1,0,0:0:0:0:
320,192,218180,1,0,0:0:0:0:
192,192,218305,1,0,0:0:0:0:
448,192,218305,1,0,0:0:0:0:
64,192,218430,1,0,0:0:0:0:
320,192,218555,1,0,0:0:0:0:
64,192,218680,1,0,0:0:0:0:
448,192,218805,1,0,0:0:0:0:
64,192,218930,1,0,0:0:0:0:
320,192,219055,1,0,0:0:0:0:
192,192,219055,1,0,0:0:0:0:
64,192,219305,128,0,219680:0:0:0:0:
192,192,219305,1,0,0:0:0:0:
448,192,219305,1,0,0:0:0:0:
320,192,219555,1,0,0:0:0:0:
192,192,219805,1,0,0:0:0:0:
64,192,219805,1,0,0:0:0:0:
320,192,219930,1,0,0:0:0:0:
192,192,220055,1,0,0:0:0:0:
64,192,220055,1,0,0:0:0:0:
448,192,220180,1,0,0:0:0:0:
64,192,220305,1,0,0:0:0:0:
320,192,220305,1,0,0:0:0:0:
192,192,220430,1,0,0:0:0:0:
448,192,220555,1,0,0:0:0:0:
320,192,220680,1,0,0:0:0:0:
64,192,220805,1,0,0:0:0:0:
192,192,220930,1,0,0:0:0:0:
448,192,221055,1,0,0:0:0:0:
320,192,221055,1,0,0:0:0:0:
64,192,221305,128,0,221555:0:0:0:0:
320,192,221305,128,0,221555:0:0:0:0:
192,192,221680,128,0,221805:0:0:0:0:
448,192,221680,128,0,221805:0:0:0:0:
64,192,221930,1,0,0:0:0:0:
192,192,221930,1,0,0:0:0:0:
192,192,222055,1,0,0:0:0:0:
320,192,222055,1,0,0:0:0:0:
448,192,222180,1,0,0:0:0:0:
64,192,222180,1,0,0:0:0:0:
320,192,222305,1,0,0:0:0:0:
448,192,222305,1,0,0:0:0:0:
320,192,222430,1,0,0:0:0:0:
192,192,222430,1,0,0:0:0:0:
192,192,222680,1,0,0:0:0:0:
64,192,222680,1,0,0:0:0:0:
64,192,222930,1,0,0:0:0:0:
192,192,222930,1,0,0:0:0:0:
64,192,223055,1,0,0:0:0:0:
320,192,223055,1,0,0:0:0:0:
64,192,223305,1,0,0:0:0:0:
192,192,223305,1,0,0:0:0:0:
448,192,223305,1,0,0:0:0:0:
448,192,223555,1,0,0:0:0:0:
320,192,223617,1,0,0:0:0:0:
192,192,223680,1,0,0:0:0:0:
64,192,223805,1,0,0:0:0:0:
320,192,223805,1,0,0:0:0:0:
448,192,223930,1,0,0:0:0:0:
192,192,224055,1,0,0:0:0:0:
64,192,224055,1,0,0:0:0:0:
448,192,224180,1,0,0:0:0:0:
64,192,224305,1,0,0:0:0:0:
320,192,224305,1,0,0:0:0:0:
192,192,224430,1,0,0:0:0:0:
448,192,224555,1,0,0:0:0:0:
320,192,224680,1,0,0:0:0:0:
64,192,224805,1,0,0:0:0:0:
320,192,224930,1,0,0:0:0:0:
192,192,225055,1,0,0:0:0:0:
448,192,225055,1,0,0:0:0:0:
448,192,225305,1,0,0:0:0:0:
64,192,225305,128,0,225555:0:0:0:0:
192,192,225555,1,0,0:0:0:0:
320,192,225680,1,0,0:0:0:0:
448,192,225805,1,0,0:0:0:0:
64,192,225930,1,0,0:0:0:0:
192,192,226055,1,0,0:0:0:0:
448,192,226055,1,0,0:0:0:0:
320,192,226180,1,0,0:0:0:0:
192,192,226305,1,0,0:0:0:0:
448,192,226305,1,0,0:0:0:0:
64,192,226430,1,0,0:0:0:0:
320,192,226555,1,0,0:0:0:0:
192,192,226680,1,0,0:0:0:0:
448,192,226805,1,0,0:0:0:0:
192,192,226930,1,0,0:0:0:0:
320,192,227055,1,0,0:0:0:0:
64,192,227055,1,0,0:0:0:0:
448,192,227305,1,0,0:0:0:0:
64,192,227305,128,0,227680:0:0:0:0:
320,192,227555,1,0,0:0:0:0:
64,192,227805,1,0,0:0:0:0:
192,192,227805,1,0,0:0:0:0:
320,192,227930,1,0,0:0:0:0:
192,192,228055,1,0,0:0:0:0:
64,192,228055,1,0,0:0:0:0:
448,192,228180,1,0,0:0:0:0:
64,192,228305,1,0,0:0:0:0:
320,192,228305,1,0,0:0:0:0:
192,192,228430,1,0,0:0:0:0:
448,192,228555,1,0,0:0:0:0:
320,192,228680,1,0,0:0:0:0:
64,192,228805,1,0,0:0:0:0:
320,192,228930,1,0,0:0:0:0:
448,192,229055,1,0,0:0:0:0:
192,192,229055,1,0,0:0:0:0:
64,192,229305,128,0,229555:0:0:0:0:
192,192,229305,128,0,229555:0:0:0:0:
320,192,229680,128,0,229805:0:0:0:0:
448,192,229680,128,0,229805:0:0:0:0:
192,192,229930,1,0,0:0:0:0:
64,192,229930,1,0,0:0:0:0:
192,192,230055,1,0,0:0:0:0:
320,192,230055,1,0,0:0:0:0:
448,192,230180,1,0,0:0:0:0:
64,192,230180,1,0,0:0:0:0:
320,192,230305,1,0,0:0:0:0:
448,192,230305,1,0,0:0:0:0:
192,192,230430,1,0,0:0:0:0:
320,192,230430,1,0,0:0:0:0:
192,192,230680,1,0,0:0:0:0:
64,192,230680,1,0,0:0:0:0:
64,192,230930,1,0,0:0:0:0:
192,192,230930,1,0,0:0:0:0:
64,192,231055,1,0,0:0:0:0:
320,192,231055,1,0,0:0:0:0:
192,192,231180,1,0,0:0:0:0:
64,192,231180,1,0,0:0:0:0:
64,192,231305,1,0,0:0:0:0:
448,192,231305,1,0,0:0:0:0:
192,192,231430,1,0,0:0:0:0:
320,192,231555,1,0,0:0:0:0:
64,192,231680,1,0,0:0:0:0:
192,192,231680,1,0,0:0:0:0:
64,192,231930,1,0,0:0:0:0:
320,192,231930,1,0,0:0:0:0:
64,192,232180,1,0,0:0:0:0:
448,192,232180,1,0,0:0:0:0:
320,192,232305,1,0,0:0:0:0:
192,192,232305,1,0,0:0:0:0:
64,192,232430,1,0,0:0:0:0:
320,192,232430,1,0,0:0:0:0:
64,192,232680,1,0,0:0:0:0:
192,192,232680,1,0,0:0:0:0:
64,192,232930,1,0,0:0:0:0:
192,192,232930,1,0,0:0:0:0:
64,192,233055,1,0,0:0:0:0:
448,192,233055,1,0,0:0:0:0:
320,192,233117,1,0,0:0:0:0:
192,192,233180,1,0,0:0:0:0:
64,192,233242,1,0,0:0:0:0:
448,192,233305,1,0,0:0:0:0:
320,192,233367,1,0,0:0:0:0:
192,192,233430,1,0,0:0:0:0:
64,192,233492,1,0,0:0:0:0:
448,192,233555,1,0,0:0:0:0:
320,192,233617,1,0,0:0:0:0:
192,192,233680,1,0,0:0:0:0:
64,192,233742,1,0,0:0:0:0:
320,192,233805,1,0,0:0:0:0:
448,192,233805,1,0,0:0:0:0:
64,192,233930,1,0,0:0:0:0:
192,192,234055,1,0,0:0:0:0:
320,192,234055,1,0,0:0:0:0:
448,192,234180,1,0,0:0:0:0:
320,192,234305,1,0,0:0:0:0:
64,192,234305,1,0,0:0:0:0:
192,192,234430,1,0,0:0:0:0:
320,192,234555,1,0,0:0:0:0:
64,192,234680,1,0,0:0:0:0:
448,192,234805,1,0,0:0:0:0:
64,192,234930,1,0,0:0:0:0:
192,192,235055,1,0,0:0:0:0:
448,192,235055,1,0,0:0:0:0:
320,192,235180,1,0,0:0:0:0:
64,192,235305,128,0,235555:0:0:0:0:
448,192,235305,1,0,0:0:0:0:
320,192,235555,1,0,0:0:0:0:
192,192,235617,1,0,0:0:0:0:
64,192,235680,1,0,0:0:0:0:
448,192,235805,1,0,0:0:0:0:
320,192,235930,1,0,0:0:0:0:
64,192,235930,1,0,0:0:0:0:
192,192,236055,1,0,0:0:0:0:
448,192,236055,1,0,0:0:0:0:
64,192,236180,1,0,0:0:0:0:
192,192,236305,1,0,0:0:0:0:
320,192,236305,1,0,0:0:0:0:
64,192,236430,1,0,0:0:0:0:
320,192,236555,1,0,0:0:0:0:
192,192,236680,1,0,0:0:0:0:
448,192,236805,1,0,0:0:0:0:
192,192,236930,1,0,0:0:0:0:
320,192,237055,1,0,0:0:0:0:
64,192,237055,1,0,0:0:0:0:
192,192,237180,1,0,0:0:0:0:
448,192,237305,1,0,0:0:0:0:
64,192,237305,128,0,237555:0:0:0:0:
320,192,237555,1,0,0:0:0:0:
192,192,237617,1,0,0:0:0:0:
64,192,237680,1,0,0:0:0:0:
448,192,237805,1,0,0:0:0:0:
320,192,237805,1,0,0:0:0:0:
192,192,237930,1,0,0:0:0:0:
320,192,238055,1,0,0:0:0:0:
64,192,238055,1,0,0:0:0:0:
448,192,238180,1,0,0:0:0:0:
64,192,238305,1,0,0:0:0:0:
320,192,238305,1,0,0:0:0:0:
192,192,238430,1,0,0:0:0:0:
320,192,238555,1,0,0:0:0:0:
64,192,238680,1,0,0:0:0:0:
448,192,238805,1,0,0:0:0:0:
64,192,238930,1,0,0:0:0:0:
192,192,239055,1,0,0:0:0:0:
448,192,239180,1,0,0:0:0:0:
64,192,239305,1,0,0:0:0:0:
320,192,239305,1,0,0:0:0:0:
320,192,239430,1,0,0:0:0:0:
64,192,239430,1,0,0:0:0:0:
64,192,239555,1,0,0:0:0:0:
320,192,239555,1,0,0:0:0:0:
64,192,239680,1,0,0:0:0:0:
448,192,239680,1,0,0:0:0:0:
192,192,239930,1,0,0:0:0:0:
64,192,239930,1,0,0:0:0:0:
448,192,240180,1,0,0:0:0:0:
192,192,240180,1,0,0:0:0:0:
320,192,240305,1,0,0:0:0:0:
192,192,240305,1,0,0:0:0:0:
64,192,240430,1,0,0:0:0:0:
320,192,240430,1,0,0:0:0:0:
64,192,240680,1,0,0:0:0:0:
192,192,240680,1,0,0:0:0:0:
64,192,240930,1,0,0:0:0:0:
192,192,240930,1,0,0:0:0:0:
64,192,241055,1,0,0:0:0:0:
320,192,241055,1,0,0:0:0:0:
64,192,241305,1,0,0:0:0:0:
448,192,241305,1,0,0:0:0:0:
192,192,241430,1,0,0:0:0:0:
448,192,241555,1,0,0:0:0:0:
320,192,241617,1,0,0:0:0:0:
192,192,241680,1,0,0:0:0:0:
64,192,241805,1,0,0:0:0:0:
448,192,241805,1,0,0:0:0:0:
192,192,241930,1,0,0:0:0:0:
320,192,242055,1,0,0:0:0:0:
64,192,242055,1,0,0:0:0:0:
448,192,242180,1,0,0:0:0:0:
320,192,242305,1,0,0:0:0:0:
64,192,242305,1,0,0:0:0:0:
192,192,242430,1,0,0:0:0:0:
320,192,242555,1,0,0:0:0:0:
64,192,242680,1,0,0:0:0:0:
448,192,242805,1,0,0:0:0:0:
64,192,242930,1,0,0:0:0:0:
192,192,243055,1,0,0:0:0:0:
448,192,243055,1,0,0:0:0:0:
320,192,243180,1,0,0:0:0:0:
64,192,243305,128,0,243555:0:0:0:0:
448,192,243305,1,0,0:0:0:0:
320,192,243555,1,0,0:0:0:0:
192,192,243617,1,0,0:0:0:0:
64,192,243680,1,0,0:0:0:0:
448,192,243805,1,0,0:0:0:0:
192,192,243930,1,0,0:0:0:0:
320,192,244055,1,0,0:0:0:0:
64,192,244055,1,0,0:0:0:0:
448,192,244180,1,0,0:0:0:0:
320,192,244305,1,0,0:0:0:0:
64,192,244305,1,0,0:0:0:0:
192,192,244430,1,0,0:0:0:0:
448,192,244555,1,0,0:0:0:0:
64,192,244680,1,0,0:0:0:0:
320,192,244805,1,0,0:0:0:0:
192,192,244930,1,0,0:0:0:0:
320,192,245055,1,0,0:0:0:0:
64,192,245055,1,0,0:0:0:0:
448,192,245180,1,0,0:0:0:0:
192,192,245305,1,0,0:0:0:0:
64,192,245305,128,0,245555:0:0:0:0:
320,192,245555,1,0,0:0:0:0:
192,192,245617,1,0,0:0:0:0:
64,192,245680,1,0,0:0:0:0:
320,192,245805,1,0,0:0:0:0:
448,192,245805,1,0,0:0:0:0:
192,192,245930,1,0,0:0:0:0:
320,192,246055,1,0,0:0:0:0:
64,192,246055,1,0,0:0:0:0:
448,192,246180,1,0,0:0:0:0:
320,192,246305,1,0,0:0:0:0:
64,192,246305,1,0,0:0:0:0:
192,192,246430,1,0,0:0:0:0:
320,192,246555,1,0,0:0:0:0:
64,192,246680,1,0,0:0:0:0:
448,192,246805,1,0,0:0:0:0:
192,192,246930,1,0,0:0:0:0:
320,192,247055,1,0,0:0:0:0:
64,192,247055,1,0,0:0:0:0:
448,192,247180,1,0,0:0:0:0:
192,192,247305,128,0,247555:0:0:0:0:
64,192,247305,128,0,247555:0:0:0:0:
320,192,247680,128,0,247805:0:0:0:0:
448,192,247680,128,0,247805:0:0:0:0:
64,192,247930,1,0,0:0:0:0:
192,192,247930,1,0,0:0:0:0:
192,192,248055,1,0,0:0:0:0:
320,192,248055,1,0,0:0:0:0:
448,192,248180,1,0,0:0:0:0:
64,192,248180,1,0,0:0:0:0:
320,192,248305,1,0,0:0:0:0:
448,192,248305,1,0,0:0:0:0:
192,192,248430,1,0,0:0:0:0:
320,192,248430,1,0,0:0:0:0:
64,192,248680,1,0,0:0:0:0:
192,192,248680,1,0,0:0:0:0:
64,192,248930,1,0,0:0:0:0:
192,192,248930,1,0,0:0:0:0:
64,192,249055,1,0,0:0:0:0:
448,192,249055,1,0,0:0:0:0:
320,192,249117,1,0,0:0:0:0:
192,192,249180,1,0,0:0:0:0:
64,192,249242,1,0,0:0:0:0:
320,192,249305,1,0,0:0:0:0:
448,192,249305,1,0,0:0:0:0:
64,192,249680,1,0,0:0:0:0:
448,192,249805,1,0,0:0:0:0:
320,192,249930,1,0,0:0:0:0:
192,192,250055,1,0,0:0:0:0:
448,192,250180,1,0,0:0:0:0:
192,192,250305,1,0,0:0:0:0:
64,192,250305,1,0,0:0:0:0:
320,192,250430,1,0,0:0:0:0:
64,192,250430,1,0,0:0:0:0:
448,192,250555,1,0,0:0:0:0:
64,192,250680,1,0,0:0:0:0:
192,192,250680,1,0,0:0:0:0:
320,192,251055,1,0,0:0:0:0:
64,192,251305,1,0,0:0:0:0:
448,192,251305,1,0,0:0:0:0:
192,192,251305,1,0,0:0:0:0:
64,192,251680,1,0,0:0:0:0:
448,192,251805,1,0,0:0:0:0:
320,192,251930,1,0,0:0:0:0:
192,192,252055,1,0,0:0:0:0:
64,192,252055,1,0,0:0:0:0:
448,192,252180,1,0,0:0:0:0:
192,192,252305,1,0,0:0:0:0:
64,192,252305,1,0,0:0:0:0:
320,192,252430,1,0,0:0:0:0:
448,192,252555,1,0,0:0:0:0:
320,192,252805,1,0,0:0:0:0:
192,192,253055,1,0,0:0:0:0:
64,192,253305,1,0,0:0:0:0:
448,192,253305,1,0,0:0:0:0:
192,192,253305,1,0,0:0:0:0:
64,192,253805,1,0,0:0:0:0:
192,192,253930,1,0,0:0:0:0:
320,192,254055,1,0,0:0:0:0:
448,192,254180,1,0,0:0:0:0:
320,192,254305,1,0,0:0:0:0:
192,192,254430,1,0,0:0:0:0:
64,192,254555,1,0,0:0:0:0:
192,192,254680,1,0,0:0:0:0:
320,192,254805,1,0,0:0:0:0:
448,192,254930,1,0,0:0:0:0:
192,192,255055,1,0,0:0:0:0:
320,192,255180,1,0,0:0:0:0:
448,192,255305,128,0,255430:0:0:0:0:
64,192,255305,128,0,255430:0:0:0:0:
320,192,255555,128,0,255680:0:0:0:0:
192,192,255805,128,0,255930:0:0:0:0:
64,192,256055,128,0,256180:0:0:0:0:
192,192,256305,128,0,256430:0:0:0:0:
448,192,256430,1,0,0:0:0:0:
320,192,256492,1,0,0:0:0:0:
64,192,256555,128,0,256680:0:0:0:0:
192,192,256555,1,0,0:0:0:0:
320,192,256680,1,0,0:0:0:0:
448,192,256805,128,0,257180:0:0:0:0:
192,192,256805,1,0,0:0:0:0:
320,192,256930,1,0,0:0:0:0:
192,192,257180,1,0,0:0:0:0:
320,192,257180,1,0,0:0:0:0:
64,192,257180,128,0,259055:0:0:0:0:
320,192,257555,1,0,0:0:0:0:
192,192,257805,1,0,0:0:0:0:
320,192,258055,1,0,0:0:0:0:
448,192,258305,1,0,0:0:0:0:
320,192,258555,1,0,0:0:0:0:
448,192,258805,1,0,0:0:0:0:
64,192,259180,1,0,0:0:0:0:
320,192,259180,1,0,0:0:0:0:
448,192,259180,1,0,0:0:0:0:
192,192,259555,1,0,0:0:0:0:
64,192,259805,1,0,0:0:0:0:
320,192,259805,1,0,0:0:0:0:
448,192,259805,1,0,0:0:0:0:
448,192,260305,1,0,0:0:0:0:
320,192,260305,1,0,0:0:0:0:
64,192,260305,1,0,0:0:0:0:
448,192,260805,1,0,0:0:0:0:
320,192,260805,1,0,0:0:0:0:
64,192,260805,1,0,0:0:0:0:
64,192,261305,1,0,0:0:0:0:
320,192,261305,1,0,0:0:0:0:
448,192,261305,1,0,0:0:0:0:
448,192,261805,1,0,0:0:0:0:
320,192,261805,1,0,0:0:0:0:
64,192,261805,1,0,0:0:0:0:
64,192,262305,1,0,0:0:0:0:
320,192,262305,1,0,0:0:0:0:
448,192,262305,1,0,0:0:0:0:
448,192,262805,1,0,0:0:0:0:
64,192,262805,1,0,0:0:0:0:
192,192,262805,128,0,263180:0:0:0:0:
64,192,263180,1,0,0:0:0:0:
320,192,263180,1,0,0:0:0:0:
448,192,263180,1,0,0:0:0:0:
192,192,263555,1,0,0:0:0:0:
64,192,263805,1,0,0:0:0:0:
320,192,263805,1,0,0:0:0:0:
448,192,263805,1,0,0:0:0:0:
64,192,264305,1,0,0:0:0:0:
320,192,264305,1,0,0:0:0:0:
448,192,264305,1,0,0:0:0:0:
64,192,264805,1,0,0:0:0:0:
448,192,264805,1,0,0:0:0:0:
192,192,264805,1,0,0:0:0:0:
64,192,265305,1,0,0:0:0:0:
320,192,265305,1,0,0:0:0:0:
64,192,265805,1,0,0:0:0:0:
192,192,265805,1,0,0:0:0:0:
448,192,265805,1,0,0:0:0:0:
192,192,266180,1,0,0:0:0:0:
448,192,266305,1,0,0:0:0:0:
320,192,266305,1,0,0:0:0:0:
64,192,266555,1,0,0:0:0:0:
192,192,266805,128,0,267055:0:0:0:0:
320,192,266805,128,0,267055:0:0:0:0:
64,192,267180,128,0,267555:0:0:0:0:
320,192,267180,128,0,267555:0:0:0:0:
448,192,267180,128,0,267555:0:0:0:0:
192,192,267555,1,0,0:0:0:0:
320,192,267805,1,0,0:0:0:0:
64,192,267805,1,0,0:0:0:0:
448,192,268055,1,0,0:0:0:0:
320,192,268117,1,0,0:0:0:0:
192,192,268180,1,0,0:0:0:0:
64,192,268242,1,0,0:0:0:0:
448,192,268305,1,0,0:0:0:0:
320,192,268305,1,0,0:0:0:0:
64,192,268555,1,0,0:0:0:0:
192,192,268617,1,0,0:0:0:0:
320,192,268680,1,0,0:0:0:0:
448,192,268805,1,0,0:0:0:0:
64,192,268930,1,0,0:0:0:0:
192,192,268930,1,0,0:0:0:0:
320,192,269055,1,0,0:0:0:0:
192,192,269055,1,0,0:0:0:0:
320,192,269180,1,0,0:0:0:0:
448,192,269180,1,0,0:0:0:0:
64,192,269305,1,0,0:0:0:0:
448,192,269305,1,0,0:0:0:0:
448,192,269430,1,0,0:0:0:0:
320,192,269430,1,0,0:0:0:0:
192,192,269680,1,0,0:0:0:0:
448,192,269680,1,0,0:0:0:0:
320,192,269930,1,0,0:0:0:0:
192,192,269930,1,0,0:0:0:0:
64,192,270180,1,0,0:0:0:0:
320,192,270180,1,0,0:0:0:0:
192,192,270305,1,0,0:0:0:0:
64,192,270305,1,0,0:0:0:0:
192,192,270805,128,0,271180:0:0:0:0:
448,192,271180,1,0,0:0:0:0:
320,192,271180,1,0,0:0:0:0:
64,192,271180,1,0,0:0:0:0:
448,192,271805,1,0,0:0:0:0:
320,192,271805,1,0,0:0:0:0:
64,192,271805,1,0,0:0:0:0:
448,192,272305,1,0,0:0:0:0:
320,192,272305,1,0,0:0:0:0:
64,192,272305,1,0,0:0:0:0:
192,192,272805,1,0,0:0:0:0:
448,192,272805,1,0,0:0:0:0:
64,192,272805,1,0,0:0:0:0:
320,192,273305,1,0,0:0:0:0:
64,192,273305,1,0,0:0:0:0:
448,192,273805,1,0,0:0:0:0:
192,192,273805,1,0,0:0:0:0:
64,192,273805,1,0,0:0:0:0:
320,192,274305,1,0,0:0:0:0:
448,192,274305,1,0,0:0:0:0:
64,192,274555,1,0,0:0:0:0:
192,192,274805,1,0,0:0:0:0:
320,192,274805,1,0,0:0:0:0:
192,192,274930,1,0,0:0:0:0:
320,192,274930,1,0,0:0:0:0:
320,192,275180,1,0,0:0:0:0:
448,192,275180,1,0,0:0:0:0:
64,192,275180,128,0,275555:0:0:0:0:
192,192,275555,1,0,0:0:0:0:
320,192,275805,1,0,0:0:0:0:
64,192,275805,1,0,0:0:0:0:
448,192,276055,1,0,0:0:0:0:
320,192,276117,1,0,0:0:0:0:
192,192,276180,1,0,0:0:0:0:
64,192,276242,1,0,0:0:0:0:
320,192,276305,1,0,0:0:0:0:
448,192,276305,1,0,0:0:0:0:
64,192,276555,1,0,0:0:0:0:
192,192,276617,1,0,0:0:0:0:
320,192,276680,1,0,0:0:0:0:
448,192,276805,1,0,0:0:0:0:
64,192,276930,1,0,0:0:0:0:
192,192,276930,1,0,0:0:0:0:
320,192,277055,1,0,0:0:0:0:
192,192,277055,1,0,0:0:0:0:
320,192,277180,1,0,0:0:0:0:
448,192,277180,1,0,0:0:0:0:
448,192,277305,1,0,0:0:0:0:
64,192,277305,1,0,0:0:0:0:
320,192,277430,1,0,0:0:0:0:
192,192,277430,1,0,0:0:0:0:
320,192,277555,1,0,0:0:0:0:
64,192,277555,1,0,0:0:0:0:
64,192,277680,1,0,0:0:0:0:
448,192,277680,1,0,0:0:0:0:
320,192,277805,1,0,0:0:0:0:
448,192,277805,1,0,0:0:0:0:
192,192,277930,1,0,0:0:0:0:
320,192,277930,1,0,0:0:0:0:
64,192,278055,1,0,0:0:0:0:
320,192,278055,1,0,0:0:0:0:
192,192,278180,1,0,0:0:0:0:
448,192,278180,1,0,0:0:0:0:
320,192,278305,1,0,0:0:0:0:
448,192,278305,1,0,0:0:0:0:
192,192,278430,1,0,0:0:0:0:
448,192,278430,1,0,0:0:0:0:
320,192,278680,1,0,0:0:0:0:
192,192,278680,1,0,0:0:0:0:
64,192,278930,1,0,0:0:0:0:
320,192,278930,1,0,0:0:0:0:
64,192,279180,1,0,0:0:0:0:
192,192,279180,1,0,0:0:0:0:
320,192,279430,1,0,0:0:0:0:
192,192,279555,1,0,0:0:0:0:
448,192,279680,1,0,0:0:0:0:
64,192,279805,1,0,0:0:0:0:
320,192,279930,1,0,0:0:0:0:
64,192,280055,1,0,0:0:0:0:
192,192,280180,1,0,0:0:0:0:
64,192,280305,1,0,0:0:0:0:
192,192,280430,1,0,0:0:0:0:
320,192,280555,1,0,0:0:0:0:
448,192,280680,1,0,0:0:0:0:
64,192,280805,1,0,0:0:0:0:
192,192,280930,1,0,0:0:0:0:
320,192,281055,1,0,0:0:0:0:
448,192,281180,1,0,0:0:0:0:
64,192,281305,1,0,0:0:0:0:
192,192,281430,1,0,0:0:0:0:
320,192,281555,1,0,0:0:0:0:
448,192,281680,1,0,0:0:0:0:
64,192,281805,1,0,0:0:0:0:
192,192,281930,1,0,0:0:0:0:
320,192,282055,1,0,0:0:0:0:
448,192,282180,1,0,0:0:0:0:
64,192,282805,128,0,285180:0:0:0:0:
192,192,282805,128,0,285180:0:0:0:0:
320,192,282805,128,0,285180:0:0:0:0:
448,192,282805,128,0,285180:0:0:0:0:
