osu file format v14

[General]
AudioFilename: audio.mp3
AudioLeadIn: 0
PreviewTime: 92470
Countdown: 0
SampleSet: Normal
StackLeniency: 0.7
Mode: 1
LetterboxInBreaks: 0
WidescreenStoryboard: 0

[Editor]
Bookmarks: 102899
DistanceSpacing: 1.5
BeatDivisor: 4
GridSize: 32
TimelineZoom: 3.399999

[Metadata]
Title:Paraclete
TitleUnicode:Paraclete
Artist:LeaF
ArtistUnicode:LeaF
Creator:Kroytz
Version:Nwolf's Oni
Source:BMS
Tags:Sacred Art Japanese Electronic Classical Piano keysound Feb Nwolf deathstream RSI
BeatmapID:1023469
BeatmapSetID:455109

[Difficulty]
HPDrainRate:6
CircleSize:4
OverallDifficulty:6
ApproachRate:9
SliderMultiplier:1.4
SliderTickRate:1

[Events]
//Background and Video events
0,0,"bg.jpg",0,-132
//Break Periods
//Storyboard Layer 0 (Background)
//Storyboard Layer 1 (Fail)
//Storyboard Layer 2 (Pass)
//Storyboard Layer 3 (Foreground)
//Storyboard Sound Samples

[TimingPoints]
42,285.714285714286,4,1,0,70,1,0
42,-133.333333333333,4,1,0,70,0,0
18184,-111.111111111111,4,1,0,70,0,0
19399,-100,4,1,0,95,0,0
56184,-111.111111111111,4,1,0,70,0,0
65042,-100,4,1,0,95,0,0
65327,-111.111111111111,4,1,0,70,0,0
83399,-100,4,1,0,95,0,0
92613,-100,4,1,0,95,0,1
113970,-100,4,1,0,95,0,0
114327,-100,4,1,0,95,0,1
132613,-100,4,1,0,95,0,0

[HitObjects]
288,160,1184,5,8,0:0:0:0:
288,160,1756,1,8,0:0:0:0:
224,160,2327,1,0,0:0:0:0:
288,160,3470,1,8,0:0:0:0:
224,160,4042,1,0,0:0:0:0:
224,160,4613,1,0,0:0:0:0:
288,160,5756,1,8,0:0:0:0:
224,160,6613,1,0,0:0:0:0:
288,160,6899,1,8,0:0:0:0:
288,160,7470,1,8,0:0:0:0:
288,160,8042,1,8,0:0:0:0:
224,160,8899,1,0,0:0:0:0:
224,160,9184,1,0,0:0:0:0:
288,160,10327,1,8,0:0:0:0:
224,160,10899,1,0,0:0:0:0:
288,160,11470,1,8,0:0:0:0:
288,160,12613,1,8,0:0:0:0:
288,160,13184,1,8,0:0:0:0:
224,160,13756,1,0,0:0:0:0:
288,160,14899,1,8,0:0:0:0:
224,160,15470,1,0,0:0:0:0:
288,160,16042,1,8,0:0:0:0:
288,160,16613,1,8,0:0:0:0:
288,160,17184,1,8,0:0:0:0:
224,160,17756,1,0,0:0:0:0:
224,160,18042,1,0,0:0:0:0:
288,160,18327,1,8,0:0:0:0:
224,160,18470,1,0,0:0:0:0:
288,160,18613,1,8,0:0:0:0:
224,160,18756,1,0,0:0:0:0:
288,160,18899,1,8,0:0:0:0:
224,160,19042,1,0,0:0:0:0:
288,160,19184,1,8,0:0:0:0:
224,160,19327,1,0,0:0:0:0:
288,224,19470,5,12,0:0:0:0:
288,160,19613,1,8,0:0:0:0:
288,160,19756,1,8,0:0:0:0:
224,160,19827,1,0,0:0:0:0:
288,160,19899,1,8,0:0:0:0:
288,160,20042,1,8,0:0:0:0:
224,160,20113,1,0,0:0:0:0:
288,160,20184,1,8,0:0:0:0:
288,160,20327,1,8,0:0:0:0:
224,160,20399,1,0,0:0:0:0:
288,160,20470,1,8,0:0:0:0:
224,160,20613,1,0,0:0:0:0:
224,160,20684,1,0,0:0:0:0:
288,160,20756,1,8,0:0:0:0:
288,160,20899,1,8,0:0:0:0:
288,160,21042,1,8,0:0:0:0:
288,160,21113,1,8,0:0:0:0:
224,160,21184,1,0,0:0:0:0:
224,160,21256,1,0,0:0:0:0:
288,160,21327,1,8,0:0:0:0:
288,160,21470,1,8,0:0:0:0:
288,160,21756,1,8,0:0:0:0:
288,160,21827,1,8,0:0:0:0:
224,160,21899,1,0,0:0:0:0:
224,160,21970,1,0,0:0:0:0:
288,160,22042,1,8,0:0:0:0:
224,160,22184,1,0,0:0:0:0:
224,160,22256,1,0,0:0:0:0:
288,160,22327,1,8,0:0:0:0:
288,160,22399,1,8,0:0:0:0:
224,160,22470,1,0,0:0:0:0:
288,160,22613,1,8,0:0:0:0:
224,160,22756,1,0,0:0:0:0:
288,160,22899,1,8,0:0:0:0:
224,160,22970,1,0,0:0:0:0:
224,160,23042,1,0,0:0:0:0:
224,160,23113,1,0,0:0:0:0:
288,160,23184,1,8,0:0:0:0:
224,160,23327,1,0,0:0:0:0:
288,160,23399,1,8,0:0:0:0:
224,160,23470,1,0,0:0:0:0:
288,160,23542,1,8,0:0:0:0:
224,160,23613,1,0,0:0:0:0:
288,160,23756,1,8,0:0:0:0:
288,160,24042,1,8,0:0:0:0:
224,160,24184,1,0,0:0:0:0:
224,160,24256,1,0,0:0:0:0:
288,160,24327,1,8,0:0:0:0:
224,160,24470,1,0,0:0:0:0:
224,160,24542,1,0,0:0:0:0:
288,160,24613,1,8,0:0:0:0:
224,160,24684,1,0,0:0:0:0:
288,160,24756,1,8,0:0:0:0:
288,160,24899,1,8,0:0:0:0:
288,160,25184,1,8,0:0:0:0:
224,160,25327,1,0,0:0:0:0:
224,160,25399,1,0,0:0:0:0:
288,160,25470,1,8,0:0:0:0:
224,160,25613,1,0,0:0:0:0:
224,160,25684,1,0,0:0:0:0:
288,160,25756,1,8,0:0:0:0:
288,160,25827,1,8,0:0:0:0:
224,160,25899,1,0,0:0:0:0:
288,160,26042,1,8,0:0:0:0:
288,160,26327,1,8,0:0:0:0:
288,160,26399,1,8,0:0:0:0:
224,160,26470,1,0,0:0:0:0:
224,160,26542,1,0,0:0:0:0:
288,160,26613,1,8,0:0:0:0:
288,160,26756,1,8,0:0:0:0:
288,160,26827,1,8,0:0:0:0:
224,160,26899,1,0,0:0:0:0:
224,160,26970,1,0,0:0:0:0:
288,160,27042,1,8,0:0:0:0:
288,160,27184,1,8,0:0:0:0:
288,160,27256,1,8,0:0:0:0:
224,160,27327,1,0,0:0:0:0:
288,160,27470,1,8,0:0:0:0:
288,160,27542,1,8,0:0:0:0:
224,160,27613,1,0,0:0:0:0:
224,160,27684,1,0,0:0:0:0:
288,160,27756,1,8,0:0:0:0:
224,160,27899,1,0,0:0:0:0:
224,160,27970,1,0,0:0:0:0:
288,160,28042,1,8,0:0:0:0:
288,160,28113,1,8,0:0:0:0:
224,160,28184,1,0,0:0:0:0:
288,160,28327,1,8,0:0:0:0:
224,160,28470,1,0,0:0:0:0:
224,224,28613,5,4,0:0:0:0:
288,224,28899,1,12,0:0:0:0:
224,224,29184,1,4,0:0:0:0:
288,224,29470,1,12,0:0:0:0:
288,160,29756,1,8,0:0:0:0:
288,160,29827,1,8,0:0:0:0:
224,160,29899,1,0,0:0:0:0:
224,160,29970,1,0,0:0:0:0:
288,160,30042,1,8,0:0:0:0:
224,160,30184,1,0,0:0:0:0:
288,160,30256,1,8,0:0:0:0:
224,160,30327,1,0,0:0:0:0:
288,160,30399,1,8,0:0:0:0:
224,160,30470,1,0,0:0:0:0:
288,160,30613,1,8,0:0:0:0:
288,160,30756,1,8,0:0:0:0:
224,224,30899,1,4,0:0:0:0:
288,224,31184,1,12,0:0:0:0:
224,224,31327,1,4,0:0:0:0:
224,224,31613,1,4,0:0:0:0:
288,160,31756,1,8,0:0:0:0:
288,160,32042,1,8,0:0:0:0:
288,160,32113,1,8,0:0:0:0:
288,160,32184,1,8,0:0:0:0:
288,160,32327,1,8,0:0:0:0:
288,160,32399,1,8,0:0:0:0:
224,160,32470,1,0,0:0:0:0:
288,160,32613,1,8,0:0:0:0:
224,160,32684,1,0,0:0:0:0:
288,160,32756,1,8,0:0:0:0:
288,160,32899,1,8,0:0:0:0:
288,160,32970,1,8,0:0:0:0:
224,160,33042,1,0,0:0:0:0:
224,224,33184,1,4,0:0:0:0:
288,224,33470,1,12,0:0:0:0:
224,224,33756,1,4,0:0:0:0:
288,224,34042,1,12,0:0:0:0:
288,160,34327,1,8,0:0:0:0:
288,160,34399,1,8,0:0:0:0:
224,160,34470,1,0,0:0:0:0:
224,160,34542,1,0,0:0:0:0:
288,160,34613,1,8,0:0:0:0:
224,160,34756,1,0,0:0:0:0:
288,160,34827,1,8,0:0:0:0:
224,160,34899,1,0,0:0:0:0:
288,160,34970,1,8,0:0:0:0:
224,160,35042,1,0,0:0:0:0:
288,160,35184,1,8,0:0:0:0:
288,160,35327,1,8,0:0:0:0:
224,224,35470,1,4,0:0:0:0:
288,224,35756,1,12,0:0:0:0:
224,224,35899,1,4,0:0:0:0:
224,224,36184,1,4,0:0:0:0:
288,160,36327,1,8,0:0:0:0:
288,160,36613,1,8,0:0:0:0:
288,160,36684,1,8,0:0:0:0:
224,160,36756,1,0,0:0:0:0:
224,160,36827,1,0,0:0:0:0:
288,160,36899,1,8,0:0:0:0:
224,160,37042,1,0,0:0:0:0:
288,160,37184,1,8,0:0:0:0:
288,160,37256,1,8,0:0:0:0:
224,160,37327,1,0,0:0:0:0:
224,160,37399,1,0,0:0:0:0:
288,160,37470,1,8,0:0:0:0:
288,160,37613,1,8,0:0:0:0:
224,224,37756,5,4,0:0:0:0:
224,160,38042,1,0,0:0:0:0:
288,160,38184,1,8,0:0:0:0:
288,160,38470,1,8,0:0:0:0:
288,160,38613,1,8,0:0:0:0:
288,160,38756,1,8,0:0:0:0:
224,160,38899,1,0,0:0:0:0:
224,160,39042,1,0,0:0:0:0:
224,160,39113,1,0,0:0:0:0:
288,160,39184,1,8,0:0:0:0:
224,160,39327,1,0,0:0:0:0:
224,160,39399,1,0,0:0:0:0:
224,160,39613,1,0,0:0:0:0:
32,32,39756,2,0,L|128:32,1,70
288,160,40042,1,8,0:0:0:0:
288,160,40327,1,8,0:0:0:0:
224,160,40470,1,0,0:0:0:0:
224,160,40756,1,0,0:0:0:0:
288,160,40899,1,8,0:0:0:0:
224,160,41042,1,0,0:0:0:0:
224,160,41184,1,0,0:0:0:0:
224,160,41256,1,0,0:0:0:0:
224,160,41327,1,0,0:0:0:0:
288,160,41470,1,8,0:0:0:0:
224,160,41613,1,0,0:0:0:0:
224,160,41684,1,0,0:0:0:0:
224,160,41899,1,0,0:0:0:0:
288,160,42042,1,8,0:0:0:0:
288,160,42113,1,8,0:0:0:0:
224,160,42184,1,0,0:0:0:0:
288,160,42327,1,8,0:0:0:0:
288,160,42470,1,8,0:0:0:0:
288,160,42613,1,8,0:0:0:0:
288,160,42684,1,8,0:0:0:0:
224,160,42756,1,0,0:0:0:0:
288,160,43042,1,8,0:0:0:0:
224,160,43184,1,0,0:0:0:0:
288,160,43327,1,8,0:0:0:0:
32,32,43470,2,0,L|192:32,1,140
288,160,43899,1,8,0:0:0:0:
224,160,44042,1,0,0:0:0:0:
288,160,44184,1,8,0:0:0:0:
224,160,44327,1,0,0:0:0:0:
288,160,44470,1,8,0:0:0:0:
288,160,44613,1,8,0:0:0:0:
288,160,44684,1,8,0:0:0:0:
224,160,44756,1,0,0:0:0:0:
288,160,44899,1,8,0:0:0:0:
288,160,45042,1,8,0:0:0:0:
288,160,45327,1,8,0:0:0:0:
288,160,45470,1,8,0:0:0:0:
288,160,45613,1,8,0:0:0:0:
224,160,45756,1,0,0:0:0:0:
288,160,45899,1,8,0:0:0:0:
288,160,46042,1,8,0:0:0:0:
288,160,46184,1,8,0:0:0:0:
288,160,46256,1,8,0:0:0:0:
224,160,46327,1,0,0:0:0:0:
288,160,46470,1,8,0:0:0:0:
288,160,46613,1,8,0:0:0:0:
224,160,46756,1,0,0:0:0:0:
288,224,46899,5,12,0:0:0:0:
224,160,47042,1,0,0:0:0:0:
288,160,47184,1,8,0:0:0:0:
224,160,47327,1,0,0:0:0:0:
224,160,47542,1,0,0:0:0:0:
224,160,47613,1,0,0:0:0:0:
32,32,47756,2,0,L|128:32,1,70
224,160,48042,1,0,0:0:0:0:
224,160,48256,1,0,0:0:0:0:
224,160,48470,1,0,0:0:0:0:
288,160,48613,1,8,0:0:0:0:
224,160,48756,1,0,0:0:0:0:
224,160,48827,1,0,0:0:0:0:
288,160,48899,1,8,0:0:0:0:
224,160,49184,1,0,0:0:0:0:
224,160,49256,1,0,0:0:0:0:
224,160,49327,1,0,0:0:0:0:
224,160,49399,1,0,0:0:0:0:
288,160,49470,1,8,0:0:0:0:
288,160,49613,1,8,0:0:0:0:
288,160,49684,1,8,0:0:0:0:
224,160,49756,1,0,0:0:0:0:
224,160,49899,1,0,0:0:0:0:
288,160,50042,1,8,0:0:0:0:
288,160,50327,1,8,0:0:0:0:
288,160,50422,1,8,0:0:0:0:
288,160,50518,1,8,0:0:0:0:
288,160,50613,1,8,0:0:0:0:
288,160,50708,1,8,0:0:0:0:
288,160,50803,1,8,0:0:0:0:
288,160,50899,1,8,0:0:0:0:
224,160,51042,1,0,0:0:0:0:
288,160,51184,1,8,0:0:0:0:
224,160,51470,1,0,0:0:0:0:
288,160,51613,1,8,0:0:0:0:
224,160,51756,1,0,0:0:0:0:
288,160,51899,1,8,0:0:0:0:
224,160,52042,1,0,0:0:0:0:
224,160,52113,1,0,0:0:0:0:
288,160,52184,1,8,0:0:0:0:
32,32,52327,2,0,L|128:32,1,70
288,160,52613,1,8,0:0:0:0:
288,160,52827,1,8,0:0:0:0:
288,160,53042,1,8,0:0:0:0:
288,160,53184,1,8,0:0:0:0:
224,160,53327,1,0,0:0:0:0:
224,160,53399,1,0,0:0:0:0:
288,160,53470,1,8,0:0:0:0:
224,160,53756,1,0,0:0:0:0:
224,160,53827,1,0,0:0:0:0:
224,160,53899,1,0,0:0:0:0:
224,160,53970,1,0,0:0:0:0:
288,160,54042,1,8,0:0:0:0:
288,160,54184,1,8,0:0:0:0:
288,160,54256,1,8,0:0:0:0:
224,160,54327,1,0,0:0:0:0:
224,160,54399,1,0,0:0:0:0:
288,160,54470,1,8,0:0:0:0:
288,160,54613,1,8,0:0:0:0:
288,160,54899,1,8,0:0:0:0:
288,160,54994,1,8,0:0:0:0:
288,160,55089,1,8,0:0:0:0:
288,160,55184,1,8,0:0:0:0:
288,160,55280,1,8,0:0:0:0:
288,160,55375,1,8,0:0:0:0:
288,160,55470,1,8,0:0:0:0:
288,160,55565,1,8,0:0:0:0:
288,160,55661,1,8,0:0:0:0:
32,32,55756,2,0,L|128:32,1,70
288,224,56042,1,12,0:0:0:0:
224,160,56613,5,0,0:0:0:0:
288,160,57184,1,8,0:0:0:0:
288,160,58327,1,8,0:0:0:0:
224,160,58899,1,0,0:0:0:0:
224,160,59470,1,0,0:0:0:0:
288,160,60613,1,8,0:0:0:0:
224,160,61470,1,0,0:0:0:0:
288,160,61756,1,8,0:0:0:0:
288,160,62327,1,8,0:0:0:0:
288,160,62899,1,8,0:0:0:0:
224,160,63756,1,0,0:0:0:0:
224,160,64042,1,0,0:0:0:0:
224,160,64899,1,0,0:0:0:0:
288,224,65184,5,12,0:0:0:0:
224,160,65756,1,0,0:0:0:0:
288,160,66327,1,8,0:0:0:0:
288,160,67470,1,8,0:0:0:0:
288,160,68042,1,8,0:0:0:0:
224,160,68613,1,0,0:0:0:0:
288,160,69756,1,8,0:0:0:0:
224,160,70327,1,0,0:0:0:0:
288,160,70899,1,8,0:0:0:0:
288,160,71470,1,8,0:0:0:0:
288,160,72042,1,8,0:0:0:0:
288,160,72613,1,8,0:0:0:0:
224,160,72899,1,0,0:0:0:0:
224,160,73184,1,0,0:0:0:0:
288,160,73756,1,8,0:0:0:0:
288,160,74042,1,8,0:0:0:0:
224,224,74327,1,4,0:0:0:0:
288,160,74542,1,8,0:0:0:0:
288,160,74756,1,8,0:0:0:0:
288,160,75184,1,8,0:0:0:0:
288,160,75470,1,8,0:0:0:0:
288,160,75684,1,8,0:0:0:0:
288,160,75899,1,8,0:0:0:0:
288,160,76327,1,8,0:0:0:0:
288,160,76613,1,8,0:0:0:0:
288,160,76827,1,8,0:0:0:0:
288,160,77042,1,8,0:0:0:0:
288,160,77256,1,8,0:0:0:0:
288,160,77470,1,8,0:0:0:0:
288,160,77756,1,8,0:0:0:0:
288,160,77970,1,8,0:0:0:0:
288,160,78184,1,8,0:0:0:0:
288,160,78399,1,8,0:0:0:0:
288,160,78613,1,8,0:0:0:0:
288,160,78899,1,8,0:0:0:0:
288,160,79327,1,8,0:0:0:0:
288,160,79470,1,8,0:0:0:0:
288,160,79613,1,8,0:0:0:0:
288,160,79756,1,8,0:0:0:0:
288,160,80042,1,8,0:0:0:0:
288,160,80327,1,8,0:0:0:0:
288,160,80613,1,8,0:0:0:0:
288,160,80756,1,8,0:0:0:0:
288,160,80899,1,8,0:0:0:0:
288,160,81184,1,8,0:0:0:0:
288,160,81327,1,8,0:0:0:0:
288,160,81470,1,8,0:0:0:0:
288,160,81613,1,8,0:0:0:0:
288,160,81756,1,8,0:0:0:0:
224,160,82042,1,0,0:0:0:0:
224,160,82184,1,0,0:0:0:0:
224,160,82327,1,0,0:0:0:0:
224,160,82613,1,0,0:0:0:0:
288,160,82899,1,8,0:0:0:0:
288,160,83184,1,8,0:0:0:0:
288,224,83470,5,12,0:0:0:0:
224,160,83613,1,0,0:0:0:0:
224,160,83684,1,0,0:0:0:0:
288,160,83756,1,8,0:0:0:0:
288,160,83899,1,8,0:0:0:0:
224,160,84042,1,0,0:0:0:0:
224,160,84113,1,0,0:0:0:0:
224,160,84184,1,0,0:0:0:0:
224,160,84256,1,0,0:0:0:0:
288,160,84327,1,8,0:0:0:0:
288,160,84613,1,8,0:0:0:0:
288,160,84684,1,8,0:0:0:0:
224,160,84756,1,0,0:0:0:0:
288,160,84899,1,8,0:0:0:0:
288,160,85042,1,8,0:0:0:0:
288,160,85113,1,8,0:0:0:0:
288,160,85184,1,8,0:0:0:0:
288,160,85256,1,8,0:0:0:0:
224,160,85327,1,0,0:0:0:0:
288,160,85470,1,8,0:0:0:0:
288,160,85756,1,8,0:0:0:0:
224,160,85970,1,0,0:0:0:0:
288,160,86042,1,8,0:0:0:0:
224,160,86184,1,0,0:0:0:0:
288,160,86327,1,8,0:0:0:0:
288,160,86399,1,8,0:0:0:0:
224,160,86470,1,0,0:0:0:0:
224,160,86542,1,0,0:0:0:0:
288,160,86613,1,8,0:0:0:0:
224,160,86756,1,0,0:0:0:0:
288,160,86899,1,8,0:0:0:0:
224,160,87113,1,0,0:0:0:0:
288,160,87184,1,8,0:0:0:0:
224,160,87327,1,0,0:0:0:0:
288,160,87470,1,8,0:0:0:0:
288,160,87542,1,8,0:0:0:0:
224,160,87613,1,0,0:0:0:0:
224,160,87684,1,0,0:0:0:0:
288,160,87756,1,8,0:0:0:0:
288,160,87899,1,8,0:0:0:0:
224,160,88042,1,0,0:0:0:0:
224,160,88184,1,0,0:0:0:0:
224,160,88256,1,0,0:0:0:0:
288,160,88327,1,8,0:0:0:0:
288,160,88399,1,8,0:0:0:0:
224,160,88470,1,0,0:0:0:0:
288,160,88613,1,8,0:0:0:0:
224,160,88756,1,0,0:0:0:0:
288,160,88899,1,8,0:0:0:0:
288,160,89042,1,8,0:0:0:0:
224,160,89184,1,0,0:0:0:0:
224,160,89256,1,0,0:0:0:0:
224,160,89327,1,0,0:0:0:0:
224,160,89399,1,0,0:0:0:0:
288,160,89470,1,8,0:0:0:0:
224,160,89613,1,0,0:0:0:0:
288,160,89756,1,8,0:0:0:0:
288,160,89899,1,8,0:0:0:0:
288,160,90042,1,8,0:0:0:0:
224,160,90184,1,0,0:0:0:0:
224,160,90256,1,0,0:0:0:0:
288,160,90327,1,8,0:0:0:0:
288,160,90470,1,8,0:0:0:0:
288,160,90613,1,8,0:0:0:0:
224,160,90756,1,0,0:0:0:0:
288,160,90899,1,8,0:0:0:0:
224,160,91042,1,0,0:0:0:0:
224,160,91113,1,0,0:0:0:0:
288,160,91184,1,8,0:0:0:0:
224,160,91327,1,0,0:0:0:0:
224,160,91470,1,0,0:0:0:0:
224,160,91542,1,0,0:0:0:0:
224,160,91613,1,0,0:0:0:0:
288,160,91756,1,8,0:0:0:0:
288,160,92042,1,8,0:0:0:0:
288,160,92113,1,8,0:0:0:0:
288,160,92184,1,8,0:0:0:0:
288,160,92327,1,8,0:0:0:0:
288,224,92613,5,12,0:0:0:0:
224,160,92756,1,0,0:0:0:0:
288,160,92899,1,8,0:0:0:0:
224,160,92970,1,0,0:0:0:0:
224,160,93042,1,0,0:0:0:0:
224,160,93113,1,0,0:0:0:0:
288,160,93184,1,8,0:0:0:0:
224,160,93327,1,0,0:0:0:0:
288,160,93470,1,8,0:0:0:0:
224,160,93542,1,0,0:0:0:0:
224,160,93613,1,0,0:0:0:0:
224,160,93684,1,0,0:0:0:0:
288,160,93756,1,8,0:0:0:0:
224,160,93899,1,0,0:0:0:0:
288,160,94042,1,8,0:0:0:0:
288,160,94113,1,8,0:0:0:0:
224,160,94184,1,0,0:0:0:0:
224,160,94256,1,0,0:0:0:0:
288,160,94327,1,8,0:0:0:0:
224,160,94470,1,0,0:0:0:0:
288,160,94613,1,8,0:0:0:0:
288,160,94899,1,8,0:0:0:0:
288,160,94970,1,8,0:0:0:0:
224,160,95042,1,0,0:0:0:0:
224,160,95113,1,0,0:0:0:0:
288,160,95184,1,8,0:0:0:0:
224,160,95327,1,0,0:0:0:0:
224,160,95399,1,0,0:0:0:0:
288,160,95470,1,8,0:0:0:0:
224,160,95613,1,0,0:0:0:0:
224,160,95684,1,0,0:0:0:0:
288,160,95756,1,8,0:0:0:0:
288,160,95827,1,8,0:0:0:0:
224,160,95899,1,0,0:0:0:0:
288,160,96042,1,8,0:0:0:0:
224,160,96113,1,0,0:0:0:0:
224,160,96184,1,0,0:0:0:0:
224,160,96256,1,0,0:0:0:0:
288,160,96327,1,8,0:0:0:0:
288,160,96470,1,8,0:0:0:0:
288,160,96542,1,8,0:0:0:0:
224,160,96613,1,0,0:0:0:0:
224,160,96684,1,0,0:0:0:0:
288,160,96756,1,8,0:0:0:0:
288,160,96899,1,8,0:0:0:0:
224,160,97184,1,0,0:0:0:0:
224,160,97327,1,0,0:0:0:0:
224,160,97399,1,0,0:0:0:0:
288,160,97470,1,8,0:0:0:0:
288,160,97542,1,8,0:0:0:0:
224,160,97613,1,0,0:0:0:0:
288,160,97756,1,8,0:0:0:0:
224,160,97899,1,0,0:0:0:0:
224,160,97970,1,0,0:0:0:0:
288,160,98042,1,8,0:0:0:0:
288,160,98113,1,8,0:0:0:0:
224,160,98184,1,0,0:0:0:0:
288,160,98327,1,8,0:0:0:0:
224,160,98470,1,0,0:0:0:0:
288,160,98613,1,8,0:0:0:0:
288,160,98684,1,8,0:0:0:0:
224,160,98756,1,0,0:0:0:0:
224,160,98827,1,0,0:0:0:0:
288,160,98899,1,8,0:0:0:0:
224,160,99042,1,0,0:0:0:0:
224,160,99113,1,0,0:0:0:0:
288,160,99184,1,8,0:0:0:0:
288,160,99470,1,8,0:0:0:0:
288,160,99542,1,8,0:0:0:0:
288,160,99613,1,0,0:0:0:0:
224,160,99684,1,0,0:0:0:0:
288,160,99756,1,8,0:0:0:0:
288,160,99899,1,8,0:0:0:0:
288,160,99970,1,8,0:0:0:0:
288,160,100042,1,8,0:0:0:0:
288,160,100113,1,8,0:0:0:0:
224,160,100184,1,0,0:0:0:0:
288,160,100327,1,8,0:0:0:0:
224,160,100470,1,0,0:0:0:0:
288,160,100613,1,8,0:0:0:0:
224,160,100684,1,0,0:0:0:0:
224,160,100756,1,0,0:0:0:0:
224,160,100827,1,0,0:0:0:0:
288,160,100899,1,8,0:0:0:0:
224,160,101042,1,0,0:0:0:0:
288,160,101113,1,8,0:0:0:0:
224,160,101184,1,0,0:0:0:0:
288,160,101256,1,8,0:0:0:0:
224,160,101327,1,0,0:0:0:0:
288,160,101470,1,8,0:0:0:0:
224,160,101613,1,0,0:0:0:0:
288,224,101756,1,12,0:0:0:0:
224,224,102042,1,4,0:0:0:0:
288,224,102327,1,12,0:0:0:0:
224,224,102613,1,4,0:0:0:0:
288,160,102899,1,8,0:0:0:0:
288,160,102970,1,8,0:0:0:0:
224,160,103042,1,0,0:0:0:0:
224,160,103113,1,0,0:0:0:0:
288,160,103184,1,8,0:0:0:0:
224,160,103327,1,0,0:0:0:0:
288,160,103399,1,8,0:0:0:0:
224,160,103470,1,0,0:0:0:0:
288,160,103542,1,8,0:0:0:0:
224,160,103613,1,0,0:0:0:0:
288,160,103756,1,8,0:0:0:0:
288,160,103899,1,8,0:0:0:0:
224,224,104042,1,4,0:0:0:0:
288,224,104327,1,12,0:0:0:0:
224,224,104470,1,4,0:0:0:0:
224,224,104756,1,4,0:0:0:0:
288,160,104899,1,8,0:0:0:0:
224,160,105042,1,0,0:0:0:0:
288,160,105184,1,8,0:0:0:0:
288,160,105256,1,8,0:0:0:0:
224,160,105327,1,0,0:0:0:0:
224,160,105399,1,0,0:0:0:0:
288,160,105470,1,8,0:0:0:0:
224,160,105613,1,0,0:0:0:0:
224,160,105684,1,0,0:0:0:0:
288,160,105756,1,8,0:0:0:0:
224,160,105899,1,0,0:0:0:0:
224,160,105970,1,0,0:0:0:0:
288,160,106042,1,8,0:0:0:0:
288,160,106113,1,8,0:0:0:0:
224,160,106184,1,0,0:0:0:0:
288,224,106327,1,12,0:0:0:0:
224,224,106613,1,4,0:0:0:0:
288,224,106899,1,12,0:0:0:0:
224,224,107184,1,4,0:0:0:0:
288,160,107470,1,8,0:0:0:0:
288,160,107542,1,8,0:0:0:0:
224,160,107613,1,0,0:0:0:0:
224,160,107684,1,0,0:0:0:0:
288,160,107756,1,8,0:0:0:0:
224,160,107899,1,0,0:0:0:0:
288,160,107970,1,8,0:0:0:0:
224,160,108042,1,0,0:0:0:0:
288,160,108113,1,8,0:0:0:0:
224,160,108184,1,0,0:0:0:0:
288,160,108327,1,8,0:0:0:0:
288,160,108470,1,8,0:0:0:0:
224,224,108613,1,4,0:0:0:0:
288,224,108899,1,12,0:0:0:0:
224,224,109042,1,4,0:0:0:0:
224,224,109327,1,4,0:0:0:0:
288,160,109470,1,8,0:0:0:0:
224,160,109613,1,0,0:0:0:0:
288,160,109756,1,8,0:0:0:0:
288,160,109827,1,8,0:0:0:0:
224,160,109899,1,0,0:0:0:0:
224,160,109970,1,0,0:0:0:0:
288,160,110042,1,8,0:0:0:0:
224,160,110184,1,0,0:0:0:0:
224,160,110256,1,0,0:0:0:0:
288,160,110327,1,8,0:0:0:0:
288,160,110399,1,8,0:0:0:0:
224,160,110470,1,0,0:0:0:0:
288,160,110613,1,8,0:0:0:0:
288,160,110899,1,8,0:0:0:0:
288,160,110970,1,8,0:0:0:0:
224,160,111042,1,0,0:0:0:0:
224,160,111113,1,0,0:0:0:0:
288,160,111184,1,8,0:0:0:0:
224,160,111327,1,0,0:0:0:0:
224,160,111399,1,0,0:0:0:0:
288,160,111470,1,8,0:0:0:0:
288,160,111542,1,8,0:0:0:0:
224,160,111613,1,0,0:0:0:0:
288,160,111756,1,8,0:0:0:0:
288,160,112042,1,8,0:0:0:0:
288,160,112113,1,8,0:0:0:0:
224,160,112184,1,0,0:0:0:0:
224,160,112256,1,0,0:0:0:0:
288,160,112327,1,8,0:0:0:0:
224,160,112470,1,0,0:0:0:0:
288,160,112613,1,8,0:0:0:0:
288,160,112684,1,8,0:0:0:0:
224,160,112756,1,0,0:0:0:0:
224,160,112827,1,0,0:0:0:0:
288,160,112899,1,8,0:0:0:0:
224,160,113042,1,0,0:0:0:0:
288,224,113184,1,12,0:0:0:0:
224,160,113327,1,0,0:0:0:0:
288,224,113470,1,12,0:0:0:0:
224,160,113613,1,0,0:0:0:0:
288,224,113756,1,12,0:0:0:0:
288,224,113899,1,12,0:0:0:0:
224,224,114327,5,4,0:0:0:0:
224,160,114470,1,0,0:0:0:0:
224,160,114542,1,0,0:0:0:0:
288,160,114613,1,8,0:0:0:0:
288,160,114756,1,8,0:0:0:0:
288,160,114827,1,8,0:0:0:0:
224,160,114899,1,0,0:0:0:0:
224,160,115042,1,0,0:0:0:0:
224,160,115113,1,0,0:0:0:0:
288,160,115184,1,8,0:0:0:0:
224,160,115327,1,0,0:0:0:0:
288,160,115470,1,8,0:0:0:0:
288,160,115542,1,8,0:0:0:0:
224,160,115613,1,0,0:0:0:0:
288,160,115756,1,8,0:0:0:0:
224,160,115827,1,0,0:0:0:0:
288,160,115899,1,8,0:0:0:0:
288,160,116042,1,8,0:0:0:0:
288,160,116113,1,8,0:0:0:0:
224,160,116184,1,0,0:0:0:0:
288,160,116327,1,8,0:0:0:0:
224,160,116470,1,0,0:0:0:0:
288,160,116613,1,8,0:0:0:0:
224,160,116827,1,0,0:0:0:0:
288,160,116899,1,8,0:0:0:0:
288,160,117042,1,8,0:0:0:0:
288,160,117184,1,8,0:0:0:0:
288,160,117256,1,8,0:0:0:0:
224,160,117327,1,0,0:0:0:0:
288,160,117470,1,8,0:0:0:0:
224,160,117613,1,0,0:0:0:0:
288,160,117756,1,8,0:0:0:0:
224,160,117970,1,0,0:0:0:0:
288,160,118042,1,8,0:0:0:0:
224,160,118184,1,0,0:0:0:0:
288,160,118327,1,8,0:0:0:0:
288,160,118399,1,8,0:0:0:0:
224,160,118470,1,0,0:0:0:0:
288,160,118613,1,8,0:0:0:0:
224,160,118899,1,0,0:0:0:0:
224,160,119042,1,0,0:0:0:0:
224,160,119113,1,0,0:0:0:0:
288,160,119184,1,8,0:0:0:0:
224,160,119327,1,0,0:0:0:0:
224,160,119399,1,0,0:0:0:0:
288,160,119470,1,8,0:0:0:0:
288,160,119613,1,8,0:0:0:0:
288,160,119756,1,8,0:0:0:0:
288,160,119899,1,8,0:0:0:0:
224,160,120042,1,0,0:0:0:0:
224,160,120184,1,0,0:0:0:0:
224,160,120256,1,0,0:0:0:0:
288,160,120327,1,8,0:0:0:0:
288,160,120399,1,8,0:0:0:0:
224,160,120470,1,0,0:0:0:0:
288,160,120613,1,8,0:0:0:0:
288,160,120756,1,8,0:0:0:0:
288,160,120899,1,8,0:0:0:0:
224,160,121042,1,0,0:0:0:0:
224,160,121113,1,0,0:0:0:0:
288,160,121184,1,8,0:0:0:0:
288,160,121327,1,8,0:0:0:0:
288,160,121470,1,8,0:0:0:0:
224,160,121613,1,0,0:0:0:0:
224,160,121684,1,0,0:0:0:0:
288,160,121756,1,8,0:0:0:0:
288,160,121899,1,8,0:0:0:0:
288,160,122042,1,8,0:0:0:0:
224,160,122184,1,0,0:0:0:0:
224,160,122327,1,0,0:0:0:0:
224,160,122399,1,0,0:0:0:0:
224,160,122470,1,0,0:0:0:0:
224,160,122542,1,0,0:0:0:0:
288,160,122613,1,8,0:0:0:0:
288,160,122756,1,8,0:0:0:0:
224,160,122899,1,0,0:0:0:0:
224,160,122970,1,0,0:0:0:0:
224,160,123042,1,0,0:0:0:0:
224,160,123113,1,0,0:0:0:0:
288,160,123184,1,8,0:0:0:0:
224,224,123470,5,4,0:0:0:0:
224,160,123613,1,0,0:0:0:0:
224,160,123684,1,0,0:0:0:0:
288,160,123756,1,8,0:0:0:0:
288,160,123827,1,8,0:0:0:0:
288,160,123899,1,8,0:0:0:0:
288,160,123970,1,8,0:0:0:0:
224,160,124042,1,0,0:0:0:0:
224,160,124184,1,0,0:0:0:0:
224,160,124256,1,0,0:0:0:0:
288,160,124327,1,8,0:0:0:0:
224,160,124470,1,0,0:0:0:0:
288,160,124613,1,8,0:0:0:0:
288,160,124684,1,8,0:0:0:0:
224,160,124756,1,0,0:0:0:0:
224,160,124827,1,0,0:0:0:0:
288,160,124899,1,8,0:0:0:0:
288,160,125042,1,8,0:0:0:0:
288,160,125184,1,8,0:0:0:0:
288,160,125256,1,8,0:0:0:0:
224,160,125327,1,0,0:0:0:0:
288,160,125470,1,8,0:0:0:0:
224,160,125613,1,0,0:0:0:0:
288,160,125756,1,8,0:0:0:0:
224,160,125970,1,0,0:0:0:0:
288,160,126042,1,8,0:0:0:0:
288,160,126184,1,8,0:0:0:0:
288,160,126327,1,8,0:0:0:0:
288,160,126399,1,8,0:0:0:0:
224,160,126470,1,0,0:0:0:0:
224,160,126542,1,0,0:0:0:0:
288,160,126613,1,8,0:0:0:0:
224,160,126756,1,0,0:0:0:0:
288,160,126899,1,8,0:0:0:0:
224,160,127113,1,0,0:0:0:0:
288,160,127184,1,8,0:0:0:0:
224,160,127327,1,0,0:0:0:0:
224,160,127399,1,0,0:0:0:0:
288,160,127470,1,8,0:0:0:0:
288,160,127542,1,8,0:0:0:0:
224,160,127613,1,0,0:0:0:0:
288,160,127756,1,8,0:0:0:0:
224,160,128042,1,0,0:0:0:0:
224,160,128184,1,0,0:0:0:0:
224,160,128256,1,0,0:0:0:0:
288,160,128327,1,8,0:0:0:0:
224,160,128470,1,0,0:0:0:0:
224,160,128542,1,0,0:0:0:0:
288,160,128613,1,8,0:0:0:0:
288,160,128756,1,8,0:0:0:0:
288,160,128899,1,8,0:0:0:0:
288,160,129042,1,8,0:0:0:0:
224,160,129184,1,0,0:0:0:0:
224,160,129327,1,0,0:0:0:0:
224,160,129399,1,0,0:0:0:0:
288,160,129470,1,8,0:0:0:0:
288,160,129542,1,8,0:0:0:0:
224,160,129613,1,0,0:0:0:0:
288,160,129756,1,8,0:0:0:0:
288,160,129899,1,8,0:0:0:0:
288,160,130042,1,8,0:0:0:0:
224,160,130184,1,0,0:0:0:0:
224,160,130256,1,0,0:0:0:0:
288,160,130327,1,8,0:0:0:0:
288,160,130470,1,8,0:0:0:0:
288,160,130613,1,8,0:0:0:0:
224,160,130756,1,0,0:0:0:0:
224,160,130827,1,0,0:0:0:0:
288,160,130899,1,8,0:0:0:0:
288,160,131042,1,8,0:0:0:0:
288,160,131184,1,8,0:0:0:0:
224,160,131327,1,0,0:0:0:0:
224,160,131470,1,0,0:0:0:0:
224,160,131542,1,0,0:0:0:0:
224,160,131613,1,0,0:0:0:0:
224,160,131684,1,0,0:0:0:0:
288,160,131756,1,8,0:0:0:0:
288,160,131899,1,8,0:0:0:0:
288,160,131970,1,8,0:0:0:0:
224,160,132042,1,0,0:0:0:0:
224,160,132113,1,0,0:0:0:0:
224,160,132184,1,0,0:0:0:0:
224,160,132256,1,0,0:0:0:0:
288,160,132327,1,8,0:0:0:0:
288,160,132470,1,8,0:0:0:0:
224,224,132613,5,4,0:0:0:0:
224,160,132827,1,0,0:0:0:0:
224,160,133042,1,0,0:0:0:0:
224,160,133256,1,0,0:0:0:0:
288,160,134899,1,8,0:0:0:0:
288,160,134970,1,8,0:0:0:0:
288,160,135042,1,8,0:0:0:0:
288,160,135113,1,8,0:0:0:0:
288,160,135184,1,8,0:0:0:0:
224,160,135327,1,0,0:0:0:0:
224,160,135399,1,0,0:0:0:0:
224,160,135470,1,0,0:0:0:0:
224,160,135542,1,0,0:0:0:0:
224,160,135613,1,0,0:0:0:0:
288,160,135756,1,8,0:0:0:0:
288,160,136042,1,8,0:0:0:0:
288,160,136113,1,8,0:0:0:0:
288,160,136184,1,8,0:0:0:0:
288,160,136256,1,8,0:0:0:0:
288,160,136327,1,8,0:0:0:0:
224,160,136470,1,0,0:0:0:0:
224,160,136542,1,0,0:0:0:0:
224,160,136613,1,0,0:0:0:0:
224,160,136684,1,0,0:0:0:0:
288,160,136756,1,8,0:0:0:0:
288,160,136899,1,8,0:0:0:0:
224,160,137184,1,0,0:0:0:0:
224,160,137256,1,0,0:0:0:0:
224,160,137327,1,0,0:0:0:0:
224,160,137399,1,0,0:0:0:0:
224,160,137470,1,0,0:0:0:0:
288,160,137613,1,8,0:0:0:0:
288,160,137684,1,8,0:0:0:0:
288,160,137756,1,8,0:0:0:0:
288,160,137827,1,8,0:0:0:0:
288,160,137899,1,8,0:0:0:0:
224,160,138042,1,0,0:0:0:0:
288,160,138327,1,8,0:0:0:0:
288,160,138399,1,8,0:0:0:0:
288,160,138470,1,8,0:0:0:0:
224,160,138613,1,0,0:0:0:0:
224,160,138684,1,0,0:0:0:0:
224,160,138756,1,0,0:0:0:0:
288,224,138899,1,12,0:0:0:0:
