osu file format v14

[General]
AudioFilename: audio.mp3
AudioLeadIn: 0
PreviewTime: 13738
Countdown: 0
SampleSet: Soft
StackLeniency: 0.7
Mode: 3
LetterboxInBreaks: 0
EpilepsyWarning: 1
SpecialStyle: 0
WidescreenStoryboard: 1

[Editor]
DistanceSpacing: 1
BeatDivisor: 6
GridSize: 4
TimelineZoom: 2.799999

[Metadata]
Title:NANO DEATH!!!!!
TitleUnicode:NANO DEATH!!!!!
Artist:LeaF
ArtistUnicode:LeaF
Creator:nowsmart
Version:Insane
Source:
Tags:lolicore hardcore speedcore - [ L e a h ] - ajeemaniz WolfyArmato- 電 breakcore exusagi Arzenvald Inazuma kancolle kantai collection
BeatmapID:1023089
BeatmapSetID:478161

[Difficulty]
HPDrainRate:8.3
CircleSize:4
OverallDifficulty:8.2
ApproachRate:5
SliderMultiplier:1.4
SliderTickRate:1

[Events]
//Background and Video events
0,0,"bg.png",0,0
//Break Periods
//Storyboard Layer 0 (Background)
//Storyboard Layer 1 (Fail)
//Storyboard Layer 2 (Pass)
//Storyboard Layer 3 (Foreground)
//Storyboard Sound Samples

[TimingPoints]
1386,352.941176470588,4,2,0,40,1,0
1386,-70.9219858156028,4,2,0,40,0,0
25385,273.972602739726,4,2,0,40,1,0
25385,-90.9090909090909,4,2,0,40,0,0
27576,250,4,2,0,40,1,0
27826,250,4,2,0,40,1,0
107826,-100,4,2,0,40,0,1
121507,352.941176470588,4,2,0,40,1,0
121507,-70.9219858156028,4,2,0,40,0,0
122212,352.941176470588,4,2,0,40,1,0
122212,-70.9219858156028,4,2,0,40,0,0
128917,387.096774193548,4,2,0,40,1,0
128917,-64.5161290322581,4,2,0,40,0,0
129304,400,4,2,0,40,1,0
129304,-62.5,4,2,0,40,0,0
130904,-78.125,4,2,0,40,0,0
131746,461.538461538462,4,2,0,40,1,0
131746,-77.5193798449612,4,2,0,40,0,0
134053,500,4,2,0,40,1,0
134053,-71.4285714285714,4,2,0,40,0,0
134553,480,4,2,0,40,1,0
134553,-74.6268656716418,4,2,0,40,0,0
135393,363.636363636364,4,2,0,40,1,0
135393,-98.0392156862745,4,2,0,40,0,0
135574,333.333333333333,4,2,0,40,1,0
135574,-107.52688172043,4,2,0,40,0,0
135897,419.58041958042,4,2,0,40,1,0
135897,-85.4700854700855,4,2,0,40,0,0
136955,419.58041958042,4,2,0,40,1,0
136955,-85.4700854700855,4,2,0,40,0,0
137575,487.80487804878,4,2,0,40,1,0
137575,-72.992700729927,4,2,0,40,0,0

[HitObjects]
448,192,1386,5,0,0:0:0:30:LR_Hat Normal.wav
448,192,1738,1,0,0:0:0:30:LR_Hat Normal.wav
448,192,2091,1,0,0:0:0:30:LR_Hat Normal.wav
64,192,2327,1,0,0:0:0:30:C#5S_Db5S_s.wav
448,192,2444,1,0,0:0:0:30:LR_Hat Normal.wav
192,192,2444,1,0,0:0:0:30:D#5S_Eb5S_s.wav
320,192,2680,1,0,0:0:0:30:F5S_s.wav
448,192,2797,1,0,0:0:0:100:LR_Kick Normal .wav
64,192,2797,1,0,0:0:0:50:C#4S_Db4S_s.wav
192,192,3033,1,0,0:0:0:50:F#4S_Gb4S_s.wav
64,192,3033,1,0,0:0:0:30:LR_Snare Hit.wav
448,192,3150,1,0,0:0:0:50:F#3S_Gb3S_s.wav
448,192,3385,1,0,0:0:0:30:LR_Snare Hit.wav
320,192,3385,1,0,0:0:0:50:F#4S_Gb4S_s.wav
64,192,3503,1,0,0:0:0:50:A#3S_Bb3S_s.wav
448,192,3738,1,0,0:0:0:30:LR_Snare Hit.wav
320,192,3738,1,0,0:0:0:50:F#4S_Gb4S_s.wav
192,192,3856,1,0,0:0:0:50:F#3S_Gb3S_s.wav
192,192,4091,1,0,0:0:0:50:A#3S_Bb3S_s.wav
64,192,4091,1,0,0:0:0:30:LR_Snare Hit.wav
320,192,4209,1,0,0:0:0:50:C#4S_Db4S_s.wav
320,192,4444,1,0,0:0:0:30:LR_Snare Hit.wav
448,192,4444,1,0,0:0:0:50:A#3S_Bb3S_s.wav
192,192,4562,1,0,0:0:0:50:F#3S_Gb3S_s.wav
192,192,4797,1,0,0:0:0:30:LR_Snare Hit.wav
64,192,4797,1,0,0:0:0:50:F#4S_Gb4S_s.wav
448,192,4915,1,0,0:0:0:100:LR_Kick Normal .wav
192,192,5150,1,0,0:0:0:30:LR_Snare Hit.wav
64,192,5150,1,0,0:0:0:50:A#3S_Bb3S_s.wav
320,192,5268,1,0,0:0:0:50:G#3S_Ab3S_s.wav
320,192,5503,1,0,0:0:0:30:LR_Snare Hit.wav
448,192,5503,1,0,0:0:0:50:F#4S_Gb4S_s.wav
64,192,5621,1,0,0:0:0:50:C#4S_Db4S_s.wav
192,192,5856,1,0,0:0:0:30:LR_Snare Hit.wav
64,192,5856,1,0,0:0:0:50:F#4S_Gb4S_s.wav
448,192,5974,1,0,0:0:0:50:F#3S_Gb3S_s.wav
448,192,6209,1,0,0:0:0:30:LR_Snare Hit.wav
320,192,6209,1,0,0:0:0:50:F#4S_Gb4S_s.wav
64,192,6327,1,0,0:0:0:50:A#3S_Bb3S_s.wav
448,192,6562,1,0,0:0:0:30:LR_Snare Hit.wav
320,192,6562,1,0,0:0:0:50:F#4S_Gb4S_s.wav
192,192,6680,1,0,0:0:0:50:F#3S_Gb3S_s.wav
64,192,6915,1,0,0:0:0:30:LR_Snare Hit.wav
192,192,6915,1,0,0:0:0:50:A#3S_Bb3S_s.wav
320,192,7033,1,0,0:0:0:50:C#4S_Db4S_s.wav
448,192,7268,1,0,0:0:0:50:A#3S_Bb3S_s.wav
320,192,7268,1,0,0:0:0:30:LR_Snare Hit.wav
192,192,7385,1,0,0:0:0:50:F#3S_Gb3S_s.wav
192,192,7621,1,0,0:0:0:30:LR_Snare Hit.wav
64,192,7621,1,0,0:0:0:50:F#4S_Gb4S_s.wav
448,192,7738,1,0,0:0:0:100:LR_Kick Normal .wav
192,192,7974,1,0,0:0:0:50:A#3S_Bb3S_s.wav
64,192,7974,1,0,0:0:0:30:LR_Snare Hit.wav
320,192,8091,1,0,0:0:0:50:G#3S_Ab3S_s.wav
448,192,8091,1,0,0:0:0:50:F5S_s.wav
64,192,8091,1,0,0:0:0:50:LR_Snare Hit.wav
320,192,8327,1,0,0:0:0:50:A#3S_Bb3S_s.wav
448,192,8327,1,0,0:0:0:30:LR_Snare Hit.wav
192,192,8444,1,0,0:0:0:50:D#3S_Eb3S_s.wav
320,192,8680,1,0,0:0:0:50:B4S_s.wav
448,192,8680,1,0,0:0:0:30:LR_Snare Hit.wav
64,192,8797,1,0,0:0:0:50:G#3S_Ab3S_s.wav
192,192,9033,1,0,0:0:0:50:B4S_s.wav
64,192,9033,1,0,0:0:0:30:LR_Snare Hit.wav
320,192,9150,1,0,0:0:0:50:B3S_s.wav
64,192,9385,1,0,0:0:0:50:B4S_s.wav
192,192,9385,1,0,0:0:0:30:LR_Snare Hit.wav
448,192,9503,1,0,0:0:0:50:G#3S_Ab3S_s.wav
320,192,9738,1,0,0:0:0:50:B4S_s.wav
448,192,9738,1,0,0:0:0:30:LR_Snare Hit.wav
192,192,9856,1,0,0:0:0:50:D#3S_Eb3S_s.wav
192,192,10091,1,0,0:0:0:30:LR_Snare Hit.wav
64,192,10091,1,0,0:0:0:50:G#3S_Ab3S_s.wav
448,192,10209,1,0,0:0:0:50:B4S_s.wav
320,192,10444,128,0,10797:0:0:0:50:B4S_s.wav
448,192,10444,128,0,10797:0:0:0:30:LR_Snare Hit.wav
64,192,10562,1,0,0:0:0:100:LR_Kick Normal .wav
192,192,10797,1,0,0:0:0:25:LR_Snare Hit.wav
64,192,10797,1,0,0:0:0:25:LR_Snare Hit.wav
320,192,10915,1,0,0:0:0:50:B4S_s.wav
448,192,10915,1,0,0:0:0:50:LR_Snare Hit.wav
192,192,11150,1,0,0:0:0:25:LR_Snare Hit.wav
64,192,11150,1,0,0:0:0:25:LR_Snare Hit.wav
320,192,11268,1,0,0:0:0:50:A#3S_Bb3S_s.wav
448,192,11268,1,0,0:0:0:30:cymbol.wav
64,192,11268,1,0,0:0:0:100:LR_Kick Normal .wav
320,192,11974,1,0,0:0:0:30:cymbol.wav
192,192,11974,1,0,0:0:0:100:LR_Kick Normal .wav
64,192,11974,1,0,0:0:0:50:B3S_s.wav
320,192,12327,1,0,0:0:0:30:D#6S_Eb6S_s.wav
448,192,12503,1,0,0:0:0:100:LR_Kick Normal .wav
192,192,12503,1,0,0:0:0:30:cymbol.wav
64,192,12503,1,0,0:0:0:50:C#4S_Db4S_s.wav
448,192,13033,1,0,0:0:0:30:LR_Snare Hit.wav
64,192,13033,1,0,0:0:0:50:G#4S_Ab4S_s.wav
320,192,13385,1,0,0:0:0:50:LR_Tom Hit 3.wav
64,192,13444,1,0,0:0:0:50:LR_Tom Hit 3.wav
192,192,13621,1,0,0:0:0:50:LR_Tom Hit 3.wav
448,192,13738,1,0,0:0:0:50:LR_Tom Hit 3.wav
64,192,13797,1,0,0:0:0:50:LR_Tom Hit 3.wav
320,192,13856,1,0,0:0:0:50:LR_Tom Hit 3.wav
192,192,13974,1,0,0:0:0:50:LR_Tom Hit 3.wav
448,192,14091,1,0,0:0:0:100:LR_Kick Normal .wav
64,192,14091,1,0,0:0:0:50:C#4S_Db4S_s.wav
192,192,14327,1,0,0:0:0:30:LR_Snare Hit.wav
64,192,14327,1,0,0:0:0:50:F#4S_Gb4S_s.wav
448,192,14444,1,0,0:0:0:50:F#3S_Gb3S_s.wav
448,192,14680,1,0,0:0:0:50:F#4S_Gb4S_s.wav
320,192,14680,1,0,0:0:0:30:LR_Snare Hit.wav
64,192,14797,1,0,0:0:0:50:A#3S_Bb3S_s.wav
448,192,15033,1,0,0:0:0:30:LR_Snare Hit.wav
320,192,15033,1,0,0:0:0:50:F#4S_Gb4S_s.wav
192,192,15150,1,0,0:0:0:50:F#3S_Gb3S_s.wav
192,192,15385,1,0,0:0:0:50:A#3S_Bb3S_s.wav
64,192,15385,1,0,0:0:0:30:LR_Snare Hit.wav
320,192,15503,1,0,0:0:0:50:C#4S_Db4S_s.wav
448,192,15738,1,0,0:0:0:50:A#3S_Bb3S_s.wav
320,192,15738,1,0,0:0:0:30:LR_Snare Hit.wav
192,192,15856,1,0,0:0:0:50:F#3S_Gb3S_s.wav
192,192,16091,1,0,0:0:0:50:F#4S_Gb4S_s.wav
64,192,16091,1,0,0:0:0:30:LR_Snare Hit.wav
448,192,16209,1,0,0:0:0:100:LR_Kick Normal .wav
192,192,16444,1,0,0:0:0:30:LR_Snare Hit.wav
64,192,16444,1,0,0:0:0:50:A#3S_Bb3S_s.wav
448,192,16562,1,0,0:0:0:50:LR_Snare Hit.wav
320,192,16562,1,0,0:0:0:50:G#3S_Ab3S_s.wav
448,192,16797,1,0,0:0:0:30:LR_Snare Hit.wav
320,192,16797,1,0,0:0:0:50:F#4S_Gb4S_s.wav
64,192,16915,1,0,0:0:0:50:C#4S_Db4S_s.wav
320,192,17150,1,0,0:0:0:30:LR_Snare Hit.wav
448,192,17150,1,0,0:0:0:50:F#4S_Gb4S_s.wav
64,192,17268,1,0,0:0:0:50:F#3S_Gb3S_s.wav
192,192,17503,1,0,0:0:0:30:LR_Snare Hit.wav
64,192,17503,1,0,0:0:0:50:F#4S_Gb4S_s.wav
448,192,17621,1,0,0:0:0:50:A#3S_Bb3S_s.wav
448,192,17856,1,0,0:0:0:30:LR_Snare Hit.wav
320,192,17856,1,0,0:0:0:50:F#4S_Gb4S_s.wav
192,192,17974,1,0,0:0:0:50:F#3S_Gb3S_s.wav
192,192,18209,1,0,0:0:0:30:LR_Snare Hit.wav
64,192,18209,1,0,0:0:0:50:A#3S_Bb3S_s.wav
320,192,18327,1,0,0:0:0:50:C#4S_Db4S_s.wav
448,192,18562,1,0,0:0:0:50:A#3S_Bb3S_s.wav
320,192,18562,1,0,0:0:0:30:LR_Snare Hit.wav
64,192,18680,1,0,0:0:0:50:F#3S_Gb3S_s.wav
192,192,18915,1,0,0:0:0:50:F#4S_Gb4S_s.wav
64,192,18915,1,0,0:0:0:30:LR_Snare Hit.wav
320,192,19033,1,0,0:0:0:100:LR_Kick Normal .wav
192,192,19268,1,0,0:0:0:50:A#3S_Bb3S_s.wav
64,192,19268,1,0,0:0:0:30:LR_Snare Hit.wav
320,192,19385,1,0,0:0:0:50:G#3S_Ab3S_s.wav
448,192,19385,1,0,0:0:0:50:F5S_s.wav
64,192,19385,1,0,0:0:0:50:LR_Snare Hit.wav
448,192,19621,1,0,0:0:0:30:LR_Snare Hit.wav
320,192,19621,1,0,0:0:0:50:A#3S_Bb3S_s.wav
192,192,19738,1,0,0:0:0:50:D#3S_Eb3S_s.wav
320,192,19974,1,0,0:0:0:30:LR_Snare Hit.wav
448,192,19974,1,0,0:0:0:50:B4S_s.wav
64,192,20091,1,0,0:0:0:50:G#3S_Ab3S_s.wav
192,192,20327,1,0,0:0:0:50:B4S_s.wav
64,192,20327,1,0,0:0:0:30:LR_Snare Hit.wav
320,192,20444,1,0,0:0:0:50:B3S_s.wav
192,192,20680,1,0,0:0:0:30:LR_Snare Hit.wav
64,192,20680,1,0,0:0:0:50:B4S_s.wav
448,192,20797,1,0,0:0:0:50:G#3S_Ab3S_s.wav
448,192,21033,1,0,0:0:0:50:B4S_s.wav
320,192,21033,1,0,0:0:0:30:LR_Snare Hit.wav
192,192,21150,1,0,0:0:0:50:D#3S_Eb3S_s.wav
192,192,21385,1,0,0:0:0:50:G#3S_Ab3S_s.wav
64,192,21385,1,0,0:0:0:30:LR_Snare Hit.wav
448,192,21503,1,0,0:0:0:50:B4S_s.wav
320,192,21738,128,0,22091:0:0:0:50:B4S_s.wav
448,192,21738,128,0,22091:0:0:0:30:LR_Snare Hit.wav
64,192,21856,1,0,0:0:0:100:LR_Kick Normal .wav
192,192,22091,1,0,0:0:0:25:LR_Snare Hit.wav
64,192,22091,1,0,0:0:0:25:LR_Snare Hit.wav
320,192,22209,1,0,0:0:0:50:B4S_s.wav
448,192,22209,1,0,0:0:0:50:LR_Snare Hit.wav
64,192,22444,1,0,0:0:0:25:LR_Snare Hit.wav
192,192,22444,1,0,0:0:0:25:LR_Snare Hit.wav
320,192,22562,1,0,0:0:0:100:LR_Kick Normal .wav
448,192,22562,1,0,0:0:0:30:cymbol.wav
64,192,22562,1,0,0:0:0:50:A#3S_Bb3S_s.wav
320,192,23268,1,0,0:0:0:100:LR_Kick Normal .wav
192,192,23268,1,0,0:0:0:30:cymbol.wav
64,192,23268,1,0,0:0:0:50:B3S_s.wav
320,192,23621,1,0,0:0:0:30:D#6S_Eb6S_s.wav
448,192,23797,1,0,0:0:0:100:LR_Kick Normal .wav
64,192,23797,1,0,0:0:0:30:cymbol.wav
192,192,23797,1,0,0:0:0:50:C#4S_Db4S_s.wav
448,192,24327,1,0,0:0:0:30:LR_Snare Hit.wav
64,192,24327,1,0,0:0:0:50:G#4S_Ab4S_s.wav
320,192,24680,1,0,0:0:0:50:LR_Tom Hit 3.wav
64,192,24738,1,0,0:0:0:50:LR_Tom Hit 3.wav
320,192,24915,1,0,0:0:0:15:LR_Snare Hit.wav
448,192,24915,1,0,0:0:0:15:LR_Snare Hit.wav
192,192,25033,1,0,0:0:0:15:LR_Snare Hit.wav
64,192,25033,1,0,0:0:0:15:LR_Snare Hit.wav
320,192,25150,1,0,0:0:0:15:LR_Snare Hit.wav
448,192,25150,1,0,0:0:0:15:LR_Snare Hit.wav
192,192,25268,1,0,0:0:0:15:LR_Snare Hit.wav
64,192,25268,1,0,0:0:0:15:LR_Snare Hit.wav
448,192,25385,128,0,26069:0:0:0:0:
320,192,27576,1,0,0:0:0:70:LR3_Snare WRH.wav
192,192,27638,1,0,0:0:0:70:LR3_Snare WRH.wav
320,192,27701,1,0,0:0:0:70:LR3_Snare WRH.wav
192,192,27763,1,0,0:0:0:70:LR3_Snare WRH.wav
320,192,27826,1,0,0:0:0:70:LR3_Snare WRH.wav
448,192,27826,1,0,0:0:0:70:LR_Kick Hard Fast.wav
64,192,27826,1,0,0:0:0:30:cymbol.wav
448,192,28076,1,0,0:0:0:70:LR_Kick Hard Fast.wav
320,192,28076,1,0,0:0:0:70:LR3_Snare WRH.wav
192,192,28076,1,0,0:0:0:0:
64,192,28326,1,0,0:0:0:70:LR_Kick Hard Fast.wav
192,192,28326,1,0,0:0:0:0:
320,192,28326,1,0,0:0:0:70:LR3_Snare WRH.wav
64,192,28576,1,0,0:0:0:70:LR_Kick Hard Fast.wav
192,192,28576,1,0,0:0:0:70:LR3_Snare WRH.wav
448,192,28576,1,0,0:0:0:0:
448,192,28826,1,0,0:0:0:0:
320,192,28826,1,0,0:0:0:70:LR_Kick Hard Fast.wav
192,192,28826,1,0,0:0:0:70:LR3_Snare WRH.wav
320,192,29076,1,0,0:0:0:70:LR_Kick Hard Fast.wav
192,192,29076,1,0,0:0:0:70:LR3_Snare WRH.wav
64,192,29076,1,0,0:0:0:0:
64,192,29326,1,0,0:0:0:70:LR_Kick Hard Fast.wav
320,192,29326,1,0,0:0:0:70:LR3_Snare WRH.wav
448,192,29326,1,0,0:0:0:0:
448,192,29576,1,0,0:0:0:70:LR3_Snare WRH.wav
192,192,29576,1,0,0:0:0:0:
64,192,29576,1,0,0:0:0:70:LR_Kick Hard Fast.wav
448,192,29701,1,0,0:0:0:70:LR3_Snare WRH.wav
64,192,29701,1,0,0:0:0:70:LR_Kick Hard Fast.wav
192,192,29701,1,0,0:0:0:0:
448,192,29826,1,0,0:0:0:70:LR3_Snare WRH.wav
320,192,29826,1,0,0:0:0:0:
64,192,29826,1,0,0:0:0:70:LR_Kick Hard Fast.wav
448,192,30076,1,0,0:0:0:0:
320,192,30076,1,0,0:0:0:70:LR3_Snare WRH.wav
192,192,30076,1,0,0:0:0:70:LR_Kick Hard Fast.wav
192,192,30326,1,0,0:0:0:0:
64,192,30326,1,0,0:0:0:70:LR_Kick Hard Fast.wav
320,192,30326,1,0,0:0:0:70:LR3_Snare WRH.wav
64,192,30576,1,0,0:0:0:0:
192,192,30576,1,0,0:0:0:70:LR_Kick Hard Fast.wav
448,192,30576,1,0,0:0:0:70:LR3_Snare WRH.wav
64,192,30826,128,0,30951:0:0:0:0:
192,192,30951,128,0,31076:0:0:0:0:
448,192,31076,128,0,31201:0:0:0:0:
64,192,31201,128,0,31326:0:0:0:0:
448,192,31326,1,0,0:0:0:0:
320,192,31388,1,0,0:0:0:0:
192,192,31451,128,0,31576:0:0:0:0:
448,192,31576,1,0,0:0:0:0:
320,192,31576,1,0,0:0:0:0:
64,192,31701,1,0,0:0:0:70:LR_Kick Hard Fast.wav
192,192,31701,1,0,0:0:0:0:
448,192,31826,1,0,0:0:0:70:LR3_Snare WRH.wav
320,192,31826,1,0,0:0:0:30:cymbol.wav
64,192,31826,1,0,0:0:0:70:LR_Kick Hard Fast.wav
64,192,32076,1,0,0:0:0:70:LR_Kick Hard Fast.wav
192,192,32076,1,0,0:0:0:0:
448,192,32076,1,0,0:0:0:70:LR3_Snare WRH.wav
448,192,32326,1,0,0:0:0:70:LR3_Snare WRH.wav
320,192,32326,1,0,0:0:0:70:LR_Kick Hard Fast.wav
192,192,32326,1,0,0:0:0:0:
320,192,32576,1,0,0:0:0:70:LR_Kick Hard Fast.wav
192,192,32576,1,0,0:0:0:0:
64,192,32576,1,0,0:0:0:70:LR3_Snare WRH.wav
64,192,32826,1,0,0:0:0:70:LR3_Snare WRH.wav
320,192,32826,1,0,0:0:0:0:
448,192,32826,1,0,0:0:0:70:LR_Kick Hard Fast.wav
64,192,33076,1,0,0:0:0:70:LR3_Snare WRH.wav
192,192,33076,1,0,0:0:0:0:
448,192,33076,1,0,0:0:0:70:LR_Kick Hard Fast.wav
320,192,33326,1,0,0:0:0:70:LR_Kick Hard Fast.wav
192,192,33326,1,0,0:0:0:70:LR3_Snare WRH.wav
64,192,33326,1,0,0:0:0:0:
320,192,33576,1,0,0:0:0:70:LR_Kick Hard Fast.wav
448,192,33576,1,0,0:0:0:70:LR3_Snare WRH.wav
64,192,33576,1,0,0:0:0:0:
448,192,33701,1,0,0:0:0:70:LR3_Snare WRH.wav
320,192,33701,1,0,0:0:0:70:LR_Kick Hard Fast.wav
64,192,33701,1,0,0:0:0:0:
64,192,33826,1,0,0:0:0:0:
192,192,33888,1,0,0:0:0:0:
448,192,33951,128,0,34076:0:0:0:0:
64,192,34076,1,0,0:0:0:0:
192,192,34138,1,0,0:0:0:0:
448,192,34201,128,0,34326:0:0:0:0:
64,192,34326,1,0,0:0:0:70:LR_Kick Hard Fast.wav
192,192,34326,1,0,0:0:0:0:
320,192,34451,1,0,0:0:0:70:LR_Kick Hard Fast.wav
192,192,34576,1,0,0:0:0:0:
64,192,34576,1,0,0:0:0:70:LR_Kick Hard Fast.wav
448,192,34701,1,0,0:0:0:70:LR_Kick Hard Fast.wav
320,192,34763,1,0,0:0:0:70:LR_Kick Hard Fast.wav
192,192,34826,1,0,0:0:0:0:
64,192,34826,1,0,0:0:0:70:LR_Kick Hard Fast.wav
64,192,34951,1,0,0:0:0:70:LR_Kick Hard Fast.wav
448,192,34951,1,0,0:0:0:0:
320,192,35013,1,0,0:0:0:70:LR_Kick Hard Fast.wav
192,192,35076,1,0,0:0:0:0:
64,192,35076,1,0,0:0:0:70:LR_Kick Hard Fast.wav
448,192,35201,1,0,0:0:0:0:
320,192,35201,1,0,0:0:0:70:LR_Kick Hard Fast.wav
320,192,35326,1,0,0:0:0:0:
192,192,35326,1,0,0:0:0:70:LR_Kick Hard Fast.wav
192,192,35451,1,0,0:0:0:0:
64,192,35451,1,0,0:0:0:70:LR_Kick Hard Fast.wav
448,192,35576,1,0,0:0:0:70:LR3_Snare WRH.wav
320,192,35576,1,0,0:0:0:0:
64,192,35576,1,0,0:0:0:70:LR_Kick Hard Fast.wav
448,192,35826,1,0,0:0:0:70:LR3_Snare WRH.wav
320,192,35826,1,0,0:0:0:0:
64,192,35826,1,0,0:0:0:70:LR_Kick Hard Fast.wav
192,192,36076,128,0,36201:0:0:0:0:
320,192,36201,1,0,0:0:0:0:
448,192,36201,1,0,0:0:0:70:LR_Kick Hard Fast.wav
192,192,36326,1,0,0:0:0:0:
64,192,36326,1,0,0:0:0:70:LR_Kick Hard Fast.wav
320,192,36451,1,0,0:0:0:0:
448,192,36513,1,0,0:0:0:0:
192,192,36576,1,0,0:0:0:70:LR3_Snare WRH.wav
64,192,36576,1,0,0:0:0:70:LR_Kick Hard Fast.wav
448,192,36701,128,0,36826:0:0:0:0:
192,192,36826,1,0,0:0:0:70:LR_Kick Hard Fast.wav
64,192,36826,1,0,0:0:0:0:
320,192,36951,1,0,0:0:0:70:LR_Kick Hard Fast.wav
192,192,37013,1,0,0:0:0:70:LR_Kick Hard Fast.wav
448,192,37076,1,0,0:0:0:70:LR_Kick Hard Fast.wav
64,192,37076,1,0,0:0:0:70:LR3_Snare WRH.wav
448,192,37326,1,0,0:0:0:70:LR_Kick Hard Fast.wav
320,192,37326,1,0,0:0:0:30:cymbol.wav
64,192,37326,1,0,0:0:0:70:LR3_Snare WRH.wav
64,192,37576,1,0,0:0:0:70:LR3_Snare WRH.wav
448,192,37576,1,0,0:0:0:70:LR_Kick Hard Fast.wav
192,192,37826,1,0,0:0:0:30:cymbol.wav
448,192,37826,1,0,0:0:0:70:LR_Kick Hard Fast.wav
64,192,37826,1,0,0:0:0:0:
320,192,37951,1,0,0:0:0:70:LR_Kick Hard Fast.wav
448,192,38013,1,0,0:0:0:70:LR_Kick Hard Fast.wav
192,192,38076,1,0,0:0:0:70:LR_Kick Hard Fast.wav
64,192,38076,1,0,0:0:0:0:
448,192,38326,1,0,0:0:0:70:LR3_Snare WRH.wav
64,192,38326,1,0,0:0:0:70:LR_Kick Hard Fast.wav
192,192,38576,1,0,0:0:0:70:LR_Kick Hard Fast.wav
320,192,38576,1,0,0:0:0:0:
64,192,38701,128,0,38951:0:0:0:0:
448,192,38951,1,0,0:0:0:70:LR3_Snare WRH.wav
320,192,38951,1,0,0:0:0:70:LR_Kick Hard Fast.wav
320,192,39076,1,0,0:0:0:0:
192,192,39076,1,0,0:0:0:70:LR_Kick Hard Fast.wav
64,192,39201,1,0,0:0:0:70:LR_Kick Hard Fast.wav
192,192,39201,1,0,0:0:0:0:
448,192,39326,1,0,0:0:0:70:LR3_Snare WRH.wav
320,192,39326,1,0,0:0:0:0:
64,192,39326,1,0,0:0:0:70:LR_Kick Hard Fast.wav
192,192,39451,1,0,0:0:0:0:
448,192,39513,1,0,0:0:0:0:
64,192,39576,128,0,39638:0:0:0:0:
320,192,39701,128,0,39763:0:0:0:0:
448,192,39826,1,0,0:0:0:30:cymbol.wav
192,192,39826,1,0,0:0:0:70:LR_Kick Hard Fast.wav
64,192,39826,1,0,0:0:0:70:LR3_Snare WRH.wav
320,192,39951,1,0,0:0:0:0:
448,192,40076,1,0,0:0:0:0:
192,192,40076,1,0,0:0:0:70:LR_Kick Hard Fast.wav
64,192,40076,1,0,0:0:0:70:LR3_Snare WRH.wav
320,192,40201,1,0,0:0:0:0:
448,192,40326,1,0,0:0:0:0:
192,192,40326,1,0,0:0:0:70:LR_Kick Hard Fast.wav
64,192,40326,1,0,0:0:0:70:LR3_Snare WRH.wav
320,192,40451,1,0,0:0:0:0:
448,192,40576,1,0,0:0:0:0:
192,192,40576,1,0,0:0:0:70:LR_Kick Hard Fast.wav
64,192,40576,1,0,0:0:0:70:LR3_Snare WRH.wav
320,192,40701,1,0,0:0:0:70:LR_Kick Hard Fast.wav
64,192,40701,1,0,0:0:0:70:LR3_Snare WRH.wav
192,192,40701,1,0,0:0:0:0:
320,192,40951,1,0,0:0:0:70:LR_Kick Hard Fast.wav
192,192,40951,1,0,0:0:0:70:LR3_Snare WRH.wav
448,192,41076,1,0,0:0:0:70:LR_Kick Hard Fast.wav
64,192,41076,1,0,0:0:0:70:LR3_Snare WRH.wav
320,192,41201,1,0,0:0:0:70:LR_Kick Hard Fast.wav
192,192,41201,1,0,0:0:0:70:LR3_Snare WRH.wav
448,192,41326,1,0,0:0:0:70:LR_Kick Hard Fast.wav
64,192,41326,1,0,0:0:0:70:LR3_Snare WRH.wav
320,192,41451,1,0,0:0:0:70:LR_Kick Hard Fast.wav
192,192,41451,1,0,0:0:0:70:LR3_Snare WRH.wav
448,192,41576,1,0,0:0:0:70:LR_Kick Hard Fast.wav
64,192,41576,1,0,0:0:0:70:LR3_Snare WRH.wav
192,192,41701,1,0,0:0:0:70:LR_Kick Hard Fast.wav
320,192,41763,1,0,0:0:0:70:LR_Kick Hard Fast.wav
448,192,41826,1,0,0:0:0:70:LR_Kick Hard Fast.wav
64,192,41826,1,0,0:0:0:0:
320,192,41951,1,0,0:0:0:0:
192,192,41951,1,0,0:0:0:70:LR_Kick Hard Fast.wav
448,192,42076,1,0,0:0:0:0:
64,192,42076,1,0,0:0:0:70:LR_Kick Hard Fast.wav
448,192,42201,1,0,0:0:0:0:
320,192,42201,1,0,0:0:0:70:LR_Kick Hard Fast.wav
192,192,42326,1,0,0:0:0:0:
64,192,42326,1,0,0:0:0:70:LR_Kick Hard Fast.wav
448,192,42451,1,0,0:0:0:70:LR_Kick Hard Fast.wav
320,192,42513,1,0,0:0:0:70:LR_Kick Hard Fast.wav
192,192,42576,1,0,0:0:0:0:
64,192,42576,1,0,0:0:0:70:LR_Kick Hard Fast.wav
448,192,42701,1,0,0:0:0:70:LR_Kick Hard Fast.wav
64,192,42701,1,0,0:0:0:70:LR3_Snare WRH.wav
320,192,42701,1,0,0:0:0:0:
192,192,42951,1,0,0:0:0:0:
320,192,43013,1,0,0:0:0:0:
448,192,43076,1,0,0:0:0:70:LR_Kick Hard Fast.wav
64,192,43076,1,0,0:0:0:0:
192,192,43138,1,0,0:0:0:0:
320,192,43201,1,0,0:0:0:0:
448,192,43263,1,0,0:0:0:0:
64,192,43326,1,0,0:0:0:70:LR3_Snare WRH.wav
192,192,43326,1,0,0:0:0:70:LR_Kick Hard Fast.wav
320,192,43388,1,0,0:0:0:0:
448,192,43451,1,0,0:0:0:0:
192,192,43513,1,0,0:0:0:0:
64,192,43576,128,0,43826:0:0:0:0:
448,192,43826,1,0,0:0:0:0:
320,192,43826,1,0,0:0:0:30:cymbol.wav
64,192,44055,1,0,0:0:0:0:
448,192,44305,1,0,0:0:0:0:
64,192,44555,1,0,0:0:0:0:
448,192,44680,1,0,0:0:0:0:
192,192,44805,1,0,0:0:0:100:LR_Kick Normal .wav
320,192,44930,1,0,0:0:0:100:LR_Kick Normal .wav
448,192,45055,1,0,0:0:0:0:
192,192,45055,1,0,0:0:0:100:LR_Kick Normal .wav
64,192,45201,1,0,0:0:0:0:
192,192,45263,1,0,0:0:0:100:LR_Kick Normal .wav
320,192,45326,1,0,0:0:0:100:LR_Kick Normal .wav
448,192,45326,1,0,0:0:0:0:
64,192,45576,1,0,0:0:0:100:LR_Kick Normal .wav
192,192,45701,1,0,0:0:0:100:LR_Kick Normal .wav
320,192,45826,1,0,0:0:0:100:LR_Kick Normal .wav
448,192,45951,1,0,0:0:0:100:LR_Kick Normal .wav
192,192,46076,1,0,0:0:0:0:
64,192,46076,1,0,0:0:0:100:LR_Kick Normal .wav
448,192,46201,1,0,0:0:0:100:LR_Kick Normal .wav
320,192,46263,1,0,0:0:0:100:LR_Kick Normal .wav
192,192,46326,1,0,0:0:0:100:LR_Kick Normal .wav
64,192,46326,1,0,0:0:0:0:
320,192,46451,1,0,0:0:0:100:LR_Kick Normal .wav
448,192,46451,1,0,0:0:0:0:
64,192,46701,1,0,0:0:0:100:LR_Kick Normal .wav
448,192,46701,1,0,0:0:0:0:
320,192,46826,1,0,0:0:0:0:
192,192,46826,1,0,0:0:0:100:LR_Kick Normal .wav
64,192,46951,1,0,0:0:0:100:LR_Kick Normal .wav
192,192,47013,1,0,0:0:0:100:LR_Kick Normal .wav
320,192,47076,1,0,0:0:0:100:LR_Kick Normal .wav
448,192,47201,1,0,0:0:0:100:LR_Kick Normal .wav
320,192,47263,1,0,0:0:0:100:LR_Kick Normal .wav
192,192,47326,1,0,0:0:0:100:LR_Kick Normal .wav
64,192,47451,1,0,0:0:0:100:LR_Kick Normal .wav
192,192,47513,1,0,0:0:0:100:LR_Kick Normal .wav
320,192,47576,128,0,47638:0:0:0:0:
448,192,47576,128,0,47638:0:0:0:0:
448,192,47701,128,0,47763:0:0:0:0:
320,192,47701,128,0,47763:0:0:0:0:
64,192,47826,1,0,0:0:0:70:LR3_Snare WRH.wav
192,192,47826,1,0,0:0:0:70:LR_Kick Hard Fast.wav
448,192,47826,1,0,0:0:0:30:cymbol.wav
64,192,48076,1,0,0:0:0:70:LR3_Snare WRH.wav
192,192,48076,1,0,0:0:0:70:LR_Kick Hard Fast.wav
448,192,48076,1,0,0:0:0:0:
448,192,48326,1,0,0:0:0:0:
192,192,48326,1,0,0:0:0:70:LR_Kick Hard Fast.wav
64,192,48326,1,0,0:0:0:70:LR3_Snare WRH.wav
320,192,48576,1,0,0:0:0:0:
192,192,48638,1,0,0:0:0:0:
320,192,48701,1,0,0:0:0:0:
192,192,48763,1,0,0:0:0:0:
64,192,48826,1,0,0:0:0:0:
320,192,48826,1,0,0:0:0:70:LR3_Snare WRH.wav
448,192,48826,1,0,0:0:0:70:LR_Kick Hard Fast.wav
64,192,49076,128,0,49326:0:0:0:0:
192,192,49076,1,0,0:0:0:70:LR_Kick Hard Fast.wav
320,192,49076,1,0,0:0:0:70:LR3_Snare WRH.wav
448,192,49326,128,0,49576:0:0:0:0:
320,192,49326,1,0,0:0:0:70:LR3_Snare WRH.wav
192,192,49326,1,0,0:0:0:70:LR_Kick Hard Fast.wav
192,192,49576,1,0,0:0:0:0:
320,192,49638,1,0,0:0:0:0:
192,192,49701,1,0,0:0:0:0:
320,192,49763,1,0,0:0:0:0:
64,192,49826,1,0,0:0:0:70:LR_Kick Hard Fast.wav
448,192,49826,1,0,0:0:0:70:LR3_Snare WRH.wav
192,192,49826,128,0,50326:0:0:0:0:
448,192,50076,1,0,0:0:0:70:LR3_Snare WRH.wav
64,192,50076,1,0,0:0:0:70:LR_Kick Hard Fast.wav
64,192,50326,1,0,0:0:0:70:LR_Kick Hard Fast.wav
448,192,50326,1,0,0:0:0:70:LR3_Snare WRH.wav
320,192,50388,1,0,0:0:0:0:
192,192,50451,1,0,0:0:0:0:
64,192,50513,1,0,0:0:0:0:
320,192,50576,128,0,50826:0:0:0:0:
192,192,50826,1,0,0:0:0:0:
64,192,50826,1,0,0:0:0:70:LR3_Snare WRH.wav
448,192,50826,1,0,0:0:0:70:LR_Kick Hard Fast.wav
320,192,50992,1,0,0:0:0:70:LR_Kick Hard Fast.wav
192,192,50992,1,0,0:0:0:70:LR3_Snare WRH.wav
448,192,51076,1,0,0:0:0:70:LR_Kick Hard Fast.wav
64,192,51076,1,0,0:0:0:70:LR3_Snare WRH.wav
448,192,51326,1,0,0:0:0:70:LR_Kick Hard Fast.wav
320,192,51326,1,0,0:0:0:0:
64,192,51326,1,0,0:0:0:70:LR3_Snare WRH.wav
192,192,51451,1,0,0:0:0:0:
320,192,51513,1,0,0:0:0:0:
192,192,51576,1,0,0:0:0:0:
320,192,51638,1,0,0:0:0:0:
192,192,51701,1,0,0:0:0:0:
320,192,51763,1,0,0:0:0:0:
448,192,51826,1,0,0:0:0:70:LR_Kick Hard Fast.wav
64,192,51826,1,0,0:0:0:70:LR3_Snare WRH.wav
192,192,51826,1,0,0:0:0:30:cymbol.wav
448,192,52076,1,0,0:0:0:70:LR_Kick Hard Fast.wav
64,192,52076,1,0,0:0:0:70:LR3_Snare WRH.wav
192,192,52076,1,0,0:0:0:0:
320,192,52201,1,0,0:0:0:0:
64,192,52326,1,0,0:0:0:70:LR3_Snare WRH.wav
448,192,52326,1,0,0:0:0:70:LR_Kick Hard Fast.wav
192,192,52326,1,0,0:0:0:0:
64,192,52576,1,0,0:0:0:0:
320,192,52638,1,0,0:0:0:0:
64,192,52701,1,0,0:0:0:0:
320,192,52763,1,0,0:0:0:0:
192,192,52826,1,0,0:0:0:70:LR3_Snare WRH.wav
64,192,52826,1,0,0:0:0:0:
448,192,52826,1,0,0:0:0:70:LR_Kick Hard Fast.wav
448,192,53076,1,0,0:0:0:70:LR_Kick Hard Fast.wav
192,192,53076,1,0,0:0:0:70:LR3_Snare WRH.wav
64,192,53076,1,0,0:0:0:0:
448,192,53326,1,0,0:0:0:70:LR_Kick Hard Fast.wav
192,192,53326,1,0,0:0:0:70:LR3_Snare WRH.wav
64,192,53326,1,0,0:0:0:0:
448,192,53576,1,0,0:0:0:0:
192,192,53638,1,0,0:0:0:0:
448,192,53701,1,0,0:0:0:0:
192,192,53763,1,0,0:0:0:0:
448,192,53826,1,0,0:0:0:0:
320,192,53826,1,0,0:0:0:70:LR_Kick Hard Fast.wav
64,192,53826,1,0,0:0:0:70:LR3_Snare WRH.wav
320,192,54076,1,0,0:0:0:0:
448,192,54326,1,0,0:0:0:0:
192,192,54326,1,0,0:0:0:70:LR_Kick Hard Fast.wav
64,192,54326,1,0,0:0:0:70:LR3_Snare WRH.wav
64,192,54576,1,0,0:0:0:50:LR_Hat Normal.wav
320,192,54701,1,0,0:0:0:50:LR_Hat Normal.wav
192,192,54763,1,0,0:0:0:50:LR_Hat Normal.wav
448,192,54826,1,0,0:0:0:70:LR_Kick Hard Fast.wav
64,192,54826,1,0,0:0:0:70:LR3_Snare WRH.wav
320,192,54826,1,0,0:0:0:0:
192,192,55076,1,0,0:0:0:0:
64,192,55076,1,0,0:0:0:70:LR3_Snare WRH.wav
448,192,55076,1,0,0:0:0:70:LR_Kick Hard Fast.wav
448,192,55326,1,0,0:0:0:70:LR_Kick Hard Fast.wav
64,192,55326,1,0,0:0:0:70:LR3_Snare WRH.wav
192,192,55388,1,0,0:0:0:0:
320,192,55451,1,0,0:0:0:0:
448,192,55513,1,0,0:0:0:0:
64,192,55576,1,0,0:0:0:0:
192,192,55638,1,0,0:0:0:0:
320,192,55701,1,0,0:0:0:0:
448,192,55763,1,0,0:0:0:0:
64,192,55826,1,0,0:0:0:30:cymbol.wav
192,192,55826,1,0,0:0:0:0:
448,192,56055,1,0,0:0:0:0:
64,192,56305,1,0,0:0:0:0:
448,192,56555,1,0,0:0:0:0:
64,192,56680,1,0,0:0:0:0:
320,192,56805,1,0,0:0:0:100:LR_Kick Normal .wav
192,192,56930,1,0,0:0:0:100:LR_Kick Normal .wav
64,192,57055,1,0,0:0:0:0:
320,192,57055,1,0,0:0:0:100:LR_Kick Normal .wav
448,192,57201,1,0,0:0:0:0:
320,192,57263,1,0,0:0:0:100:LR_Kick Normal .wav
192,192,57326,1,0,0:0:0:100:LR_Kick Normal .wav
64,192,57326,1,0,0:0:0:0:
448,192,57576,128,0,57701:0:0:0:0:
320,192,57576,1,0,0:0:0:100:LR_Kick Normal .wav
64,192,57701,1,0,0:0:0:100:LR_Kick Normal .wav
448,192,57826,128,0,57951:0:0:0:0:
320,192,57826,1,0,0:0:0:100:LR_Kick Normal .wav
64,192,57951,1,0,0:0:0:100:LR_Kick Normal .wav
192,192,58076,128,0,58201:0:0:0:0:
448,192,58076,1,0,0:0:0:100:LR_Kick Normal .wav
320,192,58201,1,0,0:0:0:100:LR_Kick Normal .wav
192,192,58326,128,0,58451:0:0:0:0:
64,192,58326,1,0,0:0:0:100:LR_Kick Normal .wav
448,192,58451,1,0,0:0:0:100:LR_Kick Normal .wav
64,192,58576,128,0,58701:0:0:0:0:
448,192,58701,1,0,0:0:0:100:LR_Kick Normal .wav
64,192,58826,128,0,58951:0:0:0:0:
448,192,58826,1,0,0:0:0:100:LR_Kick Normal .wav
320,192,58951,1,0,0:0:0:100:LR_Kick Normal .wav
448,192,59076,128,0,59201:0:0:0:0:
320,192,59076,1,0,0:0:0:100:LR_Kick Normal .wav
64,192,59201,1,0,0:0:0:100:LR_Kick Normal .wav
192,192,59263,1,0,0:0:0:100:LR_Kick Normal .wav
448,192,59326,128,0,59451:0:0:0:0:
64,192,59451,1,0,0:0:0:100:LR_Kick Normal .wav
192,192,59513,1,0,0:0:0:100:LR_Kick Normal .wav
448,192,59576,128,0,59701:0:0:0:0:
448,192,59826,1,0,0:0:0:0:
192,192,59826,1,0,0:0:0:0:
64,192,59826,1,0,0:0:0:100:LR_Kick Normal .wav
320,192,60076,1,0,0:0:0:100:LR_Kick Normal .wav
448,192,60076,1,0,0:0:0:0:
448,192,60201,1,0,0:0:0:0:
192,192,60201,1,0,0:0:0:0:
64,192,60201,1,0,0:0:0:100:LR_Kick Normal .wav
320,192,60451,1,0,0:0:0:100:LR_Kick Normal .wav
448,192,60451,1,0,0:0:0:0:
320,192,60576,1,0,0:0:0:100:LR_Kick Normal .wav
64,192,60576,1,0,0:0:0:0:
192,192,60576,128,0,60701:0:0:0:0:
64,192,60826,1,0,0:0:0:0:
320,192,60826,1,0,0:0:0:0:
448,192,60826,1,0,0:0:0:100:LR_Kick Normal .wav
192,192,61076,1,0,0:0:0:100:LR_Kick Normal .wav
64,192,61076,1,0,0:0:0:0:
64,192,61201,1,0,0:0:0:0:
320,192,61201,1,0,0:0:0:0:
448,192,61201,1,0,0:0:0:100:LR_Kick Normal .wav
192,192,61451,1,0,0:0:0:100:LR_Kick Normal .wav
64,192,61451,1,0,0:0:0:0:
192,192,61576,1,0,0:0:0:100:LR_Kick Normal .wav
448,192,61576,128,0,61701:0:0:0:0:
320,192,61576,128,0,61701:0:0:0:0:
448,192,61826,1,0,0:0:0:0:
192,192,61826,1,0,0:0:0:0:
64,192,61826,1,0,0:0:0:100:LR_Kick Normal .wav
320,192,62076,1,0,0:0:0:100:LR_Kick Normal .wav
448,192,62076,1,0,0:0:0:0:
448,192,62201,1,0,0:0:0:0:
192,192,62201,1,0,0:0:0:0:
64,192,62201,1,0,0:0:0:100:LR_Kick Normal .wav
320,192,62451,1,0,0:0:0:100:LR_Kick Normal .wav
448,192,62451,1,0,0:0:0:0:
64,192,62576,1,0,0:0:0:0:
320,192,62576,1,0,0:0:0:100:LR_Kick Normal .wav
192,192,62576,128,0,62701:0:0:0:0:
192,192,62826,1,0,0:0:0:100:LR_Kick Normal .wav
320,192,62826,1,0,0:0:0:0:
448,192,62826,128,0,62888:0:0:0:0:
64,192,63076,128,0,63201:0:0:0:0:
192,192,63076,1,0,0:0:0:0:
320,192,63076,1,0,0:0:0:100:LR_Kick Normal .wav
64,192,63326,1,0,0:0:0:0:
192,192,63326,128,0,63763:0:0:0:0:
448,192,63326,1,0,0:0:0:100:LR_Kick Normal .wav
320,192,63576,128,0,63763:0:0:0:0:
448,192,63826,1,0,0:0:0:100:LR_Kick Normal .wav
320,192,63826,1,0,0:0:0:0:
64,192,63826,1,0,0:0:0:0:
192,192,64076,1,0,0:0:0:100:LR_Kick Normal .wav
64,192,64076,1,0,0:0:0:0:
64,192,64201,1,0,0:0:0:0:
320,192,64201,1,0,0:0:0:0:
448,192,64201,1,0,0:0:0:100:LR_Kick Normal .wav
192,192,64451,1,0,0:0:0:100:LR_Kick Normal .wav
64,192,64451,1,0,0:0:0:0:
192,192,64576,1,0,0:0:0:100:LR_Kick Normal .wav
448,192,64576,1,0,0:0:0:0:
320,192,64576,128,0,64701:0:0:0:0:
448,192,64826,1,0,0:0:0:0:
192,192,64826,1,0,0:0:0:0:
64,192,64826,1,0,0:0:0:100:LR_Kick Normal .wav
320,192,65076,1,0,0:0:0:100:LR_Kick Normal .wav
448,192,65076,1,0,0:0:0:0:
448,192,65201,1,0,0:0:0:0:
192,192,65201,1,0,0:0:0:0:
64,192,65201,1,0,0:0:0:100:LR_Kick Normal .wav
320,192,65451,1,0,0:0:0:100:LR_Kick Normal .wav
448,192,65451,1,0,0:0:0:0:
192,192,65576,128,0,65701:0:0:0:0:
64,192,65576,128,0,65701:0:0:0:0:
320,192,65576,1,0,0:0:0:100:LR_Kick Normal .wav
64,192,65826,1,0,0:0:0:0:
320,192,65826,1,0,0:0:0:0:
448,192,65826,1,0,0:0:0:100:LR_Kick Normal .wav
192,192,66076,1,0,0:0:0:100:LR_Kick Normal .wav
64,192,66076,1,0,0:0:0:0:
64,192,66201,1,0,0:0:0:0:
320,192,66201,1,0,0:0:0:0:
448,192,66201,1,0,0:0:0:100:LR_Kick Normal .wav
64,192,66451,1,0,0:0:0:0:
192,192,66451,1,0,0:0:0:100:LR_Kick Normal .wav
320,192,66576,128,0,66701:0:0:0:0:
448,192,66576,1,0,0:0:0:0:
192,192,66576,1,0,0:0:0:100:LR_Kick Normal .wav
192,192,66826,1,0,0:0:0:0:
64,192,66826,1,0,0:0:0:100:LR_Kick Normal .wav
448,192,66826,128,0,67326:0:0:0:0:
192,192,67076,1,0,0:0:0:0:
64,192,67076,1,0,0:0:0:100:LR_Kick Normal .wav
64,192,67326,128,0,67763:0:0:0:0:
192,192,67326,1,0,0:0:0:100:LR_Kick Normal .wav
320,192,67326,1,0,0:0:0:0:
448,192,67576,128,0,67763:0:0:0:0:
448,192,67826,1,0,0:0:0:0:
320,192,67826,1,0,0:0:0:100:LR_Kick Normal .wav
192,192,67826,1,0,0:0:0:0:
64,192,67826,1,0,0:0:0:30:cymbol.wav
320,192,68076,1,0,0:0:0:100:LR_Kick Normal .wav
192,192,68076,1,0,0:0:0:0:
448,192,68201,1,0,0:0:0:0:
320,192,68201,1,0,0:0:0:100:LR_Kick Normal .wav
192,192,68201,1,0,0:0:0:0:
64,192,68201,1,0,0:0:0:30:cymbol.wav
320,192,68451,1,0,0:0:0:100:LR_Kick Normal .wav
192,192,68451,1,0,0:0:0:0:
64,192,68576,1,0,0:0:0:0:
448,192,68576,1,0,0:0:0:100:LR_Kick Normal .wav
192,192,68576,128,0,68701:0:0:0:0:
448,192,68826,1,0,0:0:0:30:cymbol.wav
320,192,68826,1,0,0:0:0:0:
192,192,68826,1,0,0:0:0:100:LR_Kick Normal .wav
64,192,68826,1,0,0:0:0:0:
320,192,69076,1,0,0:0:0:0:
192,192,69076,1,0,0:0:0:100:LR_Kick Normal .wav
448,192,69201,1,0,0:0:0:30:cymbol.wav
320,192,69201,1,0,0:0:0:0:
192,192,69201,1,0,0:0:0:100:LR_Kick Normal .wav
64,192,69201,1,0,0:0:0:0:
192,192,69451,1,0,0:0:0:100:LR_Kick Normal .wav
320,192,69451,1,0,0:0:0:0:
64,192,69576,1,0,0:0:0:100:LR_Kick Normal .wav
320,192,69576,128,0,69701:0:0:0:0:
448,192,69576,128,0,69701:0:0:0:0:
448,192,69826,1,0,0:0:0:0:
320,192,69826,1,0,0:0:0:100:LR_Kick Normal .wav
192,192,69826,1,0,0:0:0:0:
64,192,69826,1,0,0:0:0:30:cymbol.wav
192,192,70076,1,0,0:0:0:0:
320,192,70076,1,0,0:0:0:100:LR_Kick Normal .wav
448,192,70201,1,0,0:0:0:0:
192,192,70201,1,0,0:0:0:0:
64,192,70201,1,0,0:0:0:30:cymbol.wav
320,192,70201,1,0,0:0:0:100:LR_Kick Normal .wav
192,192,70451,1,0,0:0:0:0:
320,192,70451,1,0,0:0:0:100:LR_Kick Normal .wav
448,192,70576,1,0,0:0:0:100:LR_Kick Normal .wav
64,192,70576,1,0,0:0:0:0:
192,192,70576,128,0,70701:0:0:0:0:
448,192,70826,128,0,70951:0:0:0:0:
320,192,70826,1,0,0:0:0:100:LR_Kick Normal .wav
64,192,70826,1,0,0:0:0:0:
192,192,70826,1,0,0:0:0:0:
320,192,71076,1,0,0:0:0:100:LR_Kick Normal .wav
192,192,71076,1,0,0:0:0:0:
64,192,71076,128,0,71201:0:0:0:0:
448,192,71076,1,0,0:0:0:0:
192,192,71326,128,0,71763:0:0:0:0:
320,192,71326,1,0,0:0:0:100:LR_Kick Normal .wav
448,192,71326,1,0,0:0:0:0:
64,192,71326,1,0,0:0:0:0:
320,192,71576,128,0,71763:0:0:0:0:
448,192,71826,1,0,0:0:0:30:cymbol.wav
320,192,71826,1,0,0:0:0:0:
192,192,71826,1,0,0:0:0:100:LR_Kick Normal .wav
64,192,71826,1,0,0:0:0:0:
192,192,72076,1,0,0:0:0:100:LR_Kick Normal .wav
320,192,72076,1,0,0:0:0:0:
448,192,72201,1,0,0:0:0:30:cymbol.wav
320,192,72201,1,0,0:0:0:0:
192,192,72201,1,0,0:0:0:100:LR_Kick Normal .wav
64,192,72201,1,0,0:0:0:0:
192,192,72451,1,0,0:0:0:100:LR_Kick Normal .wav
320,192,72451,1,0,0:0:0:0:
448,192,72576,1,0,0:0:0:0:
320,192,72576,128,0,72701:0:0:0:0:
64,192,72576,1,0,0:0:0:100:LR_Kick Normal .wav
320,192,72826,1,0,0:0:0:100:LR_Kick Normal .wav
192,192,72826,1,0,0:0:0:0:
64,192,72826,1,0,0:0:0:30:cymbol.wav
448,192,72826,1,0,0:0:0:0:
192,192,73076,1,0,0:0:0:0:
320,192,73076,1,0,0:0:0:100:LR_Kick Normal .wav
448,192,73201,1,0,0:0:0:0:
320,192,73201,1,0,0:0:0:100:LR_Kick Normal .wav
192,192,73201,1,0,0:0:0:0:
64,192,73201,1,0,0:0:0:30:cymbol.wav
192,192,73451,1,0,0:0:0:0:
320,192,73451,1,0,0:0:0:100:LR_Kick Normal .wav
192,192,73576,128,0,73701:0:0:0:0:
64,192,73576,128,0,73701:0:0:0:0:
448,192,73576,1,0,0:0:0:100:LR_Kick Normal .wav
448,192,73826,1,0,0:0:0:30:cymbol.wav
320,192,73826,1,0,0:0:0:0:
192,192,73826,1,0,0:0:0:100:LR_Kick Normal .wav
64,192,73826,1,0,0:0:0:0:
192,192,74076,5,0,0:0:0:100:LR_Kick Normal .wav
320,192,74076,1,0,0:0:0:0:
448,192,74201,1,0,0:0:0:30:cymbol.wav
64,192,74201,1,0,0:0:0:0:
192,192,74201,1,0,0:0:0:100:LR_Kick Normal .wav
320,192,74201,1,0,0:0:0:0:
320,192,74451,1,0,0:0:0:0:
192,192,74451,1,0,0:0:0:100:LR_Kick Normal .wav
320,192,74576,128,0,74701:0:0:0:0:
448,192,74576,1,0,0:0:0:0:
64,192,74576,1,0,0:0:0:100:LR_Kick Normal .wav
448,192,74826,1,0,0:0:0:0:
320,192,74826,1,0,0:0:0:100:LR_Kick Normal .wav
64,192,74826,1,0,0:0:0:30:cymbol.wav
192,192,74826,1,0,0:0:0:0:
448,192,75076,1,0,0:0:0:0:
192,192,75138,1,0,0:0:0:0:
448,192,75201,1,0,0:0:0:0:
192,192,75263,1,0,0:0:0:0:
448,192,75326,1,0,0:0:0:0:
320,192,75326,1,0,0:0:0:100:LR_Kick Normal .wav
64,192,75326,1,0,0:0:0:30:cymbol.wav
320,192,75576,1,0,0:0:0:0:
192,192,75638,1,0,0:0:0:0:
320,192,75701,1,0,0:0:0:0:
192,192,75763,1,0,0:0:0:0:
448,192,75826,1,0,0:0:0:70:LR_Kick Hard Fast.wav
320,192,75826,1,0,0:0:0:70:LR3_Snare WRH.wav
64,192,75826,1,0,0:0:0:30:cymbol.wav
64,192,76076,1,0,0:0:0:0:
320,192,76076,1,0,0:0:0:70:LR3_Snare WRH.wav
448,192,76076,1,0,0:0:0:70:LR_Kick Hard Fast.wav
448,192,76326,1,0,0:0:0:70:LR_Kick Hard Fast.wav
320,192,76326,1,0,0:0:0:70:LR3_Snare WRH.wav
64,192,76326,1,0,0:0:0:0:
64,192,76576,1,0,0:0:0:0:
320,192,76638,1,0,0:0:0:0:
64,192,76701,1,0,0:0:0:0:
320,192,76763,1,0,0:0:0:0:
192,192,76826,1,0,0:0:0:0:
64,192,76826,1,0,0:0:0:70:LR3_Snare WRH.wav
448,192,76826,1,0,0:0:0:70:LR_Kick Hard Fast.wav
192,192,76992,1,0,0:0:0:70:LR3_Snare WRH.wav
320,192,76992,1,0,0:0:0:0:
64,192,77076,1,0,0:0:0:70:LR3_Snare WRH.wav
448,192,77076,1,0,0:0:0:70:LR_Kick Hard Fast.wav
448,192,77326,1,0,0:0:0:70:LR_Kick Hard Fast.wav
192,192,77326,128,0,77576:0:0:0:0:
64,192,77326,1,0,0:0:0:70:LR3_Snare WRH.wav
320,192,77326,1,0,0:0:0:0:
320,192,77576,1,0,0:0:0:0:
448,192,77638,1,0,0:0:0:0:
64,192,77701,1,0,0:0:0:0:
192,192,77763,1,0,0:0:0:0:
448,192,77826,1,0,0:0:0:70:LR_Kick Hard Fast.wav
64,192,77826,1,0,0:0:0:70:LR3_Snare WRH.wav
320,192,77826,1,0,0:0:0:0:
192,192,78076,1,0,0:0:0:0:
320,192,78138,1,0,0:0:0:0:
192,192,78201,1,0,0:0:0:0:
320,192,78263,1,0,0:0:0:0:
448,192,78326,1,0,0:0:0:70:LR_Kick Hard Fast.wav
192,192,78326,1,0,0:0:0:0:
64,192,78326,1,0,0:0:0:70:LR3_Snare WRH.wav
320,192,78451,1,0,0:0:0:0:
448,192,78513,1,0,0:0:0:0:
64,192,78576,1,0,0:0:0:0:
192,192,78638,1,0,0:0:0:0:
448,192,78701,1,0,0:0:0:70:LR_Kick Hard Fast.wav
320,192,78701,1,0,0:0:0:30:cymbol.wav
64,192,78701,1,0,0:0:0:70:LR3_Snare WRH.wav
192,192,78951,1,0,0:0:0:0:
64,192,78951,1,0,0:0:0:70:LR3_Snare WRH.wav
448,192,78951,1,0,0:0:0:70:LR_Kick Hard Fast.wav
320,192,79076,1,0,0:0:0:0:
192,192,79201,1,0,0:0:0:70:LR_Kick Hard Fast.wav
64,192,79201,1,0,0:0:0:70:LR3_Snare WRH.wav
320,192,79326,1,0,0:0:0:70:LR3_Snare WRH.wav
448,192,79326,1,0,0:0:0:70:LR_Kick Hard Fast.wav
192,192,79451,128,0,79576:0:0:0:0:
64,192,79451,128,0,79576:0:0:0:0:
448,192,79576,128,0,79826:0:0:0:0:
320,192,79576,128,0,79826:0:0:0:0:
192,192,79826,1,0,0:0:0:70:LR3_Snare WRH.wav
64,192,79826,1,0,0:0:0:0:
320,192,79951,1,0,0:0:0:70:LR3_Snare WRH.wav
448,192,79951,1,0,0:0:0:0:
448,192,80076,1,0,0:0:0:70:LR_Kick Hard Fast.wav
192,192,80076,1,0,0:0:0:70:LR3_Snare WRH.wav
64,192,80076,1,0,0:0:0:0:
64,192,80326,1,0,0:0:0:0:
192,192,80326,1,0,0:0:0:70:LR3_Snare WRH.wav
448,192,80326,1,0,0:0:0:70:LR_Kick Hard Fast.wav
448,192,80576,1,0,0:0:0:0:
192,192,80638,1,0,0:0:0:0:
448,192,80701,1,0,0:0:0:0:
192,192,80763,1,0,0:0:0:0:
448,192,80826,1,0,0:0:0:70:LR_Kick Hard Fast.wav
320,192,80826,1,0,0:0:0:70:LR3_Snare WRH.wav
64,192,80826,1,0,0:0:0:30:cymbol.wav
320,192,80992,1,0,0:0:0:70:LR3_Snare WRH.wav
192,192,80992,1,0,0:0:0:0:
64,192,81076,1,0,0:0:0:70:LR3_Snare WRH.wav
448,192,81076,1,0,0:0:0:70:LR_Kick Hard Fast.wav
320,192,81242,1,0,0:0:0:70:LR3_Snare WRH.wav
192,192,81242,1,0,0:0:0:0:
64,192,81326,1,0,0:0:0:70:LR3_Snare WRH.wav
448,192,81326,1,0,0:0:0:70:LR_Kick Hard Fast.wav
64,192,81576,1,0,0:0:0:70:LR_Kick Hard Fast.wav
192,192,81576,1,0,0:0:0:70:LR3_Snare WRH.wav
448,192,81576,128,0,81742:0:0:0:0:
192,192,81742,1,0,0:0:0:70:LR3_Snare WRH.wav
64,192,81826,1,0,0:0:0:30:cymbol.wav
320,192,81826,1,0,0:0:0:70:LR3_Snare WRH.wav
448,192,81826,1,0,0:0:0:70:LR_Kick Hard Fast.wav
320,192,81992,1,0,0:0:0:0:
448,192,82076,1,0,0:0:0:70:LR_Kick Hard Fast.wav
192,192,82076,1,0,0:0:0:70:LR3_Snare WRH.wav
64,192,82076,1,0,0:0:0:0:
320,192,82242,1,0,0:0:0:0:
448,192,82326,1,0,0:0:0:70:LR_Kick Hard Fast.wav
192,192,82326,1,0,0:0:0:70:LR3_Snare WRH.wav
64,192,82326,1,0,0:0:0:0:
320,192,82492,1,0,0:0:0:0:
448,192,82576,1,0,0:0:0:70:LR_Kick Hard Fast.wav
192,192,82576,1,0,0:0:0:70:LR3_Snare WRH.wav
64,192,82576,1,0,0:0:0:0:
320,192,82742,1,0,0:0:0:0:
64,192,82742,1,0,0:0:0:70:LR3_Snare WRH.wav
448,192,82742,1,0,0:0:0:70:LR_Kick Hard Fast.wav
192,192,82992,1,0,0:0:0:0:
64,192,83076,1,0,0:0:0:70:LR3_Snare WRH.wav
320,192,83076,1,0,0:0:0:0:
448,192,83076,1,0,0:0:0:70:LR_Kick Hard Fast.wav
192,192,83242,1,0,0:0:0:0:
448,192,83326,128,0,83451:0:0:0:0:
64,192,83326,128,0,83451:0:0:0:0:
64,192,83576,128,0,83701:0:0:0:0:
448,192,83576,128,0,83701:0:0:0:0:
320,192,83826,1,0,0:0:0:70:LR_Kick Hard Fast.wav
448,192,83826,1,0,0:0:0:30:cymbol.wav
64,192,83826,1,0,0:0:0:30:LR_Hat Normal.wav
192,192,83951,1,0,0:0:0:0:
448,192,84076,1,0,0:0:0:0:
64,192,84076,1,0,0:0:0:30:LR_Hat Normal.wav
192,192,84201,1,0,0:0:0:0:
448,192,84326,1,0,0:0:0:30:LR_Hat Normal.wav
320,192,84326,1,0,0:0:0:0:
64,192,84451,1,0,0:0:0:0:
448,192,84576,1,0,0:0:0:30:LR_Hat Normal.wav
192,192,84576,1,0,0:0:0:0:
320,192,84701,1,0,0:0:0:0:
64,192,84826,1,0,0:0:0:30:LR_Hat Normal.wav
448,192,84826,1,0,0:0:0:0:
320,192,84951,1,0,0:0:0:0:
192,192,85076,1,0,0:0:0:30:LR_Hat Normal.wav
64,192,85076,1,0,0:0:0:0:
448,192,85201,1,0,0:0:0:0:
192,192,85326,1,0,0:0:0:30:LR_Hat Normal.wav
320,192,85326,1,0,0:0:0:0:
64,192,85576,1,0,0:0:0:0:
192,192,85576,1,0,0:0:0:30:LR_Hat Normal.wav
320,192,85701,1,0,0:0:0:30:LR_Hat Normal.wav
448,192,85826,1,0,0:0:0:30:LR_Hat Normal.wav
64,192,85826,1,0,0:0:0:0:
448,192,85951,1,0,0:0:0:0:
320,192,86076,1,0,0:0:0:30:LR_Hat Normal.wav
192,192,86076,1,0,0:0:0:0:
192,192,86201,1,0,0:0:0:0:
448,192,86326,1,0,0:0:0:0:
64,192,86326,1,0,0:0:0:30:LR_Hat Normal.wav
320,192,86451,1,0,0:0:0:0:
192,192,86576,1,0,0:0:0:0:
64,192,86576,1,0,0:0:0:30:LR_Hat Normal.wav
64,192,86701,128,0,86951:0:0:0:0:
448,192,86826,1,0,0:0:0:30:LR_Hat Normal.wav
192,192,86951,1,0,0:0:0:0:
320,192,87013,1,0,0:0:0:0:
448,192,87076,1,0,0:0:0:0:
64,192,87076,1,0,0:0:0:30:LR_Hat Normal.wav
192,192,87201,1,0,0:0:0:0:
448,192,87326,1,0,0:0:0:0:
320,192,87326,1,0,0:0:0:30:LR_Hat Normal.wav
64,192,87451,1,0,0:0:0:0:
192,192,87576,1,0,0:0:0:30:LR_Hat Normal.wav
448,192,87576,128,0,87826:0:0:0:0:
192,192,87826,1,0,0:0:0:0:
64,192,87826,1,0,0:0:0:30:LR_Hat Normal.wav
320,192,87951,1,0,0:0:0:0:
448,192,88076,1,0,0:0:0:30:LR_Hat Normal.wav
64,192,88076,1,0,0:0:0:0:
192,192,88201,1,0,0:0:0:0:
320,192,88263,1,0,0:0:0:0:
192,192,88326,1,0,0:0:0:0:
64,192,88326,1,0,0:0:0:30:LR_Hat Normal.wav
448,192,88451,1,0,0:0:0:0:
320,192,88576,1,0,0:0:0:30:LR_Hat Normal.wav
64,192,88576,1,0,0:0:0:0:
192,192,88701,1,0,0:0:0:0:
448,192,88826,1,0,0:0:0:30:LR_Hat Normal.wav
320,192,88826,1,0,0:0:0:0:
192,192,88951,1,0,0:0:0:0:
64,192,89013,1,0,0:0:0:0:
448,192,89076,1,0,0:0:0:30:LR_Hat Normal.wav
320,192,89076,1,0,0:0:0:0:
192,192,89201,1,0,0:0:0:0:
320,192,89326,1,0,0:0:0:30:LR_Hat Normal.wav
64,192,89326,1,0,0:0:0:0:
192,192,89451,1,0,0:0:0:0:
448,192,89576,1,0,0:0:0:0:
320,192,89576,1,0,0:0:0:30:LR_Hat Normal.wav
64,192,89701,5,0,0:0:0:0:
192,192,89826,1,0,0:0:0:30:LR_Hat Normal.wav
448,192,89826,1,0,0:0:0:0:
448,192,89951,1,0,0:0:0:0:
320,192,90076,1,0,0:0:0:0:
64,192,90076,1,0,0:0:0:30:LR_Hat Normal.wav
448,192,90201,1,0,0:0:0:0:
448,192,90326,1,0,0:0:0:0:
192,192,90326,1,0,0:0:0:30:LR_Hat Normal.wav
320,192,90451,1,0,0:0:0:0:
192,192,90576,1,0,0:0:0:0:
64,192,90576,1,0,0:0:0:30:LR_Hat Normal.wav
320,192,90701,1,0,0:0:0:0:
448,192,90826,5,0,0:0:0:70:LR_Kick Hard Fast.wav
192,192,90826,1,0,0:0:0:0:
64,192,90826,1,0,0:0:0:0:
64,192,91076,5,0,0:0:0:0:
192,192,91076,1,0,0:0:0:0:
448,192,91076,1,0,0:0:0:70:LR_Kick Hard Fast.wav
448,192,91326,5,0,0:0:0:70:LR_Kick Hard Fast.wav
192,192,91326,1,0,0:0:0:0:
64,192,91326,1,0,0:0:0:0:
320,192,91451,5,0,0:0:0:0:
448,192,91451,1,0,0:0:0:70:LR_Kick Hard Fast.wav
192,192,91513,1,0,0:0:0:0:
64,192,91513,1,0,0:0:0:70:LR_Kick Hard Fast.wav
320,192,91576,128,0,91826:0:0:0:0:
192,192,91826,1,0,0:0:0:0:
64,192,91826,1,0,0:0:0:70:LR_Kick Hard Fast.wav
448,192,91826,1,0,0:0:0:70:LR3_Snare WRH.wav
320,192,91951,1,0,0:0:0:50:LR_Snare Hit.wav
448,192,92076,1,0,0:0:0:70:LR3_Snare WRH.wav
192,192,92076,1,0,0:0:0:0:
64,192,92076,1,0,0:0:0:70:LR_Kick Hard Fast.wav
320,192,92201,1,0,0:0:0:50:LR_Snare Hit.wav
64,192,92326,1,0,0:0:0:70:LR_Kick Hard Fast.wav
448,192,92326,1,0,0:0:0:70:LR3_Snare WRH.wav
320,192,92326,1,0,0:0:0:0:
192,192,92451,1,0,0:0:0:50:LR_Snare Hit.wav
320,192,92513,1,0,0:0:0:50:LR_Snare Hit.wav
192,192,92576,1,0,0:0:0:70:LR_Kick Hard Fast.wav
64,192,92576,1,0,0:0:0:0:
448,192,92576,1,0,0:0:0:70:LR3_Snare WRH.wav
320,192,92701,1,0,0:0:0:50:LR_Snare Hit.wav
448,192,92826,1,0,0:0:0:70:LR3_Snare WRH.wav
64,192,92826,1,0,0:0:0:70:LR_Kick Hard Fast.wav
192,192,92826,1,0,0:0:0:0:
192,192,92951,1,0,0:0:0:50:LR_Snare Hit.wav
64,192,93076,1,0,0:0:0:70:LR_Kick Hard Fast.wav
320,192,93076,1,0,0:0:0:0:
448,192,93076,1,0,0:0:0:70:LR3_Snare WRH.wav
64,192,93201,1,0,0:0:0:50:LR_Snare Hit.wav
320,192,93263,1,0,0:0:0:50:LR_Snare Hit.wav
64,192,93326,1,0,0:0:0:70:LR3_Snare WRH.wav
448,192,93326,1,0,0:0:0:70:LR_Kick Hard Fast.wav
192,192,93326,1,0,0:0:0:0:
192,192,93451,1,0,0:0:0:0:
448,192,93576,1,0,0:0:0:0:
320,192,93576,1,0,0:0:0:70:LR_Kick Hard Fast.wav
64,192,93576,1,0,0:0:0:70:LR3_Snare WRH.wav
448,192,93701,1,0,0:0:0:0:
320,192,93701,1,0,0:0:0:70:LR_Kick Hard Fast.wav
64,192,93701,1,0,0:0:0:70:LR3_Snare WRH.wav
448,192,93826,1,0,0:0:0:0:
320,192,93826,1,0,0:0:0:70:LR_Kick Hard Fast.wav
64,192,93826,1,0,0:0:0:70:LR3_Snare WRH.wav
192,192,93951,1,0,0:0:0:50:LR_Snare Hit.wav
448,192,94076,1,0,0:0:0:70:LR_Kick Hard Fast.wav
320,192,94076,1,0,0:0:0:0:
64,192,94076,1,0,0:0:0:70:LR3_Snare WRH.wav
320,192,94201,1,0,0:0:0:50:LR_Snare Hit.wav
448,192,94326,1,0,0:0:0:70:LR_Kick Hard Fast.wav
192,192,94326,1,0,0:0:0:0:
64,192,94326,1,0,0:0:0:70:LR3_Snare WRH.wav
320,192,94451,1,0,0:0:0:0:
192,192,94513,1,0,0:0:0:0:
320,192,94576,1,0,0:0:0:0:
448,192,94576,1,0,0:0:0:70:LR_Kick Hard Fast.wav
64,192,94576,1,0,0:0:0:70:LR3_Snare WRH.wav
64,192,94701,1,0,0:0:0:0:
192,192,94826,1,0,0:0:0:30:cymbol.wav
320,192,94826,1,0,0:0:0:70:LR3_Snare WRH.wav
448,192,94826,1,0,0:0:0:70:LR_Kick Hard Fast.wav
64,192,94951,1,0,0:0:0:0:
320,192,95076,1,0,0:0:0:0:
192,192,95138,1,0,0:0:0:0:
320,192,95201,1,0,0:0:0:0:
192,192,95263,1,0,0:0:0:0:
448,192,95326,1,0,0:0:0:70:LR_Kick Hard Fast.wav
320,192,95326,1,0,0:0:0:30:cymbol.wav
64,192,95326,1,0,0:0:0:70:LR3_Snare WRH.wav
192,192,95451,1,0,0:0:0:0:
320,192,95576,1,0,0:0:0:0:
192,192,95638,1,0,0:0:0:0:
320,192,95701,1,0,0:0:0:0:
192,192,95763,1,0,0:0:0:0:
448,192,95826,1,0,0:0:0:70:LR_Kick Hard Fast.wav
320,192,95826,1,0,0:0:0:30:cymbol.wav
64,192,95826,1,0,0:0:0:70:LR3_Snare WRH.wav
192,192,95951,1,0,0:0:0:50:LR_Snare Hit.wav
64,192,96076,1,0,0:0:0:70:LR3_Snare WRH.wav
320,192,96076,1,0,0:0:0:0:
448,192,96076,1,0,0:0:0:70:LR_Kick Hard Fast.wav
192,192,96201,1,0,0:0:0:50:LR_Snare Hit.wav
320,192,96326,1,0,0:0:0:70:LR3_Snare WRH.wav
192,192,96326,1,0,0:0:0:0:
448,192,96326,1,0,0:0:0:70:LR_Kick Hard Fast.wav
64,192,96451,1,0,0:0:0:50:LR_Snare Hit.wav
320,192,96513,1,0,0:0:0:50:LR_Snare Hit.wav
448,192,96576,1,0,0:0:0:70:LR_Kick Hard Fast.wav
64,192,96576,1,0,0:0:0:0:
192,192,96576,1,0,0:0:0:70:LR3_Snare WRH.wav
320,192,96701,1,0,0:0:0:50:LR_Snare Hit.wav
448,192,96826,1,0,0:0:0:70:LR3_Snare WRH.wav
192,192,96826,1,0,0:0:0:0:
64,192,96826,1,0,0:0:0:70:LR_Kick Hard Fast.wav
448,192,96951,1,0,0:0:0:50:LR_Snare Hit.wav
320,192,97076,1,0,0:0:0:0:
192,192,97076,1,0,0:0:0:70:LR3_Snare WRH.wav
64,192,97076,1,0,0:0:0:70:LR_Kick Hard Fast.wav
448,192,97201,1,0,0:0:0:50:LR_Snare Hit.wav
192,192,97263,1,0,0:0:0:50:LR_Snare Hit.wav
448,192,97326,1,0,0:0:0:70:LR_Kick Hard Fast.wav
320,192,97326,1,0,0:0:0:0:
64,192,97326,1,0,0:0:0:70:LR3_Snare WRH.wav
192,192,97451,1,0,0:0:0:0:
448,192,97576,1,0,0:0:0:0:
320,192,97576,1,0,0:0:0:70:LR_Kick Hard Fast.wav
64,192,97576,1,0,0:0:0:70:LR3_Snare WRH.wav
448,192,97701,1,0,0:0:0:0:
320,192,97701,1,0,0:0:0:70:LR_Kick Hard Fast.wav
64,192,97701,1,0,0:0:0:70:LR3_Snare WRH.wav
448,192,97826,1,0,0:0:0:0:
320,192,97826,1,0,0:0:0:70:LR_Kick Hard Fast.wav
64,192,97826,1,0,0:0:0:70:LR3_Snare WRH.wav
192,192,97951,1,0,0:0:0:50:LR_Snare Hit.wav
448,192,98076,1,0,0:0:0:70:LR_Kick Hard Fast.wav
320,192,98076,1,0,0:0:0:0:
64,192,98076,1,0,0:0:0:70:LR3_Snare WRH.wav
320,192,98201,1,0,0:0:0:50:LR_Snare Hit.wav
448,192,98326,1,0,0:0:0:70:LR_Kick Hard Fast.wav
192,192,98326,1,0,0:0:0:0:
64,192,98326,1,0,0:0:0:70:LR3_Snare WRH.wav
320,192,98451,1,0,0:0:0:0:
64,192,98513,1,0,0:0:0:0:
448,192,98576,1,0,0:0:0:50:LR_Snare Hit.wav
192,192,98638,1,0,0:0:0:50:LR_Snare Hit.wav
448,192,98701,1,0,0:0:0:50:LR_Snare Hit.wav
192,192,98763,1,0,0:0:0:50:LR_Snare Hit.wav
448,192,98826,1,0,0:0:0:0:
320,192,98826,1,0,0:0:0:70:LR_Kick Hard Fast.wav
64,192,98826,128,0,99263:0:0:0:30:cymbol.wav
192,192,98951,1,0,0:0:0:0:
448,192,99076,1,0,0:0:0:0:
320,192,99201,1,0,0:0:0:0:
64,192,99326,128,0,99763:0:0:0:30:cymbol.wav
448,192,99326,128,0,99763:0:0:0:0:
192,192,99326,1,0,0:0:0:70:LR_Kick Hard Fast.wav
448,192,99826,128,0,100263:0:0:0:30:cymbol.wav
64,192,99826,1,0,0:0:0:70:LR_Kick Hard Fast.wav
448,192,100326,128,0,100763:0:0:0:0:
64,192,100326,1,0,0:0:0:70:LR_Kick Hard Fast.wav
64,192,100826,128,0,101076:0:0:0:0:
448,192,100826,1,0,0:0:0:70:LR_Kick Hard Fast.wav
192,192,101201,1,0,0:0:0:0:
64,192,101201,1,0,0:0:0:70:LR_Kick Hard Fast.wav
320,192,101326,128,0,101451:0:0:0:0:
448,192,101326,1,0,0:0:0:70:LR_Kick Hard Fast.wav
192,192,101576,1,0,0:0:0:0:
64,192,101576,1,0,0:0:0:70:LR_Kick Hard Fast.wav
192,192,101826,1,0,0:0:0:0:
64,192,101826,1,0,0:0:0:70:LR_Kick Hard Fast.wav
320,192,102013,1,0,0:0:0:70:LR_Kick Hard Fast.wav
192,192,102013,1,0,0:0:0:0:
64,192,102076,1,0,0:0:0:0:
448,192,102076,1,0,0:0:0:70:LR_Kick Hard Fast.wav
192,192,102326,1,0,0:0:0:70:LR_Kick Hard Fast.wav
64,192,102326,128,0,102576:0:0:0:0:
320,192,102576,1,0,0:0:0:0:
192,192,102638,5,0,0:0:0:0:
320,192,102701,1,0,0:0:0:0:
192,192,102763,1,0,0:0:0:0:
448,192,102826,128,0,103263:0:0:0:0:
320,192,102826,1,0,0:0:0:70:LR_Kick Hard Fast.wav
448,192,103326,128,0,103763:0:0:0:0:
64,192,103326,1,0,0:0:0:70:LR_Kick Hard Fast.wav
448,192,103826,5,0,0:0:0:30:cymbol.wav
192,192,103826,1,0,0:0:0:70:LR_Kick Hard Fast.wav
64,192,103826,1,0,0:0:0:0:
448,192,104076,1,0,0:0:0:0:
192,192,104076,1,0,0:0:0:70:LR_Kick Hard Fast.wav
64,192,104076,1,0,0:0:0:0:
64,192,104326,1,0,0:0:0:0:
320,192,104326,1,0,0:0:0:70:LR_Kick Hard Fast.wav
448,192,104326,1,0,0:0:0:0:
448,192,104576,1,0,0:0:0:0:
320,192,104576,1,0,0:0:0:70:LR_Kick Hard Fast.wav
64,192,104576,1,0,0:0:0:0:
448,192,104826,1,0,0:0:0:0:
192,192,104826,1,0,0:0:0:70:LR_Kick Hard Fast.wav
64,192,104826,1,0,0:0:0:0:
64,192,105076,1,0,0:0:0:0:
192,192,105076,1,0,0:0:0:70:LR_Kick Hard Fast.wav
448,192,105076,1,0,0:0:0:0:
64,192,105326,1,0,0:0:0:0:
320,192,105326,1,0,0:0:0:70:LR_Kick Hard Fast.wav
448,192,105326,1,0,0:0:0:0:
448,192,105576,1,0,0:0:0:0:
320,192,105576,1,0,0:0:0:70:LR_Kick Hard Fast.wav
64,192,105576,1,0,0:0:0:0:
320,192,105763,1,0,0:0:0:70:LR_Kick Hard Fast.wav
448,192,105826,1,0,0:0:0:70:LR_Kick Hard Fast.wav
192,192,105826,1,0,0:0:0:0:
64,192,105826,1,0,0:0:0:50:LR_Snare Hit.wav
64,192,105951,1,0,0:0:0:50:LR_Snare Hit.wav
192,192,105951,1,0,0:0:0:0:
448,192,105951,1,0,0:0:0:70:LR_Kick Hard Fast.wav
192,192,106076,1,0,0:0:0:0:
64,192,106076,1,0,0:0:0:50:LR_Snare Hit.wav
448,192,106076,1,0,0:0:0:70:LR_Kick Hard Fast.wav
192,192,106201,5,0,0:0:0:0:
64,192,106201,1,0,0:0:0:50:LR_Snare Hit.wav
448,192,106201,1,0,0:0:0:70:LR_Kick Hard Fast.wav
448,192,106326,1,0,0:0:0:70:LR_Kick Hard Fast.wav
64,192,106326,1,0,0:0:0:50:LR_Snare Hit.wav
320,192,106326,1,0,0:0:0:0:
448,192,106451,1,0,0:0:0:70:LR_Kick Hard Fast.wav
64,192,106451,1,0,0:0:0:50:LR_Snare Hit.wav
320,192,106451,1,0,0:0:0:0:
320,192,106576,1,0,0:0:0:0:
64,192,106576,1,0,0:0:0:50:LR_Snare Hit.wav
448,192,106576,1,0,0:0:0:70:LR_Kick Hard Fast.wav
320,192,106701,1,0,0:0:0:0:
64,192,106701,1,0,0:0:0:50:LR_Snare Hit.wav
448,192,106701,1,0,0:0:0:70:LR_Kick Hard Fast.wav
320,192,107326,5,0,0:0:0:0:
192,192,107388,1,0,0:0:0:0:
320,192,107451,1,0,0:0:0:0:
192,192,107513,1,0,0:0:0:0:
448,192,107576,128,0,107826:0:0:0:0:
64,192,107826,1,0,0:0:0:70:LR_Snare Hit.wav
320,192,107888,1,0,0:0:0:70:LR_Snare Hit.wav
64,192,107951,1,0,0:0:0:70:LR_Snare Hit.wav
320,192,108013,1,0,0:0:0:70:LR_Snare Hit.wav
64,192,108076,1,0,0:0:0:70:LR_Snare Hit.wav
320,192,108138,1,0,0:0:0:70:LR_Snare Hit.wav
64,192,108201,1,0,0:0:0:70:LR_Snare Hit.wav
320,192,108263,1,0,0:0:0:70:LR_Snare Hit.wav
64,192,108326,1,0,0:0:0:70:LR_Snare Hit.wav
320,192,108388,1,0,0:0:0:70:LR_Snare Hit.wav
64,192,108451,1,0,0:0:0:70:LR_Snare Hit.wav
320,192,108513,1,0,0:0:0:70:LR_Snare Hit.wav
192,192,108576,128,0,108701:0:0:0:0:
448,192,108701,128,0,108826:0:0:0:0:
64,192,108826,1,0,0:0:0:70:LR_Snare Hit.wav
320,192,108888,1,0,0:0:0:70:LR_Snare Hit.wav
64,192,108951,1,0,0:0:0:70:LR_Snare Hit.wav
320,192,109013,1,0,0:0:0:70:LR_Snare Hit.wav
64,192,109076,1,0,0:0:0:70:LR_Snare Hit.wav
320,192,109138,1,0,0:0:0:70:LR_Snare Hit.wav
64,192,109201,1,0,0:0:0:70:LR_Snare Hit.wav
320,192,109263,1,0,0:0:0:70:LR_Snare Hit.wav
64,192,109326,1,0,0:0:0:70:LR_Snare Hit.wav
320,192,109388,1,0,0:0:0:70:LR_Snare Hit.wav
64,192,109451,1,0,0:0:0:70:LR_Snare Hit.wav
320,192,109513,1,0,0:0:0:70:LR_Snare Hit.wav
448,192,109576,128,0,109638:0:0:0:0:
320,192,109638,128,0,109701:0:0:0:0:
192,192,109701,128,0,109763:0:0:0:0:
64,192,109763,128,0,109826:0:0:0:0:
448,192,109826,1,0,0:0:0:70:LR_Snare Hit.wav
192,192,109888,1,0,0:0:0:70:LR_Snare Hit.wav
448,192,109951,1,0,0:0:0:70:LR_Snare Hit.wav
192,192,110013,1,0,0:0:0:70:LR_Snare Hit.wav
448,192,110076,1,0,0:0:0:70:LR_Snare Hit.wav
192,192,110138,1,0,0:0:0:70:LR_Snare Hit.wav
448,192,110201,1,0,0:0:0:70:LR_Snare Hit.wav
192,192,110263,1,0,0:0:0:70:LR_Snare Hit.wav
448,192,110326,1,0,0:0:0:70:LR_Snare Hit.wav
192,192,110388,1,0,0:0:0:70:LR_Snare Hit.wav
448,192,110451,1,0,0:0:0:70:LR_Snare Hit.wav
192,192,110513,1,0,0:0:0:70:LR_Snare Hit.wav
448,192,110576,128,0,110638:0:0:0:0:
320,192,110638,128,0,110701:0:0:0:0:
192,192,110701,128,0,110763:0:0:0:0:
64,192,110763,128,0,110826:0:0:0:0:
448,192,110826,1,0,0:0:0:70:LR_Snare Hit.wav
192,192,110888,1,0,0:0:0:70:LR_Snare Hit.wav
448,192,110951,1,0,0:0:0:70:LR_Snare Hit.wav
192,192,111013,1,0,0:0:0:70:LR_Snare Hit.wav
448,192,111076,1,0,0:0:0:70:LR_Snare Hit.wav
192,192,111138,1,0,0:0:0:70:LR_Snare Hit.wav
448,192,111201,1,0,0:0:0:70:LR_Snare Hit.wav
192,192,111263,1,0,0:0:0:70:LR_Snare Hit.wav
448,192,111326,1,0,0:0:0:70:LR_Snare Hit.wav
192,192,111388,1,0,0:0:0:70:LR_Snare Hit.wav
448,192,111451,1,0,0:0:0:70:LR_Snare Hit.wav
192,192,111513,1,0,0:0:0:70:LR_Snare Hit.wav
320,192,111576,128,0,111701:0:0:0:0:
64,192,111701,128,0,111826:0:0:0:0:
448,192,111826,1,0,0:0:0:70:LR_Snare Hit.wav
320,192,111888,1,0,0:0:0:70:LR_Snare Hit.wav
64,192,111951,1,0,0:0:0:70:LR_Snare Hit.wav
192,192,112013,1,0,0:0:0:70:LR_Snare Hit.wav
448,192,112076,128,0,112201:0:0:0:0:
192,192,112201,128,0,112326:0:0:0:0:
448,192,112326,1,0,0:0:0:70:LR_Snare Hit.wav
320,192,112388,1,0,0:0:0:70:LR_Snare Hit.wav
64,192,112451,1,0,0:0:0:70:LR_Snare Hit.wav
192,192,112513,1,0,0:0:0:70:LR_Snare Hit.wav
448,192,112576,128,0,112638:0:0:0:0:
320,192,112638,128,0,112701:0:0:0:0:
192,192,112701,128,0,112763:0:0:0:0:
64,192,112763,128,0,112826:0:0:0:0:
448,192,112826,1,0,0:0:0:70:LR_Snare Hit.wav
320,192,112888,1,0,0:0:0:70:LR_Snare Hit.wav
192,192,112951,128,0,113076:0:0:0:0:
64,192,113076,128,0,113201:0:0:0:0:
320,192,113201,128,0,113326:0:0:0:0:
448,192,113326,128,0,113451:0:0:0:0:
64,192,113451,128,0,113576:0:0:0:0:
192,192,113576,128,0,113701:0:0:0:0:
448,192,113701,128,0,113826:0:0:0:0:
64,192,113826,1,0,0:0:0:70:LR_Snare Hit.wav
192,192,113888,1,0,0:0:0:70:LR_Snare Hit.wav
320,192,113951,128,0,114076:0:0:0:0:
64,192,114076,1,0,0:0:0:70:LR_Snare Hit.wav
192,192,114138,1,0,0:0:0:70:LR_Snare Hit.wav
448,192,114201,128,0,114326:0:0:0:0:
64,192,114326,1,0,0:0:0:70:LR_Snare Hit.wav
192,192,114388,1,0,0:0:0:70:LR_Snare Hit.wav
448,192,114451,1,0,0:0:0:70:LR_Snare Hit.wav
320,192,114513,1,0,0:0:0:70:LR_Snare Hit.wav
64,192,114576,128,0,114701:0:0:0:0:
448,192,114701,1,0,0:0:0:70:LR_Snare Hit.wav
320,192,114763,1,0,0:0:0:70:LR_Snare Hit.wav
192,192,114826,128,0,114951:0:0:0:0:
448,192,114951,1,0,0:0:0:70:LR_Snare Hit.wav
320,192,115013,1,0,0:0:0:70:LR_Snare Hit.wav
64,192,115076,1,0,0:0:0:70:LR_Snare Hit.wav
192,192,115138,1,0,0:0:0:70:LR_Snare Hit.wav
448,192,115201,128,0,115263:0:0:0:0:
320,192,115263,128,0,115326:0:0:0:0:
64,192,115326,1,0,0:0:0:70:LR_Snare Hit.wav
192,192,115388,1,0,0:0:0:70:LR_Snare Hit.wav
448,192,115451,128,0,115513:0:0:0:0:
320,192,115513,128,0,115576:0:0:0:0:
64,192,115576,1,0,0:0:0:70:LR_Snare Hit.wav
192,192,115576,128,0,115826:0:0:0:0:
448,192,115826,1,0,0:0:0:100:LR_Kick Normal .wav
64,192,115888,1,0,0:0:0:100:LR_Kick Normal .wav
448,192,115951,1,0,0:0:0:100:LR_Kick Normal .wav
64,192,116013,1,0,0:0:0:100:LR_Kick Normal .wav
448,192,116076,1,0,0:0:0:100:LR_Kick Normal .wav
64,192,116138,1,0,0:0:0:100:LR_Kick Normal .wav
448,192,116201,1,0,0:0:0:100:LR_Kick Normal .wav
64,192,116263,1,0,0:0:0:100:LR_Kick Normal .wav
448,192,116326,1,0,0:0:0:100:LR_Kick Normal .wav
64,192,116388,1,0,0:0:0:100:LR_Kick Normal .wav
448,192,116451,1,0,0:0:0:100:LR_Kick Normal .wav
64,192,116513,1,0,0:0:0:100:LR_Kick Normal .wav
448,192,116576,1,0,0:0:0:100:LR_Kick Normal .wav
64,192,116638,1,0,0:0:0:100:LR_Kick Normal .wav
448,192,116701,1,0,0:0:0:100:LR_Kick Normal .wav
64,192,116763,1,0,0:0:0:100:LR_Kick Normal .wav
448,192,116826,1,0,0:0:0:100:LR_Kick Normal .wav
64,192,116888,1,0,0:0:0:100:LR_Kick Normal .wav
448,192,116951,1,0,0:0:0:100:LR_Kick Normal .wav
64,192,117013,1,0,0:0:0:100:LR_Kick Normal .wav
448,192,117076,1,0,0:0:0:100:LR_Kick Normal .wav
64,192,117138,1,0,0:0:0:100:LR_Kick Normal .wav
448,192,117201,1,0,0:0:0:100:LR_Kick Normal .wav
64,192,117263,1,0,0:0:0:100:LR_Kick Normal .wav
448,192,117326,1,0,0:0:0:100:LR_Kick Normal .wav
64,192,117388,1,0,0:0:0:100:LR_Kick Normal .wav
448,192,117451,1,0,0:0:0:100:LR_Kick Normal .wav
64,192,117513,1,0,0:0:0:100:LR_Kick Normal .wav
448,192,117576,1,0,0:0:0:100:LR_Kick Normal .wav
320,192,117638,1,0,0:0:0:100:LR_Kick Normal .wav
192,192,117701,1,0,0:0:0:100:LR_Kick Normal .wav
64,192,117763,1,0,0:0:0:100:LR_Kick Normal .wav
448,192,117826,1,0,0:0:0:100:LR_Kick Normal .wav
320,192,117888,1,0,0:0:0:100:LR_Kick Normal .wav
192,192,117951,1,0,0:0:0:100:LR_Kick Normal .wav
64,192,118013,1,0,0:0:0:100:LR_Kick Normal .wav
448,192,118076,1,0,0:0:0:100:LR_Kick Normal .wav
320,192,118138,1,0,0:0:0:100:LR_Kick Normal .wav
192,192,118201,1,0,0:0:0:100:LR_Kick Normal .wav
64,192,118263,1,0,0:0:0:100:LR_Kick Normal .wav
192,192,118326,1,0,0:0:0:100:LR_Kick Normal .wav
320,192,118388,1,0,0:0:0:100:LR_Kick Normal .wav
448,192,118451,1,0,0:0:0:100:LR_Kick Normal .wav
64,192,118513,1,0,0:0:0:100:LR_Kick Normal .wav
192,192,118576,1,0,0:0:0:100:LR_Kick Normal .wav
320,192,118638,1,0,0:0:0:100:LR_Kick Normal .wav
448,192,118701,1,0,0:0:0:100:LR_Kick Normal .wav
64,192,118763,1,0,0:0:0:100:LR_Kick Normal .wav
192,192,118826,1,0,0:0:0:100:LR_Kick Normal .wav
320,192,118888,1,0,0:0:0:100:LR_Kick Normal .wav
448,192,118951,1,0,0:0:0:100:LR_Kick Normal .wav
64,192,119013,1,0,0:0:0:100:LR_Kick Normal .wav
192,192,119076,1,0,0:0:0:100:LR_Kick Normal .wav
320,192,119138,1,0,0:0:0:100:LR_Kick Normal .wav
448,192,119201,1,0,0:0:0:100:LR_Kick Normal .wav
64,192,119263,1,0,0:0:0:100:LR_Kick Normal .wav
192,192,119326,1,0,0:0:0:100:LR_Kick Normal .wav
320,192,119388,1,0,0:0:0:100:LR_Kick Normal .wav
448,192,119451,1,0,0:0:0:100:LR_Kick Normal .wav
64,192,119513,1,0,0:0:0:100:LR_Kick Normal .wav
192,192,119576,1,0,0:0:0:100:LR_Kick Normal .wav
320,192,119638,1,0,0:0:0:100:LR_Kick Normal .wav
448,192,119701,1,0,0:0:0:100:LR_Kick Normal .wav
64,192,119763,1,0,0:0:0:100:LR_Kick Normal .wav
192,192,119826,1,0,0:0:0:100:LR_Kick Normal .wav
320,192,119888,1,0,0:0:0:100:LR_Kick Normal .wav
448,192,119951,1,0,0:0:0:100:LR_Kick Normal .wav
64,192,120013,1,0,0:0:0:100:LR_Kick Normal .wav
192,192,120076,1,0,0:0:0:100:LR_Kick Normal .wav
320,192,120138,1,0,0:0:0:100:LR_Kick Normal .wav
448,192,120201,1,0,0:0:0:100:LR_Kick Normal .wav
64,192,120263,1,0,0:0:0:100:LR_Kick Normal .wav
192,192,120326,1,0,0:0:0:100:LR_Kick Normal .wav
320,192,120388,1,0,0:0:0:100:LR_Kick Normal .wav
448,192,120451,1,0,0:0:0:100:LR_Kick Normal .wav
64,192,120513,1,0,0:0:0:100:LR_Kick Normal .wav
192,192,120576,1,0,0:0:0:100:LR_Kick Normal .wav
320,192,120638,1,0,0:0:0:100:LR_Kick Normal .wav
448,192,120701,1,0,0:0:0:100:LR_Kick Normal .wav
64,192,120763,1,0,0:0:0:100:LR_Kick Normal .wav
448,192,120826,1,0,0:0:0:100:LR_Kick Normal .wav
64,192,120888,1,0,0:0:0:100:LR_Kick Normal .wav
448,192,120951,1,0,0:0:0:100:LR_Kick Normal .wav
64,192,121013,1,0,0:0:0:100:LR_Kick Normal .wav
448,192,121076,1,0,0:0:0:60:LR_Kick Normal .wav
64,192,121138,1,0,0:0:0:60:LR_Kick Normal .wav
448,192,121201,1,0,0:0:0:40:LR_Kick Normal .wav
64,192,121263,1,0,0:0:0:40:LR_Kick Normal .wav
448,192,121326,1,0,0:0:0:20:LR_Kick Normal .wav
64,192,121388,1,0,0:0:0:20:LR_Kick Normal .wav
448,192,121451,1,0,0:0:0:20:LR_Kick Normal .wav
192,192,121507,1,0,0:0:0:30:LR_Hat Normal.wav
64,192,121742,1,0,0:0:0:50:C#5S_Db5S_s.wav
192,192,121859,1,0,0:0:0:50:D#5S_Eb5S_s.wav
448,192,121859,1,0,0:0:0:30:LR_Hat Normal.wav
320,192,122095,1,0,0:0:0:50:F5S_s.wav
448,192,122212,1,0,0:0:0:50:C#4S_Db4S_s.wav
64,192,122212,1,0,0:0:0:100:LR_Kick Normal .wav
192,192,122447,1,0,0:0:0:50:F#4S_Gb4S_s.wav
64,192,122447,1,0,0:0:0:30:LR_Snare Hit.wav
448,192,122564,1,0,0:0:0:50:F#3S_Gb3S_s.wav
448,192,122800,1,0,0:0:0:50:F#4S_Gb4S_s.wav
320,192,122800,1,0,0:0:0:30:LR_Snare Hit.wav
64,192,122917,1,0,0:0:0:50:A#3S_Bb3S_s.wav
448,192,123153,1,0,0:0:0:50:F#4S_Gb4S_s.wav
320,192,123153,1,0,0:0:0:30:LR_Snare Hit.wav
192,192,123270,1,0,0:0:0:50:F#3S_Gb3S_s.wav
192,192,123506,1,0,0:0:0:50:A#3S_Bb3S_s.wav
64,192,123506,1,0,0:0:0:30:LR_Snare Hit.wav
320,192,123623,1,0,0:0:0:50:C#4S_Db4S_s.wav
448,192,123859,1,0,0:0:0:50:A#3S_Bb3S_s.wav
320,192,123859,1,0,0:0:0:30:LR_Snare Hit.wav
192,192,123976,1,0,0:0:0:50:F#3S_Gb3S_s.wav
192,192,124212,1,0,0:0:0:30:LR_Snare Hit.wav
64,192,124212,1,0,0:0:0:50:F#4S_Gb4S_s.wav
448,192,124329,1,0,0:0:0:100:LR_Kick Normal .wav
192,192,124564,1,0,0:0:0:50:A#3S_Bb3S_s.wav
64,192,124564,1,0,0:0:0:30:LR_Snare Hit.wav
320,192,124682,1,0,0:0:0:50:G#3S_Ab3S_s.wav
448,192,124917,1,0,0:0:0:30:LR_Snare Hit.wav
320,192,124917,1,0,0:0:0:50:F#4S_Gb4S_s.wav
64,192,125035,1,0,0:0:0:50:C#4S_Db4S_s.wav
192,192,125270,1,0,0:0:0:30:LR_Snare Hit.wav
64,192,125270,1,0,0:0:0:50:F#4S_Gb4S_s.wav
448,192,125388,1,0,0:0:0:50:F#3S_Gb3S_s.wav
448,192,125623,1,0,0:0:0:50:F#4S_Gb4S_s.wav
320,192,125623,1,0,0:0:0:30:LR_Snare Hit.wav
64,192,125741,1,0,0:0:0:50:A#3S_Bb3S_s.wav
448,192,125976,1,0,0:0:0:50:F#4S_Gb4S_s.wav
320,192,125976,1,0,0:0:0:30:LR_Snare Hit.wav
192,192,126094,1,0,0:0:0:50:F#3S_Gb3S_s.wav
192,192,126329,1,0,0:0:0:50:A#3S_Bb3S_s.wav
64,192,126329,1,0,0:0:0:30:LR_Snare Hit.wav
320,192,126447,1,0,0:0:0:50:C#4S_Db4S_s.wav
448,192,126682,1,0,0:0:0:50:A#3S_Bb3S_s.wav
320,192,126682,1,0,0:0:0:30:LR_Snare Hit.wav
192,192,126800,1,0,0:0:0:50:F#3S_Gb3S_s.wav
192,192,127035,1,0,0:0:0:50:F#4S_Gb4S_s.wav
64,192,127035,1,0,0:0:0:30:LR_Snare Hit.wav
448,192,127153,1,0,0:0:0:100:LR_Kick Normal .wav
192,192,127388,1,0,0:0:0:50:A#3S_Bb3S_s.wav
64,192,127388,1,0,0:0:0:30:LR_Snare Hit.wav
64,192,127506,1,0,0:0:0:50:LR_Snare Hit.wav
320,192,127506,1,0,0:0:0:50:G#3S_Ab3S_s.wav
448,192,127506,1,0,0:0:0:50:F5S_s.wav
448,192,127741,1,0,0:0:0:30:LR_Snare Hit.wav
320,192,127741,1,0,0:0:0:50:A#3S_Bb3S_s.wav
192,192,127859,1,0,0:0:0:50:D#3S_Eb3S_s.wav
448,192,128094,1,0,0:0:0:50:B4S_s.wav
320,192,128094,1,0,0:0:0:30:LR_Snare Hit.wav
64,192,128212,1,0,0:0:0:50:G#3S_Ab3S_s.wav
192,192,128447,1,0,0:0:0:30:LR_Snare Hit.wav
64,192,128447,1,0,0:0:0:50:B4S_s.wav
320,192,128564,1,0,0:0:0:50:B3S_s.wav
192,192,128800,1,0,0:0:0:50:B4S_s.wav
64,192,128800,1,0,0:0:0:30:LR_Snare Hit.wav
448,192,128917,1,0,0:0:0:50:G#3S_Ab3S_s.wav
448,192,129175,1,0,0:0:0:50:B4S_s.wav
320,192,129175,1,0,0:0:0:30:LR_Snare Hit.wav
192,192,129304,1,0,0:0:0:50:D#3S_Eb3S_s.wav
64,192,129570,1,0,0:0:0:30:LR_Snare Hit.wav
192,192,129570,1,0,0:0:0:50:G#3S_Ab3S_s.wav
448,192,129704,1,0,0:0:0:50:B4S_s.wav
448,192,129970,128,0,130370:0:0:0:30:LR_Snare Hit.wav
320,192,129970,128,0,130370:0:0:0:50:B4S_s.wav
64,192,130104,1,0,0:0:0:100:LR_Kick Normal .wav
192,192,130370,1,0,0:0:0:25:LR_Snare Hit.wav
64,192,130370,1,0,0:0:0:25:LR_Snare Hit.wav
320,192,130504,1,0,0:0:0:50:G#3S_Ab3S_s.wav
448,192,130504,1,0,0:0:0:50:LR_Snare Hit.wav
192,192,130770,1,0,0:0:0:25:LR_Snare Hit.wav
64,192,130770,1,0,0:0:0:25:LR_Snare Hit.wav
448,192,130904,1,0,0:0:0:100:LR_Kick Normal .wav
320,192,130904,1,0,0:0:0:50:A#3S_Bb3S_s.wav
64,192,130904,1,0,0:0:0:30:cymbol.wav
320,192,131746,1,0,0:0:0:100:LR_Kick Normal .wav
192,192,131746,1,0,0:0:0:30:cymbol.wav
64,192,131746,1,0,0:0:0:50:B3S_s.wav
192,192,132207,1,0,0:0:0:30:G#5S_Ab5S_s.wav
320,192,132438,1,0,0:0:0:100:LR_Kick Normal .wav
64,192,132438,1,0,0:0:0:30:cymbol.wav
448,192,132438,1,0,0:0:0:50:C#4S_Db4S_s.wav
320,192,132976,1,0,0:0:0:30:C#5S_Db5S_s.wav
448,192,133130,1,0,0:0:0:30:LR_Snare Hit.wav
64,192,133130,1,0,0:0:0:50:G#4S_Ab4S_s.wav
192,192,133592,1,0,0:0:0:50:LR_Tom Hit 3.wav
64,192,133592,1,0,0:0:0:50:D#5S_Eb5S_s.wav
448,192,133746,1,0,0:0:0:50:LR_Tom Hit 3.wav
192,192,133899,1,0,0:0:0:50:LR_Tom Hit 3.wav
448,192,134053,1,0,0:0:0:50:F5S_s.wav
320,192,134053,1,0,0:0:0:50:LR_Tom Hit 3.wav
64,192,134219,1,0,0:0:0:50:LR_Tom Hit 3.wav
320,192,134386,1,0,0:0:0:50:LR_Tom Hit 3.wav
192,192,134553,1,0,0:0:0:50:F#5S_Gb5S_s.wav
64,192,134553,1,0,0:0:0:100:LR_Kick Normal .wav
448,192,134553,1,0,0:0:0:30:cymbol.wav
192,192,135273,1,0,0:0:0:30:LR_Hat Normal.wav
320,192,135393,1,0,0:0:0:30:LR_Hat Normal.wav
192,192,135483,1,0,0:0:0:30:LR_Hat Normal.wav
320,192,135574,1,0,0:0:0:30:LR_Hat Normal.wav
448,192,135897,1,0,0:0:0:30:LR_Hat Normal.wav
448,192,136316,1,0,0:0:0:30:LR_Hat Normal.wav
64,192,136955,1,0,0:0:0:30:LR_Hat Normal.wav
448,192,137575,1,0,0:0:0:30:LR_Hat Normal.wav
448,192,138550,1,0,0:0:0:30:cymbol.wav
192,192,138550,1,0,0:0:0:100:LR_Kick Normal .wav
64,192,138550,1,0,0:0:0:50:F#5S_Gb5S_s.wav
