osu file format v14

[General]
AudioFilename: Musical Movement.mp3
AudioLeadIn: 0
PreviewTime: 55799
Countdown: 0
SampleSet: Soft
StackLeniency: 0.7
Mode: 0
LetterboxInBreaks: 0
WidescreenStoryboard: 1

[Editor]
DistanceSpacing: 1.4
BeatDivisor: 4
GridSize: 4
TimelineZoom: 2.4

[Metadata]
Title:Musical Movement
TitleUnicode:Musical Movement
Artist:LeaF
ArtistUnicode:LeaF
Creator:DarkVortex
Version:Standard
Source:
Tags:cslm overjoy featured artist fa
BeatmapID:537443
BeatmapSetID:158141

[Difficulty]
HPDrainRate:4
CircleSize:3
OverallDifficulty:4
ApproachRate:5
SliderMultiplier:0.88
SliderTickRate:1

[Events]
//Background and Video events
0,0,"258692.jpg",0,0
//Break Periods
2,29208,32273
2,107348,113762
//Storyboard Layer 0 (Background)
//Storyboard Layer 1 (Fail)
//Storyboard Layer 2 (Pass)
//Storyboard Layer 3 (Foreground)
//Storyboard Layer 4 (Overlay)
//Storyboard Sound Samples

[TimingPoints]
2218,279.06976744186,4,1,1,100,1,0
2218,-100,4,1,1,30,0,0
4450,-100,4,1,1,36,0,0
5008,-100,4,1,1,42,0,0
5566,-100,4,1,1,45,0,0
6124,-100,4,1,1,50,0,0
6683,-100,4,1,1,56,0,0
6962,-100,4,1,1,59,0,0
7241,-100,4,1,1,62,0,0
10590,-100,4,1,1,100,0,0
33473,-100,4,2,1,60,0,0
42404,-100,4,1,1,80,0,0
51334,-100,4,1,1,100,0,1
53566,-100,4,1,1,100,0,1
55520,-100,4,1,1,100,0,0
55799,-100,4,1,1,100,0,0
73659,-100,4,1,1,100,0,1
91520,-100,4,1,1,100,0,0
107148,-100,4,2,1,70,0,0
114962,-100,4,1,1,100,0,0
116078,-100,4,1,1,100,0,1
125008,-100,4,2,1,100,0,0

[Colours]
Combo1 : 205,84,44
Combo2 : 255,145,34
Combo3 : 240,0,0
Combo4 : 255,209,51
Combo5 : 255,255,176

[HitObjects]
344,32,2218,6,0,L|416:84,1,88,4|0,0:3|0:0,0:0:0:0:
414,173,2776,2,0,L|342:223,1,88
254,223,3334,2,0,L|183:172,1,88
182,83,3892,2,0,L|252:31,1,88
344,32,4450,6,0,L|432:32,1,88
432,120,5008,2,0,L|344:120,1,88
256,120,5566,2,0,L|180:46,2,88,0|0|2,0:0|0:0|0:2,0:0:0:0:
272,206,6404,1,2,0:2:0:0:
244,288,6683,6,0,P|188:332|88:300,2,176,0|0|0,0:0|0:0|0:0,0:0:0:0:
272,206,8078,1,0,0:0:0:0:
263,118,8357,1,0,0:0:0:0:
210,47,8636,1,0,0:0:0:0:
256,192,8915,12,4,10590,0:0:0:0:
40,26,11148,6,0,B|83:30|83:30|109:66,1,88,0|8,0:0|0:2,0:0:0:0:
34,114,11706,2,0,B|59:149|59:149|103:154,1,88,0|8,0:0|0:2,0:0:0:0:
178,104,12264,2,0,B|221:108|221:108|247:144,1,88,0|8,0:0|0:2,0:0:0:0:
173,194,12822,2,0,B|198:229|198:229|242:234,1,88,0|8,0:0|0:2,0:0:0:0:
318,190,13380,6,0,B|361:194|361:194|387:230,1,88,0|8,0:0|0:2,0:0:0:0:
312,279,13938,2,0,B|337:314|337:314|381:319,1,88,0|8,0:0|0:2,0:0:0:0:
460,278,14497,1,0,0:0:0:0:
492,198,14776,1,8,0:2:0:0:
496,110,15055,2,0,L|496:58,2,44,2|2|10,0:2|0:2|0:2,0:0:0:0:
412,80,15613,6,0,L|368:0,1,88,0|8,0:0|0:2,0:0:0:0:
280,12,16171,2,0,L|322:89,1,88,0|8,0:0|0:2,0:0:0:0:
260,152,16729,2,0,L|216:72,1,88,0|8,0:0|0:2,0:0:0:0:
136,44,17287,1,0,0:2:0:0:
144,132,17566,1,8,0:2:0:0:
188,208,17845,6,0,P|224:232|275:237,1,88,0|8,0:2|0:2,0:0:0:0:
260,152,18404,2,0,P|304:158|340:182,1,88,0|8,0:2|0:2,0:0:0:0:
364,220,18822,2,0,P|400:244|451:249,2,88,0|0|0,0:2|0:2|0:0,0:0:0:0:
352,264,19520,2,0,L|352:308,2,44,4|4|4,0:2|0:2|0:2,0:0:0:0:
272,300,20078,6,0,P|232:282|206:247,1,88,0|8,0:0|0:2,0:0:0:0:
128,295,20636,2,0,P|112:254|118:211,1,88,0|8,0:0|0:2,0:0:0:0:
30,194,21194,2,0,P|48:154|83:128,1,88,0|8,0:0|0:2,0:0:0:0:
31,52,21752,2,0,P|72:37|115:42,1,88,0|8,0:0|0:2,0:0:0:0:
168,112,22311,2,0,P|211:117|252:102,1,88,0|8,0:0|0:2,0:0:0:0:
285,20,22869,2,0,P|325:4|368:9,1,88,0|8,0:0|0:2,0:0:0:0:
432,72,23427,1,0,0:0:0:0:
408,156,23706,1,10,0:2:0:0:
492,184,23985,2,0,L|492:136,2,44,2|2|10,0:2|0:2|0:2,0:0:0:0:
448,260,24543,6,0,B|444:305|444:305|416:344,1,88,4|0,0:2|0:0,0:0:0:0:
360,272,25101,2,0,P|331:239|314:198,1,88,4|0,0:2|0:0,0:0:0:0:
270,198,25520,2,0,P|253:238|224:271,1,88,4|0,0:2|0:0,0:0:0:0:
140,240,26078,2,0,P|137:284|150:326,2,88,2|2|2,0:2|0:2|0:2,0:0:0:0:
152,197,26776,6,0,L|166:150,2,44,4|0|0,0:2|0:0|0:0,0:0:0:0:
234,227,27334,2,0,L|233:277,2,44,4|0|0,0:2|0:0|0:0,0:0:0:0:
319,245,27892,2,0,P|316:202|294:163,1,88,4|0,0:2|0:0,0:0:0:0:
376,132,28450,2,0,L|424:170,2,44,4|4|4,0:2|0:2|0:2,0:0:0:0:
305,79,29008,5,4,0:3:0:0:
512,200,33473,6,0,B|482:261|409:272|366:214|366:214|332:244|372:312|260:348,1,352,2|0,0:2|0:0,0:0:0:0:
24,252,35427,5,2,0:2:0:0:
0,168,35706,2,0,B|29:106|102:95|146:154|146:154|180:124|140:56|252:20,1,352,2|2,0:2|0:2,0:0:0:0:
420,216,37659,5,0,0:0:0:0:
345,263,37938,2,0,B|270:265|256:320|186:288|186:288|100:315|58:248|76:192,1,352,2|2,0:2|0:2,0:0:0:0:
220,92,39613,5,2,0:2:0:0:
272,164,39892,1,2,0:2:0:0:
360,176,40171,2,0,P|433:271|344:352,1,264,2|2,0:2|0:2,0:0:0:0:
300,352,41148,1,2,0:2:0:0:
256,352,41287,2,0,B|200:352|200:352|96:268,1,176,2|2,0:2|0:2,0:0:0:0:
108,100,42404,6,0,B|178:43|178:43|220:43,2,132,4|0|0,0:3|0:0|0:0,0:0:0:0:
40,156,43520,1,2,0:2:0:0:
212,128,44078,1,2,0:2:0:0:
384,100,44636,6,0,B|314:43|314:43|272:43,2,132,4|0|0,0:3|0:0|0:0,0:0:0:0:
452,156,45752,1,2,0:2:0:0:
352,300,46311,1,2,0:2:0:0:
272,336,46590,1,2,0:2:0:0:
184,344,46869,6,0,B|128:344|88:304|80:208|268:184,1,264,4|2,0:3|0:2,0:0:0:0:
317,189,47985,2,0,P|360:195|399:214,1,88,4|2,0:3|0:2,0:0:0:0:
400,304,48543,2,0,P|360:323|317:328,1,88,2|2,0:2|0:2,0:0:0:0:
248,384,49101,2,0,B|212:321|248:258|248:258|212:195|248:132,1,264,4|0,0:3|0:0,0:0:0:0:
296,56,50217,5,4,0:2:0:0:
384,36,50497,1,4,0:2:0:0:
460,80,50776,1,4,0:2:0:0:
488,164,51055,1,4,0:2:0:0:
444,240,51334,6,0,B|416:276|416:276|373:279,1,88
328,356,51892,2,0,B|292:328|292:328|288:285,1,88
216,236,52450,2,0,B|244:200|244:200|286:196,1,88
332,124,53008,2,0,B|368:152|368:152|371:194,1,88
456,228,53566,6,0,L|448:132,1,88
443,99,53985,1,0,0:0:0:0:
408,76,54124,2,0,L|332:20,1,88
276,88,54683,2,0,P|289:128|286:173,2,88
207,141,55520,1,14,0:2:0:0:
198,51,55799,5,4,0:0:0:0:
376,68,56357,2,0,P|419:71|455:96,1,88,2|8,0:2|0:2,0:2:0:0:
468,180,56915,2,0,B|421:188|388:152|388:152|372:240,1,176,2|2,0:2|0:2,0:2:0:0:
412,316,57752,1,10,0:2:0:0:
324,332,58031,2,0,B|271:262|271:262|287:167,2,176,2|2|2,0:2|0:2|0:2,0:0:0:0:
228,348,59427,6,0,L|260:392,2,44,10|2|2,0:2|0:2|0:2,0:0:0:0:
200,312,59845,2,0,L|168:268,2,44,2|10|2,0:2|0:2|0:2,0:0:0:0:
244,304,60264,5,0,0:0:0:0:
316,252,60543,1,10,0:2:0:0:
336,168,60822,2,0,P|313:130|279:102,1,88,2|10,0:2|0:2,0:0:0:0:
200,68,61380,1,0,0:0:0:0:
24,60,61938,6,0,P|36:101|61:137,1,88,2|10,0:2|0:2,0:0:0:0:
128,200,62497,1,0,0:0:0:0:
300,244,63055,2,0,L|360:252,1,44,2|2,0:2|0:2,0:0:0:0:
388,240,63334,2,0,L|448:248,1,44,10|2,0:2|0:2,0:0:0:0:
476,236,63613,1,2,0:2:0:0:
456,148,63892,2,0,L|368:136,2,88,10|2|10,0:2|0:2|0:2,0:0:0:0:
420,60,64729,6,0,B|360:52|360:52|320:56|296:88,2,132,4|4|4,0:2|0:2|0:2,0:0:0:0:
456,148,65845,2,0,L|368:168,1,88,2|10,0:2|0:2,0:0:0:0:
368,256,66404,2,0,L|288:220,1,88,2|10,0:2|0:2,0:0:0:0:
268,304,66962,6,0,B|207:299|207:299|169:287|152:250,2,132,4|4|4,0:2|0:2|0:2,0:0:0:0:
288,220,68078,2,0,B|229:217|229:217|199:176,1,88,2|10,0:2|0:2,0:0:0:0:
211,105,68636,2,0,B|188:50|188:50|139:36,1,88,2|10,0:2|0:2,0:0:0:0:
119,121,69194,6,0,P|258:339|393:119,1,616,2|2,0:2|0:2,0:0:0:0:
299,131,71427,6,0,P|256:259|212:132,2,352,2|2|4,0:2|0:2|0:0,0:0:0:0:
456,51,74217,6,0,P|458:116|502:164,1,132,2|2,0:2|0:2,0:0:0:0:
496,208,74776,2,0,P|450:280|366:298,1,176,2|0,0:2|0:0,0:0:0:0:
288,260,75613,1,2,0:2:0:0:
228,196,75892,6,0,P|220:144|276:72,1,132,2|2,0:2|0:2,0:0:0:0:
305,79,76450,2,0,P|343:130|338:195,1,132,2|2,0:2|0:2,0:0:0:0:
316,232,77008,2,0,P|268:280|204:288,1,132,2|2,0:2|0:2,0:0:0:0:
164,276,77566,1,2,0:2:0:0:
128,252,77706,1,2,0:2:0:0:
100,220,77845,2,0,L|68:176,2,44,10|2|2,0:2|0:2|0:2,0:0:0:0:
164,156,78404,5,8,0:2:0:0:
252,156,78683,2,0,B|293:153|293:153|328:120,2,88,2|8|2,0:2|0:2|0:2,0:0:0:0:
164,156,79520,1,8,0:2:0:0:
76,156,79799,2,0,B|34:158|34:158|0:188,1,88,2|10,0:2|0:2,0:0:0:0:
80,244,80357,6,0,P|144:216|152:108,1,176,2|2,0:2|0:2,0:0:0:0:
144,76,81055,1,2,0:2:0:0:
100,68,81194,2,0,L|44:60,2,44,10|2|2,0:2|0:2|0:2,0:0:0:0:
76,156,81752,2,0,B|34:158|34:158|0:188,2,88,10|0|10,0:2|0:2|0:2,0:0:0:0:
163,142,82590,6,0,P|204:89|191:23,2,132,4|4|4,0:2|0:2|0:2,0:0:0:0:
163,229,83706,2,0,B|186:239|186:239|210:267|210:267|234:275,1,88,2|10,0:2|0:2,0:0:0:0:
264,192,84264,2,0,B|287:181|287:181|311:153|311:153|335:145,1,88,2|10,0:2|0:2,0:0:0:0:
320,60,84822,6,0,P|383:67|420:124,2,132,4|4|4,0:2|0:2|0:2,0:0:0:0:
240,96,85938,2,0,B|216:131|216:131|215:192,1,88,2|10,0:2|0:2,0:2:0:0:
230,263,86497,2,0,B|260:292|260:292|320:303,1,88,2|10,0:2|0:2,0:2:0:0:
392,316,87055,6,0,B|464:316|484:236|432:188|432:188|488:176|504:128,1,264,2|8,0:2|0:2,0:0:0:0:
420,100,88171,2,0,L|328:72,1,88,2|10,0:2|0:2,0:0:0:0:
250,72,88729,2,0,L|158:100,1,88,2|10,0:2|0:2,0:0:0:0:
92,144,89287,6,0,L|56:180,2,44,4|0|0,0:2|0:0|0:0,0:0:0:0:
128,224,89845,2,0,L|124:272,2,44,4|0|0,0:2|0:0|0:0,0:0:0:0:
208,264,90404,2,0,B|236:296|236:296|281:302,1,88,4|0,0:2|0:0,0:0:0:0:
368,312,90962,2,0,L|428:320,2,44,2|2|2,0:2|0:2|0:2,0:0:0:0:
400,232,91520,5,4,0:3:0:0:
496,88,92078,2,0,P|412:106|344:56,1,176,0|4,0:0|0:3,0:0:0:0:
175,100,93194,2,0,P|106:150|23:131,1,176,0|4,0:0|0:3,0:0:0:0:
160,20,94311,2,0,P|220:32|244:140,1,176,0|4,0:0|0:3,0:0:0:0:
184,296,95427,2,0,L|166:336,1,44
124,348,95706,2,0,L|83:364,2,44,0|0|4,0:0|0:0|0:3,0:0:0:0:
296,376,96543,6,0,B|356:360|332:260|390:236,1,176,0|4,0:0|0:3,0:0:0:0:
228,164,97659,2,0,B|168:148|192:48|133:24,1,176,0|4,0:0|0:3,0:0:0:0:
0,140,98776,2,0,B|60:156|36:256|94:279,1,176,0|4,0:0|0:3,0:0:0:0:
268,244,99892,1,0,0:0:0:0:
334,184,100171,1,0,0:0:0:0:
284,112,100450,6,0,B|284:136|260:152|224:148|192:116|191:77|212:36|248:16|300:0|358:9|417:29|488:87|456:218|384:311|216:380,1,704,4|4,0:3|0:3,0:0:0:0:
193,370,102822,6,4,L|112:332,2,88,4|4|4,0:3|0:3|0:3,0:3:0:0:
193,325,103520,1,4,0:3:0:0:
193,281,103659,2,4,L|274:243,2,88,4|4|4,0:3|0:3|0:3,0:3:0:0:
193,236,104357,2,4,L|112:198,2,88,4|4|4,0:3|0:3|0:3,0:3:0:0:
193,148,105194,5,4,0:3:0:0:
193,103,105334,2,4,L|274:65,1,88,4|4,0:3|0:3,0:3:0:0:
360,65,105892,2,4,L|399:83,2,44,4|4|4,0:3|0:3|0:3,0:3:0:0:
316,140,106450,1,4,0:3:0:0:
316,184,106590,2,4,L|316:248,3,58.6666666666667,4|4|4|4,0:3|0:3|0:3|0:3,0:3:0:0:
391,176,114962,6,0,B|436:160|436:160|494:184,2,88,4|4|4,0:3|0:3|0:3,0:3:0:0:
312,214,115799,1,4,0:3:0:0:
245,271,116078,6,0,P|183:292|104:236,2,132,4|4|4,0:2|0:2|0:2,0:0:0:0:
329,297,117194,2,0,P|331:253|311:214,1,88,2|10,0:2|0:2,0:2:0:0:
391,176,117752,2,0,P|434:174|471:151,1,88,2|10,0:2|0:2,0:2:0:0:
456,65,118311,6,0,P|390:59|328:133,2,132,4|4|4,0:2|0:2|0:2,0:0:0:0:
472,152,119427,2,0,L|408:240,1,88,2|10,0:2|0:2,0:0:0:0:
332,224,119985,1,2,0:2:0:0:
268,164,120264,1,10,0:2:0:0:
210,230,120543,6,0,B|174:194|182:146|182:146|130:198|66:210|10:142,1,264,2|10,0:2|0:2,0:0:0:0:
52,76,121659,2,0,P|92:60|135:66,1,88,2|10,0:2|0:2,0:0:0:0:
224,60,122217,1,2,0:2:0:0:
276,132,122497,1,10,0:2:0:0:
280,220,122776,6,0,L|328:249,2,44,4|0|0,0:2|0:0|0:0,0:0:0:0:
223,288,123334,2,0,L|261:329,2,44,4|0|0,0:2|0:0|0:0,0:0:0:0:
193,207,123892,2,0,L|111:140,1,88,4|4,0:2|0:2,0:0:0:0:
56,95,124450,2,0,L|18:64,2,44,4|0|4,0:2|0:0|0:2,0:0:0:0:
23,176,125008,5,4,0:0:0:0:
