osu file format v14

[General]
AudioFilename: Musical Movement.mp3
AudioLeadIn: 0
PreviewTime: 55799
Countdown: 0
SampleSet: Normal
StackLeniency: 0.7
Mode: 1
LetterboxInBreaks: 0
WidescreenStoryboard: 1

[Editor]
DistanceSpacing: 1
BeatDivisor: 2
GridSize: 32
TimelineZoom: 2.3

[Metadata]
Title:Musical Movement
TitleUnicode:Musical Movement
Artist:LeaF
ArtistUnicode:LeaF
Creator:DarkVortex
Version:Kantan
Source:
Tags:cslm overjoy featured artist fa
BeatmapID:2219322
BeatmapSetID:158141

[Difficulty]
HPDrainRate:6
CircleSize:4
OverallDifficulty:3
ApproachRate:8
SliderMultiplier:1.2
SliderTickRate:1

[Events]
//Background and Video events
0,0,"258692.jpg",0,0
//Break Periods
2,107348,114212
//Storyboard Layer 0 (Background)
//Storyboard Layer 1 (Fail)
//Storyboard Layer 2 (Pass)
//Storyboard Layer 3 (Foreground)
//Storyboard Layer 4 (Overlay)
//Storyboard Sound Samples

[TimingPoints]
2218,279.06976744186,4,1,0,90,1,0
34031,-100,4,1,0,50,0,0
42404,-100,4,1,0,75,0,0
50217,-100,4,1,0,82,0,0
50776,-100,4,1,0,90,0,0
51334,-100,4,1,0,100,0,1
55799,-100,4,1,0,90,0,0
73659,-100,4,1,0,100,0,1
91520,-100,4,1,0,100,0,0
107706,-100,4,1,0,50,0,0
114962,-100,4,1,0,100,0,0
116078,-100,4,1,0,100,0,1
125008,-100,4,1,0,40,0,0

[Colours]
Combo1 : 20,112,234
Combo2 : 162,11,183
Combo3 : 20,67,190
Combo4 : 164,0,82
Combo5 : 60,230,225

[HitObjects]
256,192,2218,5,4,0:0:0:0:
256,192,6683,1,4,0:0:0:0:
256,192,10311,1,8,0:0:0:0:
256,192,10590,1,8,0:0:0:0:
256,192,11148,1,4,0:0:0:0:
256,192,11706,1,0,0:0:0:0:
256,192,12264,1,0,0:0:0:0:
256,192,12822,1,0,0:0:0:0:
256,192,13380,1,0,0:0:0:0:
256,192,13938,1,0,0:0:0:0:
256,192,14497,1,0,0:0:0:0:
256,192,15055,1,8,0:0:0:0:
256,192,15613,1,0,0:0:0:0:
256,192,16171,1,0,0:0:0:0:
256,192,16729,1,0,0:0:0:0:
256,192,17287,1,0,0:0:0:0:
256,192,17845,1,0,0:0:0:0:
256,192,18404,1,0,0:0:0:0:
256,192,18962,1,0,0:0:0:0:
256,192,19520,1,8,0:0:0:0:
256,192,19799,1,8,0:0:0:0:
256,192,20078,1,0,0:0:0:0:
256,192,21194,1,0,0:0:0:0:
256,192,21752,1,0,0:0:0:0:
256,192,22311,1,0,0:0:0:0:
256,192,22869,1,0,0:0:0:0:
256,192,23427,1,0,0:0:0:0:
256,192,23706,1,8,0:0:0:0:
256,192,23985,1,8,0:0:0:0:
256,192,24543,1,0,0:0:0:0:
256,192,25101,1,0,0:0:0:0:
256,192,25659,1,0,0:0:0:0:
256,192,26217,1,0,0:0:0:0:
256,192,26776,1,8,0:0:0:0:
256,192,27334,1,8,0:0:0:0:
256,192,27892,1,8,0:0:0:0:
256,192,28450,1,8,0:0:0:0:
256,192,28729,1,8,0:0:0:0:
256,192,29008,1,4,0:0:0:0:
256,192,30124,1,0,0:0:0:0:
256,192,31241,1,8,0:0:0:0:
256,192,31799,1,8,0:0:0:0:
256,192,32357,1,0,0:0:0:0:
256,192,33473,1,12,0:0:0:0:
256,192,34590,1,0,0:0:0:0:
256,192,35427,1,0,0:0:0:0:
256,192,35706,1,8,0:0:0:0:
256,192,36822,1,8,0:0:0:0:
256,192,37659,1,0,0:0:0:0:
256,192,37938,1,8,0:0:0:0:
256,192,39055,1,8,0:0:0:0:
256,192,39613,1,8,0:0:0:0:
256,192,39892,1,8,0:0:0:0:
256,192,40171,1,0,0:0:0:0:
256,192,41008,1,8,0:0:0:0:
256,192,41287,1,8,0:0:0:0:
256,192,41845,1,0,0:0:0:0:
256,192,42404,1,4,0:0:0:0:
256,192,43520,1,8,0:0:0:0:
256,192,44078,1,0,0:0:0:0:
256,192,44636,1,12,0:0:0:0:
256,192,45752,1,0,0:0:0:0:
256,192,46311,1,0,0:0:0:0:
256,192,46590,1,0,0:0:0:0:
256,192,46869,1,12,0:0:0:0:
256,192,47985,1,12,0:0:0:0:
256,192,48543,1,8,0:0:0:0:
256,192,48822,1,8,0:0:0:0:
256,192,49101,1,4,0:0:0:0:
256,192,49659,1,4,0:0:0:0:
256,192,50217,1,8,0:0:0:0:
256,192,50497,1,8,0:0:0:0:
256,192,50776,1,8,0:0:0:0:
256,192,51055,1,8,0:0:0:0:
256,192,51334,1,4,0:0:0:0:
256,192,51892,1,0,0:0:0:0:
256,192,52450,1,12,0:0:0:0:
256,192,53008,1,8,0:0:0:0:
256,192,53566,1,0,0:0:0:0:
256,192,54124,1,0,0:0:0:0:
256,192,54683,1,0,0:0:0:0:
256,192,54962,1,0,0:0:0:0:
256,192,55241,1,0,0:0:0:0:
256,192,55520,1,8,0:0:0:0:
256,192,55799,1,4,0:0:0:0:
256,192,56915,1,8,0:0:0:0:
256,192,57473,1,0,0:0:0:0:
256,192,57752,1,8,0:0:0:0:
256,192,58031,1,8,0:0:0:0:
256,192,58590,1,8,0:0:0:0:
256,192,59148,1,0,0:0:0:0:
256,192,59706,1,8,0:0:0:0:
256,192,59985,1,8,0:0:0:0:
256,192,60264,1,8,0:0:0:0:
256,192,60822,1,8,0:0:0:0:
256,192,61380,1,0,0:0:0:0:
256,192,61938,1,8,0:0:0:0:
256,192,62217,1,0,0:0:0:0:
256,192,62497,1,8,0:0:0:0:
256,192,63055,1,8,0:0:0:0:
256,192,63613,1,0,0:0:0:0:
256,192,64729,1,0,0:0:0:0:
256,192,65148,1,0,0:0:0:0:
256,192,65845,1,8,0:0:0:0:
256,192,66404,1,0,0:0:0:0:
256,192,66962,1,8,0:0:0:0:
256,192,67380,1,8,0:0:0:0:
256,192,68078,1,8,0:0:0:0:
256,192,68636,1,0,0:0:0:0:
256,192,69194,1,12,0:0:0:0:
256,192,70590,1,0,0:0:0:0:
256,192,70869,1,8,0:0:0:0:
256,192,71427,1,12,0:0:0:0:
256,192,71985,1,8,0:0:0:0:
256,192,72543,1,4,0:0:0:0:
256,192,72822,1,0,0:0:0:0:
256,192,73101,1,8,0:0:0:0:
256,192,73380,1,8,0:0:0:0:
256,192,73659,1,4,0:0:0:0:
256,192,74776,1,8,0:0:0:0:
256,192,75334,1,0,0:0:0:0:
256,192,75613,1,8,0:0:0:0:
256,192,75892,1,8,0:0:0:0:
256,192,76450,1,8,0:0:0:0:
256,192,77008,1,0,0:0:0:0:
256,192,77566,1,0,0:0:0:0:
256,192,77845,1,0,0:0:0:0:
256,192,78124,1,8,0:0:0:0:
256,192,78683,1,8,0:0:0:0:
256,192,79241,1,0,0:0:0:0:
256,192,79799,1,8,0:0:0:0:
256,192,80078,1,8,0:0:0:0:
256,192,80357,1,0,0:0:0:0:
256,192,80915,1,8,0:0:0:0:
256,192,81473,1,8,0:0:0:0:
256,192,82031,1,0,0:0:0:0:
256,192,82590,1,0,0:0:0:0:
256,192,83008,1,0,0:0:0:0:
256,192,83706,1,8,0:0:0:0:
256,192,84264,1,0,0:0:0:0:
256,192,84822,1,8,0:0:0:0:
256,192,85241,1,8,0:0:0:0:
256,192,85938,1,8,0:0:0:0:
256,192,86497,1,0,0:0:0:0:
256,192,87055,1,12,0:0:0:0:
256,192,88171,1,8,0:0:0:0:
256,192,88729,1,8,0:0:0:0:
256,192,89287,1,0,0:0:0:0:
256,192,89845,1,8,0:0:0:0:
256,192,90404,1,0,0:0:0:0:
256,192,90683,1,0,0:0:0:0:
256,192,90962,1,8,0:0:0:0:
256,192,91241,1,8,0:0:0:0:
256,192,91520,1,0,0:0:0:0:
256,192,92636,1,12,0:0:0:0:
256,192,93752,1,4,0:0:0:0:
256,192,94869,1,4,0:0:0:0:
256,192,95427,1,8,0:0:0:0:
256,192,95985,1,4,0:0:0:0:
256,192,97101,1,12,0:0:0:0:
256,192,98217,1,4,0:0:0:0:
256,192,99334,1,12,0:0:0:0:
256,192,100450,1,4,0:0:0:0:
256,192,102683,1,0,0:0:0:0:
256,192,103101,1,0,0:0:0:0:
256,192,103380,1,0,0:0:0:0:
256,192,103659,1,8,0:0:0:0:
256,192,104357,1,0,0:0:0:0:
256,192,104915,1,0,0:0:0:0:
256,192,105334,1,0,0:0:0:0:
256,192,105613,1,0,0:0:0:0:
256,192,105892,1,8,0:0:0:0:
256,192,106450,1,8,0:0:0:0:
256,192,107148,1,4,0:0:0:0:
256,192,114962,5,8,0:0:0:0:
256,192,115241,1,8,0:0:0:0:
256,192,115520,1,0,0:0:0:0:
256,192,116078,1,4,0:0:0:0:
256,192,116497,1,0,0:0:0:0:
256,192,117194,1,8,0:0:0:0:
256,192,117752,1,0,0:0:0:0:
256,192,118311,1,8,0:0:0:0:
256,192,118729,1,8,0:0:0:0:
256,192,119427,1,8,0:0:0:0:
256,192,119985,1,0,0:0:0:0:
256,192,120543,1,8,0:0:0:0:
256,192,121659,1,8,0:0:0:0:
256,192,122217,1,8,0:0:0:0:
256,192,122497,1,8,0:0:0:0:
256,192,122776,1,0,0:0:0:0:
256,192,123334,1,8,0:0:0:0:
256,192,123892,1,0,0:0:0:0:
256,192,124171,1,0,0:0:0:0:
256,192,124450,1,8,0:0:0:0:
256,192,124729,1,8,0:0:0:0:
256,192,125008,1,4,0:0:0:0:
