osu file format v14

[General]
AudioFilename: Musical Movement.mp3
AudioLeadIn: 0
PreviewTime: 55799
Countdown: 0
SampleSet: Soft
StackLeniency: 0.7
Mode: 0
LetterboxInBreaks: 0
WidescreenStoryboard: 0

[Editor]
DistanceSpacing: 1.4
BeatDivisor: 4
GridSize: 4
TimelineZoom: 2.3

[Metadata]
Title:Musical Movement
TitleUnicode:Musical Movement
Artist:LeaF
ArtistUnicode:LeaF
Creator:DarkVortex
Version:Advanced
Source:
Tags:cslm overjoy featured artist fa
BeatmapID:386900
BeatmapSetID:158141

[Difficulty]
HPDrainRate:5
CircleSize:3.7
OverallDifficulty:5
ApproachRate:6.5
SliderMultiplier:0.95
SliderTickRate:1

[Events]
//Background and Video events
0,0,"258692.jpg",0,0
//Break Periods
2,29208,32498
2,107348,113987
//Storyboard Layer 0 (Background)
//Storyboard Layer 1 (Fail)
//Storyboard Layer 2 (Pass)
//Storyboard Layer 3 (Foreground)
//Storyboard Layer 4 (Overlay)
//Storyboard Sound Samples

[TimingPoints]
2218,279.06976744186,4,1,1,100,1,0
2218,-100,4,1,1,100,0,0
2497,-100,4,2,1,50,0,0
3334,-100,4,2,1,52,0,0
3892,-100,4,2,1,54,0,0
4450,-100,4,2,1,56,0,0
4590,-100,4,2,1,57,0,0
4729,-100,4,2,1,58,0,0
4869,-100,4,2,1,59,0,0
5008,-100,4,2,1,60,0,0
5148,-100,4,2,1,63,0,0
5287,-100,4,2,1,65,0,0
5427,-100,4,2,1,67,0,0
5566,-100,4,2,1,70,0,0
5845,-100,4,2,1,79,0,0
6124,-100,4,2,1,85,0,0
6683,-100,4,2,1,70,0,0
6962,-100,4,2,2,70,0,0
7031,-100,4,2,1,70,0,0
7241,-100,4,2,1,75,0,0
7520,-100,4,2,2,75,0,0
7590,-100,4,2,1,75,0,0
7938,-100,4,2,1,80,0,0
8078,-100,4,2,1,75,0,0
8217,-100,4,2,1,80,0,0
8915,-100,4,2,1,65,0,0
9194,-100,4,2,1,71,0,0
9473,-100,4,2,1,79,0,0
9752,-100,4,2,1,87,0,0
10031,-100,4,2,1,95,0,0
10590,-100,4,1,1,100,0,0
11148,-100,4,1,1,85,0,0
24543,-100,4,1,1,75,0,0
26776,-100,4,1,1,80,0,0
29008,-100,4,1,1,70,0,0
33473,-100,4,2,1,35,0,0
42404,-100,4,2,1,75,0,0
50217,-100,4,1,1,70,0,0
51334,-100,4,1,1,80,0,0
52450,-100,4,1,1,90,0,0
55520,-100,4,1,1,80,0,0
55799,-100,4,1,1,80,0,0
69194,-100,4,2,1,80,0,0
71427,-100,4,1,1,70,0,0
73659,-100,4,1,1,80,0,1
87055,-100,4,2,1,100,0,1
89287,-100,4,1,1,90,0,1
91520,-100,4,1,1,80,0,0
102683,-100,4,1,1,100,0,0
107148,-100,4,2,1,70,0,0
114962,-100,4,1,1,70,0,0
115799,-100,4,1,1,50,0,0
115869,-100,4,1,1,64,0,0
115938,-100,4,1,1,76,0,0
116008,-100,4,1,1,85,0,0
116078,-100,4,1,1,100,0,1
120543,-100,4,2,1,100,0,1
122776,-100,4,1,1,90,0,1
125008,-100,4,2,1,100,0,0

[Colours]
Combo1 : 205,84,44
Combo2 : 255,145,34
Combo3 : 240,0,0
Combo4 : 255,209,51
Combo5 : 255,255,176

[HitObjects]
128,196,2218,6,0,P|135:149|171:98,1,95,4|0,0:3|1:0,0:0:0:0:
252,92,2776,2,0,P|245:139|209:190,1,95,0|0,1:0|1:0,0:0:0:0:
300,232,3334,2,0,P|342:211|389:208,1,95,0|0,1:0|1:0,0:0:0:0:
364,296,3892,2,0,P|321:316|274:319,1,95,0|0,1:0|1:0,0:0:0:0:
232,304,4311,1,0,0:0:0:0:
200,268,4450,5,0,1:0:0:0:
148,348,4729,1,0,1:0:0:0:
116,312,4869,1,0,0:0:0:0:
84,276,5008,2,0,B|54:238|54:238|54:178,1,95,0|0,1:0|1:0,0:0:0:0:
54,143,5427,1,0,0:0:0:0:
54,95,5566,5,0,1:0:0:0:
136,48,5845,1,0,1:0:0:0:
232,36,6124,2,0,L|284:32,2,47.5,2|2|2,1:2|0:0|1:2,0:0:0:0:
276,120,6683,5,4,1:3:0:0:
286,166,6822,1,0,0:0:0:0:
266,209,6962,1,0,0:0:0:0:
226,235,7101,1,0,0:0:0:0:
178,237,7241,1,0,1:0:0:0:
136,214,7380,6,0,P|106:166|116:105,1,95,0|0,0:0|0:0,0:0:0:0:
120,84,7799,1,0,1:0:0:0:
164,52,7938,2,0,P|220:58|261:105,1,95,0|0,0:0|0:0,0:0:0:0:
276,120,8357,1,0,1:0:0:0:
286,166,8497,2,0,P|312:215|370:237,1,95,0|0,0:0|0:0,0:0:0:0:
256,192,8915,12,8,10590,0:2:0:0:
175,132,11148,6,0,P|208:98|253:88,1,95,4|8,0:0|0:2,0:0:0:0:
253,182,11706,2,0,P|298:171|330:137,1,95,0|8,0:0|0:2,0:0:0:0:
397,204,12264,2,0,L|462:276,1,95,0|8,0:0|0:2,0:0:0:0:
382,329,12822,2,0,L|319:257,1,95,0|8,0:0|0:2,0:0:0:0:
241,312,13380,6,0,L|144:312,1,95,0|8,0:0|0:2,0:0:0:0:
52,312,13938,1,0,0:0:0:0:
1,232,14217,1,8,0:2:0:0:
36,144,14497,1,0,0:0:0:0:
120,100,14776,1,8,0:2:0:0:
164,88,14915,1,0,0:0:0:0:
208,76,15055,2,0,L|256:64,2,47.5,2|2|10,0:2|0:2|0:2,0:0:0:0:
228,176,15613,5,0,0:0:0:0:
264,148,15752,1,0,0:0:0:0:
308,132,15892,1,8,0:2:0:0:
356,128,16031,1,0,0:0:0:0:
404,140,16171,2,0,B|447:161|447:161|485:208,1,95,0|8,0:0|0:2,0:0:0:0:
440,228,16590,2,0,P|468:266|513:282,2,95,0|0|0,0:0|0:0|0:0,0:0:0:0:
392,228,17287,2,0,P|322:256|307:283,1,95,0|8,0:0|0:2,0:0:0:0:
256,344,17845,6,0,P|223:377|177:385,1,95,0|8,0:0|0:2,0:0:0:0:
81,384,18404,2,0,P|33:375|2:342,1,95,0|8,0:0|0:2,0:0:0:0:
2,295,18822,2,0,L|2:191,2,95,0|0|0,0:0|0:0|0:0,0:0:0:0:
44,276,19520,2,0,L|86:247,2,47.5,2|2|10,0:2|0:2|0:2,0:0:0:0:
132,312,20078,5,4,0:0:0:0:
224,300,20357,1,8,0:2:0:0:
316,276,20636,2,0,P|358:237|368:194,1,95,0|8,0:0|0:2,0:0:0:0:
367,154,21055,2,0,P|370:97|397:62,2,95,0|0|0,0:0|0:0|0:0,0:0:0:0:
332,184,21752,2,0,L|228:184,1,95,0|8,0:0|0:2,0:0:0:0:
269,273,22311,6,0,L|165:273,1,95,0|8,0:0|0:2,0:0:0:0:
205,362,22869,2,0,L|91:362,1,95,0|8,0:0|0:2,0:0:0:0:
63,362,23287,2,0,P|20:312|63:263,1,142.5,0|8,0:0|0:2,0:0:0:0:
110,263,23845,1,0,0:0:0:0:
158,263,23985,2,0,L|218:263,2,47.5,2|2|10,0:2|0:2|0:2,0:0:0:0:
256,192,24543,12,4,26217,0:2:0:0:
182,248,26776,5,4,0:2:0:0:
182,248,27055,1,8,0:2:0:0:
262,301,27334,2,0,P|305:313|354:297,1,95,4|8,0:2|0:2,0:0:0:0:
349,252,27752,2,0,P|395:238|439:252,2,95,0|0|0,0:0|0:0|0:0,0:0:0:0:
310,223,28450,2,0,L|262:192,2,47.5,4|4|12,0:2|0:2|0:2,0:0:0:0:
262,300,29008,5,0,0:0:0:0:
20,209,33473,6,0,B|20:104|133:78|133:78|141:194|263:202,1,380,4|2,0:1|0:2,0:0:0:0:
494,342,35427,5,2,0:2:0:0:
494,342,35706,2,0,B|494:238|381:209|381:209|375:328|252:335,1,380,2|2,0:2|0:2,0:0:0:0:
91,107,37659,5,0,0:0:0:0:
91,107,37938,2,0,B|150:18|256:90|256:90|361:18|420:107,1,380,2|2,0:2|0:2,0:0:0:0:
244,179,39613,5,2,0:2:0:0:
196,261,39892,1,2,0:2:0:0:
146,342,40171,2,0,P|31:321|110:231,1,285,2|2,0:2|0:2,0:0:0:0:
151,247,41148,1,2,0:2:0:0:
196,261,41287,2,0,P|182:173|92:137,1,190,2|2,0:2|0:2,0:0:0:0:
124,324,42404,6,0,P|194:358|263:326,2,142.5,4|2|10,0:3|0:0|0:0,0:0:0:0:
196,261,43520,1,2,0:0:0:0:
325,122,44078,1,2,0:0:0:0:
196,261,44636,6,0,P|117:270|63:217,2,142.5,4|2|10,0:3|0:0|0:0,0:0:0:0:
270,201,45752,1,2,0:0:0:0:
451,258,46311,5,2,0:0:0:0:
492,173,46590,1,10,0:0:0:0:
458,84,46869,2,0,B|368:28|261:105|180:46,1,285,4|10,0:3|0:0,0:0:0:0:
92,16,47985,1,4,0:3:0:0:
8,60,48264,1,10,0:0:0:0:
8,154,48543,1,2,0:0:0:0:
92,196,48822,1,10,0:0:0:0:
180,232,49101,6,0,B|229:278|184:354|184:354|239:337,1,190,4|4,0:3|0:3,0:0:0:0:
328,360,49938,1,10,0:0:0:0:
340,268,50217,2,0,B|391:284|391:284|347:208|398:160,2,190,4|4|4,0:2|0:2|0:3,0:0:0:0:
245,259,51613,5,0,0:0:0:0:
165,208,51892,1,0,0:0:0:0:
189,116,52171,1,0,0:0:0:0:
268,166,52450,2,0,L|361:234,1,95,2|0,0:2|0:0,0:0:0:0:
429,175,53008,2,0,L|352:119,1,95,2|0,0:2|0:0,0:0:0:0:
272,65,53566,6,0,P|228:48|182:54,1,95,2|0,0:2|0:0,0:0:0:0:
137,73,53985,2,0,P|92:58|61:23,2,95,2|2|2,0:2|0:2|0:2,0:0:0:0:
171,107,54683,2,0,B|239:145|247:225|247:225|315:208|323:145|323:145|352:144,1,285,2|12,0:2|0:0,0:0:0:0:
429,99,55799,6,0,P|441:145|429:190,1,95,6|8,0:2|0:2,0:0:0:0:
444,284,56357,2,0,P|395:279|357:252,1,95,2|8,0:2|0:2,0:0:0:0:
328,216,56776,1,2,0:2:0:0:
308,172,56915,1,2,0:2:0:0:
288,80,57194,1,8,0:2:0:0:
196,56,57473,6,0,P|194:103|216:145,2,95,2|10|2,0:2|0:2|0:2,0:0:0:0:
108,96,58311,1,8,0:2:0:0:
136,188,58590,2,0,P|168:222|212:236,1,95,2|8,0:2|0:2,0:0:0:0:
188,328,59148,2,0,P|234:329|276:308,1,95,2|8,0:2|0:2,0:0:0:0:
303,268,59566,5,2,0:2:0:0:
305,220,59706,1,2,0:2:0:0:
285,176,59845,1,2,0:2:0:0:
252,141,59985,1,10,0:2:0:0:
213,114,60124,1,2,0:2:0:0:
165,111,60264,6,0,B|117:123|117:123|97:171,1,95,2|8,0:2|0:2,0:0:0:0:
185,204,60822,2,0,B|167:246|167:246|119:258,2,95,2|8|2,0:2|0:2|0:2,0:0:0:0:
165,111,61659,1,8,0:2:0:0:
249,67,61938,2,0,P|293:52|340:57,1,95,2|10,0:2|0:2,0:0:0:0:
380,88,62357,1,2,0:2:0:0:
396,135,62497,2,0,P|351:149|304:143,1,95,2|8,0:2|0:2,0:0:0:0:
216,168,63054,5,2,0:2:0:0:
185,204,63194,1,2,0:2:0:0:
185,251,63333,1,10,0:2:0:0:
215,288,63473,1,2,0:2:0:0:
262,296,63613,2,0,P|304:272|324:228,1,95,2|10,0:2|0:2,0:0:0:0:
312,185,64031,1,2,0:2:0:0:
359,182,64171,2,0,P|401:206|421:250,1,95,0|14,0:0|0:2,0:0:0:0:
435,340,64729,6,0,P|495:305|512:238,2,142.5,6|6|14,0:2|0:2|0:2,0:0:0:0:
340,326,65845,1,6,0:2:0:0:
252,289,66124,1,10,0:2:0:0:
184,222,66404,1,2,0:2:0:0:
166,128,66683,1,8,0:2:0:0:
180,34,66962,6,0,P|240:68|257:135,2,142.5,6|6|14,0:2|0:2|0:2,0:0:0:0:
88,48,68078,1,6,0:2:0:0:
72,141,68357,1,10,0:2:0:0:
166,128,68636,1,2,0:2:0:0:
150,221,68915,1,10,0:2:0:0:
256,192,69194,12,2,70869,0:2:0:0:
72,272,71427,6,0,B|128:192|196:232|231:293|280:240,1,190,0|0,0:0|0:0,0:0:0:0:
336,248,72264,1,2,0:2:0:0:
419,208,72543,2,0,P|445:168|445:122,1,95,2|0,0:2|0:0,0:0:0:0:
424,80,72962,5,0,0:0:0:0:
388,48,73101,1,0,0:0:0:0:
344,28,73241,1,0,0:0:0:0:
300,44,73380,1,2,0:2:0:0:
264,76,73520,1,2,0:2:0:0:
250,122,73659,6,0,P|250:168|276:208,1,95,2|8,0:2|0:2,0:0:0:0:
368,188,74217,2,0,P|368:234|342:273,1,95,2|8,0:2|0:2,0:0:0:0:
300,300,74636,1,2,0:2:0:0:
252,298,74776,2,0,P|209:277|186:237,1,95,2|8,0:2|0:2,0:0:0:0:
176,148,75334,2,0,L|120:136,2,47.5,2|0|10,0:2|0:0|0:2,0:0:0:0:
197,55,75892,6,0,B|234:29|234:29|283:23,1,95,2|8,0:2|0:2,0:0:0:0:
331,37,76311,1,0,0:0:0:0:
373,60,76450,2,0,B|398:97|398:97|404:146,1,95,2|8,0:2|0:2,0:0:0:0:
387,191,76869,1,0,0:0:0:0:
359,231,77009,2,0,B|317:257|317:257|272:262,1,95,2|0,0:2|0:0,0:0:0:0:
232,236,77427,5,2,0:2:0:0:
192,208,77566,1,2,0:2:0:0:
164,168,77706,1,2,0:2:0:0:
152,124,77845,1,10,0:2:0:0:
160,76,77985,1,2,0:2:0:0:
132,36,78124,6,0,L|37:36,1,95,2|8,0:2|0:2,0:0:0:0:
57,124,78683,2,0,L|152:124,1,95,2|8,0:2|0:2,0:0:0:0:
172,212,79241,2,0,L|77:212,1,95,2|8,0:2|0:2,0:0:0:0:
97,300,79799,2,0,L|192:300,1,95,2|10,0:2|0:2,0:0:0:0:
238,292,80217,1,0,0:0:0:0:
278,267,80357,5,2,0:2:0:0:
324,184,80636,1,8,0:2:0:0:
278,101,80915,1,2,0:2:0:0:
241,69,81055,1,2,0:2:0:0:
194,69,81194,1,10,0:2:0:0:
157,100,81334,1,2,0:2:0:0:
140,144,81473,6,0,B|116:192|116:192|44:200,1,95,2|8,0:2|0:2,0:0:0:0:
28,200,81892,1,0,0:0:0:0:
40,248,82031,2,0,B|64:296|64:296|136:304,1,95,2|8,0:2|0:2,0:0:0:0:
200,304,82590,6,0,P|268:269|274:191,2,142.5,6|6|14,0:2|0:2|0:2,0:0:0:0:
108,292,83706,1,6,0:2:0:0:
32,232,83985,1,10,0:2:0:0:
12,140,84264,1,2,0:2:0:0:
48,52,84543,1,10,0:2:0:0:
140,24,84822,6,0,P|208:59|214:137,2,142.5,6|6|6,0:2|0:2|0:2,0:0:0:0:
48,52,85938,1,6,0:2:0:0:
48,148,86217,1,10,0:2:0:0:
136,108,86497,1,2,0:2:0:0:
136,204,86776,1,10,0:2:0:0:
66,267,87055,6,0,B|146:335|227:269|228:202|228:202|294:257,1,285,4|12,0:2|0:2,0:0:0:0:
348,300,88171,1,4,0:2:0:0:
420,360,88450,1,12,0:2:0:0:
436,268,88729,1,4,0:2:0:0:
364,208,89008,1,12,0:2:0:0:
300,136,89287,6,0,P|256:120|212:135,1,95,0|2,0:0|0:2,0:0:0:0:
172,164,89706,1,2,0:2:0:0:
168,211,89845,2,0,P|176:257|211:287,1,95,0|2,0:0|0:2,0:0:0:0:
256,308,90264,1,0,0:0:0:0:
299,288,90404,6,0,P|335:258|343:212,1,95,2|0,0:2|0:0,0:0:0:0:
344,164,90823,1,0,0:0:0:0:
324,120,90962,1,2,0:2:0:0:
292,84,91101,1,0,0:0:0:0:
256,52,91241,1,2,0:2:0:0:
212,40,91380,1,2,0:2:0:0:
164,32,91520,5,4,0:3:0:0:
58,225,92078,6,0,P|143:193|171:104,1,190,4|4,0:3|0:3,0:0:0:0:
361,104,93194,2,0,P|389:191|478:222,1,190,0|4,0:0|0:3,0:0:0:0:
328,344,94311,2,0,P|255:291|183:344,1,190,0|4,0:0|0:3,0:0:0:0:
256,168,95427,2,0,L|256:56,2,95,0|0|4,0:0|0:0|0:3,0:0:0:0:
372,20,96543,6,0,B|464:41|464:41|503:128,1,190,0|4,0:0|0:3,0:0:0:0:
344,228,97659,2,0,B|256:264|256:264|168:228,1,190,0|4,0:0|0:3,0:0:0:0:
8,128,98776,2,0,B|48:41|48:41|140:20,1,190,0|2,0:0|0:2,0:0:0:0:
256,172,99892,2,0,L|256:280,1,95
382,322,100450,6,0,B|345:330|355:370|403:388|469:353|487:300|469:211|421:207|384:225|384:225|375:202|350:194|350:194|375:184|384:162|384:162|421:180|469:176|487:88|469:35|403:0|355:16|345:56|382:65,1,665,6|0,0:2|0:0,0:0:0:0:
300,120,102683,5,4,0:3:0:0:
300,120,102822,2,0,P|283:76|244:51,2,95,4|4|4,0:3|0:3|0:3,0:0:0:0:
302,174,103520,1,4,0:3:0:0:
265,212,103659,2,0,P|226:187|208:143,2,95,4|4|4,0:3|0:3|0:3,0:0:0:0:
249,257,104357,2,0,B|226:298|226:298|166:303,1,95,4|4,0:3|0:3,0:0:0:0:
121,227,104915,6,0,L|59:132,1,95,4|4,0:3|0:3,0:0:0:0:
86,101,105334,2,0,P|120:64|164:52,1,95,4|4,0:3|0:3,0:0:0:0:
172,148,105892,2,0,L|219:153,2,47.5,4|4|4,0:3|0:3|0:3,0:0:0:0:
120,227,106450,1,4,0:3:0:0:
76,240,106590,6,0,P|32:248|-4:236,3,63.3333333333333,0|0|0|2,0:0|0:0|0:0|0:2,0:0:0:0:
127,44,114962,5,4,0:3:0:0:
174,126,115241,1,4,0:3:0:0:
80,126,115520,1,4,0:3:0:0:
127,208,115799,1,4,0:3:0:0:
152,248,115938,1,4,0:3:0:0:
176,288,116078,6,0,B|204:328|204:328|240:280|320:304,2,142.5,6|6|14,0:2|0:2|0:2,0:0:0:0:
127,208,117194,1,2,0:2:0:0:
112,116,117473,1,10,0:2:0:0:
184,52,117752,1,0,0:0:0:0:
280,64,118031,1,10,0:2:0:0:
324,148,118311,6,0,B|352:188|352:188|388:140|468:164,2,142.5,6|6|14,0:2|0:2|0:2,0:0:0:0:
280,64,119427,1,2,0:2:0:0:
202,8,119706,1,10,0:2:0:0:
143,84,119985,1,2,0:2:0:0:
219,143,120264,1,10,0:2:0:0:
265,226,120543,6,0,P|219:329|173:226,1,285,4|14,0:0|0:2,0:0:0:0:
219,143,121659,2,0,L|219:48,1,95,4|12,0:2|0:2,0:0:0:0:
307,14,122217,2,0,L|307:110,1,95,4|12,0:2|0:2,0:0:0:0:
307,204,122776,6,0,P|323:248|375:280,1,95,4|2,0:2|0:2,0:0:0:0:
408,284,123194,1,2,0:2:0:0:
456,288,123334,1,0,0:0:0:0:
392,196,123613,1,0,0:0:0:0:
424,160,123753,1,2,0:2:0:0:
451,121,123892,6,0,P|457:74|437:32,1,95,2|4,0:2|0:2,0:0:0:0:
396,12,124311,1,0,0:0:0:0:
348,4,124450,1,6,0:2:0:0:
304,16,124590,1,0,0:0:0:0:
268,44,124729,1,6,0:2:0:0:
232,72,124869,1,0,0:0:0:0:
196,104,125008,5,4,0:0:0:0:
