osu file format v14

[General]
AudioFilename: audio.mp3
AudioLeadIn: 0
PreviewTime: 2379
Countdown: 0
SampleSet: Soft
StackLeniency: 0.5
Mode: 0
LetterboxInBreaks: 0
WidescreenStoryboard: 1

[Editor]
Bookmarks: 7179,16779,26379,35979,41679,45579,50979,56379,60579,79779,98979,109329
DistanceSpacing: 0.9
BeatDivisor: 4
GridSize: 32
TimelineZoom: 3.499998

[Metadata]
Title:Mopemope
TitleUnicode:もぺもぺ
Artist:LeaF
ArtistUnicode:LeaF
Creator:hypercyte
Version:Normal
Source:osu!
Tags:mbc 4 mbc4 fa featured artist monthly beatmapping contest april four hypercute mappers' guild mg mpg repeat reverse sliders only electronic instrumental horror scary flowers creepy smile BMS OF FIGHTERS ULTIMATE BOFU2017 LEGENDA EST A MYTH イルーム音楽 Illume Ongaku optie breakcore
BeatmapID:2550083
BeatmapSetID:1174616

[Difficulty]
HPDrainRate:3.4
CircleSize:3.4
OverallDifficulty:4
ApproachRate:6
SliderMultiplier:1.14
SliderTickRate:1

[Events]
//Background and Video events
Video,-1290,"mopemope 34p5.mp4"
0,0,"hypercyte sucks at drawing.jpg",0,0
//Break Periods
2,60179,60954
//Storyboard Layer 0 (Background)
//Storyboard Layer 1 (Fail)
//Storyboard Layer 2 (Pass)
//Storyboard Layer 3 (Foreground)
//Storyboard Layer 4 (Overlay)
//Storyboard Sound Samples

[TimingPoints]
2379,300,4,2,44,44,1,0
2379,-100,4,2,44,44,0,0
7179,-100,4,2,44,54,0,0
7291,-100,4,2,44,5,0,0
7479,-100,4,2,44,54,0,0
9279,-100,4,2,44,54,0,0
9879,-100,4,2,44,54,0,0
12916,-100,4,2,44,5,0,0
13179,-100,4,2,44,54,0,0
14079,-100,4,2,44,54,0,0
14116,-100,4,2,44,5,0,0
14229,-100,4,2,44,54,0,0
14266,-100,4,2,44,5,0,0
14379,-100,4,2,44,54,0,0
14679,-100,4,2,44,54,0,0
16891,-100,4,2,44,54,0,0
17079,-100,4,2,44,54,0,0
20679,-100,4,2,44,54,0,0
20716,-100,4,2,44,5,0,0
20829,-100,4,2,44,54,0,0
20866,-100,4,2,44,5,0,0
20979,-100,4,2,44,54,0,0
21579,-100,4,2,44,54,0,0
23716,-100,4,2,44,54,0,0
23829,-100,4,2,44,54,0,0
23866,-100,4,2,44,54,0,0
23979,-100,4,2,44,54,0,0
24579,-100,4,2,44,54,0,0
26379,-100,4,2,44,64,0,0
26604,-100,4,2,44,5,0,0
26679,-100,4,2,44,64,0,0
27316,-100,4,2,44,5,0,0
27579,-100,4,2,44,64,0,0
32116,-100,4,2,44,64,0,0
32379,-100,4,2,44,64,0,0
35979,-100,4,2,44,60,0,0
36579,-100,4,2,44,60,0,0
37179,-100,4,2,44,60,0,0
37779,-100,4,2,44,60,0,0
38379,-100,4,2,44,60,0,0
38979,-100,4,2,44,60,0,0
39579,-100,4,2,44,60,0,0
40179,-100,4,2,44,60,0,0
43179,-100,4,2,44,54,0,0
43779,-100,4,2,44,64,0,0
44679,-100,4,2,44,34,0,0
45579,300,4,2,44,44,1,8
45579,-100,4,2,44,44,0,0
45954,-100,4,2,44,44,0,0
46179,300,4,2,44,44,1,0
46179,-125,4,2,44,44,0,0
50079,-100,4,2,44,54,0,0
50379,-100,4,2,44,74,0,0
50979,-100,4,2,44,64,0,0
51916,-100,4,2,44,5,0,0
52179,-100,4,2,44,64,0,0
56379,-125,4,2,44,64,0,0
56679,-100,4,2,44,64,0,0
60579,-100,4,2,44,44,0,0
61929,-100,4,2,44,44,0,0
62379,-100,4,2,44,54,0,0
62979,-100,4,3,44,54,0,0
63129,-100,4,3,44,64,0,0
63354,-100,4,3,44,64,0,0
63879,-100,4,3,44,64,0,0
64629,-100,4,3,44,64,0,0
65379,-100,4,3,44,64,0,0
66579,-100,4,3,44,64,0,0
67479,-100,4,3,44,64,0,0
68379,-100,4,3,44,64,0,0
68979,-100,4,3,44,64,0,0
69579,-100,4,3,44,64,0,0
69879,-100,4,3,44,64,0,0
70179,-100,4,3,44,64,0,0
70216,-100,4,3,44,64,0,0
74079,-100,4,3,44,64,0,0
74679,-100,4,3,44,64,0,0
74979,-100,4,3,4,64,0,0
75016,-100,4,3,44,64,0,0
77079,-100,4,3,0,64,0,0
77191,-100,4,3,44,5,0,0
77379,-100,4,3,44,64,0,0
78279,-100,4,3,44,64,0,0
78879,-100,4,3,44,64,0,0
79779,-90.9090909090909,4,2,4,74,0,1
79891,-90.9090909090909,4,2,4,5,0,1
80079,-90.9090909090909,4,2,4,74,0,1
80491,-90.9090909090909,4,2,4,5,0,1
80679,-90.9090909090909,4,2,4,74,0,1
81016,-90.9090909090909,4,2,4,5,0,1
81129,-90.9090909090909,4,2,4,74,0,1
81166,-90.9090909090909,4,2,4,5,0,1
81279,-90.9090909090909,4,2,4,74,0,1
81316,-90.9090909090909,4,2,4,5,0,1
81429,-90.9090909090909,4,2,4,74,0,1
81466,-90.9090909090909,4,2,4,5,0,1
81579,-90.9090909090909,4,2,4,74,0,1
81691,-90.9090909090909,4,2,4,5,0,1
81879,-90.9090909090909,4,2,4,74,0,1
82291,-90.9090909090909,4,2,4,5,0,1
82479,-90.9090909090909,4,2,4,74,0,1
82779,-90.9090909090909,4,2,4,74,0,1
82891,-90.9090909090909,4,2,4,5,0,1
83079,-90.9090909090909,4,2,4,74,0,1
83379,-90.9090909090909,4,2,4,74,0,1
83491,-90.9090909090909,4,2,4,5,0,1
83679,-90.9090909090909,4,2,4,74,0,1
84579,-90.9090909090909,4,2,4,74,0,1
84691,-90.9090909090909,4,2,4,5,0,1
84879,-90.9090909090909,4,2,4,74,0,1
85291,-90.9090909090909,4,2,4,5,0,1
85479,-90.9090909090909,4,2,4,74,0,1
85516,-90.9090909090909,4,2,4,5,0,1
85629,-90.9090909090909,4,2,4,74,0,1
85816,-90.9090909090909,4,2,4,5,0,1
85929,-90.9090909090909,4,2,4,74,0,1
85966,-90.9090909090909,4,2,4,5,0,1
86079,-90.9090909090909,4,2,4,74,0,1
86116,-90.9090909090909,4,2,4,5,0,1
86229,-90.9090909090909,4,2,4,74,0,1
86266,-90.9090909090909,4,2,4,5,0,1
86379,-90.9090909090909,4,2,4,74,0,1
86491,-90.9090909090909,4,2,4,5,0,1
86679,-90.9090909090909,4,2,4,74,0,1
87091,-90.9090909090909,4,2,4,5,0,1
87279,-90.9090909090909,4,2,4,74,0,1
87691,-90.9090909090909,4,2,4,5,0,1
87879,-90.9090909090909,4,2,4,74,0,1
88291,-90.9090909090909,4,2,4,5,0,1
88479,-90.9090909090909,4,2,4,74,0,1
88779,-90.9090909090909,4,2,4,74,0,1
88891,-90.9090909090909,4,2,4,5,0,1
89079,-90.9090909090909,4,2,4,74,0,1
90279,-90.9090909090909,4,2,44,74,0,1
90579,-90.9090909090909,4,2,4,74,0,1
91279,-90.9090909090909,4,2,4,74,0,1
91779,-90.9090909090909,4,2,4,74,0,1
95079,-90.9090909090909,4,2,4,74,0,1
95116,-90.9090909090909,4,2,4,5,0,1
95229,-90.9090909090909,4,2,4,74,0,1
95266,-90.9090909090909,4,2,4,5,0,1
95379,-90.9090909090909,4,2,4,74,0,1
97516,-90.9090909090909,4,2,4,5,0,1
97629,-90.9090909090909,4,2,4,74,0,1
97666,-90.9090909090909,4,2,4,5,0,1
97779,-90.9090909090909,4,2,4,74,0,1
98979,-100,4,2,44,44,0,0
109404,-92.5925925925926,4,2,44,64,0,0
109604,400,4,2,44,64,1,0
109870,300,4,2,44,64,1,0

[Colours]
Combo1 : 160,146,146
Combo2 : 173,219,162
Combo3 : 209,204,133
Combo4 : 204,172,106
Combo5 : 164,217,211
Combo6 : 201,116,118

[HitObjects]
292,129,2379,6,0,P|376:123|419:117,2,114,8|0|8,0:0|0:0|0:0,0:0:0:0:
188,80,3279,1,8,0:1:0:0:
87,132,3579,2,0,P|65:178|93:246,1,114,8|8,0:0|0:1,0:0:0:0:
130,265,4029,1,8,0:1:0:0:
130,265,4179,2,0,P|216:254|268:252,1,114,8|8,0:0|0:1,0:0:0:0:
346,301,4779,5,8,0:0:0:0:
432,226,5079,1,8,0:1:0:0:
362,135,5379,1,8,0:0:0:0:
433,46,5679,1,8,0:1:0:0:
320,26,5979,2,0,P|212:37|192:38,1,114,8|8,0:0|0:1,0:0:0:0:
159,70,6429,1,8,0:1:0:0:
159,70,6579,1,8,0:1:0:0:
53,25,6879,1,8,0:1:0:0:
13,131,7179,6,0,B|11:182|11:182|18:194|18:194|13:261,2,114,14|8|8,0:0|0:1|0:0,0:0:0:0:
110,71,8079,1,10,0:1:0:0:
192,149,8379,2,0,L|257:138,1,57,10|2,0:0|0:0,0:0:0:0:
305,139,8679,2,0,P|327:167|321:202,1,57,10|10,0:1|0:1,0:0:0:0:
301,238,8979,1,10,0:0:0:0:
208,304,9279,6,0,L|133:296,2,57,10|2|10,0:1|0:0|0:0,0:0:0:0:
305,363,9879,2,0,L|361:369,2,57,10|2|10,0:1|0:0|0:0,0:0:0:0:
356,261,10479,1,10,0:1:0:0:
269,186,10779,1,10,0:0:0:0:
186,106,11079,2,0,L|204:45,1,57,10|8,0:1|0:1,0:0:0:0:
243,11,11379,2,0,P|305:20|323:85,1,114,10|10,0:1|0:1,0:0:0:0:
308,174,11979,38,0,P|298:225|349:282,2,114,8|8|8,0:0|0:1|0:0,0:0:0:0:
409,121,12879,1,8,0:1:0:0:
348,24,13179,2,0,P|307:18|286:29,1,57,10|2,0:0|0:0,0:0:0:0:
254,63,13479,2,0,P|213:69|192:58,1,57,10|10,0:1|0:1,0:0:0:0:
157,25,13779,1,10,0:0:0:0:
80,109,14079,2,0,L|93:183,1,57,10|2,0:1|0:0,0:0:0:0:
103,220,14379,6,0,B|87:274|87:274|86:290|86:290|68:343,1,114,10|8,0:0|0:1,0:0:0:0:
45,381,14829,1,2,0:0:0:0:
45,381,14979,1,10,0:0:0:0:
157,359,15279,1,8,0:1:0:0:
219,263,15579,1,10,0:0:0:0:
331,282,15879,2,0,L|401:294,1,57,10|8,0:1|0:1,0:0:0:0:
443,300,16179,2,0,P|458:251|416:201,1,114,10|10,0:1|0:1,0:0:0:0:
332,135,16779,6,0,P|341:71|397:56,1,114,14|10,0:0|0:1,0:0:0:0:
442,64,17229,1,2,0:0:0:0:
442,64,17379,1,10,0:0:0:0:
494,165,17679,1,8,0:1:0:0:
422,253,17979,2,0,L|346:240,1,57,10|2,0:0|0:0,0:0:0:0:
317,274,18279,2,0,L|241:261,1,57,10|10,0:1|0:1,0:0:0:0:
204,254,18579,1,8,0:0:0:0:
100,300,18879,6,0,L|24:287,2,57,8|0|8,0:1|0:0|0:0,0:0:0:0:
68,190,19479,2,0,L|81:114,2,57,10|2|10,0:1|0:0|0:0,0:0:0:0:
180,210,20079,1,8,0:1:0:0:
291,232,20379,1,10,0:0:0:0:
402,257,20679,2,0,L|388:195,1,57,8|8,0:1|0:1,0:0:0:0:
415,150,20979,2,0,P|389:101|335:98,1,114,10|10,0:1|0:1,0:0:0:0:
245,169,21579,38,0,B|216:178|184:160|198:155|173:138|125:142,1,114,10|10,0:0|0:1,0:0:0:0:
98,182,22029,1,2,0:0:0:0:
98,182,22179,1,10,0:0:0:0:
139,288,22479,1,8,0:1:0:0:
248,256,22779,2,0,P|287:246|317:251,1,57,10|2,0:0|0:0,0:0:0:0:
357,263,23079,2,0,P|376:304|377:325,1,57,10|10,0:1|0:1,0:0:0:0:
345,362,23379,1,10,0:0:0:0:
233,337,23679,2,0,L|165:326,1,57,10|2,0:1|0:0,0:0:0:0:
120,334,23979,6,0,B|99:286|99:286|100:263|100:263|79:206,1,114,10|10,0:0|0:1,0:0:0:0:
143,128,24579,2,0,P|198:141|237:93,2,114,10|8|8,0:0|0:1|0:0,0:0:0:0:
121,15,25479,1,8,0:1:0:0:
23,74,25779,1,8,0:1:0:0:
80,172,26079,2,0,L|78:245,1,57,8|8,0:1|0:1,0:0:0:0:
78,285,26379,6,0,B|128:316|128:316|183:285,2,114,14|10|10,0:0|0:1|0:0,0:0:0:0:
138,188,27279,1,10,0:1:0:0:
64,100,27579,2,0,P|60:75|81:42,1,57,10|2,0:0|0:0,0:0:0:0:
123,19,27879,2,0,L|199:31,1,57,10|10,0:1|0:1,0:0:0:0:
235,36,28179,1,10,0:0:0:0:
303,127,28479,6,0,L|377:121,1,57,8|2,0:1|0:0,0:0:0:0:
416,117,28779,1,10,0:0:0:0:
491,202,29079,2,0,P|506:241|497:269,1,57,10|2,0:1|0:0,0:0:0:0:
471,301,29379,2,0,P|380:281|342:278,1,114,10|8,0:0|0:1,0:0:0:0:
247,301,29979,2,0,P|200:297|151:351,1,114,8|8,0:0|0:1,0:0:0:0:
100,362,30429,1,8,0:1:0:0:
100,362,30579,2,0,P|45:344|-19:334,1,114,10|10,0:1|0:1,0:0:0:0:
8,222,31179,38,0,B|14:182|37:165|46:170|56:151|60:117,2,114,10|10|10,0:0|0:1|0:0,0:0:0:0:
87,303,32079,1,10,0:1:0:0:
163,218,32379,2,0,B|191:228|191:228|227:212,1,57,10|2,0:0|0:0,0:0:0:0:
267,192,32679,2,0,B|295:182|295:182|331:198,1,57,10|10,0:1|0:1,0:0:0:0:
368,223,32979,1,10,0:0:0:0:
472,178,33279,6,0,P|477:128|469:107,1,57,10|2,0:1|0:0,0:0:0:0:
443,74,33579,2,0,B|400:73|400:73|354:79|354:79|303:78,1,114,10|8,0:0|0:1,0:0:0:0:
273,90,34029,1,2,0:0:0:0:
273,90,34179,1,10,0:0:0:0:
166,49,34479,1,8,0:1:0:0:
80,124,34779,2,0,P|74:153|87:183,1,57,10|8,0:0|0:1,0:0:0:0:
126,214,35079,2,0,L|193:205,1,57,10|8,0:1|0:1,0:0:0:0:
232,233,35379,1,10,0:0:0:0:
186,337,35679,1,10,0:1:0:0:
295,367,35979,6,0,B|342:357|342:357|361:343|361:343|424:330,1,114,10|8,0:0|0:1,0:0:0:0:
437,237,36579,1,10,0:0:0:0:
370,158,36879,1,8,0:1:0:0:
270,181,37179,6,0,P|192:168|136:161,1,114,10|8,0:0|0:1,0:0:0:0:
59,192,37779,1,10,0:0:0:0:
108,281,38079,1,8,0:1:0:0:
163,367,38379,38,0,B|215:353|215:353|227:354|227:354|277:336,1,114,10|8,0:0|0:1,0:0:0:0:
338,259,38979,1,10,0:0:0:0:
267,184,39279,1,8,0:1:0:0:
290,84,39579,6,0,P|331:33|387:48,1,114,10|8,0:0|0:1,0:0:0:0:
425,61,40029,1,0,0:0:0:0:
425,61,40179,2,0,L|487:52,2,57,10|8|8,0:0|0:1|0:1,0:0:0:0:
400,160,40779,6,0,P|354:204|372:263,1,114,10|8,0:0|0:0,0:0:0:0:
293,325,41379,2,0,L|228:308,1,57,10|0,0:0|0:0,0:0:0:0:
185,332,41679,2,0,L|120:315,1,57,8|0,0:0|0:0,0:0:0:0:
75,301,41979,6,0,P|61:237|110:203,1,114,10|8,0:0|0:0,0:0:0:0:
170,124,42579,2,0,P|216:139|229:165,1,57,10|0,0:0|0:0,0:0:0:0:
252,191,42879,2,0,P|293:197|313:187,1,57,8|0,0:0|0:0,0:0:0:0:
334,142,43179,37,2,0:0:0:0:
334,142,43329,1,2,0:0:0:0:
451,155,43629,1,2,0:0:0:0:
451,155,43779,2,0,P|487:221|460:253,2,114,2|2|2,0:0|0:0|0:0,0:0:0:0:
392,57,44679,2,0,L|323:42,2,57,8|8|12,0:1|0:1|0:1,0:0:0:0:
272,251,45579,54,0,B|242:239|242:239|226:224|226:224|188:215|188:215|165:222|165:222|133:216,1,142.5,2|2,0:3|0:3,0:0:0:0:
63,232,46179,6,0,P|30:183|121:114,2,182.4,4|4|4,0:3|0:3|0:3,0:0:0:0:
234,297,47979,2,0,B|286:297|306:265|293:253|350:218|402:261,2,182.4,4|4|4,0:3|0:3|0:3,0:0:0:0:
85,178,49779,2,0,B|91:136|106:115|121:127|152:96|168:44|109:5,1,182.4,8|0,3:0|0:0,0:0:0:0:
335,90,50979,6,0,P|387:70|434:99,2,114,14|10|10,0:0|0:1|0:0,0:0:0:0:
383,201,51879,1,10,0:1:0:0:
453,290,52179,2,0,L|436:348,1,57,10|2,0:0|0:0,0:0:0:0:
385,369,52479,2,0,L|317:349,1,57,10|10,0:1|0:1,0:0:0:0:
275,336,52779,1,10,0:0:0:0:
180,271,53079,6,0,P|144:278|131:307,1,57,10|2,0:1|0:0,0:0:0:0:
116,348,53379,1,10,0:0:0:0:
5,374,53679,2,0,P|10:323|10:295,1,57,10|2,0:1|0:0,0:0:0:0:
23,261,53979,2,0,P|23:198|16:130,1,114,10|8,0:0|0:1,0:0:0:0:
63,42,54579,2,0,P|162:39|175:59,1,114,8|8,0:0|0:1,0:0:0:0:
216,73,55029,1,8,0:1:0:0:
216,73,55179,2,0,L|340:55,1,114,10|10,0:1|0:1,0:0:0:0:
418,126,55779,6,0,P|444:161|418:233,1,114,10|8,0:0|0:1,0:0:0:0:
338,286,56379,22,0,B|296:282|296:282|286:277|286:277|234:271,1,91.2,2|2,0:3|3:0,0:0:0:0:
153,209,56979,2,0,B|120:212|120:212|101:224|101:224|38:235,2,114,4|4|4,0:3|0:3|0:3,0:0:0:0:
203,106,57879,6,0,B|232:98|232:98|241:90|241:90|269:81,1,57,4|4,0:3|0:3,0:0:0:0:
311,75,58179,2,0,B|311:147|311:147|299:165|299:165|299:201,1,114,4|4,0:3|0:3,0:0:0:0:
304,246,58629,1,4,0:3:0:0:
304,246,58779,1,4,0:3:0:0:
388,322,59079,2,0,B|412:288|412:288|417:271|417:271|452:210,2,114,2|4|2,0:3|0:3|0:3,0:0:0:0:
274,336,59979,1,2,0:3:0:0:
248,65,62004,69,2,0:3:0:0:
238,76,62979,6,0,B|246:130|246:130|243:144|243:144|254:206,1,114,2|0,0:3|0:0,0:0:0:0:
164,302,63654,70,0,B|123:287|123:287|104:256|104:256|64:241,1,114,2|0,0:3|0:0,0:0:0:0:
55,160,64179,2,0,B|77:123|77:123|223:157,2,171,0|0|2,0:0|0:0|0:2,0:0:0:0:
83,270,65379,1,8,0:1:0:0:
500,87,66579,6,0,P|499:49|478:28,2,57,8|0|2,0:1|0:0|0:2,0:0:0:0:
460,128,67029,1,2,0:2:0:0:
460,128,67179,2,0,P|391:121|321:120,1,114,2|2,0:2|0:0,0:0:0:0:
238,81,67779,70,0,B|210:129|210:129|247:183,2,114,0|2|10,0:0|0:2|0:1,0:0:0:0:
344,120,68679,1,8,0:1:0:0:
389,224,68979,2,0,B|373:271|373:271|373:292|373:292|354:347,1,114,0|2,0:0|0:2,0:0:0:0:
259,276,69579,2,0,P|205:267|196:325,1,114,2|2,0:2|0:2,0:0:0:0:
120,223,70179,6,0,B|122:178|122:178|129:159|129:159|131:103,1,114,12|2,0:2|0:2,0:0:0:0:
122,53,70629,1,2,0:2:0:0:
122,53,70779,2,0,B|176:39|176:39|207:40|207:40|237:34,1,114,2|2,0:0|0:0,0:0:0:0:
343,66,71379,70,0,L|315:128,1,57,8|8,0:1|0:1,0:0:0:0:
294,169,71679,2,0,L|321:241,1,57,8|2,0:1|0:0,0:0:0:0:
315,279,71979,2,0,P|276:328|232:294,1,114,2|2,0:0|0:0,0:0:0:0:
180,211,72579,2,0,P|137:194|94:255,1,114,2|2,0:0|0:0,0:0:0:0:
84,350,73179,6,0,B|112:341|112:341|114:338|114:338|142:329,1,57,2|0,0:0|0:0,0:0:0:0:
191,348,73479,1,2,0:2:0:0:
287,287,73779,2,0,B|342:300|342:300|351:309|351:309|406:323,1,114,8|2,0:1|0:0,0:0:0:0:
480,244,74379,1,2,0:0:0:0:
453,133,74679,2,0,P|413:85|365:112,1,114,2|12,0:0|0:2,0:0:0:0:
292,186,75279,69,2,0:2:0:0:
196,123,75579,2,0,B|149:120|149:120|127:126|127:126|67:123,2,114,2|2|2,0:2|0:2|0:0,0:0:0:0:
288,57,76479,6,0,L|361:64,1,57,8|2,0:1|0:0,0:0:0:0:
401,70,76779,1,2,0:0:0:0:
349,171,77079,2,0,P|354:236|408:241,1,114,2|14,0:1|0:2,0:0:0:0:
494,199,77679,69,2,0:0:0:0:
469,87,77979,2,0,B|448:76|448:76|442:67|442:67|399:45,1,57,2|2,0:0|0:0,0:0:0:0:
371,29,78279,2,0,B|319:43|319:43|309:53|309:53|245:67,1,114,2|2,0:0|0:2,0:0:0:0:
157,22,78879,5,2,0:2:0:0:
54,71,79179,2,0,B|51:109|51:109|52:122|52:122|47:192,1,114,2|2,0:2|0:2,0:0:0:0:
152,253,79779,70,0,B|196:261|221:230|214:224|234:200|280:202,2,125.400003826904,14|2|10,0:2|0:0|0:2,0:0:0:0:
73,171,80679,1,2,0:0:0:0:
133,76,80979,2,0,P|175:76|197:92,1,62.7000019134522,10|2,0:2|0:2,0:0:0:0:
242,112,81279,2,0,P|285:110|305:87,1,62.7000019134522,2|2,0:2|0:2,0:0:0:0:
317,45,81579,2,0,P|345:32|419:97,1,125.400003826904,10|2,0:2|0:0,0:0:0:0:
406,136,82029,5,2,0:0:0:0:
406,136,82179,1,10,0:0:0:0:
366,241,82479,2,0,B|337:241|337:241|327:238|327:238|287:237,1,62.7000019134522,2|2,0:0|0:0,0:0:0:0:
247,242,82779,1,10,0:0:0:0:
144,288,83079,1,2,0:0:0:0:
69,203,83379,1,10,0:0:0:0:
110,98,83679,1,2,0:0:0:0:
222,102,83979,2,0,P|316:83|363:75,1,125.400003826904,10|2,0:0|0:0,0:0:0:0:
437,143,84579,70,0,B|454:179|440:209|430:202|417:225|429:270,2,125.400003826904,10|2|10,0:0|0:0|0:0,0:0:0:0:
349,70,85479,1,2,0:0:0:0:
255,133,85779,2,0,L|180:126,1,62.7000019134522,10|2,0:0|2:0,0:0:0:0:
137,141,86079,2,0,B|120:170|120:170|134:205,1,62.7000019134522,2|2,0:0|0:0,0:0:0:0:
162,243,86379,2,0,P|193:302|137:334,1,125.400003826904,10|2,0:0|0:0,0:0:0:0:
103,335,86829,5,2,0:0:0:0:
103,335,86979,1,10,0:0:0:0:
29,249,87279,2,0,L|49:178,1,62.7000019134522,2|2,0:0|0:0,0:0:0:0:
34,133,87579,1,10,0:0:0:0:
109,48,87879,2,0,P|217:71|250:76,2,125.400003826904,2|10|2,0:0|0:0|0:0,0:0:0:0:
34,133,88779,1,10,0:0:0:0:
101,223,89079,1,2,0:0:0:0:
202,167,89379,70,0,B|242:162|269:185|261:195|285:222|334:217,2,125.400003826904,14|0|10,0:0|0:0|0:0,0:0:0:0:
101,223,90279,1,8,0:0:0:0:
50,122,90579,2,0,P|56:66|131:53,2,125.400003826904,10|0|10,0:0|0:0|0:0,0:0:0:0:
101,223,91479,1,2,3:0:0:0:
208,257,91779,2,0,B|228:283|256:296|256:296|231:318|226:355,2,125.400003826904,10|0|10,0:0|0:0|0:0,0:0:0:0:
192,207,92529,5,2,0:0:0:0:
192,207,92679,2,0,P|206:168|229:155,1,62.7000019134522,2|2,0:0|0:0,0:0:0:0:
267,122,92979,2,0,P|366:145|419:153,2,125.400003826904,10|2|10,0:0|0:0|0:0,0:0:0:0:
179,44,93879,1,2,0:0:0:0:
78,95,94179,70,0,B|57:137|77:161|86:155|108:182|90:232,2,125.400003826904,10|0|10,0:0|0:0|0:0,0:0:0:0:
177,41,95079,2,0,B|208:47|208:47|218:46|218:46|257:56,1,62.7000019134522,2|2,0:0|0:0,0:0:0:0:
279,90,95379,2,0,B|321:94|352:75|345:66|367:53|406:56,2,125.400003826904,10|0|10,0:0|0:0|0:0,0:0:0:0:
195,166,96279,1,2,0:0:0:0:
235,271,96579,2,0,P|288:278|310:215,2,125.400003826904,10|0|10,0:0|0:0|0:0,0:0:0:0:
185,169,97479,6,0,L|164:105,1,62.7000019134522,2|2,0:0|0:0,0:0:0:0:
139,58,97779,1,10,0:0:0:0:
59,138,98079,1,2,0:0:0:0:
59,250,98379,1,8,0:0:0:0:
148,318,98679,1,2,0:3:0:0:
266,280,98979,6,0,P|339:288|383:291,2,114,8|8|8,0:0|0:1|0:0,0:0:0:0:
203,198,99879,1,8,0:1:0:0:
260,113,100179,1,10,0:0:0:0:
360,133,100479,1,10,0:1:0:0:
389,231,100779,1,10,0:0:0:0:
304,289,101079,6,0,L|238:276,2,57,10|2|10,0:1|0:0|0:0,0:0:0:0:
376,362,101679,2,0,L|431:373,2,57,8|2|10,0:1|0:0|0:0,0:0:0:0:
400,262,102279,1,10,0:1:0:0:
338,179,102579,2,0,P|345:125|407:97,2,114,10|10|10,0:0|0:1|0:1,0:0:0:0:
400,262,103479,1,8,0:1:0:0:
301,289,103779,22,0,P|197:285|163:282,2,114,8|8|8,0:0|0:1|0:0,0:0:0:0:
398,255,104679,1,8,0:1:0:0:
336,172,104979,1,10,0:0:0:0:
355,71,105279,1,10,0:1:0:0:
262,27,105579,1,10,0:0:0:0:
178,87,105879,38,0,L|112:74,1,57,10|2,0:1|0:0,0:0:0:0:
71,83,106179,2,0,P|27:123|68:221,1,171,10|2,0:0|0:0,0:0:0:0:
108,235,106779,1,10,0:0:0:0:
206,205,107079,1,10,0:1:0:0:
287,267,107379,1,10,0:0:0:0:
481,144,107979,5,2,0:0:0:0:
413,75,108279,1,2,0:0:0:0:
331,128,108579,1,2,0:0:0:0:
80,12,109404,54,0,B|78:39|78:39|82:49|82:49|79:79|79:79|87:88|87:88|30:138|53:239|149:235,1,284,2|2,0:3|0:0,0:0:0:0:
