osu file format v14

[General]
AudioFilename: audio.mp3
AudioLeadIn: 0
PreviewTime: 2379
Countdown: 0
SampleSet: Soft
StackLeniency: 0.5
Mode: 0
LetterboxInBreaks: 0
WidescreenStoryboard: 1

[Editor]
Bookmarks: 7179,16779,26379,35979,41679,45579,50979,56379,60579,79779,98979,109329
DistanceSpacing: 0.6
BeatDivisor: 4
GridSize: 32
TimelineZoom: 4.499998

[Metadata]
Title:Mopemope
TitleUnicode:もぺもぺ
Artist:LeaF
ArtistUnicode:LeaF
Creator:hypercyte
Version:Insane
Source:osu!
Tags:mbc 4 mbc4 fa featured artist monthly beatmapping contest april four hypercute mappers' guild mg mpg repeat reverse sliders only electronic instrumental horror scary flowers creepy smile BMS OF FIGHTERS ULTIMATE BOFU2017 LEGENDA EST A MYTH イルーム音楽 Illume Ongaku optie breakcore
BeatmapID:2533406
BeatmapSetID:1174616

[Difficulty]
HPDrainRate:5
CircleSize:4
OverallDifficulty:6
ApproachRate:9
SliderMultiplier:1.44
SliderTickRate:1

[Events]
//Background and Video events
Video,-1290,"mopemope 34p5.mp4"
0,0,"hypercyte sucks at drawing.jpg",0,0
//Break Periods
//Storyboard Layer 0 (Background)
//Storyboard Layer 1 (Fail)
//Storyboard Layer 2 (Pass)
//Storyboard Layer 3 (Foreground)
//Storyboard Layer 4 (Overlay)
//Storyboard Sound Samples

[TimingPoints]
2379,300,4,2,44,44,1,0
2379,-227.272727272727,4,2,44,44,0,0
7179,-100,4,2,44,54,0,0
7291,-100,4,2,44,5,0,0
7479,-100,4,2,44,54,0,0
9279,-66.6666666666667,4,2,44,54,0,0
9879,-100,4,2,44,54,0,0
12916,-100,4,2,44,5,0,0
13179,-100,4,2,44,54,0,0
14079,-62.5,4,2,44,54,0,0
14116,-62.5,4,2,44,5,0,0
14229,-62.5,4,2,44,54,0,0
14266,-62.5,4,2,44,5,0,0
14379,-38.4615384615385,4,2,44,54,0,0
14679,-100,4,2,44,54,0,0
17079,-100,4,2,44,54,0,0
20679,-62.5,4,2,44,54,0,0
20716,-62.5,4,2,44,5,0,0
20829,-62.5,4,2,44,54,0,0
20866,-62.5,4,2,44,5,0,0
20979,-58.8235294117647,4,2,44,54,0,0
21579,-100,4,2,44,54,0,0
24579,-133.333333333333,4,2,44,54,0,0
26379,-83.3333333333333,4,2,44,64,0,0
26604,-83.3333333333333,4,2,44,5,0,0
26679,-83.3333333333333,4,2,44,64,0,0
27316,-83.3333333333333,4,2,44,5,0,0
27579,-83.3333333333333,4,2,44,64,0,0
32379,-83.3333333333333,4,2,44,64,0,0
35979,-83.3333333333333,4,2,44,60,0,0
36579,-100,4,2,44,60,0,0
37179,-125,4,2,44,60,0,0
37779,-166.666666666667,4,2,44,60,0,0
38379,-250,4,2,44,60,0,0
39579,-166.666666666667,4,2,44,60,0,0
40179,-125,4,2,44,60,0,0
43179,-125,4,2,44,54,0,0
43779,-100,4,2,44,64,0,0
44679,-100,4,2,44,34,0,0
45579,300,4,2,44,44,1,8
45579,-57.1428571428571,4,2,44,44,0,0
45954,-100,4,2,44,44,0,0
46179,300,4,2,44,44,1,0
46179,-227.272727272727,4,2,44,44,0,0
50079,-156.25,4,2,44,54,0,0
50379,-50,4,2,44,74,0,0
50979,-83.3333333333333,4,2,44,64,0,0
51916,-83.3333333333333,4,2,44,5,0,0
52179,-83.3333333333333,4,2,44,64,0,0
56379,-100,4,2,44,64,0,0
60579,-294.117647058824,4,2,44,44,0,0
61929,-33.3333333333333,4,2,44,44,0,0
62379,-294.117647058824,4,2,44,54,0,0
62979,-50,4,3,44,54,0,0
63129,-33.3333333333333,4,3,44,64,0,0
63354,-50,4,3,44,64,0,0
63879,-50,4,3,44,64,0,0
64629,-100,4,3,44,64,0,0
65379,-227.272727272727,4,3,44,64,0,0
66579,-100,4,3,44,64,0,0
67479,-100,4,3,44,64,0,0
68379,-100,4,3,44,64,0,0
68979,-83.3333333333333,4,3,44,64,0,0
69579,-100,4,3,44,64,0,0
69879,-100,4,3,44,64,0,0
74079,-100,4,3,44,64,0,0
74679,-100,4,3,44,64,0,0
74979,-100,4,3,4,64,0,0
75016,-100,4,3,44,64,0,0
77079,-83.3333333333333,4,3,0,64,0,0
77191,-33.3333333333333,4,3,44,5,0,0
77379,-50,4,3,44,64,0,0
78279,-100,4,3,44,64,0,0
78879,-100,4,3,44,64,0,0
79779,-71.4285714285714,4,2,4,74,0,1
79891,-71.4285714285714,4,2,4,5,0,1
80079,-71.4285714285714,4,2,4,74,0,1
80491,-71.4285714285714,4,2,4,5,0,1
80679,-71.4285714285714,4,2,4,74,0,1
81016,-71.4285714285714,4,2,4,5,0,1
81129,-71.4285714285714,4,2,4,74,0,1
81166,-71.4285714285714,4,2,4,5,0,1
81279,-71.4285714285714,4,2,4,74,0,1
81316,-71.4285714285714,4,2,4,5,0,1
81429,-71.4285714285714,4,2,4,74,0,1
81466,-71.4285714285714,4,2,4,5,0,1
81579,-71.4285714285714,4,2,4,74,0,1
81691,-71.4285714285714,4,2,4,5,0,1
81879,-71.4285714285714,4,2,4,74,0,1
82291,-71.4285714285714,4,2,4,5,0,1
82479,-71.4285714285714,4,2,4,74,0,1
82779,-83.3333333333333,4,2,4,74,0,1
82891,-83.3333333333333,4,2,4,5,0,1
83079,-83.3333333333333,4,2,4,74,0,1
83379,-83.3333333333333,4,2,4,74,0,1
83491,-83.3333333333333,4,2,4,5,0,1
83679,-83.3333333333333,4,2,4,74,0,1
84579,-71.4285714285714,4,2,4,74,0,1
84691,-71.4285714285714,4,2,4,5,0,1
84879,-71.4285714285714,4,2,4,74,0,1
85291,-71.4285714285714,4,2,4,5,0,1
85479,-71.4285714285714,4,2,4,74,0,1
85516,-71.4285714285714,4,2,4,5,0,1
85629,-71.4285714285714,4,2,4,74,0,1
85816,-71.4285714285714,4,2,4,5,0,1
85929,-71.4285714285714,4,2,4,74,0,1
85966,-71.4285714285714,4,2,4,5,0,1
86079,-71.4285714285714,4,2,4,74,0,1
86116,-71.4285714285714,4,2,4,5,0,1
86229,-71.4285714285714,4,2,4,74,0,1
86266,-71.4285714285714,4,2,4,5,0,1
86379,-71.4285714285714,4,2,4,74,0,1
86491,-71.4285714285714,4,2,4,5,0,1
86679,-71.4285714285714,4,2,4,74,0,1
87091,-71.4285714285714,4,2,4,5,0,1
87279,-71.4285714285714,4,2,4,74,0,1
87691,-71.4285714285714,4,2,4,5,0,1
87879,-71.4285714285714,4,2,4,74,0,1
88291,-71.4285714285714,4,2,4,5,0,1
88479,-71.4285714285714,4,2,4,74,0,1
88779,-71.4285714285714,4,2,4,74,0,1
88891,-71.4285714285714,4,2,4,5,0,1
89079,-71.4285714285714,4,2,4,74,0,1
90279,-71.4285714285714,4,2,44,74,0,1
90579,-71.4285714285714,4,2,4,74,0,1
91279,-71.4285714285714,4,2,4,74,0,1
91779,-71.4285714285714,4,2,4,74,0,1
95079,-71.4285714285714,4,2,4,74,0,1
95116,-71.4285714285714,4,2,4,5,0,1
95229,-71.4285714285714,4,2,4,74,0,1
95266,-71.4285714285714,4,2,4,5,0,1
95379,-71.4285714285714,4,2,4,74,0,1
97516,-71.4285714285714,4,2,4,5,0,1
97629,-71.4285714285714,4,2,4,74,0,1
97666,-71.4285714285714,4,2,4,5,0,1
97779,-71.4285714285714,4,2,4,74,0,1
98979,-133.333333333333,4,2,44,44,0,0
109404,-50,4,2,44,64,0,0
109604,400,4,2,44,64,1,0
109870,300,4,2,44,64,1,0

[Colours]
Combo1 : 160,146,146
Combo2 : 173,219,162
Combo3 : 209,204,133
Combo4 : 204,172,106
Combo5 : 164,217,211
Combo6 : 201,116,118

[HitObjects]
322,198,2379,6,0,P|339:202|354:213,3,31.6800009667969,8|0|0|0,0:0|0:0|0:0|0:0,0:0:0:0:
244,254,2979,2,0,P|240:271|229:286,3,31.6800009667969,8|0|0|0,0:0|0:0|0:0|0:0,0:0:0:0:
198,177,3579,6,0,P|181:173|166:162,1,31.6800009667969,8|0,0:0|0:0,0:0:0:0:
270,121,3879,1,8,0:1:0:0:
270,121,4029,1,8,0:1:0:0:
194,184,4179,2,0,P|177:180|162:169,1,31.6800009667969,8|0,0:0|0:0,0:0:0:0:
281,92,4479,2,0,P|272:105|269:120,1,31.6800009667969,8|0,0:1|0:0,0:0:0:0:
367,290,4779,6,0,L|402:284,3,31.6800009667969,8|0|0|0,0:0|0:0|0:0|0:0,0:0:0:0:
292,244,5379,2,0,L|286:209,3,31.6800009667969,8|0|0|0,0:0|0:0|0:0|0:0,0:0:0:0:
247,320,5979,6,0,L|212:326,1,31.6800009667969,8|0,0:0|0:0,0:0:0:0:
324,372,6279,1,8,0:1:0:0:
324,372,6429,1,8,0:1:0:0:
246,329,6579,2,0,L|211:335,1,31.6800009667969,8|0,0:1|0:0,0:0:0:0:
101,354,6879,2,0,L|133:349,1,31.6800009667969,8|0,0:1|0:0,0:0:0:0:
325,251,7179,38,0,B|305:195|305:195|306:181|306:181|279:109,2,144,14|8|8,0:0|0:1|0:0,0:0:0:0:
365,328,8079,1,10,0:1:0:0:
235,190,8379,5,10,0:0:0:0:
330,140,8529,1,2,0:0:0:0:
325,251,8679,1,10,0:1:0:0:
229,199,8829,1,10,0:1:0:0:
242,98,8979,1,10,0:0:0:0:
242,98,9279,5,10,0:1:0:0:
142,51,9429,1,2,0:0:0:0:
255,104,9579,1,10,0:0:0:0:
325,251,9879,5,10,0:1:0:0:
425,204,10029,1,2,0:0:0:0:
312,257,10179,1,10,0:0:0:0:
196,311,10479,1,10,0:1:0:0:
85,229,10779,38,0,P|88:181|110:155,1,72,10|0,0:0|0:0,0:0:0:0:
215,173,11079,1,10,0:1:0:0:
215,173,11229,1,8,0:1:0:0:
77,236,11379,2,0,P|70:183|141:134,1,144,10|10,0:1|0:1,0:0:0:0:
196,311,11979,6,0,B|252:291|252:291|266:292|266:292|338:265,2,144,8|8|8,0:0|0:1|0:0,0:0:0:0:
385,336,12879,1,8,0:1:0:0:
260,203,13179,5,10,0:0:0:0:
331,263,13329,1,2,0:0:0:0:
398,201,13479,1,10,0:1:0:0:
326,140,13629,1,10,0:1:0:0:
260,203,13779,1,10,0:0:0:0:
250,214,14079,5,10,0:1:0:0:
157,168,14229,1,2,0:0:0:0:
157,168,14379,1,10,0:0:0:0:
189,37,14679,37,8,0:1:0:0:
273,87,14829,1,2,0:0:0:0:
168,26,14979,1,10,0:0:0:0:
293,96,15279,1,8,0:1:0:0:
434,38,15579,6,0,B|425:78|425:78|425:86|425:86|419:115,1,72,10|0,0:0|0:0,0:0:0:0:
403,195,15879,1,10,0:1:0:0:
403,195,16029,1,8,0:1:0:0:
420,38,16179,2,0,B|403:110|403:110|403:125|403:125|392:178,1,144,10|10,0:1|0:1,0:0:0:0:
366,274,16629,1,10,0:1:0:0:
198,181,16779,6,0,B|153:171|131:199|140:209|112:243|68:229,1,144,14|10,0:0|0:1,0:0:0:0:
102,311,17229,1,2,0:0:0:0:
45,199,17379,2,0,P|48:151|48:115,1,72,10|0,0:0|0:0,0:0:0:0:
136,43,17679,2,0,P|135:78|132:114,1,72,8|0,0:1|0:0,0:0:0:0:
288,288,17979,5,10,0:0:0:0:
352,210,18129,1,2,0:0:0:0:
287,132,18279,1,10,0:1:0:0:
221,208,18429,1,10,0:1:0:0:
288,312,18579,1,8,0:0:0:0:
288,312,18879,38,0,L|362:289,1,72,8|0,0:1|0:0,0:0:0:0:
448,256,19179,1,8,0:0:0:0:
273,333,19479,6,0,L|199:310,1,72,10|2,0:1|0:0,0:0:0:0:
113,277,19779,1,10,0:0:0:0:
296,354,20079,5,8,0:1:0:0:
260,126,20379,1,10,0:0:0:0:
95,294,20679,1,8,0:1:0:0:
95,294,20829,1,8,0:1:0:0:
43,226,20979,6,0,P|43:205|59:179,12,30.6000005836487,10|0|0|0|0|0|0|0|2|0|2|0|2,0:1|0:0|0:0|0:0|0:0|0:0|0:0|0:0|0:0|0:0|0:0|0:0|0:0,0:0:0:0:
237,323,21579,38,0,L|321:304,1,72,10|0,0:0|0:0,0:0:0:0:
396,286,21879,1,10,0:1:0:0:
396,286,22029,1,2,0:0:0:0:
266,154,22179,2,0,P|263:198|282:221,1,72,10|0,0:0|0:0,0:0:0:0:
369,198,22479,2,0,P|372:154|353:131,1,72,8|0,0:1|0:0,0:0:0:0:
166,80,22779,5,10,0:0:0:0:
82,135,22929,1,2,0:0:0:0:
115,229,23079,1,10,0:1:0:0:
24,272,23229,1,10,0:1:0:0:
55,384,23379,1,10,0:0:0:0:
55,384,23679,6,0,P|109:379|140:375,1,72,10|2,0:1|0:0,0:0:0:0:
115,229,23979,2,0,B|174:237|174:237|184:241|184:241|260:252,1,144,10|10,0:0|0:1,0:0:0:0:
325,203,24429,1,2,0:0:0:0:
444,279,24579,6,0,P|423:357|415:392,2,108.000004119873,10|8|8,0:0|0:1|0:0,0:0:0:0:
270,336,25479,1,8,0:1:0:0:
381,104,25779,1,8,0:1:0:0:
281,50,26079,1,8,0:1:0:0:
281,50,26229,1,8,0:1:0:0:
92,209,26379,38,0,B|126:224|156:203|141:191|172:164|223:186,1,129.599996044922,14|0,0:0|0:0,0:0:0:0:
222,194,26679,2,0,P|237:242|212:275,1,86.3999973632813,10|0,0:1|0:0,0:0:0:0:
372,369,26979,2,0,P|359:313|353:281,1,86.3999973632813,10|10,0:0|0:0,0:0:0:0:
343,168,27279,1,10,0:1:0:0:
343,168,27579,5,10,0:0:0:0:
412,229,27729,1,2,0:0:0:0:
250,174,27879,1,10,0:1:0:0:
330,77,28029,1,10,0:1:0:0:
412,229,28179,1,10,0:0:0:0:
412,229,28479,5,8,0:1:0:0:
343,294,28629,1,2,0:0:0:0:
249,275,28779,1,10,0:0:0:0:
107,351,29079,5,10,0:1:0:0:
153,268,29229,1,2,0:0:0:0:
243,296,29379,1,10,0:0:0:0:
315,43,29679,37,8,0:1:0:0:
285,177,29979,1,8,0:0:0:0:
257,312,30279,1,8,0:1:0:0:
257,312,30429,1,8,0:1:0:0:
189,203,30579,2,0,L|171:155,7,43.1999986816407,10|2|2|2|2|2|2|2,0:1|0:0|0:0|0:0|0:0|0:0|0:0|0:0,0:0:0:0:
177,232,31179,6,0,P|136:261|100:257,1,86.3999973632813,10|0,0:0|0:0,0:0:0:0:
47,148,31479,1,10,0:1:0:0:
47,148,31629,1,0,0:0:0:0:
84,52,31779,2,0,L|68:145,1,86.3999973632813,10|10,0:0|0:0,0:0:0:0:
193,352,32079,1,10,0:1:0:0:
193,352,32379,5,10,0:0:0:0:
265,293,32529,1,2,0:0:0:0:
126,190,32679,1,10,0:1:0:0:
107,293,32829,1,10,0:1:0:0:
232,189,32979,1,10,0:0:0:0:
232,189,33279,5,10,0:1:0:0:
227,12,33429,1,2,0:0:0:0:
79,96,33579,1,10,0:0:0:0:
295,112,33879,37,8,0:1:0:0:
326,208,34029,1,2,0:0:0:0:
232,189,34179,1,10,0:0:0:0:
66,256,34479,5,8,0:1:0:0:
218,353,34779,1,10,0:0:0:0:
218,353,34929,1,8,0:1:0:0:
169,267,35079,1,10,0:1:0:0:
169,267,35229,1,8,0:1:0:0:
311,255,35379,2,0,P|384:257|409:256,1,86.3999973632813,10|2,0:0|0:0,0:0:0:0:
463,117,35679,2,0,P|480:152|460:196,1,86.3999973632813,10|2,0:1|0:0,0:0:0:0:
239,167,35979,6,0,P|229:121|260:79,3,86.3999973632813,10|0|0|0,0:0|0:0|0:0|0:0,0:0:0:0:
218,307,36579,6,0,P|257:311|287:295,3,72,10|0|0|0,0:0|0:0|0:0|0:0,0:0:0:0:
96,270,37179,38,0,P|87:306|92:335,3,57.6,10|0|0|0,0:0|0:0|0:0|0:0,0:0:0:0:
127,171,37779,6,0,P|105:166|84:169,3,43.1999986816407,10|0|0|0,0:0|0:0|0:0|0:0,0:0:0:0:
209,193,38379,6,0,P|212:176|210:160,3,28.8,10|0|0|0,0:0|0:0|0:0|0:0,0:0:0:0:
190,275,38979,6,0,P|206:278|222:276,3,28.8,10|0|0|0,0:0|0:0|0:0|0:0,0:0:0:0:
306,293,39579,38,0,P|310:255|303:242,1,43.1999986816407,10|0,0:0|0:0,0:0:0:0:
244,183,39879,1,0,0:0:0:0:
244,183,40029,1,0,0:0:0:0:
313,70,40179,6,0,P|348:56|378:64,1,57.6,10|8,0:0|0:1,0:0:0:0:
381,147,40479,2,0,P|355:159|327:158,1,57.6,8|8,0:1|0:1,0:0:0:0:
37,80,40779,6,0,L|51:149,1,57.6,10|0,0:0|0:0,0:0:0:0:
142,134,41079,2,0,L|130:77,1,57.6,8|0,0:0|0:0,0:0:0:0:
8,310,41379,6,0,P|18:343|49:361,1,57.6,10|0,0:0|0:0,0:0:0:0:
111,300,41679,2,0,P|101:267|70:249,1,57.6,8|0,0:0|0:0,0:0:0:0:
263,353,41979,38,0,P|308:343|331:341,1,57.6,10|0,0:0|0:0,0:0:0:0:
306,252,42279,2,0,P|261:262|238:264,1,57.6,8|0,0:0|0:0,0:0:0:0:
454,207,42579,6,0,P|458:178|442:151,1,57.6,10|0,0:0|0:0,0:0:0:0:
338,66,42879,2,0,P|332:94|344:120,1,57.6,8|0,0:0|0:0,0:0:0:0:
464,220,43179,5,2,0:0:0:0:
464,220,43329,1,2,0:0:0:0:
419,296,43629,1,2,0:0:0:0:
265,232,43779,1,2,0:0:0:0:
128,292,44079,1,2,0:0:0:0:
0,83,44379,1,2,0:0:0:0:
91,99,44679,5,8,0:1:0:0:
91,99,44829,1,8,0:1:0:0:
145,38,44979,1,12,0:1:0:0:
251,135,45579,6,0,B|272:125|272:125|290:112|290:112|313:100,1,63.0000006008148,2|2,0:3|0:3,0:0:0:0:
324,107,45954,2,0,L|345:96,4,18,2|0|0|0|0,0:3|0:0|0:0|0:0|0:0,0:0:0:0:
305,103,46179,6,0,B|293:137|324:166|334:156|351:181|344:216,2,126.720003867188,4|4|4,0:3|0:3|0:3,0:0:0:0:
223,260,47979,2,0,B|189:285|168:277|168:255|132:231|109:250,2,126.720003867188,4|4|4,0:3|0:3|0:3,0:0:0:0:
406,174,49779,2,0,B|396:213|377:307|377:307|374:316|374:316|382:318|382:318|377:327|377:327|378:359,1,190.080005800781,8|8,3:0|0:1,0:0:0:0:
378,353,50979,6,0,B|344:338|314:359|329:371|298:398|247:376,1,129.599996044922,14|0,0:0|0:0,0:0:0:0:
248,368,51279,2,0,P|233:320|258:287,1,86.3999973632813,10|0,0:1|0:0,0:0:0:0:
92,211,51579,2,0,P|134:202|176:192,1,86.3999973632813,10|8,0:0|0:0,0:0:0:0:
265,138,51879,1,10,0:1:0:0:
265,138,52179,5,10,0:0:0:0:
176,192,52329,1,2,0:0:0:0:
331,223,52479,1,10,0:1:0:0:
280,124,52629,1,10,0:1:0:0:
184,212,52779,1,10,0:0:0:0:
192,228,53079,5,10,0:1:0:0:
92,171,53229,1,2,0:0:0:0:
0,226,53379,1,10,0:0:0:0:
296,157,53679,5,10,0:1:0:0:
196,214,53829,1,2,0:0:0:0:
104,159,53979,1,10,0:0:0:0:
434,238,54279,37,8,0:1:0:0:
296,157,54579,1,8,0:0:0:0:
191,233,54879,1,8,0:1:0:0:
191,233,55029,1,8,0:1:0:0:
226,320,55179,6,0,L|244:368,7,43.1999986816407,10|2|2|2|2|2|2|2,0:1|0:0|0:0|0:0|0:0|0:0|0:0|0:0,0:0:0:0:
228,302,55779,2,0,P|269:288|303:311,2,86.3999973632813,10|2|8,0:0|0:3|0:1,0:0:0:0:
96,216,56379,38,0,L|63:212,4,18,2|2|2|2|2,0:3|0:3|0:3|0:3|0:3,0:0:0:0:
212,155,56679,2,0,B|208:125|191:112|186:122|169:104|173:86,1,72,2|0,3:0|0:0,0:0:0:0:
225,181,56979,2,0,B|266:180|256:163|297:161,1,72,4|4,0:3|0:3,0:0:0:0:
392,62,57279,2,0,B|391:103|374:93|372:134,1,72,4|4,0:3|0:3,0:0:0:0:
403,217,57579,1,4,0:3:0:0:
416,231,57879,6,0,B|441:212|476:225|482:204,1,72,4|4,0:3|0:3,0:0:0:0:
357,315,58179,2,0,B|318:309|323:303|300:297|279:300,1,72,4|0,0:3|0:0,0:0:0:0:
116,336,58479,69,4,0:3:0:0:
116,336,58629,1,4,0:3:0:0:
116,336,58779,1,4,0:3:0:0:
140,253,59079,5,2,0:3:0:0:
103,174,59379,1,4,0:3:0:0:
21,146,59679,1,2,0:3:0:0:
21,146,59979,1,2,0:3:0:0:
240,142,60579,6,0,B|270:145|288:130|281:123|301:110|334:110,2,97.9200005976563,0|0|0,0:0|0:0|0:0,0:0:0:0:
109,61,62004,54,0,B|96:60|96:60|80:68|80:68|81:61|76:57|76:57|71:62|71:62|58:64|57:64|43:67,4,54.0000020599366,2|2|2|2|0,0:3|0:3|0:3|0:3|0:0,0:0:0:0:
239,141,62379,38,0,B|265:143|281:130|275:124|293:112|318:112,1,85.6800005229492,2|0,0:0|0:0,0:0:0:0:
338,118,62979,38,0,B|355:141|355:141|345:160|344:170,10,36,2|0|0|0|2|0|0|0|0|0|2,0:3|0:0|0:0|0:0|0:3|0:0|0:0|0:0|0:0|0:0|0:3,0:0:0:0:
251,241,63654,2,0,B|248:260|248:260|250:265|250:265|248:276|247:279|247:279|248:285,8,36,2|0|0|0|0|0|0|0|0,0:3|0:0|0:0|0:0|0:0|0:0|0:0|0:0|0:0,0:0:0:0:
129,126,64179,2,0,B|123:100|123:100|125:92|125:92|119:84|119:84|122:78|122:77,10,36,0|0|0|0|0|0|0|0|0|0|0,0:0|0:0|0:0|0:0|0:0|0:0|0:0|0:0|0:0|0:0|0:0,0:0:0:0:
202,181,64629,6,0,B|197:198|197:198|196:211|196:211|190:234,4,36,0|0|0|0|0,0:0|0:0|0:0|0:0|0:0,0:0:0:0:
257,99,65004,1,0,0:0:0:0:
257,99,65079,2,0,L|243:52,3,36,2|2|2|2,0:2|0:2|0:2|0:2,0:0:0:0:
273,121,65379,70,0,B|308:136|341:120|333:109|364:91|396:102,2,126.720003867188,8|0|8,0:1|0:0|0:1,0:0:0:0:
145,212,66879,6,0,L|98:205,3,36,2|2|2|2,0:2|0:2|0:2|0:2,0:0:0:0:
174,228,67179,1,2,0:2:0:0:
135,312,67329,1,2,0:2:0:0:
255,350,67479,2,0,L|304:340,1,36,2|0,0:0|0:0,0:0:0:0:
322,333,67629,1,2,0:0:0:0:
405,234,67779,70,0,B|403:244|403:244|406:250|406:250|405:257,6,18,0|0|0|0|2|0|2,0:0|0:0|0:0|0:0|0:2|0:0|0:2,0:0:0:0:
326,163,68079,1,2,0:2:0:0:
320,142,68154,1,2,0:2:0:0:
323,120,68229,1,2,0:2:0:0:
335,102,68304,1,2,0:2:0:0:
358,88,68379,6,0,L|428:100,1,72,10|0,0:1|0:0,0:0:0:0:
189,62,68679,2,0,L|245:50,2,54,8|0|0,0:1|0:0|0:0,0:0:0:0:
157,97,68979,2,0,L|49:84,1,86.3999973632813,0|0,0:0|0:0,0:0:0:0:
206,205,69279,2,0,L|217:258,3,43.1999986816407,2|2|2|2,0:2|0:2|0:2|0:2,0:0:0:0:
185,187,69579,70,0,L|178:155,6,18,2|0|0|0|0|0|0,0:2|0:0|0:0|0:0|0:0|0:0|0:0,0:0:0:0:
124,250,69879,2,0,L|117:281,6,18,2|0|0|0|0|0|0,0:2|0:0|0:0|0:0|0:0|0:0|0:0,0:0:0:0:
68,181,70179,6,0,B|61:150|61:150|63:139|63:139|57:106,1,72,12|0,0:2|0:0,0:0:0:0:
135,43,70479,1,2,0:2:0:0:
156,41,70554,1,2,0:2:0:0:
176,46,70629,1,2,0:2:0:0:
190,61,70704,1,2,0:2:0:0:
198,81,70779,70,0,B|192:118|192:118|195:132|195:132|173:221,1,144,2|2,0:0|0:0,0:0:0:0:
295,176,71229,2,0,L|298:215,1,36,0|0,0:0|0:0,0:0:0:0:
342,284,71379,6,0,L|333:323,2,36,8|8|8,0:1|0:1|0:1,0:0:0:0:
414,199,71679,1,8,0:1:0:0:
356,104,71829,1,2,0:0:0:0:
430,190,71979,70,0,P|445:130|451:114,1,72,2|2,0:0|0:0,0:0:0:0:
325,19,72279,2,0,P|336:53|344:89,1,72,2|4,0:0|0:0,0:0:0:0:
248,203,72579,5,2,0:0:0:0:
230,215,72654,1,2,0:0:0:0:
208,218,72729,1,2,0:0:0:0:
186,214,72804,1,2,0:0:0:0:
169,199,72879,1,2,0:0:0:0:
162,178,72954,1,2,0:0:0:0:
151,159,73029,1,2,0:0:0:0:
132,147,73104,1,2,0:0:0:0:
110,146,73179,70,0,L|87:153,6,18,2|0|0|0|0|0|0,0:0|0:0|0:0|0:0|0:0|0:0|0:0,0:0:0:0:
153,72,73479,2,0,L|191:62,3,36,2|2|0|0,0:2|0:2|0:0|0:0,0:0:0:0:
282,112,73779,6,0,L|317:125,2,36,8|8|8,0:1|0:1|0:1,0:0:0:0:
421,58,74079,2,0,P|448:107|445:119,1,72,2|0,0:0|0:0,0:0:0:0:
358,222,74379,69,2,0:0:0:0:
366,242,74454,1,2,0:0:0:0:
374,262,74529,1,2,0:0:0:0:
382,282,74604,1,2,0:0:0:0:
390,302,74679,1,2,0:0:0:0:
132,326,74979,6,0,B|163:337|184:313|170:303|198:280|229:289,1,108,12|0,0:2|0:0,0:0:0:0:
237,306,75279,2,0,P|255:318|264:335,3,36,2|2|2|2,0:2|0:2|0:2|0:2,0:0:0:0:
180,244,75579,70,0,B|186:218|186:218|183:202|183:202|193:196|193:196|208:178,1,72,2|0,0:2|0:0,0:0:0:0:
348,138,75879,2,0,L|281:114,1,72,2|2,0:2|0:2,0:0:0:0:
272,91,76104,1,2,0:2:0:0:
264,72,76179,6,0,L|241:63,4,18,2|0|0|0|8,0:0|0:0|0:0|0:0|0:1,0:0:0:0:
417,185,76479,2,0,P|435:156|431:115,1,72,8|2,0:1|0:0,0:0:0:0:
293,252,76779,70,0,L|297:271,6,18,2|0|0|0|0|0|0,0:0|0:0|0:0|0:0|0:0|0:0|0:0,0:0:0:0:
279,237,77079,6,0,B|239:221|214:246|227:254|195:278|151:260,1,129.599996044922,2|0,0:1|0:0,0:0:0:0:
89,234,77379,70,0,B|94:215|94:215|106:203,8,36,14|0|0|0|0|0|0|0|2,0:2|0:0|0:0|0:0|0:0|0:0|0:0|0:0|0:0,0:0:0:0:
276,151,77979,5,2,0:0:0:0:
280,122,78054,1,2,0:0:0:0:
271,94,78129,1,2,0:0:0:0:
246,78,78204,1,2,0:0:0:0:
225,70,78279,2,0,L|194:79,6,18,2|0|0|0|0|0|0,0:0|0:0|0:0|0:0|0:0|0:0|0:0,0:0:0:0:
136,114,78579,2,0,L|98:109,3,36,2|2|2|2,0:2|0:2|0:2|0:2,0:0:0:0:
196,168,78879,70,0,P|202:197|198:214,1,36,2|2,0:2|0:2,0:0:0:0:
125,227,79029,2,0,P|108:251|93:260,1,36,2|0,0:2|0:0,0:0:0:0:
40,203,79179,6,0,L|14:202,6,18,2|0|2|0|2|0|0,0:2|0:0|0:2|0:0|0:2|0:0|0:0,0:0:0:0:
103,255,79479,2,0,L|129:254,6,18,2|0|2|0|0|0|0,0:2|0:0|0:2|0:0|0:2|0:0|0:0,0:0:0:0:
38,316,79779,70,0,B|26:345|10:363|10:363|77:347|154:340,1,201.599993847656,14|2,0:2|0:0,0:0:0:0:
312,176,80379,2,0,P|330:232|270:307,1,151.199995385742,10|0,0:2|0:0,0:0:0:0:
266,300,80679,2,0,P|229:273|232:213,1,100.799996923828,2|0,0:0|0:0,0:0:0:0:
349,95,80979,5,10,0:2:0:0:
312,176,81129,1,2,0:2:0:0:
170,124,81279,1,2,0:2:0:0:
214,36,81429,1,2,0:2:0:0:
161,145,81579,70,0,B|171:185|171:185|171:199|171:199|184:248,1,100.799996923828,10|0,0:2|0:0,0:0:0:0:
108,337,81879,1,2,0:0:0:0:
108,337,82029,1,2,0:0:0:0:
289,217,82179,6,0,B|349:215|365:272|349:289|372:337|439:330,1,201.599993847656,10|2,0:0|0:0,0:0:0:0:
276,303,82629,1,2,0:0:0:0:
377,251,82779,70,0,B|431:252|445:201|431:187|451:144|511:150,2,172.799994726563,10|2|10,0:0|0:0|0:0,0:0:0:0:
161,120,83679,2,0,L|186:205,1,86.3999973632813,2|0,0:0|0:0,0:0:0:0:
134,366,83979,2,0,B|146:317|146:317|157:300|157:300|189:189,1,172.799994726563,10|2,0:0|0:0,0:0:0:0:
280,56,84429,5,2,0:0:0:0:
280,56,84504,1,2,0:0:0:0:
280,56,84579,2,0,B|324:71|324:71|384:166|384:166|423:183,1,201.599993847656,10|2,0:0|0:0,0:0:0:0:
155,201,85179,2,0,P|208:179|255:255,1,151.199995385742,10|0,0:0|0:0,0:0:0:0:
245,247,85479,2,0,L|269:144,1,100.799996923828,2|0,0:0|0:0,0:0:0:0:
75,128,85779,69,10,0:0:0:0:
114,306,85929,1,2,2:0:0:0:
245,247,86079,1,2,0:0:0:0:
155,201,86229,1,2,0:0:0:0:
266,108,86379,6,0,B|331:94|358:141|340:152|378:200|446:184,1,201.599993847656,10|2,0:0|0:0,0:0:0:0:
411,79,86829,1,2,0:0:0:0:
361,229,86979,2,0,P|396:185|445:189,1,100.799996923828,10|0,0:0|0:0,0:0:0:0:
299,353,87279,69,2,0:0:0:0:
267,261,87429,1,2,0:0:0:0:
361,229,87579,1,10,0:0:0:0:
182,346,87879,6,0,P|94:334|19:328,1,151.199995385742,2|0,0:0|0:0,0:0:0:0:
16,326,88179,2,0,P|13:277|57:252,1,100.799996923828,10|0,0:0|0:0,0:0:0:0:
102,131,88479,2,0,P|119:193|130:235,1,100.799996923828,2|0,0:0|0:0,0:0:0:0:
269,360,88779,2,0,B|280:309|298:222|323:149,1,201.599993847656,10|2,0:0|0:0,0:0:0:0:
343,24,89379,70,0,B|287:5|257:64|274:67|240:132|172:107,2,201.599993847656,14|0|10,0:0|0:0|0:0,0:0:0:0:
423,156,90129,1,2,0:0:0:0:
423,156,90279,2,0,P|434:115|488:86,1,100.799996923828,8|8,0:0|0:0,0:0:0:0:
257,244,90579,6,0,B|176:217|176:217|152:187|152:187|68:161,2,201.599993847656,10|0|10,0:0|0:0|0:0,0:0:0:0:
449,353,91479,2,0,L|538:322,2,67.1999979492188,2|2|2,3:0|3:0|3:0,0:0:0:0:
401,338,91779,70,0,B|360:286|398:219|417:238|460:201|437:151,2,201.599993847656,10|0|10,0:0|0:0|0:0,0:0:0:0:
322,176,92529,1,2,0:0:0:0:
458,258,92679,1,2,0:0:0:0:
439,158,92829,1,2,0:0:0:0:
292,279,92979,2,0,P|202:268|149:264,1,100.799996923828,10|0,0:0|0:0,0:0:0:0:
41,267,93279,1,2,0:0:0:0:
41,267,93579,2,0,P|78:232|35:94,1,201.599993847656,10|2,0:0|0:0,0:0:0:0:
160,45,94029,5,2,0:0:0:0:
160,45,94104,1,2,0:0:0:0:
160,45,94179,2,0,B|205:44|234:82|220:90|275:147|341:91,2,201.599993847656,10|0|10,0:0|0:0|0:0,0:0:0:0:
232,337,95079,1,2,0:0:0:0:
338,254,95229,1,2,0:0:0:0:
144,188,95379,70,0,P|153:270|155:319,1,100.799996923828,10|0,0:0|0:0,0:0:0:0:
64,305,95679,2,0,P|55:223|53:174,1,100.799996923828,0|0,0:0|0:0,0:0:0:0:
148,68,95979,5,10,0:0:0:0:
167,62,96054,1,2,0:0:0:0:
192,62,96129,1,2,0:0:0:0:
212,76,96204,1,2,0:0:0:0:
229,93,96279,1,2,0:0:0:0:
253,99,96354,1,2,0:0:0:0:
277,92,96429,1,2,0:0:0:0:
293,73,96504,1,2,0:0:0:0:
287,48,96579,70,0,P|241:58|242:215,2,201.599993847656,10|0|10,0:0|0:0|0:0,0:0:0:0:
467,283,97479,1,2,0:0:0:0:
442,188,97629,1,2,0:0:0:0:
333,317,97779,2,0,P|282:310|232:306,1,100.799996923828,10|0,0:0|0:0,0:0:0:0:
34,289,98079,1,2,0:0:0:0:
32,267,98379,6,0,B|78:256|78:256|94:259|94:259|136:249,1,100.799996923828,8|2,0:0|0:0,0:0:0:0:
209,182,98679,2,0,L|247:186,6,25.1999992309571,2|0|0|0|0|0|0,0:3|0:0|0:0|0:0|0:0|0:0|0:0,0:0:0:0:
190,189,98979,5,8,0:0:0:0:
221,35,99279,1,8,0:1:0:0:
346,131,99579,1,8,0:0:0:0:
190,189,99879,1,8,0:1:0:0:
198,205,100179,6,0,P|234:213|246:233,1,54.0000020599366,10|2,0:0|0:0,0:0:0:0:
130,296,100479,2,0,P|118:260|130:240,1,54.0000020599366,10|10,0:1|0:1,0:0:0:0:
221,321,100779,1,10,0:0:0:0:
243,340,101079,5,10,0:1:0:0:
243,340,101229,1,2,0:0:0:0:
312,251,101379,1,10,0:0:0:0:
335,267,101679,5,8,0:1:0:0:
335,267,101829,1,2,0:0:0:0:
388,209,101979,1,10,0:0:0:0:
275,87,102279,38,0,B|319:99|319:99|332:110|332:110|381:125,2,108.000004119873,10|10|10,0:1|0:0|0:1,0:0:0:0:
187,102,103029,1,8,0:1:0:0:
116,39,103179,1,10,0:1:0:0:
116,39,103479,1,8,0:1:0:0:
144,304,103779,5,8,0:0:0:0:
316,239,104079,1,8,0:1:0:0:
250,326,104379,1,8,0:0:0:0:
212,225,104679,1,8,0:1:0:0:
200,218,104979,2,0,L|220:156,1,54.0000020599366,10|2,0:0|0:0,0:0:0:0:
335,97,105279,2,0,L|271:110,1,54.0000020599366,10|10,0:1|0:1,0:0:0:0:
196,73,105579,1,10,0:0:0:0:
183,63,105879,5,10,0:1:0:0:
183,63,106029,1,2,0:0:0:0:
126,168,106179,2,0,P|133:251|136:283,1,108.000004119873,10|8,0:0|0:1,0:0:0:0:
82,341,106629,1,2,0:0:0:0:
213,321,106779,6,0,P|186:276|134:276,2,108.000004119873,10|10|10,0:0|0:1|0:0,0:0:0:0:
213,342,107979,37,2,0:0:0:0:
213,342,108279,1,2,0:0:0:0:
213,342,108579,1,2,0:0:0:0:
347,243,109404,70,0,B|352:243|352:243|358:249|358:249|359:243|359:243|363:245|363:245|369:246|369:246|379:247|379:247|385:246,4,36,2|0|0|0|0,0:3|0:0|0:0|0:0|0:0,0:0:0:0:
329,224,109604,5,0,0:0:0:0:
319,211,109670,37,0,0:0:0:0:
305,204,109737,53,2,0:0:0:0:
283,203,109804,69,2,0:0:0:0:
263,212,109870,37,2,0:0:0:0:
249,228,109945,53,2,0:0:0:0:
241,255,110020,5,2,0:0:0:0:
253,296,110095,21,2,0:0:0:0:
