osu file format v14

[General]
AudioFilename: audio.mp3
AudioLeadIn: 0
PreviewTime: 2379
Countdown: 0
SampleSet: Soft
StackLeniency: 0.5
Mode: 0
LetterboxInBreaks: 0
WidescreenStoryboard: 1

[Editor]
Bookmarks: 7179,16779,26379,35979,41679,45579,50979,56379,60579,79779,98979,109329
DistanceSpacing: 1
BeatDivisor: 4
GridSize: 32
TimelineZoom: 1.3

[Metadata]
Title:Mopemope
TitleUnicode:もぺもぺ
Artist:LeaF
ArtistUnicode:LeaF
Creator:hypercyte
Version:Easy
Source:osu!
Tags:mbc 4 mbc4 fa featured artist monthly beatmapping contest april four hypercute mappers' guild mg mpg repeat reverse sliders only electronic instrumental horror scary flowers creepy smile BMS OF FIGHTERS ULTIMATE BOFU2017 LEGENDA EST A MYTH イルーム音楽 Illume Ongaku optie breakcore
BeatmapID:2550126
BeatmapSetID:1174616

[Difficulty]
HPDrainRate:2
CircleSize:2.8
OverallDifficulty:2
ApproachRate:4
SliderMultiplier:0.84
SliderTickRate:1

[Events]
//Background and Video events
Video,-1290,"mopemope 34p5.mp4"
0,0,"hypercyte sucks at drawing.jpg",0,0
//Break Periods
//Storyboard Layer 0 (Background)
//Storyboard Layer 1 (Fail)
//Storyboard Layer 2 (Pass)
//Storyboard Layer 3 (Foreground)
//Storyboard Layer 4 (Overlay)
//Storyboard Sound Samples

[TimingPoints]
2379,300,4,2,44,44,1,0
2379,-100,4,2,44,44,0,0
7179,-100,4,2,44,54,0,0
7291,-100,4,2,44,5,0,0
7479,-100,4,2,44,54,0,0
9279,-100,4,2,44,54,0,0
9879,-100,4,2,44,54,0,0
12916,-100,4,2,44,5,0,0
13179,-100,4,2,44,54,0,0
14079,-100,4,2,44,54,0,0
14116,-100,4,2,44,5,0,0
14229,-100,4,2,44,54,0,0
14266,-100,4,2,44,5,0,0
14379,-100,4,2,44,54,0,0
14679,-100,4,2,44,54,0,0
16891,-100,4,2,44,54,0,0
17079,-100,4,2,44,54,0,0
20679,-100,4,2,44,54,0,0
20716,-100,4,2,44,5,0,0
20829,-100,4,2,44,54,0,0
20866,-100,4,2,44,5,0,0
20979,-100,4,2,44,54,0,0
21579,-100,4,2,44,54,0,0
23716,-100,4,2,44,54,0,0
23829,-100,4,2,44,54,0,0
23866,-100,4,2,44,54,0,0
23979,-100,4,2,44,54,0,0
24579,-100,4,2,44,54,0,0
26379,-100,4,2,44,64,0,0
26604,-100,4,2,44,5,0,0
26679,-100,4,2,44,64,0,0
27316,-100,4,2,44,5,0,0
27579,-100,4,2,44,64,0,0
32116,-100,4,2,44,64,0,0
32379,-100,4,2,44,64,0,0
35979,-100,4,2,44,60,0,0
36579,-100,4,2,44,60,0,0
37179,-100,4,2,44,60,0,0
37779,-100,4,2,44,60,0,0
38379,-100,4,2,44,60,0,0
38979,-100,4,2,44,60,0,0
39579,-100,4,2,44,60,0,0
40179,-100,4,2,44,60,0,0
43179,-100,4,2,44,54,0,0
43779,-100,4,2,44,64,0,0
44679,-100,4,2,44,34,0,0
45579,300,4,2,44,44,1,8
45579,-100,4,2,44,44,0,0
45954,-100,4,2,44,44,0,0
46179,300,4,2,44,44,1,0
46179,-100,4,2,44,44,0,0
50079,-100,4,2,44,54,0,0
50379,-100,4,2,44,74,0,0
50979,-100,4,2,44,64,0,0
51916,-100,4,2,44,5,0,0
52179,-100,4,2,44,64,0,0
56379,-100,4,2,44,64,0,0
56679,-100,4,2,44,64,0,0
60579,-100,4,2,44,44,0,0
61929,-100,4,2,44,44,0,0
62379,-100,4,2,44,54,0,0
62979,-100,4,3,44,54,0,0
63129,-100,4,3,44,64,0,0
63354,-100,4,3,44,64,0,0
63879,-100,4,3,44,64,0,0
64629,-100,4,3,44,64,0,0
65379,-100,4,3,44,64,0,0
66579,-100,4,3,44,64,0,0
67479,-100,4,3,44,64,0,0
68379,-100,4,3,44,64,0,0
68979,-100,4,3,44,64,0,0
69579,-100,4,3,44,64,0,0
69879,-100,4,3,44,64,0,0
70179,-100,4,3,44,64,0,0
70216,-100,4,3,44,64,0,0
74079,-100,4,3,44,64,0,0
74679,-100,4,3,44,64,0,0
74979,-100,4,3,4,64,0,0
75016,-100,4,3,44,64,0,0
77079,-100,4,3,0,64,0,0
77191,-100,4,3,44,5,0,0
77379,-100,4,3,44,64,0,0
78279,-100,4,3,44,64,0,0
78879,-100,4,3,44,64,0,0
79779,-100,4,2,4,74,0,1
79891,-100,4,2,4,5,0,1
80079,-100,4,2,4,74,0,1
80491,-100,4,2,4,5,0,1
80679,-100,4,2,4,74,0,1
81016,-100,4,2,4,5,0,1
81129,-100,4,2,4,74,0,1
81166,-100,4,2,4,5,0,1
81279,-100,4,2,4,74,0,1
81316,-100,4,2,4,5,0,1
81429,-100,4,2,4,74,0,1
81466,-100,4,2,4,5,0,1
81579,-100,4,2,4,74,0,1
81691,-100,4,2,4,5,0,1
81879,-100,4,2,4,74,0,1
82291,-100,4,2,4,5,0,1
82479,-100,4,2,4,74,0,1
82779,-100,4,2,4,74,0,1
82891,-100,4,2,4,5,0,1
83079,-100,4,2,4,74,0,1
83379,-100,4,2,4,74,0,1
83491,-100,4,2,4,5,0,1
83679,-100,4,2,4,74,0,1
84579,-100,4,2,4,74,0,1
84691,-100,4,2,4,5,0,1
84879,-100,4,2,4,74,0,1
85291,-100,4,2,4,5,0,1
85479,-100,4,2,4,74,0,1
85516,-100,4,2,4,5,0,1
85629,-100,4,2,4,74,0,1
85816,-100,4,2,4,5,0,1
85929,-100,4,2,4,74,0,1
85966,-100,4,2,4,5,0,1
86079,-100,4,2,4,74,0,1
86116,-100,4,2,4,5,0,1
86229,-100,4,2,4,74,0,1
86266,-100,4,2,4,5,0,1
86379,-100,4,2,4,74,0,1
86491,-100,4,2,4,5,0,1
86679,-100,4,2,4,74,0,1
87091,-100,4,2,4,5,0,1
87279,-100,4,2,4,74,0,1
87691,-100,4,2,4,5,0,1
87879,-100,4,2,4,74,0,1
88291,-100,4,2,4,5,0,1
88479,-100,4,2,4,74,0,1
88779,-100,4,2,4,74,0,1
88891,-100,4,2,4,5,0,1
89079,-100,4,2,4,74,0,1
90279,-100,4,2,44,74,0,1
90579,-100,4,2,4,74,0,1
91279,-100,4,2,4,74,0,1
91779,-100,4,2,4,74,0,1
95079,-100,4,2,4,74,0,1
95116,-100,4,2,4,5,0,1
95229,-100,4,2,4,74,0,1
95266,-100,4,2,4,5,0,1
95379,-100,4,2,4,74,0,1
97516,-100,4,2,4,5,0,1
97629,-100,4,2,4,74,0,1
97666,-100,4,2,4,5,0,1
97779,-100,4,2,4,74,0,1
98979,-100,4,2,44,44,0,0
109404,-100,4,2,44,64,0,0
109604,400,4,2,44,64,1,0
109870,300,4,2,44,64,1,0

[Colours]
Combo1 : 160,146,146
Combo2 : 173,219,162
Combo3 : 209,204,133
Combo4 : 204,172,106
Combo5 : 164,217,211
Combo6 : 201,116,118

[HitObjects]
342,178,2379,6,0,P|425:183|439:263,2,168,8|8|8,0:0|0:0|0:0,0:0:0:0:
236,286,4179,1,8,0:0:0:0:
110,201,4779,2,0,L|146:27,2,168,8|8|8,0:0|0:0|0:0,0:0:0:0:
236,286,6579,1,8,0:1:0:0:
282,124,7179,6,0,B|329:111|366:138|357:151|391:181|444:171,1,168,14|8,0:0|0:0,0:0:0:0:
489,107,8079,1,10,0:1:0:0:
443,36,8379,2,0,P|336:35|260:31,1,168,10|10,0:0|0:0,0:0:0:0:
154,149,9579,5,10,0:0:0:0:
282,257,10179,1,10,0:0:0:0:
133,335,10779,2,0,P|77:326|53:298,2,84,10|10|10,0:0|0:1|0:1,0:0:0:0:
265,230,11979,6,0,P|342:241|366:323,1,168,8|8,0:0|0:0,0:0:0:0:
294,360,12879,1,8,0:1:0:0:
216,327,13179,2,0,P|133:333|36:336,1,168,10|10,0:0|0:0,0:0:0:0:
129,189,14379,37,10,0:0:0:0:
32,51,14979,1,10,0:0:0:0:
197,24,15579,1,10,0:0:0:0:
270,64,15879,1,10,0:1:0:0:
343,104,16179,1,10,0:1:0:0:
236,233,16779,6,0,P|206:297|270:365,1,168,14|10,0:0|0:0,0:0:0:0:
329,311,17679,1,8,0:1:0:0:
410,330,17979,1,10,0:0:0:0:
479,177,18579,1,8,0:0:0:0:
340,82,19179,6,0,P|230:111|170:120,1,168,8|10,0:0|0:0,0:0:0:0:
98,86,20079,1,8,0:1:0:0:
32,138,20379,2,0,P|7:211|63:282,1,168,10|10,0:0|0:1,0:0:0:0:
216,225,21579,5,10,0:0:0:0:
366,299,22179,1,10,0:0:0:0:
498,195,22779,2,0,P|478:117|464:19,1,168,10|10,0:0|0:0,0:0:0:0:
382,11,23679,1,10,0:1:0:0:
317,65,23979,37,10,0:0:0:0:
149,51,24579,2,0,L|65:40,2,84,10|8|8,0:0|0:1|0:0,0:0:0:0:
179,129,25479,1,8,0:1:0:0:
139,203,25779,1,8,0:1:0:0:
248,330,26379,6,0,P|340:305|428:297,1,168,14|10,0:0|0:0,0:0:0:0:
482,250,27279,1,10,0:1:0:0:
418,195,27579,2,0,P|410:152|427:114,2,84,10|10|10,0:0|0:1|0:0,0:0:0:0:
315,328,28779,5,10,0:0:0:0:
173,238,29379,1,10,0:0:0:0:
30,326,29979,2,0,L|7:157,1,168,8|10,0:0|0:1,0:0:0:0:
131,46,31179,6,0,P|222:33|274:84,1,168,10|10,0:0|0:0,0:0:0:0:
263,164,32079,1,10,0:1:0:0:
324,221,32379,2,0,L|417:204,2,84,10|10|10,0:0|0:1|0:0,0:0:0:0:
197,331,33579,37,10,0:0:0:0:
78,212,34179,1,10,0:0:0:0:
171,72,34779,2,0,P|221:52|260:64,1,84,10|10,0:0|0:1,0:0:0:0:
304,120,35379,1,10,0:0:0:0:
293,203,35679,1,10,0:1:0:0:
365,245,35979,5,10,0:0:0:0:
235,352,36579,1,10,0:0:0:0:
75,299,37179,1,10,0:0:0:0:
23,139,37779,1,10,0:0:0:0:
153,33,38379,1,10,0:0:0:0:
320,25,38979,1,10,0:0:0:0:
432,149,39579,1,10,0:0:0:0:
274,207,40179,1,10,0:0:0:0:
118,270,40779,6,0,P|102:313|126:361,1,84,10|8,0:0|0:0,0:0:0:0:
194,369,41379,1,10,0:0:0:0:
265,325,41679,1,8,0:0:0:0:
344,350,41979,6,0,L|429:329,1,84,10|8,0:0|0:0,0:0:0:0:
453,250,42579,1,10,0:0:0:0:
397,187,42879,1,8,0:0:0:0:
436,112,43179,37,2,0:0:0:0:
285,37,43779,1,2,0:0:0:0:
209,74,44079,1,2,0:0:0:0:
127,53,44379,2,0,L|32:62,2,84,2|8|12,0:0|0:1|0:1,0:0:0:0:
382,135,46179,54,0,P|430:193|390:272,2,168,4|4|4,0:3|0:3|0:3,0:0:0:0:
215,111,47979,2,0,B|166:105|121:139|143:150|104:182|53:172,2,168,4|4|4,0:3|0:3|0:3,0:0:0:0:
316,245,49779,1,8,3:0:0:0:
30,294,50979,22,0,L|-3:114,1,168,14|10,0:0|0:0,0:0:0:0:
50,57,51879,1,10,0:1:0:0:
132,72,52179,2,0,L|220:55,2,84,10|10|10,0:0|0:1|0:0,0:0:0:0:
29,204,53379,5,10,0:0:0:0:
181,274,53979,1,10,0:0:0:0:
215,109,54579,2,0,B|267:95|303:129|283:143|321:173|379:158,1,168,8|10,0:0|0:1,0:0:0:0:
505,57,55779,5,10,0:0:0:0:
483,138,56079,1,8,0:1:0:0:
459,218,56379,22,0,B|439:293|439:293|442:311|442:311|422:385,2,168,2|4|4,0:3|0:3|0:3,0:0:0:0:
327,103,58179,1,4,0:3:0:0:
188,198,58779,1,4,0:3:0:0:
45,108,59379,1,4,0:3:0:0:
193,29,59979,1,2,0:3:0:0:
256,192,62004,5,2,0:3:0:0:
499,69,62979,2,0,B|436:54|436:54|432:51|432:51|314:22,1,189,2|2,0:3|0:3,0:0:0:0:
180,80,64179,2,0,B|161:124|161:124|162:149|162:149|136:205,2,126,0|0|2,0:0|0:0|0:2,0:0:0:0:
251,36,65379,69,8,0:1:0:0:
394,271,66579,2,0,L|478:283,2,84,8|2|2,0:1|0:2|0:2,0:0:0:0:
314,297,67479,1,2,0:0:0:0:
245,248,67779,2,0,P|169:247|143:330,2,168,0|10|0,0:0|0:1|0:0,0:0:0:0:
396,174,69579,1,2,0:2:0:0:
286,46,70179,6,0,B|237:47|208:54|212:63|179:106|122:74,2,168,12|2|8,0:2|0:0|0:1,0:0:0:0:
403,166,71979,2,0,L|379:259,1,84,2|2,0:0|0:0,0:0:0:0:
342,321,72579,1,2,0:0:0:0:
204,223,73179,1,2,0:0:0:0:
300,85,73779,1,8,0:1:0:0:
140,32,74379,70,0,P|79:37|55:61,2,84,2|2|12,0:0|0:0|0:2,0:0:0:0:
254,155,75579,1,2,0:2:0:0:
395,64,76179,1,2,0:0:0:0:
497,196,76779,2,0,P|483:238|478:278,1,84,2|2,0:0|0:1,0:0:0:0:
399,306,77379,2,0,P|315:291|298:212,2,168,14|2|2,0:2|0:0|0:2,0:0:0:0:
407,136,79179,1,2,0:2:0:0:
343,80,79479,1,2,0:2:0:0:
267,115,79779,6,0,B|217:132|177:98|190:89|149:57|97:67,1,168,14|10,0:2|0:2,0:0:0:0:
48,118,80679,1,2,0:0:0:0:
69,199,80979,2,0,P|75:284|74:295,2,84,10|2|10,0:2|0:2|0:2,0:0:0:0:
170,64,82179,70,0,P|223:48|276:131,1,168,10|10,0:0|0:0,0:0:0:0:
227,199,83079,1,2,0:0:0:0:
282,261,83379,1,10,0:0:0:0:
245,336,83679,1,2,0:0:0:0:
161,329,83979,1,10,0:0:0:0:
56,197,84579,6,0,B|59:147|85:134|103:138|133:96|120:44,2,168,10|10|10,0:0|0:0|0:0,0:0:0:0:
203,277,86379,2,0,L|298:249,1,84,10|2,0:0|0:0,0:0:0:0:
346,197,86979,70,0,P|414:197|430:288,1,168,10|10,0:0|0:0,0:0:0:0:
374,341,87879,1,2,0:0:0:0:
296,308,88179,1,10,0:0:0:0:
212,303,88479,1,2,0:0:0:0:
128,299,88779,1,10,0:0:0:0:
196,145,89379,6,0,P|200:66|116:35,2,168,14|10|10,0:0|0:0|0:0,0:0:0:0:
62,246,91179,1,10,0:0:0:0:
214,316,91779,1,10,0:0:0:0:
370,254,92379,1,10,0:0:0:0:
346,173,92679,1,2,0:0:0:0:
373,93,92979,2,0,P|437:85|451:103,2,84,10|2|10,0:0|0:0|0:0,0:0:0:0:
222,167,94179,70,0,P|123:145|121:84,2,168,10|10|10,0:0|0:0|0:0,0:0:0:0:
329,37,95979,1,10,0:0:0:0:
439,163,96579,1,10,0:0:0:0:
301,258,97179,1,10,0:0:0:0:
219,237,97479,1,2,0:0:0:0:
149,284,97779,2,0,L|61:273,2,84,10|2|8,0:0|0:0|0:0,0:0:0:0:
203,348,98679,1,2,0:3:0:0:
280,314,98979,21,8,0:0:0:0:
213,159,99579,1,8,0:0:0:0:
340,49,100179,2,0,B|385:37|432:61|421:76|460:101|505:88,1,168,10|10,0:0|0:0,0:0:0:0:
411,234,101379,1,10,0:0:0:0:
261,158,101979,1,10,0:0:0:0:
112,237,102579,2,0,L|16:223,2,84,10|10|10,0:0|0:1|0:1,0:0:0:0:
167,300,103479,1,8,0:1:0:0:
240,259,103779,21,8,0:0:0:0:
391,298,104379,1,8,0:0:0:0:
484,158,104979,2,0,P|487:106|391:60,1,168,10|10,0:0|0:0,0:0:0:0:
326,106,105879,5,10,0:1:0:0:
249,70,106179,1,10,0:0:0:0:
96,140,106779,2,0,L|13:122,2,84,10|10|10,0:0|0:1|0:0,0:0:0:0:
206,266,107979,5,2,0:0:0:0:
270,212,108279,1,2,0:0:0:0:
337,162,108579,1,2,0:0:0:0:
501,324,109404,37,2,0:3:0:0:
