osu file format v14

[General]
AudioFilename: audio.mp3
AudioLeadIn: 0
PreviewTime: 2379
Countdown: 0
SampleSet: Soft
StackLeniency: 0.4
Mode: 0
LetterboxInBreaks: 0
WidescreenStoryboard: 1

[Editor]
Bookmarks: 7179,16779,26379,35979,45579,50979,56379,60579,79779,98979,109329
DistanceSpacing: 0.6
BeatDivisor: 4
GridSize: 32
TimelineZoom: 3.099999

[Metadata]
Title:Mopemope
TitleUnicode:もぺもぺ
Artist:LeaF
ArtistUnicode:LeaF
Creator:hypercyte
Version:Blissful Paranoia
Source:osu!
Tags:mbc 4 mbc4 fa featured artist monthly beatmapping contest april four hypercute mappers' guild mg mpg repeat reverse sliders only electronic instrumental horror scary flowers creepy smile BMS OF FIGHTERS ULTIMATE BOFU2017 LEGENDA EST A MYTH イルーム音楽 Illume Ongaku optie breakcore
BeatmapID:2450028
BeatmapSetID:1174616

[Difficulty]
HPDrainRate:5.5
CircleSize:4.5
OverallDifficulty:6.5
ApproachRate:9.2
SliderMultiplier:1.44
SliderTickRate:1

[Events]
//Background and Video events
Video,-1290,"mopemope 34p5.mp4"
0,0,"hypercyte sucks at drawing.jpg",0,0
//Break Periods
//Storyboard Layer 0 (Background)
//Storyboard Layer 1 (Fail)
//Storyboard Layer 2 (Pass)
//Storyboard Layer 3 (Foreground)
//Storyboard Layer 4 (Overlay)
//Storyboard Sound Samples

[TimingPoints]
2379,300,4,2,44,44,1,0
2379,-227.272727272727,4,2,44,44,0,0
2979,-135.135135135135,4,2,44,44,0,0
3579,-96.1538461538461,4,2,44,44,0,0
4179,-135.135135135135,4,2,44,44,0,0
4779,-227.272727272727,4,2,44,44,0,0
5379,-135.135135135135,4,2,44,44,0,0
7179,-50,4,2,44,54,0,0
7291,-50,4,2,44,5,0,0
7479,-100,4,2,44,54,0,0
9279,-66.6666666666667,4,2,44,54,0,0
9879,-100,4,2,44,54,0,0
12916,-100,4,2,44,5,0,0
13179,-100,4,2,44,54,0,0
14079,-62.5,4,2,44,54,0,0
14116,-62.5,4,2,44,5,0,0
14229,-62.5,4,2,44,54,0,0
14266,-62.5,4,2,44,5,0,0
14379,-38.4615384615385,4,2,44,54,0,0
14679,-100,4,2,44,54,0,0
16779,-50,4,2,44,54,0,0
16891,-50,4,2,44,5,0,0
17079,-100,4,2,44,54,0,0
20679,-62.5,4,2,44,54,0,0
20716,-62.5,4,2,44,5,0,0
20829,-62.5,4,2,44,54,0,0
20866,-62.5,4,2,44,5,0,0
20979,-38.4615384615385,4,2,44,54,0,0
21579,-100,4,2,44,54,0,0
23679,-62.5,4,2,44,54,0,0
23716,-62.5,4,2,44,5,0,0
23829,-62.5,4,2,44,54,0,0
23866,-62.5,4,2,44,5,0,0
23979,-38.4615384615385,4,2,44,54,0,0
24579,-100,4,2,44,54,0,0
26379,-83.3333333333333,4,2,44,64,0,0
27316,-83.3333333333333,4,2,44,5,0,0
27579,-83.3333333333333,4,2,44,64,0,0
32116,-83.3333333333333,4,2,44,5,0,0
32379,-83.3333333333333,4,2,44,64,0,0
35979,-83.3333333333333,4,2,44,60,0,0
36579,-100,4,2,44,60,0,0
37179,-125,4,2,44,60,0,0
37779,-166.666666666667,4,2,44,60,0,0
38379,-250,4,2,44,60,0,0
39579,-166.666666666667,4,2,44,60,0,0
40179,-125,4,2,44,60,0,0
43179,-125,4,2,44,54,0,0
43779,-100,4,2,44,64,0,0
44679,-100,4,2,44,34,0,0
45579,300,4,2,44,44,1,8
45579,-57.1428571428571,4,2,44,44,0,0
45954,-25,4,2,44,44,0,0
46179,300,4,2,44,44,1,0
46179,-227.272727272727,4,2,44,44,0,0
50079,-156.25,4,2,44,54,0,0
50379,-50,4,2,44,74,0,0
50979,-83.3333333333333,4,2,44,64,0,0
51916,-83.3333333333333,4,2,44,5,0,0
52179,-83.3333333333333,4,2,44,64,0,0
56379,-45.4545454545455,4,2,44,64,0,0
60579,-294.117647058824,4,2,44,44,0,0
61929,-33.3333333333333,4,2,44,44,0,0
62379,-294.117647058824,4,2,44,54,0,0
62979,-50,4,3,44,54,0,0
63129,-33.3333333333333,4,3,44,64,0,0
63354,-25,4,3,44,64,0,0
63879,-50,4,3,44,64,0,0
65379,-227.272727272727,4,3,44,64,0,0
66579,-50,4,3,44,64,0,0
67479,-100,4,3,44,64,0,0
68379,-50,4,3,44,64,0,0
68979,-83.3333333333333,4,3,44,64,0,0
69579,-50,4,3,44,64,0,0
69879,-33.3333333333333,4,3,44,64,0,0
70179,-33.3333333333333,4,3,4,64,0,0
70216,-33.3333333333333,4,3,44,64,0,0
70329,-50,4,3,44,64,0,0
74079,-100,4,3,44,64,0,0
74679,-50,4,3,44,64,0,0
74979,-50,4,3,4,64,0,0
75016,-50,4,3,44,64,0,0
77079,-33.3333333333333,4,3,0,64,0,0
77191,-33.3333333333333,4,3,44,5,0,0
77379,-50,4,3,44,64,0,0
78279,-100,4,3,44,64,0,0
78879,-50,4,3,44,64,0,0
79779,-50,4,2,4,74,0,1
79891,-50,4,2,4,5,0,1
80079,-50,4,2,4,74,0,1
80491,-50,4,2,4,5,0,1
80679,-50,4,2,4,74,0,1
81016,-50,4,2,4,5,0,1
81129,-50,4,2,4,74,0,1
81166,-50,4,2,4,5,0,1
81279,-50,4,2,4,74,0,1
81316,-50,4,2,4,5,0,1
81429,-50,4,2,4,74,0,1
81466,-50,4,2,4,5,0,1
81579,-50,4,2,4,74,0,1
81691,-50,4,2,4,5,0,1
81879,-50,4,2,4,74,0,1
82291,-50,4,2,4,5,0,1
82479,-50,4,2,4,74,0,1
82891,-50,4,2,4,5,0,1
83079,-83.3333333333333,4,2,4,74,0,1
83379,-50,4,2,4,74,0,1
83491,-50,4,2,4,5,0,1
83679,-50,4,2,4,74,0,1
84691,-50,4,2,4,5,0,1
84879,-50,4,2,4,74,0,1
85291,-50,4,2,4,5,0,1
85479,-50,4,2,4,74,0,1
85516,-50,4,2,4,5,0,1
85629,-50,4,2,4,74,0,1
85816,-50,4,2,4,5,0,1
85929,-50,4,2,4,74,0,1
85966,-50,4,2,4,5,0,1
86079,-50,4,2,4,74,0,1
86116,-50,4,2,4,5,0,1
86229,-50,4,2,4,74,0,1
86266,-50,4,2,4,5,0,1
86379,-50,4,2,4,74,0,1
86491,-50,4,2,4,5,0,1
86679,-50,4,2,4,74,0,1
87091,-50,4,2,4,5,0,1
87279,-50,4,2,4,74,0,1
87691,-50,4,2,4,5,0,1
87879,-50,4,2,4,74,0,1
88291,-50,4,2,4,5,0,1
88479,-83.3333333333333,4,2,4,74,0,1
88779,-50,4,2,4,74,0,1
88891,-50,4,2,4,5,0,1
89079,-50,4,2,4,74,0,1
90279,-50,4,2,44,74,0,1
90579,-50,4,2,4,74,0,1
91279,-83.3333333333333,4,2,4,74,0,1
91779,-50,4,2,4,74,0,1
95079,-50,4,2,4,74,0,1
95116,-50,4,2,4,5,0,1
95229,-50,4,2,4,74,0,1
95266,-50,4,2,4,5,0,1
95379,-50,4,2,4,74,0,1
97516,-50,4,2,4,5,0,1
97629,-50,4,2,4,74,0,1
97666,-50,4,2,4,5,0,1
97779,-50,4,2,4,74,0,1
98979,-133.333333333333,4,2,44,44,0,0
109403,-33.3333333333333,4,2,44,64,0,0
109604,400,4,2,44,64,1,0
109870,300,4,2,44,64,1,0

[Colours]
Combo1 : 160,146,146
Combo2 : 173,219,162
Combo3 : 209,204,133
Combo4 : 204,172,106
Combo5 : 164,217,211
Combo6 : 201,116,118

[HitObjects]
155,283,2379,6,0,P|135:288|125:297,3,31.6800009667969,8|0|0|0,0:0|0:0|0:0|0:0,0:0:0:0:
195,206,2979,2,0,P|170:180|148:173,3,53.2800013007813,8|0|0|0,0:0|0:0|0:0|0:0,0:0:0:0:
348,292,3579,6,0,P|333:250|342:218,3,74.8799995429687,8|0|0|0,0:0|0:0|0:0|0:0,0:0:0:0:
422,212,4179,2,0,P|450:193|474:198,3,53.2800013007813,8|0|0|0,0:0|0:0|0:0|0:0,0:0:0:0:
254,162,4779,22,0,L|246:131,3,31.6800009667969,8|0|0|0,0:0|0:0|0:0|0:0,0:0:0:0:
171,40,5379,2,0,L|222:54,3,53.2800013007813,8|0|0|0,0:0|0:0|0:0|0:0,0:0:0:0:
256,192,5979,12,0,7104,0:0:0:0:
197,66,7179,54,0,P|142:66|120:114,2,108,14|0|0,0:0|0:0|0:0,0:0:0:0:
200,82,7479,1,8,0:1:0:0:
366,166,7779,1,8,0:0:0:0:
214,290,8079,2,0,L|192:286,2,18,10|0|0,0:1|0:0|0:0,0:0:0:0:
232,300,8379,5,10,0:0:0:0:
247,207,8529,1,2,0:0:0:0:
180,141,8679,1,10,0:1:0:0:
88,152,8829,1,10,0:1:0:0:
262,212,8979,1,10,0:0:0:0:
281,209,9279,6,0,P|305:154|277:110,2,108.000004119873,10|2|10,0:1|0:0|0:0,0:0:0:0:
89,87,9879,2,0,P|74:123|89:153,2,72,10|2|10,0:1|0:0|0:0,0:0:0:0:
428,242,10479,37,10,0:1:0:0:
361,80,10779,1,10,0:0:0:0:
254,211,11079,1,10,0:1:0:0:
340,176,11229,1,8,0:1:0:0:
427,141,11379,2,0,L|464:151,7,36,10|2|2|2|2|2|2|2,0:1|0:0|0:0|0:0|0:0|0:0|0:0|0:0,0:0:0:0:
255,227,11979,6,0,B|196:215|196:215|163:218|163:218|102:207,2,144,8|8|8,0:0|0:1|0:0,0:0:0:0:
463,326,12879,2,0,L|480:321,2,18,8|0|0,0:1|0:0|0:0,0:0:0:0:
446,342,13179,5,10,0:0:0:0:
390,265,13329,1,2,0:0:0:0:
425,179,13479,1,10,0:1:0:0:
384,94,13629,1,10,0:1:0:0:
194,255,13779,1,10,0:0:0:0:
179,248,14079,6,0,B|170:235|170:235|173:219,2,28.8,10|0|0,0:1|0:0|0:0,0:0:0:0:
266,205,14229,2,0,B|274:217|274:217|271:233,2,28.8,2|0|0,0:0|0:0|0:0,0:0:0:0:
92,357,14379,2,0,B|70:355|70:355|63:352|63:352|44:349,6,46.7999978576661,10|0|0|0|0|0|0,0:0|0:0|0:0|0:0|0:0|0:0|0:0,0:0:0:0:
179,248,14679,37,8,0:1:0:0:
104,178,14829,1,2,0:0:0:0:
78,271,14979,1,10,0:0:0:0:
369,42,15279,5,8,0:1:0:0:
398,241,15579,1,10,0:0:0:0:
207,174,15879,1,10,0:1:0:0:
301,208,16029,1,8,0:1:0:0:
398,241,16179,2,0,L|440:226,3,36,10|2|2|2,0:1|0:0|0:0|0:0,0:0:0:0:
382,261,16479,1,10,0:1:0:0:
226,144,16629,1,10,0:1:0:0:
142,346,16779,6,0,B|173:342|189:313|178:301|192:278|223:273,2,108,14|0|0,0:0|0:0|0:0,0:0:0:0:
120,339,17079,1,10,0:1:0:0:
238,282,17229,1,2,0:0:0:0:
141,208,17379,1,10,0:0:0:0:
235,384,17679,1,8,0:1:0:0:
224,374,17979,5,10,0:0:0:0:
222,330,18129,37,2,0:0:0:0:
274,270,18279,5,10,0:1:0:0:
380,287,18429,5,10,0:1:0:0:
499,220,18579,6,0,P|512:170|452:109,2,144,8|8|8,0:0|0:1|0:0,0:0:0:0:
223,77,19479,37,10,0:1:0:0:
130,116,19629,1,2,0:0:0:0:
37,155,19779,1,10,0:0:0:0:
222,233,20079,1,8,0:1:0:0:
478,330,20379,1,10,0:0:0:0:
465,314,20679,6,0,P|448:310|431:315,2,28.8,8|0|0,0:1|0:0|0:0,0:0:0:0:
347,375,20829,2,0,P|361:377|374:373,2,28.8,8|0|0,0:1|0:0|0:0,0:0:0:0:
430,210,20979,2,0,B|435:186|435:186|433:178|433:178|438:152,6,46.7999978576661,10|0|0|0|0|0|0,0:1|0:0|0:0|0:0|0:0|0:0|0:0,0:0:0:0:
391,93,21279,5,10,0:1:0:0:
357,75,21354,1,2,0:0:0:0:
319,77,21429,1,2,0:0:0:0:
295,106,21504,1,2,0:0:0:0:
298,143,21579,1,10,0:0:0:0:
132,350,21879,5,10,0:1:0:0:
56,241,22029,1,2,0:0:0:0:
166,160,22179,1,10,0:0:0:0:
394,278,22479,1,8,0:1:0:0:
413,272,22779,37,10,0:0:0:0:
437,236,22929,5,2,0:0:0:0:
421,158,23079,5,10,0:1:0:0:
318,124,23229,5,10,0:1:0:0:
221,210,23379,37,10,0:0:0:0:
212,198,23679,6,0,B|205:184|205:184|213:166,2,28.8,10|0|0,0:1|0:0|0:0,0:0:0:0:
296,210,23829,2,0,B|302:223|302:223|294:241,2,28.8,2|0|0,0:0|0:0|0:0,0:0:0:0:
172,320,23979,2,0,B|152:314|152:314|137:314|137:314|122:310,6,46.7999978576661,10|0|0|0|0|0|0,0:0|0:0|0:0|0:0|0:0|0:0|0:0,0:0:0:0:
193,324,24279,1,10,0:1:0:0:
59,365,24429,1,2,0:0:0:0:
105,169,24579,6,0,B|115:230|115:230|114:242|114:242|126:311,2,144,10|8|8,0:0|0:1|0:0,0:0:0:0:
296,377,25479,1,8,0:1:0:0:
384,192,25779,1,8,0:1:0:0:
392,200,26079,1,8,0:1:0:0:
392,200,26229,1,8,0:1:0:0:
296,377,26379,6,0,B|243:388|222:339|242:324|215:275|169:286,2,172.799994726563,14|10|10,0:0|0:1|0:0,0:0:0:0:
345,305,27129,1,10,0:0:0:0:
92,272,27279,2,0,B|85:280|85:280|96:292,2,21.5999993408203,10|0|0,0:1|0:0|0:0,0:0:0:0:
169,285,27579,37,10,0:0:0:0:
213,135,27729,1,2,0:0:0:0:
57,141,27879,1,10,0:1:0:0:
265,244,28029,1,10,0:1:0:0:
262,16,28179,1,10,0:0:0:0:
255,30,28479,5,8,0:1:0:0:
338,116,28629,1,2,0:0:0:0:
483,260,28779,1,10,0:0:0:0:
472,243,29079,5,10,0:1:0:0:
398,283,29229,1,2,0:0:0:0:
258,360,29379,1,10,0:0:0:0:
251,344,29679,6,0,B|326:356|326:356|341:352|341:352|427:367,2,172.799994726563,8|8|8,0:0|0:0|0:1,0:0:0:0:
398,283,30429,1,8,0:1:0:0:
171,335,30579,2,0,L|114:348,7,43.1999986816407,10|2|2|2|2|2|2|2,0:1|0:0|0:0|0:0|0:0|0:0|0:0|0:0,0:0:0:0:
251,344,31179,38,0,B|303:356|326:308|306:292|335:244|381:257,2,172.799994726563,10|10|10,0:0|0:1|0:0,0:0:0:0:
394,336,31929,1,10,0:0:0:0:
174,320,32079,2,0,B|164:325|164:325|170:334,2,21.5999993408203,10|0|0,0:1|0:0|0:0,0:0:0:0:
251,344,32379,5,10,0:0:0:0:
306,227,32529,1,2,0:0:0:0:
230,75,32679,1,10,0:1:0:0:
175,192,32829,1,10,0:1:0:0:
260,361,32979,1,10,0:0:0:0:
267,373,33279,5,10,0:1:0:0:
306,227,33429,1,2,0:0:0:0:
230,75,33579,1,10,0:0:0:0:
216,60,33879,5,8,0:1:0:0:
192,160,34029,1,2,0:0:0:0:
306,227,34179,2,0,B|355:245|386:190|359:174|381:127|440:139,2,172.799994726563,10|8|10,0:0|0:1|0:0,0:0:0:0:
192,160,34929,1,8,0:1:0:0:
96,231,35079,1,10,0:1:0:0:
168,164,35229,1,8,0:1:0:0:
276,64,35379,38,0,B|286:44|286:44|265:31,3,43.1999986816407,10|2|2|2,0:0|0:0|0:0|0:0,0:0:0:0:
186,49,35679,2,0,B|176:69|176:69|197:82,3,43.1999986816407,10|2|2|2,0:1|0:0|0:0|0:0,0:0:0:0:
329,133,35979,6,0,B|366:124|366:124|375:116|375:116|413:106,3,86.3999973632813,10|0|0|0,0:0|0:0|0:0|0:0,0:0:0:0:
176,214,36579,6,0,B|141:205|141:205|133:198|133:198|103:191,3,72,10|0|0|0,0:0|0:0|0:0|0:0,0:0:0:0:
301,258,37179,6,0,B|324:252|324:252|330:246|330:246|355:238,3,57.6,10|0|0|0,0:0|0:0|0:0|0:0,0:0:0:0:
225,317,37779,38,0,B|207:312|207:312|202:308|202:308|184:303,3,43.1999986816407,10|0|0|0,0:0|0:0|0:0|0:0,0:0:0:0:
300,347,38379,6,0,B|313:343|313:343|317:340|317:340|330:336,3,28.8,10|0|0|0,0:0|0:0|0:0|0:0,0:0:0:0:
238,384,38979,6,0,B|224:380|224:380|220:377|220:377|207:373,3,28.8,10|0|0|0,0:0|0:0|0:0|0:0,0:0:0:0:
306,305,39579,6,0,B|324:300|324:300|329:296|329:296|347:291,3,43.1999986816407,10|0|0|0,0:0|0:0|0:0|0:0,0:0:0:0:
188,241,40179,37,10,0:0:0:0:
155,173,40329,1,8,0:1:0:0:
193,108,40479,1,8,0:1:0:0:
267,106,40629,1,8,0:1:0:0:
433,61,40779,5,10,0:0:0:0:
389,122,40929,1,0,0:0:0:0:
448,166,41079,1,8,0:0:0:0:
494,107,41229,1,0,0:0:0:0:
334,34,41379,5,10,0:0:0:0:
266,18,41529,1,0,0:0:0:0:
210,59,41679,1,8,0:0:0:0:
221,127,41829,1,0,0:0:0:0:
326,221,41979,5,10,0:0:0:0:
357,254,42129,1,0,0:0:0:0:
326,288,42279,1,8,0:0:0:0:
290,258,42429,1,0,0:0:0:0:
113,229,42579,37,10,0:0:0:0:
95,252,42729,1,0,0:0:0:0:
95,280,42879,1,8,0:0:0:0:
110,304,43029,1,0,0:0:0:0:
238,343,43179,5,2,0:0:0:0:
238,343,43329,1,2,0:0:0:0:
238,343,43629,1,2,0:0:0:0:
378,190,43779,2,0,B|333:188|310:218|332:230|292:263|257:256,2,144,2|2|2,0:0|0:0|0:0,0:0:0:0:
211,142,44679,5,8,0:1:0:0:
211,142,44829,1,8,0:1:0:0:
305,80,44979,2,0,L|327:67,10,18,12|0|0|0|0|0|0|0|0|0|0,0:1|0:0|0:0|0:0|0:0|0:0|0:0|0:0|0:0|0:0|0:0,0:0:0:0:
108,212,45579,22,0,L|80:208,2,15.7500001502037,2|0|0,0:3|0:0|0:0,0:0:0:0:
110,226,45654,2,0,L|82:222,2,15.7500001502037,2|0|0,0:3|0:0|0:0,0:0:0:0:
334,297,45954,6,0,B|357:290|357:290|369:279|369:279|358:317,5,72,2|0|0|0|0|0,0:3|0:0|0:0|0:0|0:0|0:0,0:0:0:0:
320,302,46179,70,0,B|285:299|263:273|278:258|255:233|219:230,2,126.720003867188,4|4|4,0:3|0:3|0:3,0:0:0:0:
425,105,47979,2,0,B|429:134|410:169|410:169|402:137|373:119,2,126.720003867188,4|4|4,0:3|0:3|0:3,0:0:0:0:
222,226,49479,2,0,B|210:226|202:229|202:229|204:220|200:206,2,31.6800009667969,0|0|8,3:0|3:0|3:0,0:0:0:0:
512,384,50079,6,0,B|508:374|508:374|508:368,7,11.52,2|0|0|0|0|0|0|0,0:3|0:0|0:0|0:0|0:0|0:0|0:0|0:0,0:0:0:0:
505,359,50379,2,0,B|507:342|507:342|510:335|510:335|504:326|504:326|508:318,8,36,0|0|0|0|0|0|0|0|8,0:0|0:0|0:0|0:0|0:0|0:0|0:0|0:0|0:1,0:0:0:0:
349,54,50979,6,0,B|314:56|313:95|313:95|344:231,2,172.799994726563,14|10|10,0:0|0:1|0:0,0:0:0:0:
246,46,51729,1,8,0:0:0:0:
354,278,51879,2,0,B|364:281|364:281|370:273,2,21.5999993408203,10|0|0,0:1|0:0|0:0,0:0:0:0:
337,203,52179,5,10,0:0:0:0:
442,316,52329,1,2,0:0:0:0:
224,290,52479,1,10,0:1:0:0:
366,108,52629,1,10,0:1:0:0:
354,278,52779,1,10,0:0:0:0:
345,289,53079,5,10,0:1:0:0:
216,161,53229,1,2,0:0:0:0:
406,350,53379,1,10,0:0:0:0:
418,362,53679,5,10,0:1:0:0:
510,273,53829,1,2,0:0:0:0:
412,376,53979,1,10,0:0:0:0:
429,228,54279,38,0,B|440:146|440:146|449:133|449:133|459:60,2,172.799994726563,8|8|8,0:1|0:0|0:1,0:0:0:0:
374,91,55029,1,8,0:1:0:0:
401,303,55179,2,0,P|426:310|452:305,7,43.1999986816407,10|2|2|2|2|2|2|2,0:1|0:0|0:0|0:0|0:0|0:0|0:0|0:0,0:0:0:0:
388,283,55779,5,10,0:0:0:0:
290,348,55929,2,0,P|278:341|270:342,2,21.5999993408203,2|0|0,0:3|0:0|0:0,0:0:0:0:
300,364,56079,1,8,0:1:0:0:
273,249,56229,1,10,0:0:0:0:
41,354,56379,38,0,B|30:351|30:351|32:340|36:336|36:336|33:325|33:325|28:317,4,39.6000012084961,2|2|2|2|2,0:3|0:3|0:3|0:3|0:3,0:0:0:0:
109,176,56679,1,2,3:0:0:0:
106,189,56979,5,4,0:3:0:0:
212,220,57129,1,4,0:3:0:0:
298,122,57279,1,4,0:3:0:0:
404,91,57429,1,4,0:3:0:0:
283,129,57579,1,4,0:3:0:0:
421,330,57879,69,4,0:3:0:0:
438,188,58029,1,4,0:3:0:0:
306,242,58179,1,4,0:3:0:0:
306,242,58479,5,4,0:3:0:0:
363,285,58629,1,4,0:3:0:0:
372,214,58779,1,4,0:3:0:0:
401,23,59079,69,2,0:3:0:0:
156,88,59379,1,4,0:3:0:0:
132,248,59679,1,2,0:3:0:0:
26,308,59979,2,0,L|34:270,14,39.6000012084961,2|0|0|0|0|0|0|0|0|0|0|0|0|0|0,0:3|0:0|0:0|0:0|0:0|0:0|0:0|0:0|0:0|0:0|0:0|0:0|0:0|0:0|0:0,0:0:0:0:
21,243,60579,6,0,B|30:191|57:213|67:156,2,97.9200005976563
432,355,62004,70,0,B|451:350|469:355|469:355|471:344|463:335,3,54.0000020599366,2|2|2|2,0:3|0:3|0:3|0:3,0:0:0:0:
256,288,62379,5,2,0:0:0:0:
229,301,62979,70,0,B|225:318|225:318|234:338,2,36,2|0|0,0:3|0:0|0:0,0:0:0:0:
298,222,63129,2,0,B|293:199|293:199|292:182|292:182|275:177,4,54.0000020599366,2|0|0|0|0,0:3|0:0|0:0|0:0|0:0,0:0:0:0:
170,113,63354,2,0,B|197:115|197:115|207:106|207:106|240:98,4,72,2|0|0|0|0,0:3|0:0|0:0|0:0|0:0,0:0:0:0:
395,18,63654,6,0,B|417:22|433:14|433:14|434:31|422:48,4,72,2|0|0|0|0,0:3|0:0|0:0|0:0|0:0,0:0:0:0:
367,98,63879,2,0,B|360:123|384:144,2,36
126,282,64179,70,0,B|118:270|118:270|118:257|118:257|96:245,8,36
253,342,64629,5,0,0:0:0:0:
295,332,64704,1,0,0:0:0:0:
317,294,64779,1,0,0:0:0:0:
359,289,64854,1,0,0:0:0:0:
394,313,64929,2,0,B|412:310|412:310|418:305|418:305|433:300,2,36
351,305,65079,5,2,0:2:0:0:
330,279,65154,5,2,0:2:0:0:
330,238,65229,5,2,0:2:0:0:
357,193,65304,5,2,0:2:0:0:
426,195,65379,6,0,B|463:185|473:150|455:144|470:112|507:111,2,126.720003867188,8|0|8,0:1|0:0|0:1,0:0:0:0:
146,142,66729,6,0,L|100:139,2,36,2|0|0,0:0|0:0|0:0,0:0:0:0:
212,189,66879,1,2,0:2:0:0:
243,170,66954,1,2,0:2:0:0:
292,180,67029,1,2,0:2:0:0:
336,156,67104,1,2,0:2:0:0:
387,171,67179,70,0,B|395:188|395:188|389:204,2,36,2|0|0,0:2|0:0|0:0,0:0:0:0:
277,103,67329,2,0,B|269:86|269:86|275:70,2,36,2|0|0,0:2|0:0|0:0,0:0:0:0:
258,252,67479,2,0,P|254:311|250:343,2,72
129,125,67929,5,2,0:2:0:0:
125,137,68004,1,2,0:2:0:0:
142,138,68079,1,2,0:2:0:0:
140,120,68154,1,2,0:2:0:0:
102,98,68229,1,2,0:2:0:0:
60,111,68304,1,2,0:2:0:0:
43,158,68379,70,0,B|51:179|51:179|51:184|51:184|60:203,4,36,10|0|0|0|0,0:1|0:0|0:0|0:0|0:0,0:0:0:0:
116,250,68604,1,8,0:2:0:0:
110,268,68679,2,0,P|146:254|186:312,2,108,8|8|8,0:1|0:1|0:1,0:0:0:0:
41,367,68979,6,0,B|19:361|19:361|13:357|13:357|-9:350,2,43.1999986816407
156,367,69204,1,2,0:2:0:0:
175,347,69279,1,2,0:2:0:0:
226,356,69354,1,2,0:2:0:0:
263,321,69429,1,2,0:2:0:0:
318,329,69504,1,2,0:2:0:0:
357,312,69579,70,0,B|360:292|360:292|344:277,6,36,2|0|0|0|0|0|0,0:2|0:0|0:0|0:0|0:0|0:0|0:0,0:0:0:0:
389,208,69879,6,0,B|367:190|367:190|337:199,6,54.0000020599366,2|0|0|0|0|0|0,0:2|0:0|0:0|0:0|0:0|0:0|0:0,0:0:0:0:
348,281,70179,69,12,0:2:0:0:
300,85,70329,2,0,B|304:69|304:69|310:61|310:61|317:36,2,36
245,165,70479,5,2,0:2:0:0:
228,173,70554,1,2,0:2:0:0:
185,166,70629,1,2,0:2:0:0:
157,132,70704,1,2,0:2:0:0:
168,90,70779,2,0,B|184:76|184:76|194:99,4,36,2|0|0|0|0,0:0|0:0|0:0|0:0|0:0,0:0:0:0:
98,303,71079,2,0,B|114:317|114:317|124:294,4,36,2|0|0|0|0,0:0|0:0|0:0|0:0|0:0,0:0:0:0:
304,243,71379,69,8,0:1:0:0:
326,260,71454,1,8,0:1:0:0:
319,288,71529,1,8,0:1:0:0:
185,166,71679,1,8,0:1:0:0:
280,16,71829,1,2,0:0:0:0:
166,175,71979,6,0,L|124:168,2,36,2|0|0,0:0|0:0|0:0,0:0:0:0:
296,157,72129,2,0,L|261:181,2,36,2|0|0,0:0|0:0|0:0,0:0:0:0:
413,124,72279,2,0,L|371:117,2,36,2|0|0,0:0|0:0|0:0,0:0:0:0:
487,225,72429,69,4,0:0:0:0:
497,251,72504,1,4,0:0:0:0:
484,277,72579,5,2,0:0:0:0:
439,300,72654,1,2,0:0:0:0:
390,287,72729,1,2,0:0:0:0:
354,251,72804,1,2,0:0:0:0:
304,243,72879,1,2,0:0:0:0:
258,264,72954,1,2,0:0:0:0:
239,318,73029,1,2,0:0:0:0:
273,361,73104,1,2,0:0:0:0:
285,357,73179,70,0,B|292:341|292:341|281:325,4,36,2|0|0|0|0,0:0|0:0|0:0|0:0|0:0,0:0:0:0:
143,279,73479,1,2,0:2:0:0:
135,290,73554,2,0,L|62:316,2,72,2|0|0,0:2|0:0|0:0,0:0:0:0:
193,222,73779,1,8,0:1:0:0:
199,194,73854,1,8,0:1:0:0:
172,182,73929,1,8,0:1:0:0:
275,69,74079,2,0,B|255:74|255:74|239:72,2,36,2|0|0,0:0|0:0|0:0,0:0:0:0:
98,6,74379,5,2,0:0:0:0:
43,18,74454,1,2,0:0:0:0:
27,62,74529,1,2,0:0:0:0:
33,91,74604,1,2,0:0:0:0:
48,104,74679,2,0,B|67:101|67:101|73:97|73:97|91:95,6,36,2|0|0|0|0|0|0,0:0|0:0|0:0|0:0|0:0|0:0|0:0,0:0:0:0:
145,145,74979,69,12,0:2:0:0:
73,246,75129,2,0,B|57:250|57:250|47:245|47:245|34:247,2,36
109,227,75279,1,2,0:2:0:0:
151,231,75354,1,2,0:2:0:0:
190,212,75429,1,2,0:2:0:0:
231,222,75504,1,2,0:2:0:0:
253,214,75579,1,2,0:2:0:0:
269,221,75654,2,0,B|279:232|279:232|270:252,2,36,2|0|0,0:2|0:0|0:0,0:0:0:0:
224,95,75879,1,2,0:2:0:0:
359,18,76029,5,2,0:2:0:0:
359,18,76104,1,2,0:2:0:0:
359,18,76179,2,0,B|352:38|352:38|354:48|354:48|350:68,2,36,2|0|0,0:0|0:0|0:0,0:0:0:0:
453,60,76329,69,8,0:1:0:0:
480,82,76404,1,8,0:1:0:0:
471,116,76479,1,8,0:1:0:0:
360,187,76629,1,2,0:0:0:0:
443,260,76779,6,0,B|438:239|438:239|440:232|440:232|432:208,4,36,2|0|0|0|0,0:0|0:0|0:0|0:0|0:0,0:0:0:0:
224,95,77079,70,2,B|193:67|194:31|224:6|224:6|269:16|270:51,2,162.00000617981,2|0|0,0:1|0:0|0:0,0:1:0:0:
272,167,77379,6,0,B|274:187|274:187|279:197|279:197|280:220,6,36,14|0|0|0|0|0|0,0:2|0:0|0:0|0:0|0:0|0:0|0:0,0:0:0:0:
285,145,77679,1,2,0:0:0:0:
224,297,77829,2,0,B|208:303|208:303|187:296,2,36,2|0|0,0:0|0:0|0:0,0:0:0:0:
263,277,77979,1,2,0:0:0:0:
299,286,78054,1,2,0:0:0:0:
320,316,78129,1,2,0:0:0:0:
315,352,78204,1,2,0:0:0:0:
302,362,78279,2,0,B|283:362|283:362|275:359|275:359|253:356,2,36,2|0|0,0:0|0:0|0:0,0:0:0:0:
426,169,78579,69,2,0:2:0:0:
449,131,78654,1,2,0:2:0:0:
428,93,78729,1,2,0:2:0:0:
449,54,78804,1,2,0:2:0:0:
459,36,78879,6,0,L|496:45,2,36,2|0|2,0:2|0:0|0:2,0:0:0:0:
360,130,79029,2,0,L|325:138,2,36,2|0|0,0:2|0:0|0:0,0:0:0:0:
217,60,79179,1,2,0:2:0:0:
217,60,79254,1,2,0:2:0:0:
217,60,79329,2,0,L|181:52,2,36,2|0|0,0:2|0:0|0:0,0:0:0:0:
81,143,79479,1,2,0:2:0:0:
81,143,79554,1,2,0:2:0:0:
81,143,79629,2,0,L|117:135,2,36,0|0|0,0:2|0:0|0:0,0:0:0:0:
217,223,79779,70,0,B|223:263|223:263|216:297|216:297|222:340,2,108,14|0|0,0:2|0:0|0:0,0:0:0:0:
212,203,80079,1,2,0:0:0:0:
477,31,80379,6,0,B|471:71|471:71|478:105|478:105|472:148,2,108,10|0|0,0:2|0:0|0:0,0:0:0:0:
480,10,80679,1,2,0:0:0:0:
201,88,80979,70,0,L|163:101,2,36,10|0|0,0:2|0:0|0:0,0:0:0:0:
312,172,81129,2,0,L|350:185,2,36,2|0|0,0:2|0:0|0:0,0:0:0:0:
197,207,81279,2,0,L|159:220,2,36,2|0|0,0:2|0:0|0:0,0:0:0:0:
294,288,81429,2,0,L|332:301,2,36,2|0|0,0:2|0:0|0:0,0:0:0:0:
107,329,81579,6,0,B|115:302|100:273|85:282|67:254|81:213,2,108,10|0|0,0:2|0:0|0:0,0:0:0:0:
98,347,81879,1,2,0:0:0:0:
197,207,82029,1,2,0:0:0:0:
75,66,82179,70,0,B|102:77|102:77|140:120|140:120|165:129,2,108,10|0|0,0:0|0:0|0:0,0:0:0:0:
60,75,82479,1,2,0:0:0:0:
200,8,82629,1,2,0:0:0:0:
306,171,82779,6,0,B|334:171|355:151|345:138|357:122|399:121,2,108,10|0|0,0:0|0:0|0:0,0:0:0:0:
288,170,83079,2,0,B|262:145|278:114,2,57.5999982421876,2|0|0,0:0|0:0|0:0,0:0:0:0:
288,263,83379,2,0,P|304:326|308:376,2,108,10|0|0,0:0|0:0|0:0,0:0:0:0:
275,251,83679,1,2,0:0:0:0:
42,149,83979,69,10,0:0:0:0:
61,110,84054,1,2,0:0:0:0:
103,101,84129,1,2,0:0:0:0:
137,126,84204,1,2,0:0:0:0:
146,168,84279,1,2,0:0:0:0:
176,198,84354,1,2,0:0:0:0:
219,198,84429,1,2,0:0:0:0:
250,168,84504,1,2,0:0:0:0:
245,125,84579,6,0,P|231:62|227:12,2,108,10|0|0,0:0|0:0|0:0,0:0:0:0:
322,204,84879,1,2,0:0:0:0:
353,225,84954,1,2,0:0:0:0:
382,219,85029,1,2,0:0:0:0:
395,206,85104,1,2,0:0:0:0:
398,187,85179,70,0,P|440:213|439:271,2,108,10|0|0,0:0|0:0|0:0,0:0:0:0:
358,91,85479,2,0,P|346:113|346:128,2,36,2|0|0,0:0|0:0|0:0,0:0:0:0:
226,292,85779,6,0,B|243:301|243:301|243:284,2,36,10|0|0,0:0|0:0|0:0,0:0:0:0:
246,184,85929,2,0,B|245:164|245:164|230:172,2,36,2|0|0,2:0|2:0|2:0,2:0:0:0:
148,221,86079,2,0,B|131:231|131:231|145:240,2,36,2|0|0,0:0|0:0|0:0,0:0:0:0:
226,292,86229,2,0,B|243:301|243:301|243:284,2,36,2|0|0,0:0|0:0|0:0,0:0:0:0:
155,121,86379,70,0,P|86:103|59:141,2,108,10|0|0,0:0|0:0|0:0,0:0:0:0:
157,142,86679,1,2,0:0:0:0:
285,0,86829,1,2,0:0:0:0:
338,199,86979,6,0,B|347:249|347:249|354:259|354:259|363:305,2,108,10|0|0,0:0|0:0|0:0,0:0:0:0:
333,176,87279,1,2,0:0:0:0:
226,292,87429,1,2,0:0:0:0:
390,382,87579,70,0,B|425:376|446:355|424:344|447:320|477:316,2,108,10|0|0,0:0|0:0|0:0,0:0:0:0:
312,362,87879,2,0,B|288:361|288:361|281:357|281:357|267:355,4,36,2|0|0|0|0,0:0|0:0|0:0|0:0|0:0,0:0:0:0:
143,204,88179,6,0,B|117:215|117:215|85:263|85:263|50:280,2,108,10|0|0,0:0|0:0|0:0,0:0:0:0:
166,212,88479,2,0,P|186:241|179:265,2,57.5999982421876,2|0|0,0:0|0:0|0:0,0:0:0:0:
100,125,88779,70,0,B|93:97|106:72|129:83|144:49|132:21,2,108,10|0|0,0:0|0:0|0:0,0:0:0:0:
90,140,89079,1,2,0:0:0:0:
181,260,89229,1,2,0:0:0:0:
254,342,89379,6,0,B|291:359|346:327|323:295|294:212|402:165|459:228,2,288,14|0|10,0:0|0:0|0:0,0:0:0:0:
181,260,90129,1,2,0:0:0:0:
39,343,90279,1,2,3:3:0:0:
48,323,90354,1,2,3:3:0:0:
51,301,90429,1,2,3:3:0:0:
46,279,90504,1,2,3:3:0:0:
36,259,90579,70,0,B|-41:194|1:96|1:96|70:89|91:143,2,288,10|0|10,0:0|0:0|0:0,0:0:0:0:
127,274,91279,1,2,0:0:0:0:
127,274,91379,1,2,0:0:0:0:
127,274,91479,2,0,B|155:260|155:260|166:258|166:258|193:247,2,57.5999982421876,2|2|2,3:0|3:0|3:0,3:0:0:0:
269,333,91779,6,0,B|339:367|398:302|356:257|409:178|505:220,2,288,10|0|10,0:0|0:0|0:0,0:0:0:0:
182,162,92529,1,2,0:0:0:0:
213,68,92679,1,2,0:0:0:0:
416,130,92829,1,2,0:0:0:0:
436,36,92979,70,0,B|333:78|333:78|296:117|296:117|165:168,2,288,10|2|10,0:0|0:0|0:0,0:0:0:0:
365,261,93729,1,2,0:0:0:0:
343,259,93804,1,2,0:0:0:0:
311,241,93879,1,2,0:0:0:0:
286,196,93954,1,2,0:0:0:0:
239,161,94029,1,2,0:0:0:0:
181,161,94104,1,2,0:0:0:0:
170,175,94179,6,0,B|232:231|316:184|281:150|337:81|421:130,2,288,10|0|10,0:0|0:0|0:0,0:0:0:0:
159,60,94929,1,0,0:0:0:0:
93,202,95079,2,0,P|98:229|113:239,2,36,2|0|0,0:0|0:0|0:0,0:0:0:0:
180,207,95229,2,0,P|179:189|169:174,2,36,2|0|0,0:0|0:0|0:0,0:0:0:0:
30,304,95379,70,0,B|19:342|52:359|52:359|163:296|276:329,2,288,10|0|10,0:0|0:0|0:0,0:0:0:0:
88,243,96054,1,2,0:0:0:0:
123,207,96129,1,2,0:0:0:0:
116,162,96204,1,2,0:0:0:0:
83,132,96279,1,2,0:0:0:0:
42,127,96354,1,2,0:0:0:0:
19,108,96429,1,2,0:0:0:0:
8,84,96504,1,2,0:0:0:0:
12,69,96579,6,0,B|75:26|165:73|145:94|218:134|302:85,2,288,10|0|10,0:0|0:0|0:0,0:0:0:0:
223,17,97329,1,0,0:0:0:0:
237,200,97479,70,0,B|219:208|219:208|216:180,2,36,2|0|0,0:0|0:0|0:0,0:0:0:0:
290,94,97629,2,0,B|307:85|307:85|310:113,2,36,2|0|0,0:0|0:0|0:0,0:0:0:0:
394,216,97779,6,0,B|452:269|388:343|388:343|296:317|316:237,2,288,10|2|8,0:0|0:0|0:0,0:0:0:0:
329,155,98454,1,2,0:0:0:0:
293,148,98529,1,2,0:0:0:0:
260,168,98604,1,2,0:0:0:0:
254,180,98679,70,0,B|240:180|240:180|228:177|228:177|208:179,6,36,2|0|0|0|0|0|0,0:3|0:0|0:0|0:0|0:0|0:0|0:0,0:0:0:0:
315,239,98979,21,8,0:0:0:0:
351,47,99279,1,8,0:1:0:0:
182,85,99579,1,8,0:0:0:0:
482,181,99879,1,8,0:1:0:0:
474,166,100179,5,10,0:0:0:0:
390,144,100329,1,2,0:0:0:0:
308,171,100479,1,10,0:1:0:0:
258,241,100629,1,10,0:1:0:0:
251,327,100779,1,10,0:0:0:0:
269,340,101079,5,10,0:1:0:0:
269,340,101229,1,2,0:0:0:0:
153,175,101379,1,10,0:0:0:0:
144,188,101679,5,8,0:1:0:0:
144,188,101829,1,2,0:0:0:0:
222,80,101979,1,10,0:0:0:0:
229,68,102279,38,0,B|185:80|185:80|172:91|172:91|123:106,2,108.000004119873,10|10|10,0:1|0:0|0:1,0:0:0:0:
317,92,103029,1,8,0:1:0:0:
451,32,103179,1,10,0:1:0:0:
451,32,103479,1,8,0:1:0:0:
368,304,103779,5,8,0:0:0:0:
196,239,104079,1,8,0:1:0:0:
24,174,104379,1,8,0:0:0:0:
276,45,104679,1,8,0:1:0:0:
267,31,104979,5,10,0:0:0:0:
212,91,105129,1,2,0:0:0:0:
215,171,105279,1,10,0:1:0:0:
262,236,105429,1,10,0:1:0:0:
342,248,105579,1,10,0:0:0:0:
355,237,105879,5,10,0:1:0:0:
355,237,106029,1,2,0:0:0:0:
180,319,106179,1,10,0:0:0:0:
192,329,106479,1,8,0:1:0:0:
53,221,106629,1,2,0:0:0:0:
66,231,106779,38,0,P|93:186|145:186,2,108.000004119873,10|10|10,0:0|0:1|0:0,0:0:0:0:
66,231,107979,37,2,0:0:0:0:
66,231,108279,1,2,0:0:0:0:
158,110,108579,1,2,0:0:0:0:
364,309,109404,22,0,B|376:310|376:310|378:308|389:306|389:306|390:299|390:299|396:302|396:302|403:299|403:299|416:304|416:304|424:310,4,54.0000020599366,2|0|0|0|0,0:3|0:0|0:0|0:0|0:0,0:0:0:0:
343,303,109604,5,2,0:0:0:0:
326,297,109670,5,2,0:0:0:0:
309,277,109737,69,2,0:0:0:0:
304,246,109804,37,2,0:0:0:0:
314,217,109870,37,2,0:0:0:0:
344,193,109945,5,2,0:0:0:0:
390,196,110020,5,2,0:0:0:0:
444,238,110095,21,0,0:0:0:0:
