osu file format v14

[General]
AudioFilename: audio.mp3
AudioLeadIn: 0
PreviewTime: 7149
Countdown: 0
SampleSet: Normal
StackLeniency: 0.7
Mode: 1
LetterboxInBreaks: 0
WidescreenStoryboard: 0

[Editor]
DistanceSpacing: 0.8
BeatDivisor: 4
GridSize: 32
TimelineZoom: 2.3

[Metadata]
Title:Mopemope
TitleUnicode:もぺもぺ
Artist:LeaF
ArtistUnicode:LeaF
Creator:Nifty
Version:Oni
Source:osu!
Tags:fa featured artist mg mappers guild genjuro sv electronic instrumental horror bofu2017 bms of fighters ultimate 2017 doppelganger
BeatmapID:2381293
BeatmapSetID:1128384

[Difficulty]
HPDrainRate:5
CircleSize:2
OverallDifficulty:5
ApproachRate:10
SliderMultiplier:1.4
SliderTickRate:1

[Events]
//Background and Video events
0,0,"happy.png",0,60
//Break Periods
//Storyboard Layer 0 (Background)
//Storyboard Layer 1 (Fail)
//Storyboard Layer 2 (Pass)
//Storyboard Layer 3 (Foreground)
//Storyboard Layer 4 (Overlay)
//Storyboard Sound Samples

[TimingPoints]
1187,300,4,1,0,60,1,0
1187,-100,4,1,0,60,0,0
7187,-100,4,1,0,70,0,0
16787,-100,4,1,0,80,0,0
26387,-100,4,1,0,80,0,1
43187,-100,4,1,0,80,0,0
45587,300,4,1,0,60,1,8
46187,600,4,1,0,70,1,0
46187,-100,4,1,0,70,0,0
50987,300,4,1,0,70,1,0
50987,-100,4,1,0,70,0,0
55937,-100,4,1,0,100,0,0
60437,-100,4,1,0,40,0,0
62012,-100,4,1,0,80,0,0
62312,-100,4,1,0,40,0,0
62987,-100,4,1,0,80,0,0
63562,-83.3333333333333,4,1,0,80,0,0
64169,-71.4285714285714,4,1,0,80,0,0
65312,-50,4,1,0,80,0,0
66587,-100,4,1,0,90,0,0
79787,-100,4,1,0,100,0,1
98987,-100,4,1,0,70,0,0
109332,-50,4,1,0,70,0,0

[HitObjects]
282,87,2387,5,0,0:0:0:0:
336,61,2687,1,8,0:0:0:0:
271,83,2987,1,0,0:0:0:0:
336,61,3287,1,8,0:0:0:0:
271,83,3587,1,8,0:0:0:0:
338,45,3887,1,0,0:0:0:0:
328,52,4037,1,0,0:0:0:0:
267,101,4187,1,8,0:0:0:0:
271,83,4787,1,0,0:0:0:0:
342,54,5087,1,8,0:0:0:0:
271,83,5387,1,0,0:0:0:0:
332,51,5687,1,8,0:0:0:0:
271,83,5987,1,8,0:0:0:0:
271,83,6287,1,8,0:0:0:0:
328,41,6437,1,8,0:0:0:0:
285,77,6587,1,8,0:0:0:0:
328,41,6887,1,8,0:0:0:0:
285,77,7187,1,4,0:0:0:0:
328,41,7487,1,8,0:0:0:0:
296,73,7787,1,0,0:0:0:0:
328,41,8087,1,8,0:0:0:0:
307,67,8387,1,8,0:0:0:0:
336,36,8537,1,8,0:0:0:0:
307,59,8687,1,0,0:0:0:0:
321,40,8837,1,0,0:0:0:0:
296,76,8987,1,8,0:0:0:0:
320,40,9287,1,8,0:0:0:0:
296,76,9587,1,0,0:0:0:0:
320,40,9887,1,8,0:0:0:0:
326,41,10037,1,0,0:0:0:0:
315,60,10187,1,8,0:0:0:0:
282,75,10487,1,0,0:0:0:0:
282,75,10787,1,0,0:0:0:0:
298,54,11087,1,8,0:0:0:0:
326,29,11237,1,8,0:0:0:0:
282,75,11387,1,8,0:0:0:0:
328,36,11687,1,8,0:0:0:0:
306,95,11987,1,0,0:0:0:0:
329,46,12287,1,8,0:0:0:0:
322,65,12587,1,0,0:0:0:0:
329,46,12887,1,8,0:0:0:0:
306,95,13187,1,8,0:0:0:0:
329,50,13337,1,8,0:0:0:0:
323,72,13487,1,0,0:0:0:0:
329,46,13637,1,0,0:0:0:0:
306,95,13787,1,8,0:0:0:0:
327,46,14087,1,0,0:0:0:0:
316,68,14387,1,8,0:0:0:0:
327,46,14687,1,8,0:0:0:0:
341,44,14837,1,0,0:0:0:0:
316,68,14987,1,0,0:0:0:0:
306,95,15287,1,8,0:0:0:0:
306,95,15587,1,8,0:0:0:0:
322,79,15887,1,8,0:0:0:0:
326,43,16037,1,8,0:0:0:0:
306,95,16187,1,0,0:0:0:0:
327,46,16487,1,8,0:0:0:0:
298,75,16787,1,4,0:0:0:0:
340,44,17087,1,8,0:0:0:0:
340,44,17237,1,8,0:0:0:0:
298,75,17387,1,0,0:0:0:0:
312,69,17687,1,0,0:0:0:0:
300,86,17987,1,8,0:0:0:0:
319,57,18137,1,8,0:0:0:0:
300,86,18287,1,8,0:0:0:0:
327,48,18437,1,8,0:0:0:0:
300,86,18587,1,0,0:0:0:0:
322,43,18887,1,0,0:0:0:0:
297,71,19187,1,8,0:0:0:0:
310,54,19487,1,0,0:0:0:0:
309,53,19637,1,0,0:0:0:0:
287,83,19787,1,0,0:0:0:0:
303,67,20087,1,8,0:0:0:0:
298,80,20387,1,0,0:0:0:0:
298,80,20687,1,8,0:0:0:0:
303,67,20837,1,8,0:0:0:0:
298,80,20987,1,8,0:0:0:0:
305,61,21287,1,8,0:0:0:0:
285,72,21587,1,0,0:0:0:0:
312,49,21887,1,8,0:0:0:0:
285,58,22037,1,0,0:0:0:0:
292,60,22187,1,8,0:0:0:0:
296,71,22487,5,8,0:0:0:0:
285,72,22787,1,0,0:0:0:0:
334,33,22937,1,0,0:0:0:0:
300,77,23087,1,0,0:0:0:0:
308,40,23237,1,0,0:0:0:0:
300,77,23387,1,8,0:0:0:0:
334,33,23687,1,8,0:0:0:0:
300,77,23987,1,0,0:0:0:0:
312,51,24287,1,8,0:0:0:0:
317,53,24437,1,0,0:0:0:0:
288,71,24587,1,8,0:0:0:0:
302,61,24887,1,0,0:0:0:0:
288,71,25187,1,0,0:0:0:0:
288,71,25487,1,8,0:0:0:0:
297,67,25787,1,0,0:0:0:0:
299,58,26387,1,4,0:0:0:0:
305,62,26687,1,8,0:0:0:0:
305,62,26837,1,8,0:0:0:0:
299,58,26987,1,0,0:0:0:0:
304,67,27287,1,8,0:0:0:0:
339,50,27587,1,0,0:0:0:0:
305,62,27737,1,8,0:0:0:0:
299,58,27887,1,8,0:0:0:0:
321,39,28037,1,8,0:0:0:0:
299,58,28187,1,0,0:0:0:0:
299,58,28487,1,8,0:0:0:0:
305,62,28637,1,0,0:0:0:0:
299,58,28787,1,8,0:0:0:0:
299,58,29087,1,8,0:0:0:0:
326,37,29237,1,8,0:0:0:0:
299,58,29387,1,0,0:0:0:0:
339,46,29687,1,8,0:0:0:0:
299,58,29987,1,0,0:0:0:0:
299,58,30287,1,8,0:0:0:0:
330,40,30437,1,8,0:0:0:0:
299,58,30587,1,8,0:0:0:0:
326,37,30887,1,8,0:0:0:0:
336,50,31187,1,0,0:0:0:0:
337,50,31487,1,8,0:0:0:0:
336,54,31637,1,0,0:0:0:0:
296,66,31787,1,0,0:0:0:0:
341,48,32087,1,8,0:0:0:0:
337,50,32387,1,0,0:0:0:0:
337,50,32537,1,0,0:0:0:0:
296,66,32687,1,8,0:0:0:0:
321,39,32837,1,8,0:0:0:0:
296,66,32987,1,0,0:0:0:0:
337,50,33287,1,8,0:0:0:0:
337,50,33437,1,0,0:0:0:0:
296,66,33587,1,8,0:0:0:0:
352,57,33887,1,0,0:0:0:0:
340,41,34037,1,8,0:0:0:0:
296,66,34187,1,0,0:0:0:0:
352,57,34487,1,8,0:0:0:0:
332,38,34787,1,0,0:0:0:0:
333,38,34937,1,8,0:0:0:0:
296,66,35087,1,0,0:0:0:0:
345,40,35237,1,8,0:0:0:0:
367,43,35387,1,8,0:0:0:0:
352,57,35687,1,0,0:0:0:0:
303,65,35987,1,12,0:0:0:0:
345,40,36287,1,0,0:0:0:0:
352,57,36587,1,8,0:0:0:0:
327,50,36887,1,0,0:0:0:0:
326,51,37187,1,8,0:0:0:0:
340,37,37487,1,0,0:0:0:0:
352,61,37787,1,8,0:0:0:0:
326,51,38087,1,0,0:0:0:0:
326,51,38387,1,8,0:0:0:0:
338,36,38687,1,0,0:0:0:0:
352,61,38987,1,8,0:0:0:0:
326,51,39287,1,0,0:0:0:0:
327,51,39587,1,8,0:0:0:0:
338,36,39887,1,0,0:0:0:0:
355,58,40187,1,8,0:0:0:0:
335,48,40487,1,0,0:0:0:0:
336,48,40787,1,8,0:0:0:0:
355,58,41087,1,8,0:0:0:0:
336,48,41387,1,8,0:0:0:0:
336,48,41687,1,8,0:0:0:0:
344,58,41987,1,8,0:0:0:0:
354,57,42287,1,8,0:0:0:0:
309,65,42587,1,8,0:0:0:0:
336,48,42887,1,8,0:0:0:0:
309,65,43187,1,0,0:0:0:0:
350,55,43337,1,0,0:0:0:0:
350,55,43637,1,0,0:0:0:0:
309,65,43787,1,0,0:0:0:0:
309,65,44087,1,0,0:0:0:0:
309,65,44387,1,0,0:0:0:0:
335,58,44687,1,8,0:0:0:0:
309,65,44987,1,12,0:0:0:0:
316,54,46187,1,0,0:0:0:0:
323,45,46787,1,0,0:0:0:0:
323,45,47087,1,8,0:0:0:0:
306,51,47387,1,0,0:0:0:0:
316,39,47987,1,8,0:0:0:0:
323,47,48287,1,0,0:0:0:0:
306,51,48587,1,0,0:0:0:0:
316,39,49187,1,8,0:0:0:0:
316,39,49487,1,0,0:0:0:0:
310,50,49787,1,0,0:0:0:0:
188,182,50087,2,0,L|230:175,4,35
323,45,50987,1,4,0:0:0:0:
353,76,51287,1,8,0:0:0:0:
353,76,51437,1,8,0:0:0:0:
329,64,51587,1,0,0:0:0:0:
336,64,51887,1,8,0:0:0:0:
356,58,52187,1,0,0:0:0:0:
356,49,52337,1,8,0:0:0:0:
359,57,52487,1,8,0:0:0:0:
306,121,52637,1,8,0:0:0:0:
359,57,52787,1,0,0:0:0:0:
363,42,53087,1,8,0:0:0:0:
363,42,53237,1,0,0:0:0:0:
347,59,53387,1,8,0:0:0:0:
359,57,53687,1,8,0:0:0:0:
365,43,53837,1,8,0:0:0:0:
360,53,53987,1,0,0:0:0:0:
363,42,54287,1,8,0:0:0:0:
356,59,54587,1,0,0:0:0:0:
349,60,54887,1,8,0:0:0:0:
359,30,55037,1,8,0:0:0:0:
356,59,55187,1,8,0:0:0:0:
359,30,55487,1,8,0:0:0:0:
349,60,55787,1,0,0:0:0:0:
350,50,55937,1,8,0:0:0:0:
355,38,56087,1,0,0:0:0:0:
359,55,56387,1,8,0:0:0:0:
359,56,56462,1,8,0:0:0:0:
359,56,56537,1,8,0:0:0:0:
356,56,56687,1,0,0:0:0:0:
354,45,56987,1,0,0:0:0:0:
372,53,57137,1,8,0:0:0:0:
368,44,57287,1,8,0:0:0:0:
344,57,57437,1,8,0:0:0:0:
368,44,57587,1,0,0:0:0:0:
354,45,57887,1,0,0:0:0:0:
372,53,58037,1,0,0:0:0:0:
354,44,58187,1,8,0:0:0:0:
376,36,58487,1,0,0:0:0:0:
374,34,58637,1,0,0:0:0:0:
364,41,58787,1,0,0:0:0:0:
361,46,59087,1,8,0:0:0:0:
364,41,59387,1,8,0:0:0:0:
364,41,59687,1,0,0:0:0:0:
361,46,59987,1,0,0:0:0:0:
365,40,60587,1,8,0:0:0:0:
365,40,61187,1,8,0:0:0:0:
365,40,61787,1,0,0:0:0:0:
365,40,62387,1,0,0:0:0:0:
177,171,62987,2,4,L|236:151,4,61.25
380,232,63662,2,4,L|453:207,5,41.9999987182618
256,192,64187,12,0,65237,0:0:0:0:
256,192,65387,12,0,66287,0:0:0:0:
352,136,66587,5,0,0:0:0:0:
369,91,66737,1,8,0:0:0:0:
369,104,66887,1,0,0:0:0:0:
369,91,66962,1,0,0:0:0:0:
369,91,67037,1,0,0:0:0:0:
355,120,67187,1,8,0:0:0:0:
357,117,67337,1,8,0:0:0:0:
352,118,67487,1,8,0:0:0:0:
355,120,67787,1,0,0:0:0:0:
362,75,67937,1,8,0:0:0:0:
365,89,68087,1,0,0:0:0:0:
348,84,68237,1,8,0:0:0:0:
349,83,68312,1,8,0:0:0:0:
330,108,68387,1,8,0:0:0:0:
362,75,68687,1,0,0:0:0:0:
381,92,68787,1,8,0:0:0:0:
341,95,68887,1,8,0:0:0:0:
342,95,68987,1,0,0:0:0:0:
365,89,69137,1,0,0:0:0:0:
340,107,69287,1,8,0:0:0:0:
384,80,69362,1,8,0:0:0:0:
380,80,69437,1,8,0:0:0:0:
337,109,69587,1,0,0:0:0:0:
326,125,70187,1,8,0:0:0:0:
393,71,70337,1,8,0:0:0:0:
363,71,70487,1,0,0:0:0:0:
393,71,70562,1,0,0:0:0:0:
363,71,70637,1,8,0:0:0:0:
326,125,70787,1,0,0:0:0:0:
377,62,71087,1,8,0:0:0:0:
377,62,71237,1,0,0:0:0:0:
334,110,71387,1,8,0:0:0:0:
384,57,71462,1,8,0:0:0:0:
378,51,71537,1,8,0:0:0:0:
334,110,71687,1,0,0:0:0:0:
369,82,71837,1,8,0:1:0:0:
337,102,71987,1,8,0:0:0:0:
377,62,72137,1,0,0:0:0:0:
377,62,72287,1,8,0:0:0:0:
337,102,72587,1,0,0:0:0:0:
385,50,72737,1,8,0:0:0:0:
378,47,72812,1,8,0:0:0:0:
377,75,72887,1,8,0:1:0:0:
378,49,73037,1,8,0:0:0:0:
337,102,73187,1,0,0:0:0:0:
385,50,73337,1,0,0:0:0:0:
385,50,73487,1,8,0:0:0:0:
396,46,73637,1,0,0:0:0:0:
337,102,73787,1,8,0:0:0:0:
388,51,73862,1,8,0:0:0:0:
387,51,73937,1,8,0:0:0:0:
372,64,74087,1,0,0:1:0:0:
395,47,74237,1,8,0:0:0:0:
395,47,74387,1,0,0:0:0:0:
385,50,74462,1,0,0:0:0:0:
372,64,74537,1,8,0:1:0:0:
337,102,74687,1,8,0:0:0:0:
327,94,74987,1,0,0:0:0:0:
384,43,75137,1,8,0:0:0:0:
396,29,75437,1,0,0:0:0:0:
384,35,75587,1,8,0:0:0:0:
420,34,75662,1,0,0:0:0:0:
384,35,75737,1,8,0:0:0:0:
327,72,75887,1,0,0:1:0:0:
391,35,76037,1,8,0:0:0:0:
400,40,76187,1,8,0:0:0:0:
395,35,76337,1,0,0:0:0:0:
327,94,76487,1,8,0:0:0:0:
398,34,76637,1,8,0:0:0:0:
397,31,76787,1,0,0:0:0:0:
409,32,76937,1,8,0:0:0:0:
334,79,77087,1,8,0:1:0:0:
413,26,77162,1,8,0:0:0:0:
409,32,77237,1,8,0:0:0:0:
327,94,77387,1,0,0:0:0:0:
402,41,77687,1,8,0:0:0:0:
418,38,77837,1,0,0:0:0:0:
319,90,77987,1,8,0:0:0:0:
420,33,78137,1,8,0:0:0:0:
417,41,78212,1,8,0:0:0:0:
334,72,78287,1,0,0:1:0:0:
319,90,78587,1,0,0:0:0:0:
334,73,78737,1,0,0:1:0:0:
418,38,78812,1,0,0:0:0:0:
420,33,78887,1,8,0:0:0:0:
420,33,79037,1,0,0:0:0:0:
319,90,79187,1,8,0:0:0:0:
420,33,79337,1,0,0:0:0:0:
418,38,79412,1,0,0:0:0:0:
336,73,79487,1,8,0:1:0:0:
418,38,79637,1,8,0:0:0:0:
337,85,79787,1,4,0:0:0:0:
380,47,80087,1,0,0:0:0:0:
327,69,80387,1,8,0:1:0:0:
327,68,80687,1,8,0:1:0:0:
345,96,80987,1,4,0:0:0:0:
327,69,81287,1,0,0:1:0:0:
376,37,81437,1,0,0:0:0:0:
343,81,81587,1,8,0:0:0:0:
357,61,81887,1,8,0:0:0:0:
341,61,82037,1,8,0:0:0:0:
359,88,82187,1,4,0:0:0:0:
357,61,82487,1,8,0:0:0:0:
356,61,82637,1,0,0:0:0:0:
338,69,82787,1,8,0:1:0:0:
338,69,83087,1,0,0:1:0:0:
355,89,83387,1,4,0:0:0:0:
338,69,83687,1,0,0:1:0:0:
351,79,83987,1,8,0:0:0:0:
343,91,84587,1,4,0:0:0:0:
377,56,84887,1,0,0:0:0:0:
338,69,85187,1,8,0:1:0:0:
338,69,85487,1,8,0:1:0:0:
339,97,85787,1,4,0:0:0:0:
338,69,86087,1,0,0:1:0:0:
377,56,86237,1,0,0:0:0:0:
339,97,86387,1,8,0:0:0:0:
377,56,86687,1,0,0:0:0:0:
361,54,86837,1,8,0:0:0:0:
479,249,86987,1,12,0:0:0:0:
383,66,87287,1,0,0:0:0:0:
406,53,87487,1,0,0:0:0:0:
342,72,87587,1,8,0:1:0:0:
342,72,87887,1,0,0:1:0:0:
338,92,88187,1,4,0:0:0:0:
342,72,88487,1,0,0:1:0:0:
344,87,88787,1,8,0:0:0:0:
344,87,89387,1,12,0:0:0:0:
356,80,89687,1,8,0:0:0:0:
349,71,89987,1,0,0:0:0:0:
356,80,90087,1,8,0:0:0:0:
380,72,90187,1,8,0:0:0:0:
362,65,90287,1,0,0:0:0:0:
356,80,90487,1,0,0:0:0:0:
349,71,90587,1,8,0:0:0:0:
369,70,90887,1,0,0:0:0:0:
349,71,91187,1,8,0:0:0:0:
378,67,91287,1,8,0:0:0:0:
377,76,91387,1,8,0:0:0:0:
375,65,91487,1,0,0:0:0:0:
349,71,91787,1,0,0:0:0:0:
399,78,92087,1,8,0:0:0:0:
369,70,92387,1,8,0:0:0:0:
396,66,92537,1,0,0:0:0:0:
401,67,92612,1,0,0:0:0:0:
388,66,92687,1,8,0:0:0:0:
388,66,92837,1,8,0:0:0:0:
353,51,92987,1,0,0:0:0:0:
369,70,93287,1,0,0:0:0:0:
356,67,93587,1,8,0:0:0:0:
367,68,94187,1,8,0:0:0:0:
356,67,94487,1,0,0:0:0:0:
371,62,94787,1,8,0:0:0:0:
367,68,94887,1,0,0:0:0:0:
376,49,94987,1,0,0:0:0:0:
367,68,95087,1,8,0:0:0:0:
350,64,95237,1,0,0:0:0:0:
370,59,95387,1,8,0:0:0:0:
371,57,95687,1,0,0:0:0:0:
370,59,95987,1,8,0:0:0:0:
369,51,96137,1,8,0:0:0:0:
370,51,96212,1,8,0:0:0:0:
370,59,96287,1,0,0:0:0:0:
370,59,96437,1,0,0:0:0:0:
370,59,96587,1,8,0:0:0:0:
370,59,96887,1,0,0:0:0:0:
370,59,97187,1,0,0:0:0:0:
370,59,97287,1,0,0:0:0:0:
370,59,97387,1,0,0:0:0:0:
370,59,97487,1,8,0:0:0:0:
370,59,97637,1,0,0:0:0:0:
362,56,97787,1,8,0:0:0:0:
372,51,98087,1,0,0:0:0:0:
369,51,98387,1,8,0:0:0:0:
374,46,98537,1,0,0:0:0:0:
374,48,98612,1,0,0:0:0:0:
369,50,98687,1,8,0:0:0:0:
390,43,98837,1,8,0:0:0:0:
338,69,98987,1,0,0:0:0:0:
377,51,99287,1,8,0:0:0:0:
367,64,99587,1,0,0:0:0:0:
377,51,99887,1,8,0:0:0:0:
358,57,100187,1,8,0:0:0:0:
394,44,100337,1,8,0:0:0:0:
355,60,100487,1,0,0:0:0:0:
377,61,100637,1,0,0:0:0:0:
354,62,100787,1,8,0:0:0:0:
358,57,101087,1,8,0:0:0:0:
351,57,101387,1,0,0:0:0:0:
372,55,101687,1,8,0:0:0:0:
368,50,101837,1,8,0:0:0:0:
359,61,101987,1,0,0:0:0:0:
339,35,102287,1,8,0:0:0:0:
351,57,102587,1,0,0:0:0:0:
359,61,102887,1,8,0:0:0:0:
363,50,103037,1,8,0:0:0:0:
351,57,103187,1,8,0:0:0:0:
363,49,103487,1,8,0:0:0:0:
351,57,103787,1,0,0:0:0:0:
368,50,104087,1,8,0:0:0:0:
361,62,104387,1,0,0:0:0:0:
375,43,104687,1,8,0:0:0:0:
350,58,104987,1,8,0:0:0:0:
363,48,105137,1,8,0:0:0:0:
361,62,105287,1,0,0:0:0:0:
376,40,105437,1,0,0:0:0:0:
350,58,105587,1,8,0:0:0:0:
375,40,105887,1,8,0:0:0:0:
361,62,106187,1,0,0:0:0:0:
380,34,106487,1,8,0:0:0:0:
380,35,106637,1,0,0:0:0:0:
350,58,106787,1,0,0:0:0:0:
380,35,107087,1,8,0:0:0:0:
350,58,107387,1,0,0:0:0:0:
350,58,107987,1,0,0:0:0:0:
350,58,108287,1,0,0:0:0:0:
350,58,108587,1,8,0:0:0:0:
256,192,109412,12,0,110087,0:0:0:0:
