osu file format v14

[General]
AudioFilename: audio.mp3
AudioLeadIn: 0
PreviewTime: 7149
Countdown: 0
SampleSet: None
StackLeniency: 0.7
Mode: 1
LetterboxInBreaks: 0
WidescreenStoryboard: 0

[Editor]
DistanceSpacing: 0.8
BeatDivisor: 4
GridSize: 32
TimelineZoom: 2.4

[Metadata]
Title:Mopemope
TitleUnicode:もぺもぺ
Artist:LeaF
ArtistUnicode:LeaF
Creator:Nifty
Version:Kantan
Source:osu!
Tags:fa featured artist mg mappers guild genjuro sv electronic instrumental horror bofu2017 bms of fighters ultimate 2017 doppelganger
BeatmapID:2367474
BeatmapSetID:1128384

[Difficulty]
HPDrainRate:7.5
CircleSize:2
OverallDifficulty:2.5
ApproachRate:10
SliderMultiplier:1.4
SliderTickRate:1

[Events]
//Background and Video events
0,0,"happy.png",0,60
//Break Periods
//Storyboard Layer 0 (Background)
//Storyboard Layer 1 (Fail)
//Storyboard Layer 2 (Pass)
//Storyboard Layer 3 (Foreground)
//Storyboard Layer 4 (Overlay)
//Storyboard Sound Samples

[TimingPoints]
1187,300,4,1,0,60,1,0
1187,-125,4,1,0,60,0,0
7187,-125,4,1,0,70,0,0
16787,-125,4,1,0,80,0,0
26387,-125,4,1,0,80,0,1
43187,-125,4,1,0,80,0,0
45587,300,4,1,0,60,1,8
46187,600,4,1,0,70,1,0
46187,-62.5,4,1,0,70,0,0
50987,300,4,1,0,70,1,0
50987,-125,4,1,0,70,0,0
55937,-125,4,1,0,100,0,0
60437,-125,4,1,0,40,0,0
62012,-125,4,1,0,80,0,0
62312,-125,4,1,0,40,0,0
62987,-125,4,1,0,80,0,0
66587,-125,4,1,0,90,0,0
79787,-125,4,1,0,100,0,1
98987,-125,4,1,0,70,0,0

[HitObjects]
282,87,2387,5,0,0:0:0:0:
271,83,2987,1,0,0:0:0:0:
271,83,3587,1,8,0:0:0:0:
271,83,4787,1,0,0:0:0:0:
271,83,5387,1,0,0:0:0:0:
271,83,5987,1,8,0:0:0:0:
285,77,6587,1,8,0:0:0:0:
285,77,7187,1,4,0:0:0:0:
307,67,8387,1,8,0:0:0:0:
296,76,8987,1,8,0:0:0:0:
296,76,9587,1,0,0:0:0:0:
282,75,10487,1,0,0:0:0:0:
282,75,10787,1,0,0:0:0:0:
282,75,11387,1,8,0:0:0:0:
306,95,11987,1,0,0:0:0:0:
306,95,13187,1,8,0:0:0:0:
306,95,13787,1,8,0:0:0:0:
306,95,14387,1,0,0:0:0:0:
306,95,15287,1,8,0:0:0:0:
306,95,15587,1,8,0:0:0:0:
306,95,16187,1,0,0:0:0:0:
298,75,16787,1,4,0:0:0:0:
300,86,17987,1,8,0:0:0:0:
300,86,18287,1,8,0:0:0:0:
300,86,18587,1,0,0:0:0:0:
294,76,19187,1,0,0:0:0:0:
298,80,20387,1,0,0:0:0:0:
298,80,20687,1,8,0:0:0:0:
298,80,20987,1,8,0:0:0:0:
285,72,21587,1,0,0:0:0:0:
285,72,22787,1,0,0:0:0:0:
300,77,23087,1,0,0:0:0:0:
300,77,23387,1,8,0:0:0:0:
300,77,23987,1,0,0:0:0:0:
288,71,24587,1,8,0:0:0:0:
288,71,25187,1,0,0:0:0:0:
288,71,25487,1,8,0:0:0:0:
297,67,25787,1,8,0:0:0:0:
299,58,26387,1,4,0:0:0:0:
299,58,26987,1,0,0:0:0:0:
299,58,27587,1,8,0:0:0:0:
299,58,27887,1,8,0:0:0:0:
299,58,28187,1,0,0:0:0:0:
299,58,28787,1,8,0:0:0:0:
299,58,29387,1,0,0:0:0:0:
299,58,29987,1,0,0:0:0:0:
299,58,30287,1,8,0:0:0:0:
299,58,30587,1,8,0:0:0:0:
296,66,31187,1,8,0:0:0:0:
296,66,31787,1,0,0:0:0:0:
296,66,32387,1,8,0:0:0:0:
296,66,32687,1,8,0:0:0:0:
296,66,32987,1,0,0:0:0:0:
296,66,33587,1,8,0:0:0:0:
296,66,34187,1,0,0:0:0:0:
296,66,34787,1,8,0:0:0:0:
296,66,35087,1,0,0:0:0:0:
296,66,35387,1,8,0:0:0:0:
303,65,35987,1,12,0:0:0:0:
297,64,37187,1,8,0:0:0:0:
277,54,38387,1,0,0:0:0:0:
287,62,39587,1,0,0:0:0:0:
279,56,40787,1,8,0:0:0:0:
290,58,41387,1,8,0:0:0:0:
290,58,41987,1,8,0:0:0:0:
309,65,42587,1,8,0:0:0:0:
309,65,43187,1,0,0:0:0:0:
309,65,43787,1,0,0:0:0:0:
309,65,44087,1,0,0:0:0:0:
309,65,44387,1,0,0:0:0:0:
309,65,44987,1,12,0:0:0:0:
316,54,46187,1,0,0:0:0:0:
306,51,47387,1,0,0:0:0:0:
306,51,48587,1,0,0:0:0:0:
310,50,49787,1,0,0:0:0:0:
323,45,50987,1,4,0:0:0:0:
370,56,52187,1,8,0:0:0:0:
359,57,52487,1,8,0:0:0:0:
359,57,52787,1,0,0:0:0:0:
347,59,53387,1,8,0:0:0:0:
356,59,54587,1,0,0:0:0:0:
349,60,54887,1,8,0:0:0:0:
356,59,55187,1,8,0:0:0:0:
349,60,55787,1,8,0:0:0:0:
359,58,56387,1,0,0:0:0:0:
354,45,56987,1,0,0:0:0:0:
354,45,57887,1,0,0:0:0:0:
354,44,58187,1,8,0:0:0:0:
364,41,58787,1,0,0:0:0:0:
364,41,59387,1,8,0:0:0:0:
365,40,60587,1,8,0:0:0:0:
365,40,61187,1,8,0:0:0:0:
365,40,61787,1,0,0:0:0:0:
365,40,62387,1,0,0:0:0:0:
177,171,62987,2,0,L|236:151,4,56
256,192,64187,12,0,65987,0:0:0:0:
352,136,66587,5,0,0:0:0:0:
355,120,67187,1,8,0:0:0:0:
352,118,67487,1,8,0:0:0:0:
355,120,67787,1,0,0:0:0:0:
330,108,68387,1,8,0:0:0:0:
337,109,68987,1,0,0:0:0:0:
340,107,69287,1,8,0:0:0:0:
337,109,69587,1,0,0:0:0:0:
326,125,70187,1,8,0:0:0:0:
326,125,70787,1,0,0:0:0:0:
334,110,71387,1,8,0:0:0:0:
334,110,71687,1,0,0:0:0:0:
337,102,71987,1,8,0:0:0:0:
337,102,72587,1,0,0:0:0:0:
337,102,73187,1,0,0:0:0:0:
337,102,73487,1,0,0:0:0:0:
337,102,73787,1,8,0:0:0:0:
337,102,74687,1,8,0:0:0:0:
327,94,74987,1,0,0:0:0:0:
327,94,75587,1,8,0:0:0:0:
327,94,76187,1,0,0:0:0:0:
327,94,76487,1,8,0:0:0:0:
327,94,76787,1,8,0:0:0:0:
327,94,77387,1,0,0:0:0:0:
319,90,77987,1,8,0:0:0:0:
319,90,78587,1,0,0:0:0:0:
319,90,78887,1,0,0:0:0:0:
319,90,79187,1,8,0:0:0:0:
337,85,79787,1,4,0:0:0:0:
345,96,80987,1,4,0:0:0:0:
343,81,81587,1,8,0:0:0:0:
359,88,82187,1,4,0:0:0:0:
355,89,83387,1,4,0:0:0:0:
351,79,83987,1,8,0:0:0:0:
343,91,84587,1,4,0:0:0:0:
339,97,85787,1,4,0:0:0:0:
339,97,86387,1,8,0:0:0:0:
342,95,86987,1,12,0:0:0:0:
338,92,88187,1,4,0:0:0:0:
344,87,88787,1,8,0:0:0:0:
344,87,89387,1,12,0:0:0:0:
349,71,89987,1,0,0:0:0:0:
349,71,90587,1,8,0:0:0:0:
349,71,91187,1,8,0:0:0:0:
349,71,91787,1,0,0:0:0:0:
356,67,92687,1,0,0:0:0:0:
353,51,92987,1,0,0:0:0:0:
356,67,93587,1,8,0:0:0:0:
367,68,94187,1,8,0:0:0:0:
367,49,94787,1,0,0:0:0:0:
370,59,95387,1,8,0:0:0:0:
370,59,95987,1,8,0:0:0:0:
370,59,96587,1,0,0:0:0:0:
362,56,97487,1,0,0:0:0:0:
362,56,97787,1,8,0:0:0:0:
377,64,98387,1,0,0:0:0:0:
338,69,98987,1,0,0:0:0:0:
371,62,100187,1,8,0:0:0:0:
354,62,100787,1,8,0:0:0:0:
351,57,101387,1,0,0:0:0:0:
339,35,102287,1,0,0:0:0:0:
351,57,102587,1,0,0:0:0:0:
351,57,103187,1,8,0:0:0:0:
351,57,103787,1,0,0:0:0:0:
350,58,104987,1,8,0:0:0:0:
350,58,105587,1,8,0:0:0:0:
350,58,106187,1,0,0:0:0:0:
350,58,106787,1,0,0:0:0:0:
350,58,107387,1,0,0:0:0:0:
350,58,107987,1,0,0:0:0:0:
350,58,108287,1,0,0:0:0:0:
350,58,108587,1,8,0:0:0:0:
