osu file format v14

[General]
AudioFilename: audio.mp3
AudioLeadIn: 0
PreviewTime: 7149
Countdown: 0
SampleSet: None
StackLeniency: 0.7
Mode: 1
LetterboxInBreaks: 0
WidescreenStoryboard: 1

[Editor]
DistanceSpacing: 0.8
BeatDivisor: 8
GridSize: 32
TimelineZoom: 2.8

[Metadata]
Title:Mopemope
TitleUnicode:もぺもぺ
Artist:LeaF
ArtistUnicode:LeaF
Creator:Nifty
Version:Genjuro's Inner Oni
Source:osu!
Tags:fa featured artist mg mappers guild genjuro sv electronic instrumental horror bofu2017 bms of fighters ultimate 2017 doppelganger
BeatmapID:2381294
BeatmapSetID:1128384

[Difficulty]
HPDrainRate:6
CircleSize:2
OverallDifficulty:6
ApproachRate:10
SliderMultiplier:1.4
SliderTickRate:1

[Events]
//Background and Video events
0,0,"happy.png",0,60
//Break Periods
//Storyboard Layer 0 (Background)
//Storyboard Layer 1 (Fail)
//Storyboard Layer 2 (Pass)
//Storyboard Layer 3 (Foreground)
//Storyboard Layer 4 (Overlay)
//Storyboard Sound Samples

[TimingPoints]
1187,300,4,1,0,60,1,0
7149,-100,4,1,0,80,0,0
26349,-100,4,1,0,100,0,0
26387,-100,4,1,0,100,0,1
43187,-100,4,1,0,100,0,0
45587,300,4,1,0,100,1,8
46187,600,4,1,0,100,1,0
46187,-50,4,1,0,100,0,0
50987,300,4,1,0,100,1,0
79787,-100,4,1,0,100,0,1
98949,-100,4,1,0,40,0,1
98987,-100,4,1,0,40,0,0
109374,-100,4,1,0,100,0,0

[HitObjects]
256,192,2387,5,0,0:0:0:0:
256,192,2687,1,8,0:0:0:0:
256,192,2987,1,0,0:0:0:0:
256,192,3287,1,8,0:0:0:0:
256,192,3587,1,0,0:0:0:0:
256,192,3887,1,8,0:0:0:0:
256,192,4037,1,8,0:0:0:0:
256,192,4187,1,0,0:0:0:0:
256,192,4487,1,8,0:0:0:0:
256,192,4787,1,0,0:0:0:0:
256,192,5087,1,8,0:0:0:0:
256,192,5387,1,0,0:0:0:0:
256,192,5687,1,8,0:0:0:0:
256,192,5987,1,0,0:0:0:0:
256,192,6287,1,8,0:0:0:0:
256,192,6437,1,0,0:0:0:0:
256,192,6587,1,8,0:0:0:0:
256,192,6887,1,8,0:0:0:0:
256,192,7187,1,4,0:0:0:0:
256,192,7487,1,8,0:0:0:0:
256,192,7787,1,0,0:0:0:0:
256,192,8087,1,8,0:0:0:0:
256,192,8387,1,0,0:0:0:0:
256,192,8537,1,0,0:0:0:0:
256,192,8687,1,8,0:0:0:0:
256,192,8837,1,8,0:0:0:0:
256,192,8987,1,0,0:0:0:0:
256,192,9287,1,0,0:0:0:0:
256,192,9437,1,0,0:0:0:0:
256,192,9587,1,8,0:0:0:0:
256,192,9887,1,8,0:0:0:0:
256,192,10037,1,8,0:0:0:0:
256,192,10187,1,0,0:0:0:0:
256,192,10487,1,8,0:0:0:0:
256,192,10787,1,0,0:0:0:0:
256,192,11087,1,8,0:0:0:0:
256,192,11237,1,0,0:0:0:0:
256,192,11387,1,8,0:0:0:0:
256,192,11687,1,8,0:0:0:0:
256,192,11987,1,0,0:0:0:0:
256,192,12287,1,8,0:0:0:0:
256,192,12587,1,0,0:0:0:0:
256,192,12887,1,8,0:0:0:0:
256,192,13187,1,0,0:0:0:0:
256,192,13337,1,0,0:0:0:0:
256,192,13487,1,8,0:0:0:0:
256,192,13637,1,8,0:0:0:0:
256,192,13787,1,0,0:0:0:0:
256,192,14087,1,0,0:0:0:0:
256,192,14237,1,0,0:0:0:0:
256,192,14387,1,8,0:0:0:0:
256,192,14687,1,8,0:0:0:0:
256,192,14837,1,8,0:0:0:0:
256,192,14987,1,0,0:0:0:0:
256,192,15287,1,8,0:0:0:0:
256,192,15587,1,0,0:0:0:0:
256,192,15887,1,8,0:0:0:0:
256,192,16037,1,0,0:0:0:0:
256,192,16187,1,8,0:0:0:0:
256,192,16487,1,8,0:0:0:0:
256,192,16637,1,8,0:0:0:0:
256,192,16787,1,4,0:0:0:0:
256,192,17087,1,8,0:0:0:0:
256,192,17237,1,0,0:0:0:0:
256,192,17387,1,0,0:0:0:0:
256,192,17687,1,8,0:0:0:0:
256,192,17987,1,0,0:0:0:0:
256,192,18137,1,0,0:0:0:0:
256,192,18287,1,8,0:0:0:0:
256,192,18437,1,0,0:0:0:0:
256,192,18587,1,0,0:0:0:0:
256,192,18887,1,8,0:0:0:0:
256,192,19187,1,0,0:0:0:0:
256,192,19487,1,8,0:0:0:0:
256,192,19637,1,0,0:0:0:0:
256,192,19787,1,0,0:0:0:0:
256,192,20087,1,8,0:0:0:0:
256,192,20387,1,0,0:0:0:0:
256,192,20687,1,8,0:0:0:0:
256,192,20837,1,0,0:0:0:0:
256,192,20987,1,8,0:0:0:0:
256,192,21287,1,8,0:0:0:0:
256,192,21587,1,0,0:0:0:0:
256,192,21887,1,8,0:0:0:0:
256,192,22037,1,0,0:0:0:0:
256,192,22187,1,0,0:0:0:0:
256,192,22487,1,8,0:0:0:0:
256,192,22787,1,0,0:0:0:0:
256,192,22937,1,0,0:0:0:0:
256,192,23087,1,8,0:0:0:0:
256,192,23237,1,0,0:0:0:0:
256,192,23387,1,8,0:0:0:0:
256,192,23687,1,0,0:0:0:0:
256,192,23837,1,0,0:0:0:0:
256,192,23987,1,8,0:0:0:0:
256,192,24287,1,8,0:0:0:0:
256,192,24437,1,8,0:0:0:0:
256,192,24587,1,0,0:0:0:0:
256,192,24887,1,8,0:0:0:0:
256,192,25187,1,0,0:0:0:0:
256,192,25487,1,8,0:0:0:0:
256,192,25787,1,12,0:0:0:0:
256,192,26087,1,8,0:0:0:0:
256,192,26237,1,8,0:0:0:0:
256,192,26387,1,4,0:0:0:0:
256,192,26687,1,8,0:0:0:0:
256,192,26987,1,0,0:0:0:0:
256,192,27287,1,8,0:0:0:0:
256,192,27587,1,0,0:0:0:0:
256,192,27737,1,0,0:0:0:0:
256,192,27887,1,8,0:0:0:0:
256,192,28037,1,8,0:0:0:0:
256,192,28187,1,0,0:0:0:0:
256,192,28487,1,0,0:0:0:0:
256,192,28637,1,0,0:0:0:0:
256,192,28787,1,8,0:0:0:0:
256,192,29087,1,8,0:0:0:0:
256,192,29237,1,8,0:0:0:0:
256,192,29387,1,0,0:0:0:0:
256,192,29687,1,8,0:0:0:0:
256,192,29987,1,0,0:0:0:0:
256,192,30287,1,8,0:0:0:0:
256,192,30437,1,0,0:0:0:0:
256,192,30587,1,8,0:0:0:0:
256,192,30887,1,8,0:0:0:0:
256,192,31187,1,0,0:0:0:0:
256,192,31487,1,8,0:0:0:0:
256,192,31787,1,0,0:0:0:0:
256,192,32087,1,8,0:0:0:0:
256,192,32387,1,0,0:0:0:0:
256,192,32537,1,0,0:0:0:0:
256,192,32687,1,8,0:0:0:0:
256,192,32837,1,8,0:0:0:0:
256,192,32987,1,0,0:0:0:0:
256,192,33287,1,0,0:0:0:0:
256,192,33437,1,0,0:0:0:0:
256,192,33587,1,8,0:0:0:0:
256,192,33887,1,8,0:0:0:0:
256,192,34037,1,8,0:0:0:0:
256,192,34187,1,0,0:0:0:0:
256,192,34487,1,8,0:0:0:0:
256,192,34787,1,0,0:0:0:0:
256,192,34937,1,8,0:0:0:0:
256,192,35087,1,8,0:0:0:0:
256,192,35237,1,8,0:0:0:0:
256,192,35387,1,8,0:0:0:0:
256,192,35687,1,8,0:0:0:0:
256,192,35837,1,8,0:0:0:0:
256,192,35987,1,4,0:0:0:0:
256,192,36287,1,8,0:0:0:0:
256,192,36437,1,0,0:0:0:0:
256,192,36587,1,8,0:0:0:0:
256,192,36737,1,0,0:0:0:0:
256,192,36887,1,8,0:0:0:0:
256,192,37187,1,0,0:0:0:0:
256,192,37487,1,8,0:0:0:0:
256,192,37637,1,8,0:0:0:0:
256,192,37787,1,0,0:0:0:0:
256,192,38087,1,8,0:0:0:0:
256,192,38387,1,0,0:0:0:0:
256,192,38687,1,8,0:0:0:0:
256,192,38837,1,0,0:0:0:0:
256,192,38987,1,8,0:0:0:0:
256,192,39137,1,0,0:0:0:0:
256,192,39287,1,8,0:0:0:0:
256,192,39587,1,0,0:0:0:0:
256,192,39887,1,8,0:0:0:0:
256,192,40037,1,8,0:0:0:0:
256,192,40187,1,0,0:0:0:0:
256,192,40337,1,8,0:0:0:0:
256,192,40487,1,8,0:0:0:0:
256,192,40637,1,8,0:0:0:0:
256,192,40787,1,0,0:0:0:0:
256,192,41087,1,8,0:0:0:0:
256,192,41237,1,0,0:0:0:0:
256,192,41387,1,8,0:0:0:0:
256,192,41537,1,0,0:0:0:0:
256,192,41687,1,8,0:0:0:0:
256,192,41837,1,0,0:0:0:0:
256,192,41987,1,8,0:0:0:0:
256,192,42137,1,0,0:0:0:0:
256,192,42287,1,8,0:0:0:0:
256,192,42437,1,0,0:0:0:0:
256,192,42587,1,8,0:0:0:0:
256,192,42737,1,0,0:0:0:0:
256,192,42887,1,8,0:0:0:0:
256,192,43187,1,0,0:0:0:0:
256,192,43337,1,0,0:0:0:0:
256,192,43637,1,0,0:0:0:0:
256,192,43787,1,8,0:0:0:0:
256,192,44087,1,8,0:0:0:0:
256,192,44387,1,0,0:0:0:0:
256,192,44687,1,8,0:0:0:0:
256,192,44837,1,8,0:0:0:0:
256,192,44987,1,4,0:0:0:0:
256,192,45587,1,8,0:0:0:0:
256,192,45662,1,8,0:0:0:0:
256,192,45962,1,8,0:0:0:0:
256,192,46187,8,0,50387,0:0:0:0:
256,192,50687,5,8,0:0:0:0:
256,192,50987,1,4,0:0:0:0:
256,192,51287,1,8,0:0:0:0:
256,192,51437,1,8,0:0:0:0:
256,192,51587,1,0,0:0:0:0:
256,192,51887,1,8,0:0:0:0:
256,192,52187,1,0,0:0:0:0:
256,192,52337,1,0,0:0:0:0:
256,192,52487,1,8,0:0:0:0:
256,192,52637,1,8,0:0:0:0:
256,192,52787,1,0,0:0:0:0:
256,192,53087,1,0,0:0:0:0:
256,192,53237,1,0,0:0:0:0:
256,192,53387,1,8,0:0:0:0:
256,192,53687,1,8,0:0:0:0:
256,192,53837,1,8,0:0:0:0:
256,192,53987,1,0,0:0:0:0:
256,192,54287,1,8,0:0:0:0:
256,192,54587,1,0,0:0:0:0:
256,192,54887,1,8,0:0:0:0:
256,192,55037,1,0,0:0:0:0:
256,192,55187,1,8,0:0:0:0:
256,192,55487,1,8,0:0:0:0:
256,192,55787,1,0,0:0:0:0:
256,192,55937,1,8,0:0:0:0:
256,192,56087,1,8,0:0:0:0:
256,192,56237,1,0,0:0:0:0:
256,192,56387,1,8,0:0:0:0:
256,192,56462,1,8,0:0:0:0:
256,192,56537,1,8,0:0:0:0:
256,192,56687,1,0,0:0:0:0:
256,192,56987,1,0,0:0:0:0:
256,192,57137,1,8,0:0:0:0:
256,192,57287,1,8,0:0:0:0:
256,192,57437,1,0,0:0:0:0:
256,192,57587,1,0,0:0:0:0:
256,192,57887,1,8,0:0:0:0:
256,192,58037,1,0,0:0:0:0:
256,192,58187,1,8,0:0:0:0:
256,192,58487,1,0,0:0:0:0:
256,192,58637,1,8,0:0:0:0:
256,192,58787,1,0,0:0:0:0:
256,192,59087,1,8,0:0:0:0:
256,192,59387,1,0,0:0:0:0:
256,192,59687,1,0,0:0:0:0:
256,192,59987,1,8,0:0:0:0:
256,192,62012,1,8,0:0:0:0:
256,192,62087,1,8,0:0:0:0:
256,192,62987,1,0,0:0:0:0:
256,192,63062,1,8,0:0:0:0:
256,192,63287,1,8,0:0:0:0:
256,192,63662,1,0,0:0:0:0:
256,192,63737,1,8,0:0:0:0:
256,192,63812,1,0,0:0:0:0:
256,192,63887,1,0,0:0:0:0:
256,192,63962,1,8,0:0:0:0:
256,192,64187,1,0,0:0:0:0:
256,192,64262,1,0,0:0:0:0:
256,192,64337,1,0,0:0:0:0:
256,192,64637,1,0,0:0:0:0:
256,192,64712,1,8,0:0:0:0:
256,192,64787,1,8,0:0:0:0:
256,192,64862,1,8,0:0:0:0:
256,192,64937,1,0,0:0:0:0:
256,192,65162,1,8,0:0:0:0:
256,192,65237,1,8,0:0:0:0:
256,192,65312,1,8,0:0:0:0:
256,192,65387,1,0,0:0:0:0:
256,192,66587,1,0,0:0:0:0:
256,192,66737,1,8,0:0:0:0:
256,192,66887,1,0,0:0:0:0:
256,192,66962,1,0,0:0:0:0:
256,192,67037,1,8,0:0:0:0:
256,192,67112,1,8,0:0:0:0:
256,192,67187,1,0,0:0:0:0:
256,192,67337,1,0,0:0:0:0:
256,192,67412,1,0,0:0:0:0:
256,192,67487,1,8,0:0:0:0:
256,192,67637,1,0,0:0:0:0:
256,192,67787,1,8,0:0:0:0:
256,192,67937,1,0,0:0:0:0:
256,192,68012,1,0,0:0:0:0:
256,192,68087,1,8,0:0:0:0:
256,192,68162,1,0,0:0:0:0:
256,192,68237,1,8,0:0:0:0:
256,192,68312,1,8,0:0:0:0:
256,192,68387,1,0,0:0:0:0:
256,192,68537,1,8,0:0:0:0:
256,192,68687,1,0,0:0:0:0:
256,192,68787,1,8,0:0:0:0:
256,192,68887,1,8,0:0:0:0:
256,192,68987,1,0,0:0:0:0:
256,192,69137,1,8,0:0:0:0:
256,192,69287,1,0,0:0:0:0:
256,192,69362,1,8,0:0:0:0:
256,192,69437,1,0,0:0:0:0:
256,192,69512,1,8,0:0:0:0:
256,192,70187,1,0,0:0:0:0:
256,192,70337,1,8,0:0:0:0:
256,192,70487,1,0,0:0:0:0:
256,192,70562,1,0,0:0:0:0:
256,192,70637,1,8,0:0:0:0:
256,192,70712,1,0,0:0:0:0:
256,192,70787,1,8,0:0:0:0:
256,192,70937,1,0,0:0:0:0:
256,192,71087,1,8,0:0:0:0:
256,192,71237,1,0,0:0:0:0:
256,192,71312,1,8,0:0:0:0:
256,192,71387,1,0,0:0:0:0:
256,192,71462,1,0,0:0:0:0:
256,192,71537,1,8,0:0:0:0:
256,192,71687,1,0,0:0:0:0:
256,192,71837,1,8,0:0:0:0:
256,192,71912,1,0,0:0:0:0:
256,192,71987,1,8,0:0:0:0:
256,192,72137,1,0,0:0:0:0:
256,192,72212,1,0,0:0:0:0:
256,192,72287,1,8,0:0:0:0:
256,192,72437,1,0,0:0:0:0:
256,192,72587,1,8,0:0:0:0:
256,192,72662,1,8,0:0:0:0:
256,192,72737,1,0,0:0:0:0:
256,192,72812,1,0,0:0:0:0:
256,192,72887,1,8,0:0:0:0:
256,192,72962,1,8,0:0:0:0:
256,192,73037,1,8,0:0:0:0:
256,192,73112,1,8,0:0:0:0:
256,192,73187,1,0,0:0:0:0:
256,192,73337,1,0,0:0:0:0:
256,192,73562,1,8,0:0:0:0:
256,192,73637,1,8,0:0:0:0:
256,192,73787,1,0,0:0:0:0:
256,192,73862,1,0,0:0:0:0:
256,192,73937,1,8,0:0:0:0:
256,192,74087,1,0,0:0:0:0:
256,192,74237,1,8,0:0:0:0:
256,192,74387,1,0,0:0:0:0:
256,192,74462,1,0,0:0:0:0:
256,192,74537,1,8,0:0:0:0:
256,192,74612,1,8,0:0:0:0:
256,192,74687,1,0,0:0:0:0:
256,192,74987,1,0,0:0:0:0:
256,192,75137,1,8,0:0:0:0:
256,192,75212,1,0,0:0:0:0:
256,192,75287,1,8,0:0:0:0:
256,192,75362,1,8,0:0:0:0:
256,192,75437,1,0,0:0:0:0:
256,192,75587,1,0,0:0:0:0:
256,192,75662,1,0,0:0:0:0:
256,192,75737,1,8,0:0:0:0:
256,192,75887,1,8,0:0:0:0:
256,192,76037,1,8,0:0:0:0:
256,192,76112,1,0,0:0:0:0:
256,192,76187,1,0,0:0:0:0:
256,192,76337,1,8,0:0:0:0:
256,192,76412,1,8,0:0:0:0:
256,192,76487,1,0,0:0:0:0:
256,192,76637,1,8,0:0:0:0:
256,192,76787,1,0,0:0:0:0:
256,192,76862,1,0,0:0:0:0:
256,192,76937,1,0,0:0:0:0:
256,192,77087,1,0,0:0:0:0:
256,192,77162,1,8,0:0:0:0:
256,192,77387,1,0,0:0:0:0:
256,192,77537,1,0,0:0:0:0:
256,192,77687,1,8,0:0:0:0:
256,192,77762,1,8,0:0:0:0:
256,192,77837,1,0,0:0:0:0:
256,192,77987,1,8,0:0:0:0:
256,192,78062,1,0,0:0:0:0:
256,192,78137,1,0,0:0:0:0:
256,192,78212,1,0,0:0:0:0:
256,192,78287,1,8,0:0:0:0:
256,192,78437,1,0,0:0:0:0:
256,192,78587,1,8,0:0:0:0:
256,192,78662,1,8,0:0:0:0:
256,192,78737,1,8,0:0:0:0:
256,192,78812,1,8,0:0:0:0:
256,192,78887,1,0,0:0:0:0:
256,192,78962,1,0,0:0:0:0:
256,192,79037,1,0,0:0:0:0:
256,192,79112,1,0,0:0:0:0:
256,192,79187,1,8,0:0:0:0:
256,192,79337,1,0,0:0:0:0:
256,192,79487,1,8,0:0:0:0:
256,192,79562,1,8,0:0:0:0:
256,192,79637,1,8,0:0:0:0:
256,192,79787,1,4,0:0:0:0:
256,192,80087,1,8,0:0:0:0:
256,192,80387,1,4,0:0:0:0:
256,192,80687,1,8,0:0:0:0:
256,192,80987,1,4,0:0:0:0:
256,192,81137,1,0,0:0:0:0:
256,192,81287,1,8,0:0:0:0:
256,192,81437,1,8,0:0:0:0:
256,192,81587,1,4,0:0:0:0:
256,192,81887,1,0,0:0:0:0:
256,192,82037,1,0,0:0:0:0:
256,192,82187,1,12,0:0:0:0:
256,192,82487,1,8,0:0:0:0:
256,192,82637,1,8,0:0:0:0:
256,192,82787,1,4,0:0:0:0:
256,192,83087,1,8,0:0:0:0:
256,192,83387,1,4,0:0:0:0:
256,192,83687,1,0,0:0:0:0:
256,192,83987,1,12,0:0:0:0:
256,192,84587,1,4,0:0:0:0:
256,192,84887,1,8,0:0:0:0:
256,192,85187,1,4,0:0:0:0:
256,192,85487,1,8,0:0:0:0:
256,192,85787,1,4,0:0:0:0:
256,192,85937,1,0,0:0:0:0:
256,192,86087,1,8,0:0:0:0:
256,192,86237,1,8,0:0:0:0:
256,192,86387,1,4,0:0:0:0:
256,192,86687,1,0,0:0:0:0:
256,192,86837,1,0,0:0:0:0:
256,192,86987,1,12,0:0:0:0:
256,192,87287,1,8,0:0:0:0:
256,192,87437,1,8,0:0:0:0:
256,192,87587,1,4,0:0:0:0:
256,192,87887,1,8,0:0:0:0:
256,192,88187,1,4,0:0:0:0:
256,192,88487,1,0,0:0:0:0:
256,192,88787,1,12,0:0:0:0:
256,192,89387,1,4,0:0:0:0:
256,192,89687,1,8,0:0:0:0:
256,192,89987,1,0,0:0:0:0:
256,192,90087,1,0,0:0:0:0:
256,192,90187,1,8,0:0:0:0:
256,192,90287,1,8,0:0:0:0:
256,192,90387,1,0,0:0:0:0:
256,192,90587,1,8,0:0:0:0:
256,192,90787,1,0,0:0:0:0:
256,192,90887,1,0,0:0:0:0:
256,192,90987,1,8,0:0:0:0:
256,192,91087,1,0,0:0:0:0:
256,192,91187,1,8,0:0:0:0:
256,192,91287,1,8,0:0:0:0:
256,192,91387,1,0,0:0:0:0:
256,192,91487,1,0,0:0:0:0:
256,192,91587,1,8,0:0:0:0:
256,192,91787,1,0,0:0:0:0:
256,192,91937,1,8,0:0:0:0:
256,192,92012,1,0,0:0:0:0:
256,192,92087,1,8,0:0:0:0:
256,192,92162,1,8,0:0:0:0:
256,192,92237,1,0,0:0:0:0:
256,192,92387,1,8,0:0:0:0:
256,192,92537,1,0,0:0:0:0:
256,192,92612,1,8,0:0:0:0:
256,192,92687,1,0,0:0:0:0:
256,192,92762,1,0,0:0:0:0:
256,192,92837,1,8,0:0:0:0:
256,192,92987,1,0,0:0:0:0:
256,192,93187,1,8,0:0:0:0:
256,192,93287,1,0,0:0:0:0:
256,192,93387,1,8,0:0:0:0:
256,192,93587,1,0,0:0:0:0:
256,192,93662,1,0,0:0:0:0:
256,192,93737,1,0,0:0:0:0:
256,192,93812,1,0,0:0:0:0:
256,192,93887,1,8,0:0:0:0:
256,192,93962,1,8,0:0:0:0:
256,192,94037,1,8,0:0:0:0:
256,192,94112,1,8,0:0:0:0:
256,192,94187,1,0,0:0:0:0:
256,192,94337,1,8,0:0:0:0:
256,192,94487,1,0,0:0:0:0:
256,192,94562,1,0,0:0:0:0:
256,192,94637,1,8,0:0:0:0:
256,192,94787,1,0,0:0:0:0:
256,192,94987,1,8,0:0:0:0:
256,192,95087,1,8,0:0:0:0:
256,192,95187,1,0,0:0:0:0:
256,192,95287,1,0,0:0:0:0:
256,192,95387,1,8,0:0:0:0:
256,192,95587,1,0,0:0:0:0:
256,192,95687,1,8,0:0:0:0:
256,192,95787,1,0,0:0:0:0:
256,192,95987,1,8,0:0:0:0:
256,192,96137,1,8,0:0:0:0:
256,192,96287,1,0,0:0:0:0:
256,192,96387,1,8,0:0:0:0:
256,192,96487,1,8,0:0:0:0:
256,192,96587,1,0,0:0:0:0:
256,192,96687,1,0,0:0:0:0:
256,192,96887,1,8,0:0:0:0:
256,192,96987,1,0,0:0:0:0:
256,192,97087,1,0,0:0:0:0:
256,192,97187,1,8,0:0:0:0:
256,192,97287,1,8,0:0:0:0:
256,192,97487,1,0,0:0:0:0:
256,192,97562,1,8,0:0:0:0:
256,192,97637,1,0,0:0:0:0:
256,192,97787,1,8,0:0:0:0:
256,192,97937,1,0,0:0:0:0:
256,192,98087,1,8,0:0:0:0:
256,192,98162,1,8,0:0:0:0:
256,192,98237,1,8,0:0:0:0:
256,192,98312,1,8,0:0:0:0:
256,192,98387,1,0,0:0:0:0:
256,192,98462,1,0,0:0:0:0:
256,192,98537,1,0,0:0:0:0:
256,192,98612,1,0,0:0:0:0:
256,192,98687,1,8,0:0:0:0:
256,192,98987,1,0,0:0:0:0:
256,192,99287,1,8,0:0:0:0:
256,192,99587,1,0,0:0:0:0:
256,192,99887,1,8,0:0:0:0:
256,192,100187,1,0,0:0:0:0:
256,192,100337,1,0,0:0:0:0:
256,192,100487,1,8,0:0:0:0:
256,192,100637,1,8,0:0:0:0:
256,192,100787,1,0,0:0:0:0:
256,192,101087,1,0,0:0:0:0:
256,192,101237,1,0,0:0:0:0:
256,192,101387,1,8,0:0:0:0:
256,192,101687,1,8,0:0:0:0:
256,192,101837,1,8,0:0:0:0:
256,192,101987,1,0,0:0:0:0:
256,192,102287,1,8,0:0:0:0:
256,192,102587,1,0,0:0:0:0:
256,192,102887,1,8,0:0:0:0:
256,192,103037,1,0,0:0:0:0:
256,192,103187,1,8,0:0:0:0:
256,192,103487,1,8,0:0:0:0:
256,192,103787,1,0,0:0:0:0:
256,192,104087,1,8,0:0:0:0:
256,192,104387,1,0,0:0:0:0:
256,192,104687,1,8,0:0:0:0:
256,192,104987,1,0,0:0:0:0:
256,192,105137,1,0,0:0:0:0:
256,192,105287,1,8,0:0:0:0:
256,192,105437,1,8,0:0:0:0:
256,192,105587,1,0,0:0:0:0:
256,192,105887,1,0,0:0:0:0:
256,192,106037,1,0,0:0:0:0:
256,192,106187,1,8,0:0:0:0:
256,192,106487,1,0,0:0:0:0:
256,192,106637,1,8,0:0:0:0:
256,192,106787,1,0,0:0:0:0:
256,192,107087,1,8,0:0:0:0:
256,192,107387,1,0,0:0:0:0:
256,192,107987,1,0,0:0:0:0:
256,192,108287,1,0,0:0:0:0:
256,192,108587,1,8,0:0:0:0:
256,192,109412,1,8,0:0:0:0:
