osu file format v14

[General]
AudioFilename: audio.mp3
AudioLeadIn: 0
PreviewTime: 8378
Countdown: 1
SampleSet: Soft
StackLeniency: 0.7
Mode: 3
LetterboxInBreaks: 0
SpecialStyle: 1
WidescreenStoryboard: 1

[Editor]
DistanceSpacing: 1.2
BeatDivisor: 4
GridSize: 4
TimelineZoom: 1

[Metadata]
Title:Mopemope
TitleUnicode:もぺもぺ
Artist:LeaF
ArtistUnicode:LeaF
Creator:-N a n a k o-
Version:Lv.12
Source:BMS
Tags:BOFU2017 BOFU 2017 THE OF FIGHTERS ULTIMATE LEGENDA EST A MYTH 孤高クローバー Optie Kondou-Shinichi Ezonda NNK -N_a_n_a_k_o- MinG3012 イルーム音楽
BeatmapID:1447179
BeatmapSetID:680917

[Difficulty]
HPDrainRate:8
CircleSize:8
OverallDifficulty:8
ApproachRate:9.4
SliderMultiplier:2.2
SliderTickRate:1

[Events]
//Background and Video events
0,0,"a.jpg",0,0
Video,-130,"video.mp4"
//Break Periods
//Storyboard Layer 0 (Background)
//Storyboard Layer 1 (Fail)
//Storyboard Layer 2 (Pass)
//Storyboard Layer 3 (Foreground)
//Storyboard Sound Samples

[TimingPoints]
3578,600,4,2,0,70,1,0

[HitObjects]
224,192,3578,5,0,0:0:0:1:
352,192,3578,1,0,0:0:0:1:
96,192,3728,1,0,0:0:0:1:
224,192,3878,1,0,0:0:0:1:
96,192,4028,1,0,0:0:0:1:
288,192,4178,1,0,0:0:0:1:
416,192,4178,1,0,0:0:0:1:
160,192,4328,1,0,0:0:0:1:
288,192,4478,1,0,0:0:0:1:
160,192,4628,1,0,0:0:0:1:
352,192,4778,1,0,0:0:0:1:
480,192,4778,1,0,0:0:0:1:
224,192,4928,1,0,0:0:0:1:
352,192,5078,1,0,0:0:0:1:
224,192,5228,1,0,0:0:0:1:
288,192,5378,1,0,0:0:0:1:
416,192,5378,1,0,0:0:0:1:
160,192,5528,1,0,0:0:0:1:
288,192,5678,1,0,0:0:0:1:
160,192,5828,1,0,0:0:0:1:
224,192,5978,1,0,0:0:0:1:
352,192,5978,1,0,0:0:0:1:
96,192,6128,1,0,0:0:0:1:
224,192,6278,1,0,0:0:0:1:
96,192,6428,1,0,0:0:0:1:
288,192,6578,1,0,0:0:0:1:
416,192,6578,1,0,0:0:0:1:
160,192,6728,1,0,0:0:0:1:
288,192,6878,1,0,0:0:0:1:
160,192,7028,1,0,0:0:0:1:
352,192,7178,1,0,0:0:0:1:
480,192,7178,1,0,0:0:0:1:
224,192,7328,1,0,0:0:0:1:
352,192,7478,1,0,0:0:0:1:
224,192,7628,1,0,0:0:0:1:
288,192,7778,1,0,0:0:0:1:
416,192,7778,1,0,0:0:0:1:
160,192,7928,1,0,0:0:0:1:
288,192,8078,1,0,0:0:0:1:
160,192,8228,1,0,0:0:0:1:
96,192,8378,1,0,0:0:0:1:
32,192,8378,1,0,0:0:0:1:
416,192,8378,1,0,0:0:0:1:
160,192,8678,1,0,0:0:0:1:
288,192,8678,1,0,0:0:0:1:
96,192,8978,1,0,0:0:0:1:
224,192,8978,1,0,0:0:0:1:
160,192,9278,1,0,0:0:0:1:
416,192,9278,1,0,0:0:0:1:
96,192,9578,1,0,0:0:0:1:
352,192,9578,1,0,0:0:0:1:
416,192,9728,1,0,0:0:0:1:
160,192,9878,1,0,0:0:0:1:
352,192,9878,1,0,0:0:0:1:
160,192,10028,1,0,0:0:0:1:
288,192,10028,1,0,0:0:0:1:
96,192,10178,1,0,0:0:0:1:
352,192,10178,1,0,0:0:0:1:
160,192,10478,1,0,0:0:0:1:
352,192,10478,1,0,0:0:0:1:
480,192,10628,1,0,0:0:0:1:
96,192,10778,1,0,0:0:0:1:
416,192,10778,1,0,0:0:0:1:
160,192,11078,1,0,0:0:0:1:
480,192,11078,1,0,0:0:0:1:
416,192,11228,1,0,0:0:0:1:
96,192,11378,1,0,0:0:0:1:
352,192,11378,1,0,0:0:0:1:
160,192,11678,1,0,0:0:0:1:
288,192,11678,1,0,0:0:0:1:
96,192,11978,1,0,0:0:0:1:
224,192,11978,1,0,0:0:0:1:
160,192,12278,1,0,0:0:0:1:
288,192,12278,1,0,0:0:0:1:
160,192,12428,1,0,0:0:0:1:
160,192,12578,1,0,0:0:0:1:
416,192,12578,1,0,0:0:0:1:
160,192,12878,1,0,0:0:0:1:
96,192,13178,1,0,0:0:0:1:
416,192,13178,1,0,0:0:0:1:
160,192,13478,1,0,0:0:0:1:
288,192,13478,1,0,0:0:0:1:
96,192,13778,1,0,0:0:0:1:
224,192,13778,1,0,0:0:0:1:
160,192,14078,1,0,0:0:0:1:
416,192,14078,1,0,0:0:0:1:
96,192,14378,1,0,0:0:0:1:
352,192,14378,1,0,0:0:0:1:
416,192,14528,1,0,0:0:0:1:
160,192,14678,1,0,0:0:0:1:
352,192,14678,1,0,0:0:0:1:
160,192,14828,1,0,0:0:0:1:
288,192,14828,1,0,0:0:0:1:
96,192,14978,1,0,0:0:0:1:
352,192,14978,1,0,0:0:0:1:
160,192,15278,1,0,0:0:0:1:
288,192,15278,1,0,0:0:0:1:
416,192,15428,1,0,0:0:0:1:
96,192,15578,1,0,0:0:0:1:
480,192,15578,1,0,0:0:0:1:
160,192,15878,1,0,0:0:0:1:
352,192,15878,1,0,0:0:0:1:
288,192,16028,1,0,0:0:0:1:
96,192,16178,1,0,0:0:0:1:
352,192,16178,1,0,0:0:0:1:
160,192,16478,1,0,0:0:0:1:
480,192,16478,1,0,0:0:0:1:
96,192,16778,1,0,0:0:0:1:
416,192,16778,1,0,0:0:0:1:
160,192,17078,1,0,0:0:0:1:
352,192,17078,1,0,0:0:0:1:
160,192,17228,1,0,0:0:0:1:
160,192,17378,1,0,0:0:0:1:
288,192,17378,1,0,0:0:0:1:
160,192,17678,1,0,0:0:0:1:
352,192,17678,1,0,0:0:0:1:
416,192,17828,1,0,0:0:0:1:
224,192,17978,1,0,0:0:0:1:
32,192,17978,1,0,0:0:0:1:
480,192,17978,1,0,0:0:0:1:
224,192,18278,1,0,0:0:0:1:
480,192,18278,1,0,0:0:0:1:
224,192,18428,1,0,0:0:0:1:
160,192,18578,1,0,0:0:0:1:
416,192,18578,1,0,0:0:0:1:
160,192,18878,1,0,0:0:0:1:
352,192,18878,1,0,0:0:0:1:
96,192,19178,1,0,0:0:0:1:
224,192,19178,1,0,0:0:0:1:
96,192,19328,1,0,0:0:0:1:
288,192,19328,1,0,0:0:0:1:
96,192,19478,1,0,0:0:0:1:
352,192,19478,1,0,0:0:0:1:
96,192,19628,1,0,0:0:0:1:
416,192,19628,1,0,0:0:0:1:
160,192,19778,1,0,0:0:0:1:
480,192,19778,1,0,0:0:0:1:
160,192,20078,1,0,0:0:0:1:
480,192,20078,1,0,0:0:0:1:
416,192,20228,1,0,0:0:0:1:
96,192,20378,1,0,0:0:0:1:
352,192,20378,1,0,0:0:0:1:
96,192,20678,1,0,0:0:0:1:
480,192,20678,1,0,0:0:0:1:
96,192,20828,1,0,0:0:0:1:
224,192,20978,1,0,0:0:0:1:
416,192,20978,1,0,0:0:0:1:
224,192,21278,1,0,0:0:0:1:
352,192,21278,1,0,0:0:0:1:
160,192,21578,1,0,0:0:0:1:
288,192,21578,1,0,0:0:0:1:
224,192,21878,1,0,0:0:0:1:
416,192,21878,1,0,0:0:0:1:
288,192,22178,1,0,0:0:0:1:
480,192,22178,1,0,0:0:0:1:
224,192,22778,1,0,0:0:0:1:
480,192,22778,1,0,0:0:0:1:
224,192,23078,1,0,0:0:0:1:
480,192,23078,1,0,0:0:0:1:
224,192,23228,1,0,0:0:0:1:
160,192,23378,1,0,0:0:0:1:
416,192,23378,1,0,0:0:0:1:
224,192,23678,1,0,0:0:0:1:
352,192,23678,1,0,0:0:0:1:
96,192,23978,1,0,0:0:0:1:
224,192,23978,1,0,0:0:0:1:
96,192,24128,1,0,0:0:0:1:
288,192,24128,1,0,0:0:0:1:
96,192,24278,1,0,0:0:0:1:
352,192,24278,1,0,0:0:0:1:
160,192,24428,1,0,0:0:0:1:
416,192,24428,1,0,0:0:0:1:
224,192,24578,1,0,0:0:0:1:
480,192,24578,1,0,0:0:0:1:
288,192,24878,1,0,0:0:0:1:
416,192,24878,1,0,0:0:0:1:
224,192,25028,1,0,0:0:0:1:
352,192,25028,1,0,0:0:0:1:
160,192,25178,1,0,0:0:0:1:
288,192,25178,1,0,0:0:0:1:
96,192,25478,1,0,0:0:0:1:
352,192,25478,1,0,0:0:0:1:
288,192,25628,1,0,0:0:0:1:
224,192,25778,1,0,0:0:0:1:
480,192,25778,1,0,0:0:0:1:
160,192,26078,1,0,0:0:0:1:
416,192,26078,1,0,0:0:0:1:
96,192,26378,1,0,0:0:0:1:
352,192,26378,1,0,0:0:0:1:
416,192,26640,1,0,0:0:0:1:
32,192,26678,1,0,0:0:0:1:
480,192,26678,1,0,0:0:0:1:
96,192,26978,1,0,0:0:0:1:
32,192,26978,1,0,0:0:0:1:
96,192,27578,1,0,0:0:0:1:
352,192,27578,1,0,0:0:0:1:
32,192,27578,1,0,0:0:0:1:
480,192,27578,1,0,0:0:0:1:
160,192,27878,1,0,0:0:0:1:
288,192,27878,1,0,0:0:0:1:
416,192,27878,1,0,0:0:0:1:
416,192,28028,1,0,0:0:0:1:
96,192,28178,1,0,0:0:0:1:
224,192,28178,1,0,0:0:0:1:
352,192,28178,1,0,0:0:0:1:
160,192,28478,1,0,0:0:0:1:
352,192,28478,1,0,0:0:0:1:
480,192,28478,1,0,0:0:0:1:
96,192,28778,1,0,0:0:0:1:
224,192,28778,1,0,0:0:0:1:
352,192,28778,1,0,0:0:0:1:
288,192,28928,1,0,0:0:0:1:
416,192,28928,1,0,0:0:0:1:
224,192,29078,1,0,0:0:0:1:
352,192,29078,1,0,0:0:0:1:
160,192,29228,1,0,0:0:0:1:
288,192,29228,1,0,0:0:0:1:
96,192,29378,1,0,0:0:0:1:
224,192,29378,1,0,0:0:0:1:
352,192,29378,1,0,0:0:0:1:
160,192,29678,1,0,0:0:0:1:
288,192,29678,1,0,0:0:0:1:
352,192,29828,1,0,0:0:0:1:
480,192,29828,1,0,0:0:0:1:
96,192,29978,1,0,0:0:0:1:
288,192,29978,1,0,0:0:0:1:
416,192,29978,1,0,0:0:0:1:
160,192,30278,1,0,0:0:0:1:
352,192,30278,1,0,0:0:0:1:
480,192,30278,1,0,0:0:0:1:
288,192,30428,1,0,0:0:0:1:
416,192,30428,1,0,0:0:0:1:
96,192,30578,1,0,0:0:0:1:
224,192,30578,1,0,0:0:0:1:
352,192,30578,1,0,0:0:0:1:
160,192,30878,1,0,0:0:0:1:
288,192,30878,1,0,0:0:0:1:
416,192,30878,1,0,0:0:0:1:
96,192,31178,1,0,0:0:0:1:
224,192,31178,1,0,0:0:0:1:
352,192,31178,1,0,0:0:0:1:
160,192,31478,1,0,0:0:0:1:
288,192,31478,1,0,0:0:0:1:
416,192,31478,1,0,0:0:0:1:
160,192,31628,1,0,0:0:0:1:
160,192,31778,1,0,0:0:0:1:
352,192,31778,1,0,0:0:0:1:
480,192,31778,1,0,0:0:0:1:
160,192,32078,1,0,0:0:0:1:
96,192,32378,1,0,0:0:0:1:
352,192,32378,1,0,0:0:0:1:
480,192,32378,1,0,0:0:0:1:
160,192,32678,1,0,0:0:0:1:
288,192,32678,1,0,0:0:0:1:
416,192,32678,1,0,0:0:0:1:
416,192,32828,1,0,0:0:0:1:
96,192,32978,1,0,0:0:0:1:
224,192,32978,1,0,0:0:0:1:
352,192,32978,1,0,0:0:0:1:
160,192,33278,1,0,0:0:0:1:
352,192,33278,1,0,0:0:0:1:
480,192,33278,1,0,0:0:0:1:
96,192,33578,1,0,0:0:0:1:
224,192,33578,1,0,0:0:0:1:
352,192,33578,1,0,0:0:0:1:
288,192,33728,1,0,0:0:0:1:
416,192,33728,1,0,0:0:0:1:
224,192,33878,1,0,0:0:0:1:
352,192,33878,1,0,0:0:0:1:
160,192,34028,1,0,0:0:0:1:
288,192,34028,1,0,0:0:0:1:
96,192,34178,1,0,0:0:0:1:
224,192,34178,1,0,0:0:0:1:
352,192,34178,1,0,0:0:0:1:
160,192,34478,1,0,0:0:0:1:
224,192,34478,1,0,0:0:0:1:
352,192,34478,1,0,0:0:0:1:
288,192,34628,1,0,0:0:0:1:
416,192,34628,1,0,0:0:0:1:
96,192,34778,1,0,0:0:0:1:
352,192,34778,1,0,0:0:0:1:
480,192,34778,1,0,0:0:0:1:
224,192,35078,1,0,0:0:0:1:
352,192,35078,1,0,0:0:0:1:
160,192,35228,1,0,0:0:0:1:
288,192,35228,1,0,0:0:0:1:
96,192,35378,1,0,0:0:0:1:
224,192,35378,1,0,0:0:0:1:
352,192,35378,1,0,0:0:0:1:
160,192,35678,1,0,0:0:0:1:
352,192,35678,1,0,0:0:0:1:
480,192,35678,1,0,0:0:0:1:
96,192,35978,1,0,0:0:0:1:
288,192,35978,1,0,0:0:0:1:
416,192,35978,1,0,0:0:0:1:
96,192,36278,1,0,0:0:0:1:
224,192,36278,1,0,0:0:0:1:
352,192,36278,1,0,0:0:0:1:
160,192,36578,1,0,0:0:0:1:
288,192,36578,1,0,0:0:0:1:
416,192,36578,1,0,0:0:0:1:
224,192,36878,1,0,0:0:0:1:
352,192,36878,1,0,0:0:0:1:
96,192,37178,1,0,0:0:0:1:
352,192,37178,1,0,0:0:0:1:
32,192,37178,1,0,0:0:0:1:
480,192,37178,1,0,0:0:0:1:
224,192,37328,1,0,0:0:0:1:
352,192,37478,1,0,0:0:0:1:
224,192,37628,1,0,0:0:0:1:
96,192,37778,1,0,0:0:0:1:
288,192,37778,1,0,0:0:0:1:
480,192,37778,1,0,0:0:0:1:
160,192,37928,1,0,0:0:0:1:
288,192,38078,1,0,0:0:0:1:
160,192,38228,1,0,0:0:0:1:
96,192,38378,1,0,0:0:0:1:
352,192,38378,1,0,0:0:0:1:
480,192,38378,1,0,0:0:0:1:
224,192,38528,1,0,0:0:0:1:
352,192,38678,1,0,0:0:0:1:
224,192,38828,1,0,0:0:0:1:
96,192,38978,1,0,0:0:0:1:
288,192,38978,1,0,0:0:0:1:
480,192,38978,1,0,0:0:0:1:
160,192,39128,1,0,0:0:0:1:
288,192,39278,1,0,0:0:0:1:
160,192,39428,1,0,0:0:0:1:
96,192,39578,1,0,0:0:0:1:
352,192,39578,1,0,0:0:0:1:
480,192,39578,1,0,0:0:0:1:
224,192,39728,1,0,0:0:0:1:
352,192,39878,1,0,0:0:0:1:
224,192,40028,1,0,0:0:0:1:
96,192,40178,1,0,0:0:0:1:
416,192,40178,1,0,0:0:0:1:
480,192,40178,1,0,0:0:0:1:
288,192,40328,1,0,0:0:0:1:
416,192,40478,1,0,0:0:0:1:
288,192,40628,1,0,0:0:0:1:
96,192,40778,1,0,0:0:0:1:
352,192,40778,1,0,0:0:0:1:
480,192,40778,1,0,0:0:0:1:
224,192,40928,1,0,0:0:0:1:
352,192,41078,1,0,0:0:0:1:
224,192,41228,1,0,0:0:0:1:
96,192,41378,1,0,0:0:0:1:
416,192,41378,1,0,0:0:0:1:
480,192,41378,1,0,0:0:0:1:
288,192,41528,1,0,0:0:0:1:
416,192,41678,1,0,0:0:0:1:
288,192,41828,1,0,0:0:0:1:
96,192,41978,1,0,0:0:0:1:
480,192,41978,1,0,0:0:0:1:
352,192,42128,1,0,0:0:0:1:
96,192,42278,1,0,0:0:0:1:
480,192,42278,1,0,0:0:0:1:
352,192,42428,1,0,0:0:0:1:
96,192,42578,1,0,0:0:0:1:
416,192,42578,1,0,0:0:0:1:
288,192,42728,1,0,0:0:0:1:
96,192,42878,1,0,0:0:0:1:
416,192,42878,1,0,0:0:0:1:
288,192,43028,1,0,0:0:0:1:
96,192,43178,1,0,0:0:0:1:
352,192,43178,1,0,0:0:0:1:
224,192,43328,1,0,0:0:0:1:
96,192,43478,1,0,0:0:0:1:
352,192,43478,1,0,0:0:0:1:
224,192,43628,1,0,0:0:0:1:
96,192,43778,1,0,0:0:0:1:
288,192,43778,1,0,0:0:0:1:
160,192,43928,1,0,0:0:0:1:
96,192,44078,1,0,0:0:0:1:
288,192,44078,1,0,0:0:0:1:
160,192,44228,1,0,0:0:0:1:
96,192,44378,1,0,0:0:0:1:
224,192,44378,1,0,0:0:0:1:
352,192,44378,1,0,0:0:0:1:
96,192,44528,1,0,0:0:0:1:
224,192,44528,1,0,0:0:0:1:
352,192,44528,1,0,0:0:0:1:
96,192,44828,1,0,0:0:0:1:
224,192,44828,1,0,0:0:0:1:
352,192,44828,1,0,0:0:0:1:
160,192,44978,1,0,0:0:0:1:
288,192,44978,1,0,0:0:0:1:
416,192,44978,1,0,0:0:0:1:
224,192,45278,1,0,0:0:0:1:
352,192,45278,1,0,0:0:0:1:
480,192,45278,1,0,0:0:0:1:
160,192,45578,1,0,0:0:0:1:
288,192,45578,1,0,0:0:0:1:
416,192,45578,1,0,0:0:0:1:
416,192,45840,1,0,0:0:0:1:
480,192,45878,1,0,0:0:0:1:
96,192,46178,1,0,0:0:0:1:
32,192,46178,1,0,0:0:0:1:
32,192,46778,1,0,0:0:0:1:
32,192,46853,1,0,0:0:0:1:
32,192,47153,1,0,0:0:0:1:
288,192,47378,1,0,0:0:0:1:
288,192,48578,1,0,0:0:0:1:
288,192,49778,1,0,0:0:0:1:
288,192,50978,1,0,0:0:0:1:
96,192,52178,1,0,0:0:0:1:
32,192,52178,1,0,0:0:0:1:
480,192,52178,1,0,0:0:0:1:
96,192,52478,1,0,0:0:0:1:
416,192,52478,1,0,0:0:0:1:
224,192,52778,1,0,0:0:0:1:
352,192,52778,1,0,0:0:0:1:
224,192,53078,1,0,0:0:0:1:
416,192,53078,1,0,0:0:0:1:
160,192,53378,1,0,0:0:0:1:
416,192,53378,1,0,0:0:0:1:
224,192,53528,1,0,0:0:0:1:
480,192,53528,1,0,0:0:0:1:
160,192,53678,1,0,0:0:0:1:
416,192,53678,1,0,0:0:0:1:
96,192,53828,1,0,0:0:0:1:
352,192,53828,1,0,0:0:0:1:
160,192,53978,1,0,0:0:0:1:
416,192,53978,1,0,0:0:0:1:
160,192,54278,1,0,0:0:0:1:
352,192,54278,1,0,0:0:0:1:
224,192,54428,1,0,0:0:0:1:
480,192,54428,1,0,0:0:0:1:
288,192,54578,1,0,0:0:0:1:
416,192,54578,1,0,0:0:0:1:
288,192,54878,1,0,0:0:0:1:
480,192,54878,1,0,0:0:0:1:
224,192,55028,1,0,0:0:0:1:
416,192,55028,1,0,0:0:0:1:
160,192,55178,1,0,0:0:0:1:
352,192,55178,1,0,0:0:0:1:
160,192,55478,1,0,0:0:0:1:
288,192,55478,1,0,0:0:0:1:
96,192,55778,1,0,0:0:0:1:
224,192,55778,1,0,0:0:0:1:
160,192,56078,1,0,0:0:0:1:
288,192,56078,1,0,0:0:0:1:
224,192,56378,1,0,0:0:0:1:
352,192,56378,1,0,0:0:0:1:
288,192,56978,1,0,0:0:0:1:
416,192,56978,1,0,0:0:0:1:
224,192,57278,1,0,0:0:0:1:
352,192,57278,1,0,0:0:0:1:
32,192,57578,1,0,0:0:0:1:
288,192,58178,1,0,0:0:0:1:
288,192,59378,1,0,0:0:0:1:
288,192,60578,1,0,0:0:0:1:
96,192,63203,1,0,0:0:0:1:
352,192,64178,1,0,0:0:0:1:
160,192,64328,1,0,0:0:0:1:
480,192,64553,1,0,0:0:0:1:
96,192,64853,1,0,0:0:0:1:
160,192,64928,1,0,0:0:0:1:
288,192,64978,1,0,0:0:0:1:
416,192,65028,1,0,0:0:0:1:
480,192,65078,1,0,0:0:0:1:
352,192,65378,1,0,0:0:0:1:
160,192,65828,1,0,0:0:0:1:
480,192,65903,1,0,0:0:0:1:
96,192,65978,1,0,0:0:0:1:
224,192,66053,1,0,0:0:0:1:
288,192,66128,1,0,0:0:0:1:
352,192,66203,1,0,0:0:0:1:
160,192,66278,1,0,0:0:0:1:
288,192,66353,1,0,0:0:0:1:
416,192,66428,1,0,0:0:0:1:
480,192,66503,1,0,0:0:0:1:
32,192,66578,1,0,0:0:0:1:
96,192,67778,1,0,0:0:0:1:
480,192,67928,1,0,0:0:0:1:
352,192,68078,1,0,0:0:0:1:
288,192,68153,1,0,0:0:0:1:
160,192,68228,1,0,0:0:0:1:
416,192,68303,1,0,0:0:0:1:
480,192,68378,1,0,0:0:0:1:
224,192,68528,1,0,0:0:0:1:
352,192,68678,1,0,0:0:0:1:
480,192,68753,1,0,0:0:0:1:
352,192,68828,1,0,0:0:0:1:
480,192,68903,1,0,0:0:0:1:
96,192,68978,1,0,0:0:0:1:
224,192,68978,1,0,0:0:0:1:
288,192,69053,1,0,0:0:0:1:
416,192,69128,1,0,0:0:0:1:
224,192,69203,1,0,0:0:0:1:
352,192,69203,1,0,0:0:0:1:
96,192,69278,1,0,0:0:0:1:
480,192,69278,1,0,0:0:0:1:
288,192,69353,1,0,0:0:0:1:
416,192,69353,1,0,0:0:0:1:
160,192,69428,1,0,0:0:0:1:
480,192,69428,1,0,0:0:0:1:
224,192,69503,1,0,0:0:0:1:
352,192,69503,1,0,0:0:0:1:
96,192,69578,1,0,0:0:0:1:
416,192,69578,1,0,0:0:0:1:
160,192,69653,1,0,0:0:0:1:
288,192,69728,1,0,0:0:0:1:
224,192,69803,1,0,0:0:0:1:
416,192,69803,1,0,0:0:0:1:
96,192,69878,1,0,0:0:0:1:
352,192,69878,1,0,0:0:0:1:
288,192,69953,1,0,0:0:0:1:
160,192,69990,1,0,0:0:0:1:
416,192,70028,1,0,0:0:0:1:
160,192,70103,1,0,0:0:0:1:
480,192,70103,1,0,0:0:0:1:
224,192,70178,1,0,0:0:0:1:
352,192,70178,1,0,0:0:0:1:
416,192,70253,1,0,0:0:0:1:
96,192,70328,1,0,0:0:0:1:
480,192,70328,1,0,0:0:0:1:
288,192,70403,1,0,0:0:0:1:
224,192,70478,1,0,0:0:0:1:
352,192,70478,1,0,0:0:0:1:
96,192,70553,1,0,0:0:0:1:
480,192,70553,1,0,0:0:0:1:
288,192,70628,1,0,0:0:0:1:
416,192,70628,1,0,0:0:0:1:
224,192,70703,1,0,0:0:0:1:
480,192,70703,1,0,0:0:0:1:
160,192,70778,1,0,0:0:0:1:
32,192,70778,1,0,0:0:0:1:
288,192,70853,1,0,0:0:0:1:
224,192,70928,1,0,0:0:0:1:
352,192,71003,1,0,0:0:0:1:
288,192,71078,1,0,0:0:0:1:
416,192,71153,1,0,0:0:0:1:
352,192,71228,1,0,0:0:0:1:
480,192,71303,1,0,0:0:0:1:
96,192,71378,1,0,0:0:0:1:
224,192,71378,1,0,0:0:0:1:
416,192,71528,1,0,0:0:0:1:
288,192,71678,1,0,0:0:0:1:
96,192,71753,1,0,0:0:0:1:
352,192,71828,1,0,0:0:0:1:
224,192,71903,1,0,0:0:0:1:
160,192,71978,1,0,0:0:0:1:
480,192,71978,1,0,0:0:0:1:
224,192,72128,1,0,0:0:0:1:
416,192,72278,1,0,0:0:0:1:
288,192,72353,1,0,0:0:0:1:
224,192,72428,1,0,0:0:0:1:
416,192,72503,1,0,0:0:0:1:
96,192,72578,1,0,0:0:0:1:
352,192,72578,1,0,0:0:0:1:
224,192,72653,1,0,0:0:0:1:
288,192,72728,1,0,0:0:0:1:
160,192,72878,1,0,0:0:0:1:
416,192,72953,1,0,0:0:0:1:
352,192,73028,1,0,0:0:0:1:
480,192,73103,1,0,0:0:0:1:
96,192,73178,1,0,0:0:0:1:
224,192,73178,1,0,0:0:0:1:
288,192,73328,1,0,0:0:0:1:
160,192,73403,1,0,0:0:0:1:
352,192,73478,1,0,0:0:0:1:
96,192,73628,1,0,0:0:0:1:
160,192,73778,1,0,0:0:0:1:
288,192,73778,1,0,0:0:0:1:
416,192,73853,1,0,0:0:0:1:
352,192,73928,1,0,0:0:0:1:
480,192,74003,1,0,0:0:0:1:
416,192,74078,1,0,0:0:0:1:
288,192,74153,1,0,0:0:0:1:
352,192,74228,1,0,0:0:0:1:
224,192,74303,1,0,0:0:0:1:
96,192,74378,1,0,0:0:0:1:
416,192,74378,1,0,0:0:0:1:
352,192,74678,1,0,0:0:0:1:
224,192,74753,1,0,0:0:0:1:
288,192,74828,1,0,0:0:0:1:
160,192,74903,1,0,0:0:0:1:
96,192,74978,1,0,0:0:0:1:
480,192,74978,1,0,0:0:0:1:
224,192,75053,1,0,0:0:0:1:
416,192,75128,1,0,0:0:0:1:
160,192,75278,1,0,0:0:0:1:
288,192,75428,1,0,0:0:0:1:
480,192,75578,1,0,0:0:0:1:
416,192,75653,1,0,0:0:0:1:
352,192,75728,1,0,0:0:0:1:
288,192,75803,1,0,0:0:0:1:
32,192,75878,1,0,0:0:0:1:
352,192,76178,1,0,0:0:0:1:
480,192,76178,1,0,0:0:0:1:
288,192,76328,1,0,0:0:0:1:
160,192,76403,1,0,0:0:0:1:
352,192,76478,1,0,0:0:0:1:
416,192,76553,1,0,0:0:0:1:
288,192,76628,1,0,0:0:0:1:
160,192,76703,1,0,0:0:0:1:
288,192,76778,1,0,0:0:0:1:
416,192,76778,1,0,0:0:0:1:
160,192,76853,1,0,0:0:0:1:
352,192,76928,1,0,0:0:0:1:
352,192,77078,1,0,0:0:0:1:
288,192,77228,1,0,0:0:0:1:
160,192,77303,1,0,0:0:0:1:
96,192,77378,1,0,0:0:0:1:
224,192,77378,1,0,0:0:0:1:
352,192,77528,1,0,0:0:0:1:
416,192,77603,1,0,0:0:0:1:
288,192,77678,1,0,0:0:0:1:
160,192,77753,1,0,0:0:0:1:
352,192,77828,1,0,0:0:0:1:
96,192,77978,1,0,0:0:0:1:
224,192,77978,1,0,0:0:0:1:
32,192,78278,1,0,0:0:0:1:
352,192,78578,1,0,0:0:0:1:
480,192,78578,1,0,0:0:0:1:
288,192,78878,1,0,0:0:0:1:
96,192,78953,1,0,0:0:0:1:
416,192,79028,1,0,0:0:0:1:
224,192,79178,1,0,0:0:0:1:
352,192,79178,1,0,0:0:0:1:
96,192,79253,1,0,0:0:0:1:
480,192,79328,1,0,0:0:0:1:
160,192,79403,1,0,0:0:0:1:
352,192,79478,1,0,0:0:0:1:
288,192,79628,1,0,0:0:0:1:
416,192,79703,1,0,0:0:0:1:
96,192,79778,1,0,0:0:0:1:
352,192,79778,1,0,0:0:0:1:
224,192,79853,1,0,0:0:0:1:
480,192,79853,1,0,0:0:0:1:
96,192,79928,1,0,0:0:0:1:
352,192,79928,1,0,0:0:0:1:
160,192,79965,1,0,0:0:0:1:
224,192,80003,1,0,0:0:0:1:
480,192,80003,1,0,0:0:0:1:
288,192,80040,1,0,0:0:0:1:
160,192,80078,1,0,0:0:0:1:
352,192,80078,1,0,0:0:0:1:
96,192,80153,1,0,0:0:0:1:
480,192,80153,1,0,0:0:0:1:
224,192,80228,1,0,0:0:0:1:
352,192,80228,1,0,0:0:0:1:
288,192,80303,1,0,0:0:0:1:
480,192,80303,1,0,0:0:0:1:
96,192,80378,1,0,0:0:0:1:
352,192,80378,1,0,0:0:0:1:
160,192,80415,1,0,0:0:0:1:
224,192,80453,1,0,0:0:0:1:
480,192,80453,1,0,0:0:0:1:
288,192,80490,1,0,0:0:0:1:
96,192,80528,1,0,0:0:0:1:
352,192,80528,1,0,0:0:0:1:
480,192,80603,1,0,0:0:0:1:
224,192,80678,1,0,0:0:0:1:
352,192,80678,1,0,0:0:0:1:
96,192,80753,1,0,0:0:0:1:
480,192,80753,1,0,0:0:0:1:
224,192,80828,1,0,0:0:0:1:
352,192,80828,1,0,0:0:0:1:
480,192,80903,1,0,0:0:0:1:
96,192,80978,1,0,0:0:0:1:
224,192,80978,1,0,0:0:0:1:
288,192,80978,1,0,0:0:0:1:
32,192,80978,1,0,0:0:0:1:
416,192,80978,1,0,0:0:0:1:
160,192,81078,1,0,0:0:0:1:
416,192,81178,1,0,0:0:0:1:
96,192,81278,1,0,0:0:0:1:
224,192,81278,1,0,0:0:0:1:
352,192,81278,1,0,0:0:0:1:
480,192,81278,1,0,0:0:0:1:
288,192,81378,1,0,0:0:0:1:
160,192,81478,1,0,0:0:0:1:
96,192,81578,1,0,0:0:0:1:
224,192,81578,1,0,0:0:0:1:
288,192,81578,1,0,0:0:0:1:
480,192,81578,1,0,0:0:0:1:
352,192,81678,1,0,0:0:0:1:
480,192,81803,1,0,0:0:0:1:
96,192,81878,1,0,0:0:0:1:
160,192,81878,1,0,0:0:0:1:
288,192,81878,1,0,0:0:0:1:
416,192,81878,1,0,0:0:0:1:
352,192,81978,1,0,0:0:0:1:
224,192,82078,1,0,0:0:0:1:
96,192,82178,1,0,0:0:0:1:
160,192,82178,1,0,0:0:0:1:
352,192,82178,1,0,0:0:0:1:
480,192,82178,1,0,0:0:0:1:
224,192,82278,1,0,0:0:0:1:
288,192,82328,1,0,0:0:0:1:
416,192,82328,1,0,0:0:0:1:
160,192,82378,1,0,0:0:0:1:
96,192,82478,1,0,0:0:0:1:
224,192,82478,1,0,0:0:0:1:
352,192,82478,1,0,0:0:0:1:
480,192,82478,1,0,0:0:0:1:
416,192,82578,1,0,0:0:0:1:
160,192,82628,1,0,0:0:0:1:
288,192,82628,1,0,0:0:0:1:
480,192,82678,1,0,0:0:0:1:
96,192,82778,1,0,0:0:0:1:
224,192,82778,1,0,0:0:0:1:
352,192,82778,1,0,0:0:0:1:
416,192,82778,1,0,0:0:0:1:
160,192,82878,1,0,0:0:0:1:
480,192,82978,1,0,0:0:0:1:
96,192,83078,1,0,0:0:0:1:
224,192,83078,1,0,0:0:0:1:
288,192,83078,1,0,0:0:0:1:
416,192,83078,1,0,0:0:0:1:
160,192,83178,1,0,0:0:0:1:
352,192,83228,1,0,0:0:0:1:
480,192,83228,1,0,0:0:0:1:
224,192,83278,1,0,0:0:0:1:
96,192,83378,1,0,0:0:0:1:
160,192,83378,1,0,0:0:0:1:
288,192,83378,1,0,0:0:0:1:
416,192,83378,1,0,0:0:0:1:
352,192,83478,1,0,0:0:0:1:
224,192,83578,1,0,0:0:0:1:
96,192,83678,1,0,0:0:0:1:
160,192,83678,1,0,0:0:0:1:
288,192,83678,1,0,0:0:0:1:
480,192,83678,1,0,0:0:0:1:
416,192,83753,1,0,0:0:0:1:
224,192,83828,1,0,0:0:0:1:
352,192,83828,1,0,0:0:0:1:
480,192,83828,1,0,0:0:0:1:
160,192,83903,1,0,0:0:0:1:
96,192,83978,1,0,0:0:0:1:
224,192,83978,1,0,0:0:0:1:
288,192,83978,1,0,0:0:0:1:
416,192,83978,1,0,0:0:0:1:
352,192,84078,1,0,0:0:0:1:
224,192,84178,1,0,0:0:0:1:
96,192,84278,1,0,0:0:0:1:
160,192,84278,1,0,0:0:0:1:
288,192,84278,1,0,0:0:0:1:
352,192,84278,1,0,0:0:0:1:
416,192,84378,1,0,0:0:0:1:
224,192,84478,1,0,0:0:0:1:
96,192,84578,1,0,0:0:0:1:
288,192,84578,1,0,0:0:0:1:
352,192,84578,1,0,0:0:0:1:
480,192,84578,1,0,0:0:0:1:
224,192,84678,1,0,0:0:0:1:
96,192,84778,1,0,0:0:0:1:
160,192,84878,1,0,0:0:0:1:
288,192,84878,1,0,0:0:0:1:
416,192,84878,1,0,0:0:0:1:
480,192,84878,1,0,0:0:0:1:
352,192,84978,1,0,0:0:0:1:
160,192,85078,1,0,0:0:0:1:
96,192,85178,1,0,0:0:0:1:
224,192,85178,1,0,0:0:0:1:
352,192,85178,1,0,0:0:0:1:
480,192,85178,1,0,0:0:0:1:
160,192,85253,1,0,0:0:0:1:
352,192,85328,1,0,0:0:0:1:
224,192,85403,1,0,0:0:0:1:
96,192,85478,1,0,0:0:0:1:
416,192,85478,1,0,0:0:0:1:
288,192,85553,1,0,0:0:0:1:
352,192,85628,1,0,0:0:0:1:
480,192,85703,1,0,0:0:0:1:
96,192,85778,1,0,0:0:0:1:
224,192,85778,1,0,0:0:0:1:
288,192,85778,1,0,0:0:0:1:
416,192,85778,1,0,0:0:0:1:
160,192,85878,1,0,0:0:0:1:
416,192,85978,1,0,0:0:0:1:
96,192,86078,1,0,0:0:0:1:
288,192,86078,1,0,0:0:0:1:
352,192,86078,1,0,0:0:0:1:
480,192,86078,1,0,0:0:0:1:
224,192,86178,1,0,0:0:0:1:
480,192,86278,1,0,0:0:0:1:
96,192,86378,1,0,0:0:0:1:
160,192,86378,1,0,0:0:0:1:
288,192,86378,1,0,0:0:0:1:
416,192,86378,1,0,0:0:0:1:
352,192,86478,1,0,0:0:0:1:
224,192,86578,1,0,0:0:0:1:
96,192,86678,1,0,0:0:0:1:
160,192,86678,1,0,0:0:0:1:
352,192,86678,1,0,0:0:0:1:
480,192,86678,1,0,0:0:0:1:
224,192,86778,1,0,0:0:0:1:
416,192,86878,1,0,0:0:0:1:
96,192,86978,1,0,0:0:0:1:
160,192,86978,1,0,0:0:0:1:
352,192,86978,1,0,0:0:0:1:
480,192,86978,1,0,0:0:0:1:
224,192,87078,1,0,0:0:0:1:
288,192,87128,1,0,0:0:0:1:
416,192,87128,1,0,0:0:0:1:
160,192,87178,1,0,0:0:0:1:
96,192,87278,1,0,0:0:0:1:
224,192,87278,1,0,0:0:0:1:
352,192,87278,1,0,0:0:0:1:
480,192,87278,1,0,0:0:0:1:
288,192,87353,1,0,0:0:0:1:
160,192,87428,1,0,0:0:0:1:
224,192,87428,1,0,0:0:0:1:
416,192,87428,1,0,0:0:0:1:
352,192,87503,1,0,0:0:0:1:
96,192,87578,1,0,0:0:0:1:
224,192,87578,1,0,0:0:0:1:
416,192,87578,1,0,0:0:0:1:
480,192,87578,1,0,0:0:0:1:
288,192,87653,1,0,0:0:0:1:
352,192,87728,1,0,0:0:0:1:
416,192,87803,1,0,0:0:0:1:
96,192,87878,1,0,0:0:0:1:
224,192,87878,1,0,0:0:0:1:
352,192,87878,1,0,0:0:0:1:
480,192,87878,1,0,0:0:0:1:
160,192,87953,1,0,0:0:0:1:
288,192,88028,1,0,0:0:0:1:
352,192,88028,1,0,0:0:0:1:
416,192,88028,1,0,0:0:0:1:
160,192,88103,1,0,0:0:0:1:
96,192,88178,1,0,0:0:0:1:
224,192,88178,1,0,0:0:0:1:
352,192,88178,1,0,0:0:0:1:
480,192,88178,1,0,0:0:0:1:
288,192,88253,1,0,0:0:0:1:
416,192,88328,1,0,0:0:0:1:
160,192,88403,1,0,0:0:0:1:
224,192,88478,1,0,0:0:0:1:
288,192,88478,1,0,0:0:0:1:
416,192,88478,1,0,0:0:0:1:
480,192,88478,1,0,0:0:0:1:
352,192,88578,1,0,0:0:0:1:
96,192,88628,1,0,0:0:0:1:
160,192,88628,1,0,0:0:0:1:
416,192,88678,1,0,0:0:0:1:
96,192,88778,1,0,0:0:0:1:
224,192,88778,1,0,0:0:0:1:
352,192,88778,1,0,0:0:0:1:
480,192,88778,1,0,0:0:0:1:
288,192,88878,1,0,0:0:0:1:
416,192,88978,1,0,0:0:0:1:
96,192,89078,1,0,0:0:0:1:
224,192,89078,1,0,0:0:0:1:
352,192,89078,1,0,0:0:0:1:
480,192,89078,1,0,0:0:0:1:
160,192,89178,1,0,0:0:0:1:
288,192,89278,1,0,0:0:0:1:
96,192,89378,1,0,0:0:0:1:
224,192,89378,1,0,0:0:0:1:
416,192,89378,1,0,0:0:0:1:
480,192,89378,1,0,0:0:0:1:
160,192,89453,1,0,0:0:0:1:
352,192,89528,1,0,0:0:0:1:
224,192,89603,1,0,0:0:0:1:
96,192,89678,1,0,0:0:0:1:
160,192,89678,1,0,0:0:0:1:
352,192,89678,1,0,0:0:0:1:
480,192,89678,1,0,0:0:0:1:
416,192,89778,1,0,0:0:0:1:
160,192,89878,1,0,0:0:0:1:
96,192,89978,1,0,0:0:0:1:
224,192,89978,1,0,0:0:0:1:
352,192,89978,1,0,0:0:0:1:
480,192,89978,1,0,0:0:0:1:
288,192,90053,1,0,0:0:0:1:
416,192,90128,1,0,0:0:0:1:
224,192,90203,1,0,0:0:0:1:
96,192,90278,1,0,0:0:0:1:
352,192,90278,1,0,0:0:0:1:
480,192,90378,1,0,0:0:0:1:
160,192,90428,1,0,0:0:0:1:
416,192,90478,1,0,0:0:0:1:
288,192,90503,1,0,0:0:0:1:
96,192,90578,1,0,0:0:0:1:
224,192,90578,1,0,0:0:0:1:
352,192,90578,1,0,0:0:0:1:
32,192,90578,1,0,0:0:0:1:
480,192,90578,1,0,0:0:0:1:
160,192,90653,1,0,0:0:0:1:
288,192,90778,1,0,0:0:0:1:
96,192,90878,1,0,0:0:0:1:
224,192,90878,1,0,0:0:0:1:
480,192,90878,1,0,0:0:0:1:
352,192,90978,1,0,0:0:0:1:
224,192,91028,1,0,0:0:0:1:
480,192,91078,1,0,0:0:0:1:
96,192,91178,1,0,0:0:0:1:
160,192,91178,1,0,0:0:0:1:
288,192,91178,1,0,0:0:0:1:
416,192,91178,1,0,0:0:0:1:
352,192,91278,1,0,0:0:0:1:
224,192,91378,1,0,0:0:0:1:
96,192,91478,1,0,0:0:0:1:
288,192,91478,1,0,0:0:0:1:
416,192,91478,1,0,0:0:0:1:
160,192,91578,1,0,0:0:0:1:
288,192,91628,1,0,0:0:0:1:
480,192,91678,1,0,0:0:0:1:
96,192,91778,1,0,0:0:0:1:
224,192,91778,1,0,0:0:0:1:
352,192,91778,1,0,0:0:0:1:
416,192,91778,1,0,0:0:0:1:
160,192,91878,1,0,0:0:0:1:
288,192,91878,1,0,0:0:0:1:
352,192,91978,1,0,0:0:0:1:
480,192,91978,1,0,0:0:0:1:
96,192,92078,1,0,0:0:0:1:
224,192,92078,1,0,0:0:0:1:
416,192,92078,1,0,0:0:0:1:
288,192,92178,1,0,0:0:0:1:
416,192,92228,1,0,0:0:0:1:
160,192,92278,1,0,0:0:0:1:
96,192,92378,1,0,0:0:0:1:
288,192,92378,1,0,0:0:0:1:
352,192,92378,1,0,0:0:0:1:
480,192,92378,1,0,0:0:0:1:
224,192,92478,1,0,0:0:0:1:
416,192,92578,1,0,0:0:0:1:
224,192,92678,1,0,0:0:0:1:
352,192,92678,1,0,0:0:0:1:
480,192,92678,1,0,0:0:0:1:
288,192,92778,1,0,0:0:0:1:
416,192,92828,1,0,0:0:0:1:
160,192,92878,1,0,0:0:0:1:
96,192,92978,1,0,0:0:0:1:
224,192,92978,1,0,0:0:0:1:
352,192,92978,1,0,0:0:0:1:
480,192,92978,1,0,0:0:0:1:
160,192,93053,1,0,0:0:0:1:
288,192,93128,1,0,0:0:0:1:
416,192,93203,1,0,0:0:0:1:
96,192,93278,1,0,0:0:0:1:
224,192,93278,1,0,0:0:0:1:
352,192,93278,1,0,0:0:0:1:
160,192,93353,1,0,0:0:0:1:
480,192,93378,1,0,0:0:0:1:
224,192,93428,1,0,0:0:0:1:
416,192,93478,1,0,0:0:0:1:
288,192,93503,1,0,0:0:0:1:
96,192,93578,1,0,0:0:0:1:
160,192,93578,1,0,0:0:0:1:
352,192,93578,1,0,0:0:0:1:
480,192,93578,1,0,0:0:0:1:
224,192,93653,1,0,0:0:0:1:
160,192,93728,1,0,0:0:0:1:
288,192,93728,1,0,0:0:0:1:
352,192,93803,1,0,0:0:0:1:
96,192,93878,1,0,0:0:0:1:
224,192,93878,1,0,0:0:0:1:
416,192,93878,1,0,0:0:0:1:
480,192,93878,1,0,0:0:0:1:
288,192,93953,1,0,0:0:0:1:
160,192,94028,1,0,0:0:0:1:
224,192,94028,1,0,0:0:0:1:
352,192,94028,1,0,0:0:0:1:
416,192,94103,1,0,0:0:0:1:
96,192,94178,1,0,0:0:0:1:
224,192,94178,1,0,0:0:0:1:
352,192,94178,1,0,0:0:0:1:
480,192,94178,1,0,0:0:0:1:
288,192,94278,1,0,0:0:0:1:
224,192,94378,1,0,0:0:0:1:
96,192,94478,1,0,0:0:0:1:
160,192,94478,1,0,0:0:0:1:
352,192,94478,1,0,0:0:0:1:
480,192,94478,1,0,0:0:0:1:
416,192,94578,1,0,0:0:0:1:
352,192,94678,1,0,0:0:0:1:
96,192,94778,1,0,0:0:0:1:
160,192,94778,1,0,0:0:0:1:
288,192,94778,1,0,0:0:0:1:
480,192,94778,1,0,0:0:0:1:
224,192,94853,1,0,0:0:0:1:
352,192,94928,1,0,0:0:0:1:
416,192,95003,1,0,0:0:0:1:
160,192,95078,1,0,0:0:0:1:
224,192,95078,1,0,0:0:0:1:
288,192,95153,1,0,0:0:0:1:
416,192,95228,1,0,0:0:0:1:
480,192,95303,1,0,0:0:0:1:
96,192,95378,1,0,0:0:0:1:
160,192,95378,1,0,0:0:0:1:
288,192,95378,1,0,0:0:0:1:
416,192,95378,1,0,0:0:0:1:
352,192,95453,1,0,0:0:0:1:
288,192,95528,1,0,0:0:0:1:
224,192,95603,1,0,0:0:0:1:
96,192,95678,1,0,0:0:0:1:
352,192,95678,1,0,0:0:0:1:
480,192,95678,1,0,0:0:0:1:
288,192,95753,1,0,0:0:0:1:
224,192,95828,1,0,0:0:0:1:
416,192,95828,1,0,0:0:0:1:
160,192,95903,1,0,0:0:0:1:
96,192,95978,1,0,0:0:0:1:
224,192,95978,1,0,0:0:0:1:
480,192,95978,1,0,0:0:0:1:
288,192,96078,1,0,0:0:0:1:
352,192,96178,1,0,0:0:0:1:
96,192,96278,1,0,0:0:0:1:
224,192,96278,1,0,0:0:0:1:
416,192,96278,1,0,0:0:0:1:
480,192,96278,1,0,0:0:0:1:
160,192,96378,1,0,0:0:0:1:
288,192,96428,1,0,0:0:0:1:
416,192,96428,1,0,0:0:0:1:
224,192,96478,1,0,0:0:0:1:
96,192,96578,1,0,0:0:0:1:
160,192,96578,1,0,0:0:0:1:
288,192,96578,1,0,0:0:0:1:
480,192,96578,1,0,0:0:0:1:
352,192,96653,1,0,0:0:0:1:
224,192,96678,1,0,0:0:0:1:
416,192,96728,1,0,0:0:0:1:
160,192,96778,1,0,0:0:0:1:
480,192,96803,1,0,0:0:0:1:
96,192,96878,1,0,0:0:0:1:
224,192,96878,1,0,0:0:0:1:
416,192,96878,1,0,0:0:0:1:
352,192,96953,1,0,0:0:0:1:
160,192,97028,1,0,0:0:0:1:
288,192,97028,1,0,0:0:0:1:
224,192,97103,1,0,0:0:0:1:
96,192,97178,1,0,0:0:0:1:
288,192,97178,1,0,0:0:0:1:
416,192,97178,1,0,0:0:0:1:
480,192,97178,1,0,0:0:0:1:
224,192,97253,1,0,0:0:0:1:
352,192,97328,1,0,0:0:0:1:
160,192,97403,1,0,0:0:0:1:
96,192,97478,1,0,0:0:0:1:
224,192,97478,1,0,0:0:0:1:
352,192,97478,1,0,0:0:0:1:
480,192,97478,1,0,0:0:0:1:
160,192,97578,1,0,0:0:0:1:
288,192,97628,1,0,0:0:0:1:
416,192,97628,1,0,0:0:0:1:
224,192,97678,1,0,0:0:0:1:
96,192,97778,1,0,0:0:0:1:
160,192,97778,1,0,0:0:0:1:
352,192,97778,1,0,0:0:0:1:
480,192,97778,1,0,0:0:0:1:
288,192,97878,1,0,0:0:0:1:
416,192,97978,1,0,0:0:0:1:
96,192,98078,1,0,0:0:0:1:
288,192,98078,1,0,0:0:0:1:
480,192,98078,1,0,0:0:0:1:
224,192,98178,1,0,0:0:0:1:
352,192,98178,1,0,0:0:0:1:
160,192,98278,1,0,0:0:0:1:
480,192,98278,1,0,0:0:0:1:
96,192,98378,1,0,0:0:0:1:
288,192,98378,1,0,0:0:0:1:
416,192,98378,1,0,0:0:0:1:
160,192,98478,1,0,0:0:0:1:
416,192,98578,1,0,0:0:0:1:
96,192,98678,1,0,0:0:0:1:
224,192,98678,1,0,0:0:0:1:
352,192,98678,1,0,0:0:0:1:
480,192,98678,1,0,0:0:0:1:
288,192,98778,1,0,0:0:0:1:
160,192,98828,1,0,0:0:0:1:
416,192,98828,1,0,0:0:0:1:
352,192,98878,1,0,0:0:0:1:
96,192,98978,1,0,0:0:0:1:
224,192,98978,1,0,0:0:0:1:
288,192,98978,1,0,0:0:0:1:
480,192,98978,1,0,0:0:0:1:
416,192,99053,1,0,0:0:0:1:
288,192,99128,1,0,0:0:0:1:
160,192,99203,1,0,0:0:0:1:
96,192,99278,1,0,0:0:0:1:
224,192,99278,1,0,0:0:0:1:
352,192,99278,1,0,0:0:0:1:
480,192,99278,1,0,0:0:0:1:
416,192,99353,1,0,0:0:0:1:
288,192,99428,1,0,0:0:0:1:
160,192,99503,1,0,0:0:0:1:
96,192,99578,1,0,0:0:0:1:
288,192,99578,1,0,0:0:0:1:
416,192,99578,1,0,0:0:0:1:
480,192,99578,1,0,0:0:0:1:
224,192,99653,1,0,0:0:0:1:
416,192,99728,1,0,0:0:0:1:
288,192,99803,1,0,0:0:0:1:
160,192,99878,1,0,0:0:0:1:
352,192,99878,1,0,0:0:0:1:
480,192,99878,1,0,0:0:0:1:
96,192,100178,1,0,0:0:0:1:
416,192,100178,1,0,0:0:0:1:
160,192,100478,1,0,0:0:0:1:
288,192,100478,1,0,0:0:0:1:
96,192,100778,1,0,0:0:0:1:
224,192,100778,1,0,0:0:0:1:
160,192,101078,1,0,0:0:0:1:
416,192,101078,1,0,0:0:0:1:
96,192,101378,1,0,0:0:0:1:
352,192,101378,1,0,0:0:0:1:
416,192,101528,1,0,0:0:0:1:
160,192,101678,1,0,0:0:0:1:
352,192,101678,1,0,0:0:0:1:
160,192,101828,1,0,0:0:0:1:
288,192,101828,1,0,0:0:0:1:
96,192,101978,1,0,0:0:0:1:
352,192,101978,1,0,0:0:0:1:
160,192,102278,1,0,0:0:0:1:
352,192,102278,1,0,0:0:0:1:
480,192,102428,1,0,0:0:0:1:
96,192,102578,1,0,0:0:0:1:
416,192,102578,1,0,0:0:0:1:
160,192,102878,1,0,0:0:0:1:
480,192,102878,1,0,0:0:0:1:
416,192,103028,1,0,0:0:0:1:
96,192,103178,1,0,0:0:0:1:
352,192,103178,1,0,0:0:0:1:
160,192,103478,1,0,0:0:0:1:
288,192,103478,1,0,0:0:0:1:
96,192,103778,1,0,0:0:0:1:
224,192,103778,1,0,0:0:0:1:
160,192,104078,1,0,0:0:0:1:
288,192,104078,1,0,0:0:0:1:
160,192,104228,1,0,0:0:0:1:
160,192,104378,1,0,0:0:0:1:
352,192,104378,1,0,0:0:0:1:
160,192,104678,1,0,0:0:0:1:
96,192,104978,1,0,0:0:0:1:
416,192,104978,1,0,0:0:0:1:
160,192,105278,1,0,0:0:0:1:
288,192,105278,1,0,0:0:0:1:
96,192,105578,1,0,0:0:0:1:
224,192,105578,1,0,0:0:0:1:
160,192,105878,1,0,0:0:0:1:
416,192,105878,1,0,0:0:0:1:
96,192,106178,1,0,0:0:0:1:
352,192,106178,1,0,0:0:0:1:
416,192,106328,1,0,0:0:0:1:
160,192,106478,1,0,0:0:0:1:
352,192,106478,1,0,0:0:0:1:
160,192,106628,1,0,0:0:0:1:
288,192,106628,1,0,0:0:0:1:
96,192,106778,1,0,0:0:0:1:
352,192,106778,1,0,0:0:0:1:
160,192,107078,1,0,0:0:0:1:
288,192,107078,1,0,0:0:0:1:
416,192,107228,1,0,0:0:0:1:
96,192,107378,1,0,0:0:0:1:
480,192,107378,1,0,0:0:0:1:
160,192,107678,1,0,0:0:0:1:
480,192,107678,1,0,0:0:0:1:
416,192,107828,1,0,0:0:0:1:
96,192,107978,1,0,0:0:0:1:
352,192,107978,1,0,0:0:0:1:
160,192,108278,1,0,0:0:0:1:
288,192,108278,1,0,0:0:0:1:
96,192,108578,1,0,0:0:0:1:
224,192,108578,1,0,0:0:0:1:
224,192,109178,1,0,0:0:0:1:
224,192,109478,1,0,0:0:0:1:
352,192,109778,1,0,0:0:0:1:
32,192,110603,1,0,0:0:0:1:
