osu file format v14

[General]
AudioFilename: audio.mp3
AudioLeadIn: 0
PreviewTime: 8378
Countdown: 1
SampleSet: Soft
StackLeniency: 0.7
Mode: 3
LetterboxInBreaks: 0
SpecialStyle: 1
WidescreenStoryboard: 1

[Editor]
DistanceSpacing: 1.2
BeatDivisor: 4
GridSize: 4
TimelineZoom: 1

[Metadata]
Title:Mopemope
TitleUnicode:もぺもぺ
Artist:LeaF
ArtistUnicode:LeaF
Creator:-N a n a k o-
Version:Lv.1
Source:BMS
Tags:BOFU2017 BOFU 2017 THE OF FIGHTERS ULTIMATE LEGENDA EST A MYTH 孤高クローバー Optie Kondou-Shinichi Ezonda NNK -N_a_n_a_k_o- MinG3012 イルーム音楽
BeatmapID:1447178
BeatmapSetID:680917

[Difficulty]
HPDrainRate:7
CircleSize:8
OverallDifficulty:7
ApproachRate:9.4
SliderMultiplier:2.2
SliderTickRate:1

[Events]
//Background and Video events
0,0,"a.jpg",0,0
Video,-130,"video.mp4"
//Break Periods
2,47600,51638
2,59000,62663
//Storyboard Layer 0 (Background)
//Storyboard Layer 1 (Fail)
//Storyboard Layer 2 (Pass)
//Storyboard Layer 3 (Foreground)
//Storyboard Sound Samples

[TimingPoints]
3578,600,4,2,0,70,1,0

[HitObjects]
96,192,3578,5,0,0:0:0:1:
480,192,5978,1,0,0:0:0:1:
352,192,8378,1,0,0:0:0:1:
96,192,9578,1,0,0:0:0:1:
416,192,10778,1,0,0:0:0:1:
160,192,11978,1,0,0:0:0:1:
352,192,13178,1,0,0:0:0:1:
96,192,14378,1,0,0:0:0:1:
480,192,15578,1,0,0:0:0:1:
352,192,16778,1,0,0:0:0:1:
416,192,17978,1,0,0:0:0:1:
288,192,19178,1,0,0:0:0:1:
160,192,20378,1,0,0:0:0:1:
288,192,21578,1,0,0:0:0:1:
416,192,22778,1,0,0:0:0:1:
480,192,23978,1,0,0:0:0:1:
224,192,25178,1,0,0:0:0:1:
32,192,26678,1,0,0:0:0:1:
32,192,26978,1,0,0:0:0:1:
352,192,27578,1,0,0:0:0:1:
96,192,28778,1,0,0:0:0:1:
416,192,29978,1,0,0:0:0:1:
160,192,31178,1,0,0:0:0:1:
352,192,32378,1,0,0:0:0:1:
96,192,33578,1,0,0:0:0:1:
480,192,34778,1,0,0:0:0:1:
352,192,35978,1,0,0:0:0:1:
480,192,37178,1,0,0:0:0:1:
352,192,37778,1,0,0:0:0:1:
224,192,38378,1,0,0:0:0:1:
96,192,38978,1,0,0:0:0:1:
288,192,39578,1,0,0:0:0:1:
160,192,40178,1,0,0:0:0:1:
288,192,40778,1,0,0:0:0:1:
416,192,41378,1,0,0:0:0:1:
480,192,41978,1,0,0:0:0:1:
352,192,42578,1,0,0:0:0:1:
224,192,43178,1,0,0:0:0:1:
96,192,43778,1,0,0:0:0:1:
224,192,44378,1,0,0:0:0:1:
160,192,44978,1,0,0:0:0:1:
288,192,45278,1,0,0:0:0:1:
416,192,45578,1,0,0:0:0:1:
32,192,46178,1,0,0:0:0:1:
224,192,52178,5,0,0:0:0:1:
352,192,53378,5,0,0:0:0:1:
480,192,54578,1,0,0:0:0:1:
160,192,55778,1,0,0:0:0:1:
224,192,56978,1,0,0:0:0:1:
32,192,57578,1,0,0:0:0:1:
96,192,63203,5,0,0:0:0:1:
480,192,64178,5,0,0:0:0:1:
224,192,64853,1,0,0:0:0:1:
352,192,65378,1,0,0:0:0:1:
416,192,66578,1,0,0:0:0:1:
288,192,67778,1,0,0:0:0:1:
96,192,68978,1,0,0:0:0:1:
224,192,70178,1,0,0:0:0:1:
32,192,70778,1,0,0:0:0:1:
480,192,71378,1,0,0:0:0:1:
352,192,71978,1,0,0:0:0:1:
224,192,72578,1,0,0:0:0:1:
96,192,73178,1,0,0:0:0:1:
160,192,73778,1,0,0:0:0:1:
288,192,74378,1,0,0:0:0:1:
416,192,74978,1,0,0:0:0:1:
480,192,76178,1,0,0:0:0:1:
224,192,76778,1,0,0:0:0:1:
352,192,77378,1,0,0:0:0:1:
480,192,77978,1,0,0:0:0:1:
416,192,78578,1,0,0:0:0:1:
288,192,79178,1,0,0:0:0:1:
160,192,79778,1,0,0:0:0:1:
96,192,80978,1,0,0:0:0:1:
352,192,81578,1,0,0:0:0:1:
96,192,82178,1,0,0:0:0:1:
352,192,82778,1,0,0:0:0:1:
96,192,83378,1,0,0:0:0:1:
352,192,83978,1,0,0:0:0:1:
96,192,84578,1,0,0:0:0:1:
352,192,85178,1,0,0:0:0:1:
96,192,85778,1,0,0:0:0:1:
352,192,86378,1,0,0:0:0:1:
96,192,86978,1,0,0:0:0:1:
352,192,87578,1,0,0:0:0:1:
96,192,88178,1,0,0:0:0:1:
352,192,88778,1,0,0:0:0:1:
96,192,89378,1,0,0:0:0:1:
352,192,89978,1,0,0:0:0:1:
480,192,90578,1,0,0:0:0:1:
352,192,91178,1,0,0:0:0:1:
224,192,91778,1,0,0:0:0:1:
96,192,92378,1,0,0:0:0:1:
160,192,92978,1,0,0:0:0:1:
288,192,93578,1,0,0:0:0:1:
416,192,94178,1,0,0:0:0:1:
480,192,95378,1,0,0:0:0:1:
224,192,95978,1,0,0:0:0:1:
352,192,96578,1,0,0:0:0:1:
480,192,97178,1,0,0:0:0:1:
416,192,97778,1,0,0:0:0:1:
288,192,98378,1,0,0:0:0:1:
160,192,98978,1,0,0:0:0:1:
416,192,100178,1,0,0:0:0:1:
224,192,101378,1,0,0:0:0:1:
352,192,102578,1,0,0:0:0:1:
160,192,103778,1,0,0:0:0:1:
416,192,104978,1,0,0:0:0:1:
224,192,106178,1,0,0:0:0:1:
288,192,107378,1,0,0:0:0:1:
224,192,109178,1,0,0:0:0:1:
224,192,109478,1,0,0:0:0:1:
352,192,109778,1,0,0:0:0:1:
32,192,110603,1,0,0:0:0:1:
