osu file format v14

[General]
AudioFilename: audio.mp3
AudioLeadIn: 0
PreviewTime: 8377
Countdown: 0
SampleSet: Normal
StackLeniency: 0.2
Mode: 3
LetterboxInBreaks: 0
SpecialStyle: 0
WidescreenStoryboard: 0

[Editor]
DistanceSpacing: 0.5
BeatDivisor: 4
GridSize: 32
TimelineZoom: 2.500005

[Metadata]
Title:MopeMope
TitleUnicode:もぺもぺ
Artist:LeaF
ArtistUnicode:LeaF
Creator:dionzz99
Version::)
Source:BOFU 2017
Tags:
BeatmapID:1438583
BeatmapSetID:680357

[Difficulty]
HPDrainRate:6
CircleSize:4
OverallDifficulty:6
ApproachRate:5
SliderMultiplier:1.4
SliderTickRate:1

[Events]
//Background and Video events
0,0,"BOFU2017 LeaF WtF.png",0,0
Video,0,"480p BOFU2017 LeaF wtf.mp4"
//Break Periods
2,46377,50977
//Storyboard Layer 0 (Background)
//Storyboard Layer 1 (Fail)
//Storyboard Layer 2 (Pass)
//Storyboard Layer 3 (Foreground)
//Storyboard Sound Samples

[TimingPoints]
1177,600,4,1,0,25,1,0
46777,0.6,1,1,0,25,1,0
46779,60000000,1,1,0,25,1,0
46852,1,2,1,0,25,1,0
46852,-1000,2,1,0,25,0,0
46860,60000000,1,1,0,25,1,0
47144,1,1,1,0,25,1,0
47144,-1000,4,1,0,25,0,0
47152,1,4,1,0,25,1,0
47155,600,1,1,0,25,1,0
47158,600,1,1,0,25,1,0
47161,600,1,1,0,25,1,0
47164,600,1,1,0,25,1,0
47167,600,1,1,0,25,1,0
47170,600,1,1,0,25,1,0
47173,600,1,1,0,25,1,0
47176,600,1,1,0,25,1,0
47179,600,1,1,0,25,1,0
47182,600,1,1,0,25,1,0
47185,600,1,1,0,25,1,0
47188,600,1,1,0,25,1,0
47191,600,1,1,0,25,1,0
47194,600,1,1,0,25,1,0
47197,600,1,1,0,25,1,0
47200,600,1,1,0,25,1,0
47203,600,1,1,0,25,1,0
47206,600,1,1,0,25,1,0
47209,600,1,1,0,25,1,0
47212,600,1,1,0,25,1,0
47215,600,1,1,0,25,1,0
47218,600,1,1,0,25,1,0
47221,600,1,1,0,25,1,0
47224,600,1,1,0,25,1,0
47227,600,1,1,0,25,1,0
47230,600,1,1,0,25,1,0
47233,600,1,1,0,25,1,0
47236,600,1,1,0,25,1,0
47239,600,1,1,0,25,1,0
47242,600,1,1,0,25,1,0
47245,600,1,1,0,25,1,0
47248,600,1,1,0,25,1,0
47251,600,1,1,0,25,1,0
47254,600,1,1,0,25,1,0
47257,600,1,1,0,25,1,0
47260,600,1,1,0,25,1,0
47263,600,1,1,0,25,1,0
47266,600,1,1,0,25,1,0
47269,600,1,1,0,25,1,0
47272,600,1,1,0,25,1,0
47275,600,1,1,0,25,1,0
47278,600,1,1,0,25,1,0
47281,600,1,1,0,25,1,0
47284,600,1,1,0,25,1,0
47287,600,1,1,0,25,1,0
47290,600,1,1,0,25,1,0
47293,600,1,1,0,25,1,0
47296,600,1,1,0,25,1,0
47299,600,1,1,0,25,1,0
47302,600,1,1,0,25,1,0
47305,600,1,1,0,25,1,0
47308,600,1,1,0,25,1,0
47311,600,1,1,0,25,1,0
47314,600,1,1,0,25,1,0
47317,600,1,1,0,25,1,0
47320,600,1,1,0,25,1,0
47323,600,1,1,0,25,1,0
47326,600,1,1,0,25,1,0
47329,600,1,1,0,25,1,0
47332,600,1,1,0,25,1,0
47335,600,1,1,0,25,1,0
47338,600,1,1,0,25,1,0
47341,600,1,1,0,25,1,0
47344,600,1,1,0,25,1,0
47347,600,1,1,0,25,1,0
47350,600,1,1,0,25,1,0
47353,600,1,1,0,25,1,0
47356,600,1,1,0,25,1,0
47359,600,1,1,0,25,1,0
47362,600,1,1,0,25,1,0
47365,600,1,1,0,25,1,0
47368,600,1,1,0,25,1,0
47371,600,1,1,0,25,1,0
47374,600,1,1,0,25,1,0
47377,1,1,1,0,25,1,0
47381,1000,1,1,0,25,1,0
47385,1000,1,1,0,25,1,0
47389,1000,1,1,0,25,1,0
47393,1000,1,1,0,25,1,0
47397,1000,1,1,0,25,1,0
47401,1000,1,1,0,25,1,0
47405,1000,1,1,0,25,1,0
47409,1000,1,1,0,25,1,0
47413,1000,1,1,0,25,1,0
47417,1000,1,1,0,25,1,0
47421,1000,1,1,0,25,1,0
47425,1000,1,1,0,25,1,0
47429,1000,1,1,0,25,1,0
47433,1000,1,1,0,25,1,0
47437,1000,1,1,0,25,1,0
47441,1000,1,1,0,25,1,0
47445,1000,1,1,0,25,1,0
47449,1000,1,1,0,25,1,0
47453,1000,1,1,0,25,1,0
47457,1000,1,1,0,25,1,0
47461,1000,1,1,0,25,1,0
47465,1000,1,1,0,25,1,0
47469,1000,1,1,0,25,1,0
47473,1000,1,1,0,25,1,0
47477,1000,1,1,0,25,1,0
47481,1000,1,1,0,25,1,0
47485,1000,1,1,0,25,1,0
47489,1000,1,1,0,25,1,0
47493,1000,1,1,0,25,1,0
47497,1000,1,1,0,25,1,0
47501,1000,1,1,0,25,1,0
47505,1000,1,1,0,25,1,0
47509,1000,1,1,0,25,1,0
47513,1000,1,1,0,25,1,0
47517,1000,1,1,0,25,1,0
47521,1000,1,1,0,25,1,0
47525,1000,1,1,0,25,1,0
47529,1000,1,1,0,25,1,0
47533,1000,1,1,0,25,1,0
47537,1000,1,1,0,25,1,0
47541,1000,1,1,0,25,1,0
47545,1000,1,1,0,25,1,0
47549,1000,1,1,0,25,1,0
47553,1000,1,1,0,25,1,0
47557,1000,1,1,0,25,1,0
47561,1000,1,1,0,25,1,0
47565,1000,1,1,0,25,1,0
47569,1000,1,1,0,25,1,0
47573,1000,1,1,0,25,1,0
47577,1000,1,1,0,25,1,0
47581,1000,1,1,0,25,1,0
47585,1000,1,1,0,25,1,0
47589,1000,1,1,0,25,1,0
47593,1000,1,1,0,25,1,0
47597,1000,1,1,0,25,1,0
47601,1000,1,1,0,25,1,0
47605,1000,1,1,0,25,1,0
47609,1000,1,1,0,25,1,0
47613,1000,1,1,0,25,1,0
47617,1000,1,1,0,25,1,0
47621,1000,1,1,0,25,1,0
47625,1000,1,1,0,25,1,0
47629,1000,1,1,0,25,1,0
47633,1000,1,1,0,25,1,0
47637,1000,1,1,0,25,1,0
47641,1000,1,1,0,25,1,0
47645,1000,1,1,0,25,1,0
47649,1000,1,1,0,25,1,0
47653,1000,1,1,0,25,1,0
47657,1000,1,1,0,25,1,0
47661,1000,1,1,0,25,1,0
47665,1000,1,1,0,25,1,0
47669,1000,1,1,0,25,1,0
47673,1000,1,1,0,25,1,0
47677,1000,1,1,0,25,1,0
47681,1000,1,1,0,25,1,0
47685,1000,1,1,0,25,1,0
47689,1000,1,1,0,25,1,0
47693,1000,1,1,0,25,1,0
47697,1000,1,1,0,25,1,0
47701,1000,1,1,0,25,1,0
47705,1000,1,1,0,25,1,0
47709,1000,1,1,0,25,1,0
47713,1000,1,1,0,25,1,0
47717,1000,1,1,0,25,1,0
47721,1000,1,1,0,25,1,0
47725,1000,1,1,0,25,1,0
47729,1000,1,1,0,25,1,0
47733,1000,1,1,0,25,1,0
47737,1000,1,1,0,25,1,0
47741,1000,1,1,0,25,1,0
47745,1000,1,1,0,25,1,0
47749,1000,1,1,0,25,1,0
47753,1000,1,1,0,25,1,0
47757,1000,1,1,0,25,1,0
47761,1000,1,1,0,25,1,0
47765,1000,1,1,0,25,1,0
47769,1000,1,1,0,25,1,0
47773,1000,1,1,0,25,1,0
47777,1000,1,1,0,25,1,0
47781,1000,1,1,0,25,1,0
47785,1000,1,1,0,25,1,0
47789,1000,1,1,0,25,1,0
47793,1000,1,1,0,25,1,0
47797,1000,1,1,0,25,1,0
47801,1000,1,1,0,25,1,0
47805,1000,1,1,0,25,1,0
47809,1000,1,1,0,25,1,0
47813,1000,1,1,0,25,1,0
47817,1000,1,1,0,25,1,0
47821,1000,1,1,0,25,1,0
47825,1000,1,1,0,25,1,0
47829,1000,1,1,0,25,1,0
47833,1000,1,1,0,25,1,0
47837,1000,1,1,0,25,1,0
47841,1000,1,1,0,25,1,0
47845,1000,1,1,0,25,1,0
47849,1000,1,1,0,25,1,0
47853,1000,1,1,0,25,1,0
47857,1000,1,1,0,25,1,0
47861,1000,1,1,0,25,1,0
47865,1000,1,1,0,25,1,0
47869,1000,1,1,0,25,1,0
47873,1000,1,1,0,25,1,0
47877,1000,1,1,0,25,1,0
47881,1000,1,1,0,25,1,0
47885,1000,1,1,0,25,1,0
47889,1000,1,1,0,25,1,0
47893,1000,1,1,0,25,1,0
47897,1000,1,1,0,25,1,0
47901,1000,1,1,0,25,1,0
47905,1000,1,1,0,25,1,0
47909,1000,1,1,0,25,1,0
47913,1000,1,1,0,25,1,0
47917,1000,1,1,0,25,1,0
47921,1000,1,1,0,25,1,0
47925,1000,1,1,0,25,1,0
47929,1000,1,1,0,25,1,0
47933,1000,1,1,0,25,1,0
47937,1000,1,1,0,25,1,0
47941,1000,1,1,0,25,1,0
47945,1000,1,1,0,25,1,0
47949,1000,1,1,0,25,1,0
47953,1000,1,1,0,25,1,0
47957,1000,1,1,0,25,1,0
47961,1000,1,1,0,25,1,0
47965,1000,1,1,0,25,1,0
47969,1000,1,1,0,25,1,0
47973,1000,1,1,0,25,1,0
47977,1000,1,1,0,25,1,0
47981,1000,1,1,0,25,1,0
47985,1000,1,1,0,25,1,0
47989,1000,1,1,0,25,1,0
47993,1000,1,1,0,25,1,0
47997,1000,1,1,0,25,1,0
48001,1000,1,1,0,25,1,0
48005,1000,1,1,0,25,1,0
48009,1000,1,1,0,25,1,0
48013,1000,1,1,0,25,1,0
48017,1000,1,1,0,25,1,0
48021,1000,1,1,0,25,1,0
48025,1000,1,1,0,25,1,0
48029,1000,1,1,0,25,1,0
48033,1000,1,1,0,25,1,0
48037,1000,1,1,0,25,1,0
48041,1000,1,1,0,25,1,0
48045,1000,1,1,0,25,1,0
48049,1000,1,1,0,25,1,0
48053,1000,1,1,0,25,1,0
48057,1000,1,1,0,25,1,0
48061,1000,1,1,0,25,1,0
48065,1000,1,1,0,25,1,0
48069,1000,1,1,0,25,1,0
48073,1000,1,1,0,25,1,0
48077,1000,1,1,0,25,1,0
48081,1000,1,1,0,25,1,0
48085,1000,1,1,0,25,1,0
48089,1000,1,1,0,25,1,0
48093,1000,1,1,0,25,1,0
48097,1000,1,1,0,25,1,0
48101,1000,1,1,0,25,1,0
48105,1000,1,1,0,25,1,0
48109,1000,1,1,0,25,1,0
48113,1000,1,1,0,25,1,0
48117,1000,1,1,0,25,1,0
48121,1000,1,1,0,25,1,0
48125,1000,1,1,0,25,1,0
48129,1000,1,1,0,25,1,0
48133,1000,1,1,0,25,1,0
48137,1000,1,1,0,25,1,0
48141,1000,1,1,0,25,1,0
48145,1000,1,1,0,25,1,0
48149,1000,1,1,0,25,1,0
48153,1000,1,1,0,25,1,0
48157,1000,1,1,0,25,1,0
48161,1000,1,1,0,25,1,0
48165,1000,1,1,0,25,1,0
48169,1000,1,1,0,25,1,0
48173,1000,1,1,0,25,1,0
48177,1000,1,1,0,25,1,0
48181,1000,1,1,0,25,1,0
48185,1000,1,1,0,25,1,0
48189,1000,1,1,0,25,1,0
48193,1000,1,1,0,25,1,0
48197,1000,1,1,0,25,1,0
48201,1000,1,1,0,25,1,0
48205,1000,1,1,0,25,1,0
48209,1000,1,1,0,25,1,0
48213,1000,1,1,0,25,1,0
48217,1000,1,1,0,25,1,0
48221,1000,1,1,0,25,1,0
48225,1000,1,1,0,25,1,0
48229,1000,1,1,0,25,1,0
48233,1000,1,1,0,25,1,0
48237,1000,1,1,0,25,1,0
48241,1000,1,1,0,25,1,0
48245,1000,1,1,0,25,1,0
48249,1000,1,1,0,25,1,0
48253,1000,1,1,0,25,1,0
48257,1000,1,1,0,25,1,0
48261,1000,1,1,0,25,1,0
48265,1000,1,1,0,25,1,0
48269,1000,1,1,0,25,1,0
48273,1000,1,1,0,25,1,0
48277,1000,1,1,0,25,1,0
48281,1000,1,1,0,25,1,0
48285,1000,1,1,0,25,1,0
48289,1000,1,1,0,25,1,0
48293,1000,1,1,0,25,1,0
48297,1000,1,1,0,25,1,0
48301,1000,1,1,0,25,1,0
48305,1000,1,1,0,25,1,0
48309,1000,1,1,0,25,1,0
48313,1000,1,1,0,25,1,0
48317,1000,1,1,0,25,1,0
48321,1000,1,1,0,25,1,0
48325,1000,1,1,0,25,1,0
48329,1000,1,1,0,25,1,0
48333,1000,1,1,0,25,1,0
48337,1000,1,1,0,25,1,0
48341,1000,1,1,0,25,1,0
48345,1000,1,1,0,25,1,0
48349,1000,1,1,0,25,1,0
48353,1000,1,1,0,25,1,0
48357,1000,1,1,0,25,1,0
48361,1000,1,1,0,25,1,0
48365,1000,1,1,0,25,1,0
48369,1000,1,1,0,25,1,0
48373,1000,1,1,0,25,1,0
48377,1000,1,1,0,25,1,0
48381,1000,1,1,0,25,1,0
48385,1000,1,1,0,25,1,0
48389,1000,1,1,0,25,1,0
48393,1000,1,1,0,25,1,0
48397,1000,1,1,0,25,1,0
48401,1000,1,1,0,25,1,0
48405,1000,1,1,0,25,1,0
48409,1000,1,1,0,25,1,0
48413,1000,1,1,0,25,1,0
48417,1000,1,1,0,25,1,0
48421,1000,1,1,0,25,1,0
48425,1000,1,1,0,25,1,0
48429,1000,1,1,0,25,1,0
48433,1000,1,1,0,25,1,0
48437,1000,1,1,0,25,1,0
48441,1000,1,1,0,25,1,0
48445,1000,1,1,0,25,1,0
48449,1000,1,1,0,25,1,0
48453,1000,1,1,0,25,1,0
48457,1000,1,1,0,25,1,0
48461,1000,1,1,0,25,1,0
48465,1000,1,1,0,25,1,0
48469,1000,1,1,0,25,1,0
48473,1000,1,1,0,25,1,0
48477,1000,1,1,0,25,1,0
48481,1000,1,1,0,25,1,0
48485,1000,1,1,0,25,1,0
48489,1000,1,1,0,25,1,0
48493,1000,1,1,0,25,1,0
48497,1000,1,1,0,25,1,0
48501,1000,1,1,0,25,1,0
48505,1000,1,1,0,25,1,0
48509,1000,1,1,0,25,1,0
48513,1000,1,1,0,25,1,0
48517,1000,1,1,0,25,1,0
48521,1000,1,1,0,25,1,0
48525,1000,1,1,0,25,1,0
48529,1000,1,1,0,25,1,0
48533,1000,1,1,0,25,1,0
48537,1000,1,1,0,25,1,0
48541,1000,1,1,0,25,1,0
48545,1000,1,1,0,25,1,0
48549,1000,1,1,0,25,1,0
48553,1000,1,1,0,25,1,0
48557,1000,1,1,0,25,1,0
48561,1000,1,1,0,25,1,0
48565,1000,1,1,0,25,1,0
48569,1000,1,1,0,25,1,0
48573,1000,1,1,0,25,1,0
48577,1000,1,1,0,25,1,0
48581,1000,1,1,0,25,1,0
48585,1000,1,1,0,25,1,0
48589,1000,1,1,0,25,1,0
48593,1000,1,1,0,25,1,0
48597,1000,1,1,0,25,1,0
48601,1000,1,1,0,25,1,0
48605,1000,1,1,0,25,1,0
48609,1000,1,1,0,25,1,0
48613,1000,1,1,0,25,1,0
48617,1000,1,1,0,25,1,0
48621,1000,1,1,0,25,1,0
48625,1000,1,1,0,25,1,0
48629,1000,1,1,0,25,1,0
48633,1000,1,1,0,25,1,0
48637,1000,1,1,0,25,1,0
48641,1000,1,1,0,25,1,0
48645,1000,1,1,0,25,1,0
48649,1000,1,1,0,25,1,0
48653,1000,1,1,0,25,1,0
48657,1000,1,1,0,25,1,0
48661,1000,1,1,0,25,1,0
48665,1000,1,1,0,25,1,0
48669,1000,1,1,0,25,1,0
48673,1000,1,1,0,25,1,0
48677,1000,1,1,0,25,1,0
48681,1000,1,1,0,25,1,0
48685,1000,1,1,0,25,1,0
48689,1000,1,1,0,25,1,0
48693,1000,1,1,0,25,1,0
48697,1000,1,1,0,25,1,0
48701,1000,1,1,0,25,1,0
48705,1000,1,1,0,25,1,0
48709,1000,1,1,0,25,1,0
48713,1000,1,1,0,25,1,0
48717,1000,1,1,0,25,1,0
48721,1000,1,1,0,25,1,0
48725,1000,1,1,0,25,1,0
48729,1000,1,1,0,25,1,0
48733,1000,1,1,0,25,1,0
48737,1000,1,1,0,25,1,0
48741,1000,1,1,0,25,1,0
48745,1000,1,1,0,25,1,0
48749,1000,1,1,0,25,1,0
48753,1000,1,1,0,25,1,0
48757,1000,1,1,0,25,1,0
48761,1000,1,1,0,25,1,0
48765,1000,1,1,0,25,1,0
48769,1000,1,1,0,25,1,0
48773,1000,1,1,0,25,1,0
48777,1000,1,1,0,25,1,0
48781,1000,1,1,0,25,1,0
48785,1000,1,1,0,25,1,0
48789,1000,1,1,0,25,1,0
48793,1000,1,1,0,25,1,0
48797,1000,1,1,0,25,1,0
48801,1000,1,1,0,25,1,0
48805,1000,1,1,0,25,1,0
48809,1000,1,1,0,25,1,0
48813,1000,1,1,0,25,1,0
48817,1000,1,1,0,25,1,0
48821,1000,1,1,0,25,1,0
48825,1000,1,1,0,25,1,0
48829,1000,1,1,0,25,1,0
48833,1000,1,1,0,25,1,0
48837,1000,1,1,0,25,1,0
48841,1000,1,1,0,25,1,0
48845,1000,1,1,0,25,1,0
48849,1000,1,1,0,25,1,0
48853,1000,1,1,0,25,1,0
48857,1000,1,1,0,25,1,0
48861,1000,1,1,0,25,1,0
48865,1000,1,1,0,25,1,0
48869,1000,1,1,0,25,1,0
48873,1000,1,1,0,25,1,0
48877,1000,1,1,0,25,1,0
48881,1000,1,1,0,25,1,0
48885,1000,1,1,0,25,1,0
48889,1000,1,1,0,25,1,0
48893,1000,1,1,0,25,1,0
48897,1000,1,1,0,25,1,0
48901,1000,1,1,0,25,1,0
48905,1000,1,1,0,25,1,0
48909,1000,1,1,0,25,1,0
48913,1000,1,1,0,25,1,0
48917,1000,1,1,0,25,1,0
48921,1000,1,1,0,25,1,0
48925,1000,1,1,0,25,1,0
48929,1000,1,1,0,25,1,0
48933,1000,1,1,0,25,1,0
48937,1000,1,1,0,25,1,0
48941,1000,1,1,0,25,1,0
48945,1000,1,1,0,25,1,0
48949,1000,1,1,0,25,1,0
48953,1000,1,1,0,25,1,0
48957,1000,1,1,0,25,1,0
48961,1000,1,1,0,25,1,0
48965,1000,1,1,0,25,1,0
48969,1000,1,1,0,25,1,0
48973,1000,1,1,0,25,1,0
48977,1000,1,1,0,25,1,0
48981,1000,1,1,0,25,1,0
48985,1000,1,1,0,25,1,0
48989,1000,1,1,0,25,1,0
48993,1000,1,1,0,25,1,0
48997,1000,1,1,0,25,1,0
49001,1000,1,1,0,25,1,0
49005,1000,1,1,0,25,1,0
49009,1000,1,1,0,25,1,0
49013,1000,1,1,0,25,1,0
49017,1000,1,1,0,25,1,0
49021,1000,1,1,0,25,1,0
49025,1000,1,1,0,25,1,0
49029,1000,1,1,0,25,1,0
49033,1000,1,1,0,25,1,0
49037,1000,1,1,0,25,1,0
49041,1000,1,1,0,25,1,0
49045,1000,1,1,0,25,1,0
49049,1000,1,1,0,25,1,0
49053,1000,1,1,0,25,1,0
49057,1000,1,1,0,25,1,0
49061,1000,1,1,0,25,1,0
49065,1000,1,1,0,25,1,0
49069,1000,1,1,0,25,1,0
49073,1000,1,1,0,25,1,0
49077,1000,1,1,0,25,1,0
49081,1000,1,1,0,25,1,0
49085,1000,1,1,0,25,1,0
49089,1000,1,1,0,25,1,0
49093,1000,1,1,0,25,1,0
49097,1000,1,1,0,25,1,0
49101,1000,1,1,0,25,1,0
49105,1000,1,1,0,25,1,0
49109,1000,1,1,0,25,1,0
49113,1000,1,1,0,25,1,0
49117,1000,1,1,0,25,1,0
49121,1000,1,1,0,25,1,0
49125,1000,1,1,0,25,1,0
49129,1000,1,1,0,25,1,0
49133,1000,1,1,0,25,1,0
49137,1000,1,1,0,25,1,0
49141,1000,1,1,0,25,1,0
49145,1000,1,1,0,25,1,0
49149,1000,1,1,0,25,1,0
49153,1000,1,1,0,25,1,0
49157,1000,1,1,0,25,1,0
49161,1000,1,1,0,25,1,0
49165,1000,1,1,0,25,1,0
49169,1000,1,1,0,25,1,0
49173,1000,1,1,0,25,1,0
49177,1000,1,1,0,25,1,0
49181,1000,1,1,0,25,1,0
49185,1000,1,1,0,25,1,0
49189,1000,1,1,0,25,1,0
49193,1000,1,1,0,25,1,0
49197,1000,1,1,0,25,1,0
49201,1000,1,1,0,25,1,0
49205,1000,1,1,0,25,1,0
49209,1000,1,1,0,25,1,0
49213,1000,1,1,0,25,1,0
49217,1000,1,1,0,25,1,0
49221,1000,1,1,0,25,1,0
49225,1000,1,1,0,25,1,0
49229,1000,1,1,0,25,1,0
49233,1000,1,1,0,25,1,0
49237,1000,1,1,0,25,1,0
49241,1000,1,1,0,25,1,0
49245,1000,1,1,0,25,1,0
49249,1000,1,1,0,25,1,0
49253,1000,1,1,0,25,1,0
49257,1000,1,1,0,25,1,0
49261,1000,1,1,0,25,1,0
49265,1000,1,1,0,25,1,0
49269,1000,1,1,0,25,1,0
49273,1000,1,1,0,25,1,0
49277,1000,1,1,0,25,1,0
49281,1000,1,1,0,25,1,0
49285,1000,1,1,0,25,1,0
49289,1000,1,1,0,25,1,0
49293,1000,1,1,0,25,1,0
49297,1000,1,1,0,25,1,0
49301,1000,1,1,0,25,1,0
49305,1000,1,1,0,25,1,0
49309,1000,1,1,0,25,1,0
49313,1000,1,1,0,25,1,0
49317,1000,1,1,0,25,1,0
49321,1000,1,1,0,25,1,0
49325,1000,1,1,0,25,1,0
49329,1000,1,1,0,25,1,0
49333,1000,1,1,0,25,1,0
49337,1000,1,1,0,25,1,0
49341,1000,1,1,0,25,1,0
49345,1000,1,1,0,25,1,0
49349,1000,1,1,0,25,1,0
49353,1000,1,1,0,25,1,0
49357,1000,1,1,0,25,1,0
49361,1000,1,1,0,25,1,0
49365,1000,1,1,0,25,1,0
49369,1000,1,1,0,25,1,0
49373,1000,1,1,0,25,1,0
49377,1000,1,1,0,25,1,0
49381,1000,1,1,0,25,1,0
49385,1000,1,1,0,25,1,0
49389,1000,1,1,0,25,1,0
49393,1000,1,1,0,25,1,0
49397,1000,1,1,0,25,1,0
49401,1000,1,1,0,25,1,0
49405,1000,1,1,0,25,1,0
49409,1000,1,1,0,25,1,0
49413,1000,1,1,0,25,1,0
49417,1000,1,1,0,25,1,0
49421,1000,1,1,0,25,1,0
49425,1000,1,1,0,25,1,0
49429,1000,1,1,0,25,1,0
49433,1000,1,1,0,25,1,0
49437,1000,1,1,0,25,1,0
49441,1000,1,1,0,25,1,0
49445,1000,1,1,0,25,1,0
49449,1000,1,1,0,25,1,0
49453,1000,1,1,0,25,1,0
49457,1000,1,1,0,25,1,0
49461,1000,1,1,0,25,1,0
49465,1000,1,1,0,25,1,0
49469,1000,1,1,0,25,1,0
49473,1000,1,1,0,25,1,0
49477,1000,1,1,0,25,1,0
49481,1000,1,1,0,25,1,0
49485,1000,1,1,0,25,1,0
49489,1000,1,1,0,25,1,0
49493,1000,1,1,0,25,1,0
49497,1000,1,1,0,25,1,0
49501,1000,1,1,0,25,1,0
49505,1000,1,1,0,25,1,0
49509,1000,1,1,0,25,1,0
49513,1000,1,1,0,25,1,0
49517,1000,1,1,0,25,1,0
49521,1000,1,1,0,25,1,0
49525,1000,1,1,0,25,1,0
49529,1000,1,1,0,25,1,0
49533,1000,1,1,0,25,1,0
49537,1000,1,1,0,25,1,0
49541,1000,1,1,0,25,1,0
49545,1000,1,1,0,25,1,0
49549,1000,1,1,0,25,1,0
49553,1000,1,1,0,25,1,0
49557,1000,1,1,0,25,1,0
49561,1000,1,1,0,25,1,0
49565,1000,1,1,0,25,1,0
49569,1000,1,1,0,25,1,0
49573,1000,1,1,0,25,1,0
49577,1000,1,1,0,25,1,0
49581,1000,1,1,0,25,1,0
49585,1000,1,1,0,25,1,0
49589,1000,1,1,0,25,1,0
49593,1000,1,1,0,25,1,0
49597,1000,1,1,0,25,1,0
49601,1000,1,1,0,25,1,0
49605,1000,1,1,0,25,1,0
49609,1000,1,1,0,25,1,0
49613,1000,1,1,0,25,1,0
49617,1000,1,1,0,25,1,0
49621,1000,1,1,0,25,1,0
49625,1000,1,1,0,25,1,0
49629,1000,1,1,0,25,1,0
49633,1000,1,1,0,25,1,0
49637,1000,1,1,0,25,1,0
49641,1000,1,1,0,25,1,0
49645,1000,1,1,0,25,1,0
49649,1000,1,1,0,25,1,0
49653,1000,1,1,0,25,1,0
49657,1000,1,1,0,25,1,0
49661,1000,1,1,0,25,1,0
49665,1000,1,1,0,25,1,0
49669,1000,1,1,0,25,1,0
49673,1000,1,1,0,25,1,0
49677,1000,1,1,0,25,1,0
49681,1000,1,1,0,25,1,0
49685,1000,1,1,0,25,1,0
49689,1000,1,1,0,25,1,0
49693,1000,1,1,0,25,1,0
49697,1000,1,1,0,25,1,0
49701,1000,1,1,0,25,1,0
49705,1000,1,1,0,25,1,0
49709,1000,1,1,0,25,1,0
49713,1000,1,1,0,25,1,0
49717,1000,1,1,0,25,1,0
49721,1000,1,1,0,25,1,0
49725,1000,1,1,0,25,1,0
49729,1000,1,1,0,25,1,0
49733,1000,1,1,0,25,1,0
49737,1000,1,1,0,25,1,0
49741,1000,1,1,0,25,1,0
49745,1000,1,1,0,25,1,0
49749,1000,1,1,0,25,1,0
49753,1000,1,1,0,25,1,0
49757,1000,1,1,0,25,1,0
49761,1000,1,1,0,25,1,0
49765,1000,1,1,0,25,1,0
49769,1000,1,1,0,25,1,0
49773,1000,1,1,0,25,1,0
49777,1000,1,1,0,25,1,0
49781,1000,1,1,0,25,1,0
49785,1000,1,1,0,25,1,0
49789,1000,1,1,0,25,1,0
49793,1000,1,1,0,25,1,0
49797,1000,1,1,0,25,1,0
49801,1000,1,1,0,25,1,0
49805,1000,1,1,0,25,1,0
49809,1000,1,1,0,25,1,0
49813,1000,1,1,0,25,1,0
49817,1000,1,1,0,25,1,0
49821,1000,1,1,0,25,1,0
49825,1000,1,1,0,25,1,0
49829,1000,1,1,0,25,1,0
49833,1000,1,1,0,25,1,0
49837,1000,1,1,0,25,1,0
49841,1000,1,1,0,25,1,0
49845,1000,1,1,0,25,1,0
49849,1000,1,1,0,25,1,0
49853,1000,1,1,0,25,1,0
49857,1000,1,1,0,25,1,0
49861,1000,1,1,0,25,1,0
49865,1000,1,1,0,25,1,0
49869,1000,1,1,0,25,1,0
49873,1000,1,1,0,25,1,0
49877,1000,1,1,0,25,1,0
49881,1000,1,1,0,25,1,0
49885,1000,1,1,0,25,1,0
49889,1000,1,1,0,25,1,0
49893,1000,1,1,0,25,1,0
49897,1000,1,1,0,25,1,0
49901,1000,1,1,0,25,1,0
49905,1000,1,1,0,25,1,0
49909,1000,1,1,0,25,1,0
49913,1000,1,1,0,25,1,0
49917,1000,1,1,0,25,1,0
49921,1000,1,1,0,25,1,0
49925,1000,1,1,0,25,1,0
49929,1000,1,1,0,25,1,0
49933,1000,1,1,0,25,1,0
49937,1000,1,1,0,25,1,0
49941,1000,1,1,0,25,1,0
49945,1000,1,1,0,25,1,0
49949,1000,1,1,0,25,1,0
49953,1000,1,1,0,25,1,0
49957,1000,1,1,0,25,1,0
49961,1000,1,1,0,25,1,0
49965,1000,1,1,0,25,1,0
49969,1000,1,1,0,25,1,0
49973,1000,1,1,0,25,1,0
49977,1000,1,1,0,25,1,0
49981,1000,1,1,0,25,1,0
49985,1000,1,1,0,25,1,0
49989,1000,1,1,0,25,1,0
49993,1000,1,1,0,25,1,0
49997,1000,1,1,0,25,1,0
50001,1000,1,1,0,25,1,0
50005,1000,1,1,0,25,1,0
50009,1000,1,1,0,25,1,0
50013,1000,1,1,0,25,1,0
50017,1000,1,1,0,25,1,0
50021,1000,1,1,0,25,1,0
50025,1000,1,1,0,25,1,0
50029,1000,1,1,0,25,1,0
50033,1000,1,1,0,25,1,0
50037,1000,1,1,0,25,1,0
50041,1000,1,1,0,25,1,0
50045,1000,1,1,0,25,1,0
50049,1000,1,1,0,25,1,0
50053,1000,1,1,0,25,1,0
50057,1000,1,1,0,25,1,0
50061,1000,1,1,0,25,1,0
50065,1000,1,1,0,25,1,0
50069,1000,1,1,0,25,1,0
50073,1000,1,1,0,25,1,0
50077,1000,1,1,0,25,1,0
50081,1000,1,1,0,25,1,0
50085,1000,1,1,0,25,1,0
50089,1000,1,1,0,25,1,0
50093,1000,1,1,0,25,1,0
50097,1000,1,1,0,25,1,0
50101,1000,1,1,0,25,1,0
50105,1000,1,1,0,25,1,0
50109,1000,1,1,0,25,1,0
50113,1000,1,1,0,25,1,0
50117,1000,1,1,0,25,1,0
50121,1000,1,1,0,25,1,0
50125,1000,1,1,0,25,1,0
50129,1000,1,1,0,25,1,0
50133,1000,1,1,0,25,1,0
50137,1000,1,1,0,25,1,0
50141,1000,1,1,0,25,1,0
50145,1000,1,1,0,25,1,0
50149,1000,1,1,0,25,1,0
50153,1000,1,1,0,25,1,0
50157,1000,1,1,0,25,1,0
50161,1000,1,1,0,25,1,0
50165,1000,1,1,0,25,1,0
50169,1000,1,1,0,25,1,0
50173,1000,1,1,0,25,1,0
50177,1000,1,1,0,25,1,0
50181,1000,1,1,0,25,1,0
50185,1000,1,1,0,25,1,0
50189,1000,1,1,0,25,1,0
50193,1000,1,1,0,25,1,0
50197,1000,1,1,0,25,1,0
50201,1000,1,1,0,25,1,0
50205,1000,1,1,0,25,1,0
50209,1000,1,1,0,25,1,0
50213,1000,1,1,0,25,1,0
50217,1000,1,1,0,25,1,0
50221,1000,1,1,0,25,1,0
50225,1000,1,1,0,25,1,0
50229,1000,1,1,0,25,1,0
50233,1000,1,1,0,25,1,0
50237,1000,1,1,0,25,1,0
50241,1000,1,1,0,25,1,0
50245,1000,1,1,0,25,1,0
50249,1000,1,1,0,25,1,0
50253,1000,1,1,0,25,1,0
50257,1000,1,1,0,25,1,0
50261,1000,1,1,0,25,1,0
50265,1000,1,1,0,25,1,0
50269,1000,1,1,0,25,1,0
50273,1000,1,1,0,25,1,0
50277,1000,1,1,0,25,1,0
50281,1000,1,1,0,25,1,0
50285,1000,1,1,0,25,1,0
50289,1000,1,1,0,25,1,0
50293,1000,1,1,0,25,1,0
50297,1000,1,1,0,25,1,0
50301,1000,1,1,0,25,1,0
50305,1000,1,1,0,25,1,0
50309,1000,1,1,0,25,1,0
50313,1000,1,1,0,25,1,0
50317,1000,1,1,0,25,1,0
50321,1000,1,1,0,25,1,0
50325,1000,1,1,0,25,1,0
50329,1000,1,1,0,25,1,0
50333,1000,1,1,0,25,1,0
50337,1000,1,1,0,25,1,0
50341,1000,1,1,0,25,1,0
50345,1000,1,1,0,25,1,0
50349,1000,1,1,0,25,1,0
50353,1000,1,1,0,25,1,0
50357,1000,1,1,0,25,1,0
50361,1000,1,1,0,25,1,0
50365,1000,1,1,0,25,1,0
50369,1000,1,1,0,25,1,0
50373,1000,1,1,0,25,1,0
50377,1000,1,1,0,25,1,0
50381,1000,1,1,0,25,1,0
50385,1000,1,1,0,25,1,0
50389,1000,1,1,0,25,1,0
50393,1000,1,1,0,25,1,0
50397,1000,1,1,0,25,1,0
50401,1000,1,1,0,25,1,0
50405,1000,1,1,0,25,1,0
50409,1000,1,1,0,25,1,0
50413,1000,1,1,0,25,1,0
50417,1000,1,1,0,25,1,0
50421,1000,1,1,0,25,1,0
50425,1000,1,1,0,25,1,0
50429,1000,1,1,0,25,1,0
50433,1000,1,1,0,25,1,0
50437,1000,1,1,0,25,1,0
50441,1000,1,1,0,25,1,0
50445,1000,1,1,0,25,1,0
50449,1000,1,1,0,25,1,0
50453,1000,1,1,0,25,1,0
50457,1000,1,1,0,25,1,0
50461,1000,1,1,0,25,1,0
50465,1000,1,1,0,25,1,0
50469,1000,1,1,0,25,1,0
50473,1000,1,1,0,25,1,0
50477,1000,1,1,0,25,1,0
50481,1000,1,1,0,25,1,0
50485,1000,1,1,0,25,1,0
50489,1000,1,1,0,25,1,0
50493,1000,1,1,0,25,1,0
50497,1000,1,1,0,25,1,0
50501,1000,1,1,0,25,1,0
50505,1000,1,1,0,25,1,0
50509,1000,1,1,0,25,1,0
50513,1000,1,1,0,25,1,0
50517,1000,1,1,0,25,1,0
50521,1000,1,1,0,25,1,0
50525,1000,1,1,0,25,1,0
50529,1000,1,1,0,25,1,0
50533,1000,1,1,0,25,1,0
50537,1000,1,1,0,25,1,0
50541,1000,1,1,0,25,1,0
50545,1000,1,1,0,25,1,0
50549,1000,1,1,0,25,1,0
50553,1000,1,1,0,25,1,0
50557,1000,1,1,0,25,1,0
50561,1000,1,1,0,25,1,0
50565,1000,1,1,0,25,1,0
50569,1000,1,1,0,25,1,0
50573,1000,1,1,0,25,1,0
50577,1000,1,1,0,25,1,0
50581,1000,1,1,0,25,1,0
50585,1000,1,1,0,25,1,0
50589,1000,1,1,0,25,1,0
50593,1000,1,1,0,25,1,0
50597,1000,1,1,0,25,1,0
50601,1000,1,1,0,25,1,0
50605,1000,1,1,0,25,1,0
50609,1000,1,1,0,25,1,0
50613,1000,1,1,0,25,1,0
50617,1000,1,1,0,25,1,0
50621,1000,1,1,0,25,1,0
50625,1000,1,1,0,25,1,0
50629,1000,1,1,0,25,1,0
50633,1000,1,1,0,25,1,0
50637,1000,1,1,0,25,1,0
50641,1000,1,1,0,25,1,0
50645,1000,1,1,0,25,1,0
50649,1000,1,1,0,25,1,0
50653,1000,1,1,0,25,1,0
50657,1000,1,1,0,25,1,0
50661,1000,1,1,0,25,1,0
50665,1000,1,1,0,25,1,0
50669,1000,1,1,0,25,1,0
50673,1000,1,1,0,25,1,0
50677,1000,1,1,0,25,1,0
50681,1000,1,1,0,25,1,0
50685,1000,1,1,0,25,1,0
50689,1000,1,1,0,25,1,0
50693,1000,1,1,0,25,1,0
50697,1000,1,1,0,25,1,0
50701,1000,1,1,0,25,1,0
50705,1000,1,1,0,25,1,0
50709,1000,1,1,0,25,1,0
50713,1000,1,1,0,25,1,0
50717,1000,1,1,0,25,1,0
50721,1000,1,1,0,25,1,0
50725,1000,1,1,0,25,1,0
50729,1000,1,1,0,25,1,0
50733,1000,1,1,0,25,1,0
50737,1000,1,1,0,25,1,0
50741,1000,1,1,0,25,1,0
50745,1000,1,1,0,25,1,0
50749,1000,1,1,0,25,1,0
50753,1000,1,1,0,25,1,0
50757,1000,1,1,0,25,1,0
50761,1000,1,1,0,25,1,0
50765,1000,1,1,0,25,1,0
50769,1000,1,1,0,25,1,0
50773,1000,1,1,0,25,1,0
50777,1000,1,1,0,25,1,0
50781,1000,1,1,0,25,1,0
50785,1000,1,1,0,25,1,0
50789,1000,1,1,0,25,1,0
50793,1000,1,1,0,25,1,0
50797,1000,1,1,0,25,1,0
50801,1000,1,1,0,25,1,0
50805,1000,1,1,0,25,1,0
50809,1000,1,1,0,25,1,0
50813,1000,1,1,0,25,1,0
50817,1000,1,1,0,25,1,0
50821,1000,1,1,0,25,1,0
50825,1000,1,1,0,25,1,0
50829,1000,1,1,0,25,1,0
50833,1000,1,1,0,25,1,0
50837,1000,1,1,0,25,1,0
50841,1000,1,1,0,25,1,0
50845,1000,1,1,0,25,1,0
50849,1000,1,1,0,25,1,0
50853,1000,1,1,0,25,1,0
50857,1000,1,1,0,25,1,0
50861,1000,1,1,0,25,1,0
50865,1000,1,1,0,25,1,0
50869,1000,1,1,0,25,1,0
50873,1000,1,1,0,25,1,0
50877,1000,1,1,0,25,1,0
50881,1000,1,1,0,25,1,0
50885,1000,1,1,0,25,1,0
50889,1000,1,1,0,25,1,0
50893,1000,1,1,0,25,1,0
50897,1000,1,1,0,25,1,0
50901,1000,1,1,0,25,1,0
50905,1000,1,1,0,25,1,0
50909,1000,1,1,0,25,1,0
50913,1000,1,1,0,25,1,0
50917,1000,1,1,0,25,1,0
50921,1000,1,1,0,25,1,0
50925,1000,1,1,0,25,1,0
50929,1000,1,1,0,25,1,0
50933,1000,1,1,0,25,1,0
50937,1000,1,1,0,25,1,0
50941,1000,1,1,0,25,1,0
50945,1000,1,1,0,25,1,0
50949,1000,1,1,0,25,1,0
50953,1000,1,1,0,25,1,0
50957,1000,1,1,0,25,1,0
50961,1000,1,1,0,25,1,0
50965,1000,1,1,0,25,1,0
50969,1000,1,1,0,25,1,0
50973,1000,1,1,0,25,1,0
50977,1000,1,1,0,25,1,0
50981,997.045790251108,1,1,0,25,1,0
50985,994.108983799706,1,1,0,25,1,0
50989,991.189427312775,1,1,0,25,1,0
50993,988.286969253294,1,1,0,25,1,0
50997,985.401459854015,1,1,0,25,1,0
51001,982.532751091703,1,1,0,25,1,0
51005,979.680696661829,1,1,0,25,1,0
51009,976.84515195369,1,1,0,25,1,0
51013,974.025974025974,1,1,0,25,1,0
51017,971.223021582734,1,1,0,25,1,0
51021,968.436154949785,1,1,0,25,1,0
51025,965.665236051502,1,1,0,25,1,0
51029,962.910128388017,1,1,0,25,1,0
51033,960.170697012802,1,1,0,25,1,0
51037,957.446808510638,1,1,0,25,1,0
51041,954.738330975955,1,1,0,25,1,0
51045,952.045133991537,1,1,0,25,1,0
51049,949.367088607595,1,1,0,25,1,0
51053,946.704067321178,1,1,0,25,1,0
51057,944.055944055944,1,1,0,25,1,0
51061,941.422594142259,1,1,0,25,1,0
51065,938.803894297636,1,1,0,25,1,0
51069,936.19972260749,1,1,0,25,1,0
51073,933.609958506224,1,1,0,25,1,0
51077,931.034482758621,1,1,0,25,1,0
51081,928.473177441541,1,1,0,25,1,0
51085,925.925925925926,1,1,0,25,1,0
51089,923.392612859097,1,1,0,25,1,0
51093,920.87312414734,1,1,0,25,1,0
51097,918.367346938776,1,1,0,25,1,0
51101,915.875169606513,1,1,0,25,1,0
51105,913.396481732071,1,1,0,25,1,0
51109,910.931174089069,1,1,0,25,1,0
51113,908.479138627187,1,1,0,25,1,0
51117,906.040268456376,1,1,0,25,1,0
51121,903.614457831325,1,1,0,25,1,0
51125,901.201602136182,1,1,0,25,1,0
51129,898.801597869507,1,1,0,25,1,0
51133,896.414342629482,1,1,0,25,1,0
51137,894.039735099338,1,1,0,25,1,0
51141,891.677675033025,1,1,0,25,1,0
51145,889.328063241107,1,1,0,25,1,0
51149,886.990801576873,1,1,0,25,1,0
51153,884.665792922674,1,1,0,25,1,0
51157,882.352941176471,1,1,0,25,1,0
51161,880.052151238592,1,1,0,25,1,0
51165,877.7633289987,1,1,0,25,1,0
51169,875.486381322957,1,1,0,25,1,0
51173,873.221216041397,1,1,0,25,1,0
51177,870.967741935484,1,1,0,25,1,0
51181,868.725868725869,1,1,0,25,1,0
51185,866.495507060334,1,1,0,25,1,0
51189,864.276568501921,1,1,0,25,1,0
51193,862.068965517241,1,1,0,25,1,0
51197,859.872611464968,1,1,0,25,1,0
51201,857.687420584498,1,1,0,25,1,0
51205,855.513307984791,1,1,0,25,1,0
51209,853.350189633375,1,1,0,25,1,0
51213,851.197982345523,1,1,0,25,1,0
51217,849.056603773585,1,1,0,25,1,0
51221,846.925972396487,1,1,0,25,1,0
51225,844.806007509387,1,1,0,25,1,0
51229,842.696629213483,1,1,0,25,1,0
51233,840.597758405978,1,1,0,25,1,0
51237,838.509316770186,1,1,0,25,1,0
51241,836.431226765799,1,1,0,25,1,0
51245,834.363411619283,1,1,0,25,1,0
51249,832.305795314427,1,1,0,25,1,0
51253,830.258302583026,1,1,0,25,1,0
51257,828.220858895706,1,1,0,25,1,0
51261,826.193390452876,1,1,0,25,1,0
51265,824.175824175824,1,1,0,25,1,0
51269,822.168087697929,1,1,0,25,1,0
51273,820.170109356015,1,1,0,25,1,0
51277,818.181818181818,1,1,0,25,1,0
51281,816.203143893591,1,1,0,25,1,0
51285,814.234016887817,1,1,0,25,1,0
51289,812.274368231047,1,1,0,25,1,0
51293,810.324129651861,1,1,0,25,1,0
51297,808.383233532934,1,1,0,25,1,0
51301,806.451612903226,1,1,0,25,1,0
51305,804.529201430274,1,1,0,25,1,0
51309,802.615933412604,1,1,0,25,1,0
51313,800.711743772242,1,1,0,25,1,0
51317,798.816568047337,1,1,0,25,1,0
51321,796.930342384888,1,1,0,25,1,0
51325,795.053003533569,1,1,0,25,1,0
51329,793.184488836663,1,1,0,25,1,0
51333,791.324736225088,1,1,0,25,1,0
51337,789.473684210526,1,1,0,25,1,0
51341,787.631271878646,1,1,0,25,1,0
51345,785.797438882422,1,1,0,25,1,0
51349,783.97212543554,1,1,0,25,1,0
51353,782.15527230591,1,1,0,25,1,0
51357,780.346820809249,1,1,0,25,1,0
51361,778.546712802768,1,1,0,25,1,0
51365,776.754890678941,1,1,0,25,1,0
51369,774.971297359357,1,1,0,25,1,0
51373,773.19587628866,1,1,0,25,1,0
51377,771.428571428571,1,1,0,25,1,0
51381,769.669327251996,1,1,0,25,1,0
51385,767.918088737201,1,1,0,25,1,0
51389,766.174801362089,1,1,0,25,1,0
51393,764.439411098528,1,1,0,25,1,0
51397,762.71186440678,1,1,0,25,1,0
51401,760.992108229989,1,1,0,25,1,0
51405,759.280089988751,1,1,0,25,1,0
51409,757.575757575758,1,1,0,25,1,0
51413,755.879059350504,1,1,0,25,1,0
51417,754.189944134078,1,1,0,25,1,0
51421,752.508361204013,1,1,0,25,1,0
51425,750.83426028921,1,1,0,25,1,0
51429,749.167591564928,1,1,0,25,1,0
51433,747.508305647841,1,1,0,25,1,0
51437,745.85635359116,1,1,0,25,1,0
51441,744.211686879824,1,1,0,25,1,0
51445,742.574257425743,1,1,0,25,1,0
51449,740.944017563118,1,1,0,25,1,0
51453,739.320920043812,1,1,0,25,1,0
51457,737.704918032787,1,1,0,25,1,0
51461,736.095965103599,1,1,0,25,1,0
51465,734.49401523395,1,1,0,25,1,0
51469,732.899022801303,1,1,0,25,1,0
51473,731.310942578548,1,1,0,25,1,0
51477,729.72972972973,1,1,0,25,1,0
51481,728.155339805825,1,1,0,25,1,0
51485,726.587728740581,1,1,0,25,1,0
51489,725.026852846402,1,1,0,25,1,0
51493,723.472668810289,1,1,0,25,1,0
51497,721.92513368984,1,1,0,25,1,0
51501,720.384204909285,1,1,0,25,1,0
51505,718.849840255591,1,1,0,25,1,0
51509,717.321997874602,1,1,0,25,1,0
51513,715.800636267232,1,1,0,25,1,0
51517,714.285714285714,1,1,0,25,1,0
51521,712.777191129884,1,1,0,25,1,0
51525,711.27502634352,1,1,0,25,1,0
51529,709.779179810726,1,1,0,25,1,0
51533,708.289611752361,1,1,0,25,1,0
51537,706.806282722513,1,1,0,25,1,0
51541,705.329153605016,1,1,0,25,1,0
51545,703.85818561001,1,1,0,25,1,0
51549,702.393340270552,1,1,0,25,1,0
51553,700.934579439252,1,1,0,25,1,0
51557,699.481865284974,1,1,0,25,1,0
51561,698.035160289555,1,1,0,25,1,0
51565,696.594427244582,1,1,0,25,1,0
51569,695.159629248198,1,1,0,25,1,0
51573,693.730729701953,1,1,0,25,1,0
51577,692.307692307692,1,1,0,25,1,0
51581,690.890481064483,1,1,0,25,1,0
51585,689.479060265577,1,1,0,25,1,0
51589,688.073394495413,1,1,0,25,1,0
51593,686.673448626653,1,1,0,25,1,0
51597,685.279187817259,1,1,0,25,1,0
51601,683.890577507599,1,1,0,25,1,0
51605,682.507583417594,1,1,0,25,1,0
51609,681.130171543895,1,1,0,25,1,0
51613,679.7583081571,1,1,0,25,1,0
51617,678.391959798995,1,1,0,25,1,0
51621,677.03109327984,1,1,0,25,1,0
51625,675.675675675676,1,1,0,25,1,0
51629,674.325674325674,1,1,0,25,1,0
51633,672.981056829512,1,1,0,25,1,0
51637,671.641791044776,1,1,0,25,1,0
51641,670.307845084409,1,1,0,25,1,0
51645,668.979187314172,1,1,0,25,1,0
51649,667.655786350148,1,1,0,25,1,0
51653,666.337611056268,1,1,0,25,1,0
51657,665.024630541872,1,1,0,25,1,0
51661,663.716814159292,1,1,0,25,1,0
51665,662.414131501472,1,1,0,25,1,0
51669,661.116552399608,1,1,0,25,1,0
51673,659.824046920821,1,1,0,25,1,0
51677,658.536585365854,1,1,0,25,1,0
51681,657.254138266797,1,1,0,25,1,0
51685,655.97667638484,1,1,0,25,1,0
51689,654.704170708051,1,1,0,25,1,0
51693,653.436592449177,1,1,0,25,1,0
51697,652.173913043478,1,1,0,25,1,0
51701,650.916104146577,1,1,0,25,1,0
51705,649.663137632339,1,1,0,25,1,0
51709,648.414985590778,1,1,0,25,1,0
51713,647.171620325983,1,1,0,25,1,0
51717,645.933014354067,1,1,0,25,1,0
51721,644.699140401146,1,1,0,25,1,0
51725,643.469971401335,1,1,0,25,1,0
51729,642.245480494767,1,1,0,25,1,0
51733,641.025641025641,1,1,0,25,1,0
51737,639.810426540284,1,1,0,25,1,0
51741,638.599810785241,1,1,0,25,1,0
51745,637.393767705383,1,1,0,25,1,0
51749,636.192271442036,1,1,0,25,1,0
51753,634.995296331138,1,1,0,25,1,0
51757,633.802816901408,1,1,0,25,1,0
51761,632.61480787254,1,1,0,25,1,0
51765,631.431244153414,1,1,0,25,1,0
51769,630.252100840336,1,1,0,25,1,0
51773,629.077353215284,1,1,0,25,1,0
51777,627.906976744186,1,1,0,25,1,0
51781,626.740947075209,1,1,0,25,1,0
51785,625.579240037071,1,1,0,25,1,0
51789,624.421831637373,1,1,0,25,1,0
51793,623.268698060942,1,1,0,25,1,0
51797,622.119815668203,1,1,0,25,1,0
51801,620.97516099356,1,1,0,25,1,0
51805,619.834710743802,1,1,0,25,1,0
51809,618.698441796517,1,1,0,25,1,0
51813,617.566331198536,1,1,0,25,1,0
51817,616.438356164384,1,1,0,25,1,0
51821,615.314494074749,1,1,0,25,1,0
51825,614.194722474977,1,1,0,25,1,0
51829,613.079019073569,1,1,0,25,1,0
51833,611.967361740707,1,1,0,25,1,0
51837,610.859728506787,1,1,0,25,1,0
51841,609.756097560976,1,1,0,25,1,0
51845,608.656447249775,1,1,0,25,1,0
51849,607.560756075608,1,1,0,25,1,0
51853,606.469002695418,1,1,0,25,1,0
51857,605.381165919283,1,1,0,25,1,0
51861,604.297224709042,1,1,0,25,1,0
51865,603.217158176944,1,1,0,25,1,0
51869,602.1409455843,1,1,0,25,1,0
51873,601.06856634016,1,1,0,25,1,0
51877,600,1,1,0,25,1,0
52177,600,4,1,0,25,1,0
57127,600,1,1,0,25,1,0
57129,600,1,1,0,25,1,0
57131,600,1,1,0,25,1,0
57133,600,1,1,0,25,1,0
57135,600,1,1,0,25,1,0
57137,600,1,1,0,25,1,0
57139,600,1,1,0,25,1,0
57141,600,1,1,0,25,1,0
57143,600,1,1,0,25,1,0
57145,600,1,1,0,25,1,0
57147,600,1,1,0,25,1,0
57149,600,1,1,0,25,1,0
57151,600,1,1,0,25,1,0
57153,600,1,1,0,25,1,0
57155,600,1,1,0,25,1,0
57157,600,1,1,0,25,1,0
57159,600,1,1,0,25,1,0
57161,600,1,1,0,25,1,0
57163,600,1,1,0,25,1,0
57165,600,1,1,0,25,1,0
57167,600,1,1,0,25,1,0
57169,600,1,1,0,25,1,0
57171,600,1,1,0,25,1,0
57173,600,1,1,0,25,1,0
57175,600,1,1,0,25,1,0
57177,600,1,1,0,25,1,0
57179,600,1,1,0,25,1,0
57181,600,1,1,0,25,1,0
57183,600,1,1,0,25,1,0
57185,600,1,1,0,25,1,0
57187,600,1,1,0,25,1,0
57189,600,1,1,0,25,1,0
57191,600,1,1,0,25,1,0
57193,600,1,1,0,25,1,0
57195,600,1,1,0,25,1,0
57197,600,1,1,0,25,1,0
57199,600,1,1,0,25,1,0
57201,600,1,1,0,25,1,0
57203,600,1,1,0,25,1,0
57205,600,1,1,0,25,1,0
57207,600,1,1,0,25,1,0
57209,600,1,1,0,25,1,0
57211,600,1,1,0,25,1,0
57213,600,1,1,0,25,1,0
57215,600,1,1,0,25,1,0
57217,600,1,1,0,25,1,0
57219,600,1,1,0,25,1,0
57221,600,1,1,0,25,1,0
57223,600,1,1,0,25,1,0
57225,600,1,1,0,25,1,0
57227,600,1,1,0,25,1,0
57229,600,1,1,0,25,1,0
57231,600,1,1,0,25,1,0
57233,600,1,1,0,25,1,0
57235,600,1,1,0,25,1,0
57237,600,1,1,0,25,1,0
57239,600,1,1,0,25,1,0
57241,600,1,1,0,25,1,0
57243,600,1,1,0,25,1,0
57245,600,1,1,0,25,1,0
57247,600,1,1,0,25,1,0
57249,600,1,1,0,25,1,0
57251,600,1,1,0,25,1,0
57253,600,1,1,0,25,1,0
57255,600,1,1,0,25,1,0
57257,600,1,1,0,25,1,0
57259,600,1,1,0,25,1,0
57261,600,1,1,0,25,1,0
57263,600,1,1,0,25,1,0
57265,600,1,1,0,25,1,0
57267,600,1,1,0,25,1,0
57269,600,1,1,0,25,1,0
57271,600,1,1,0,25,1,0
57273,600,1,1,0,25,1,0
57275,600,1,1,0,25,1,0
57277,600,1,1,0,25,1,0
57577,2,1,1,0,25,1,0
57579,600,1,1,0,25,1,0
57581,600,1,1,0,25,1,0
57583,600,1,1,0,25,1,0
57585,600,1,1,0,25,1,0
57587,600,1,1,0,25,1,0
57589,600,1,1,0,25,1,0
57591,600,1,1,0,25,1,0
57593,600,1,1,0,25,1,0
57595,600,1,1,0,25,1,0
57597,600,1,1,0,25,1,0
57599,600,1,1,0,25,1,0
57601,600,1,1,0,25,1,0
57603,600,1,1,0,25,1,0
57605,600,1,1,0,25,1,0
57607,600,1,1,0,25,1,0
57609,600,1,1,0,25,1,0
57611,600,1,1,0,25,1,0
57613,600,1,1,0,25,1,0
57615,600,1,1,0,25,1,0
57617,600,1,1,0,25,1,0
57619,600,1,1,0,25,1,0
57621,600,1,1,0,25,1,0
57623,600,1,1,0,25,1,0
57625,600,1,1,0,25,1,0
57627,600,1,1,0,25,1,0
57629,600,1,1,0,25,1,0
57631,600,1,1,0,25,1,0
57633,600,1,1,0,25,1,0
57635,600,1,1,0,25,1,0
57637,600,1,1,0,25,1,0
57639,600,1,1,0,25,1,0
57641,600,1,1,0,25,1,0
57643,600,1,1,0,25,1,0
57645,600,1,1,0,25,1,0
57647,600,1,1,0,25,1,0
57649,600,1,1,0,25,1,0
57651,600,1,1,0,25,1,0
57653,600,1,1,0,25,1,0
57655,600,1,1,0,25,1,0
57657,600,1,1,0,25,1,0
57659,600,1,1,0,25,1,0
57661,600,1,1,0,25,1,0
57663,600,1,1,0,25,1,0
57665,600,1,1,0,25,1,0
57667,600,1,1,0,25,1,0
57669,600,1,1,0,25,1,0
57671,600,1,1,0,25,1,0
57673,600,1,1,0,25,1,0
57675,600,1,1,0,25,1,0
57677,600,1,1,0,25,1,0
57679,600,1,1,0,25,1,0
57681,600,1,1,0,25,1,0
57683,600,1,1,0,25,1,0
57685,600,1,1,0,25,1,0
57687,600,1,1,0,25,1,0
57689,600,1,1,0,25,1,0
57691,600,1,1,0,25,1,0
57693,600,1,1,0,25,1,0
57695,600,1,1,0,25,1,0
57697,600,1,1,0,25,1,0
57699,600,1,1,0,25,1,0
57701,600,1,1,0,25,1,0
57703,600,1,1,0,25,1,0
57705,600,1,1,0,25,1,0
57707,600,1,1,0,25,1,0
57709,600,1,1,0,25,1,0
57711,600,1,1,0,25,1,0
57713,600,1,1,0,25,1,0
57715,600,1,1,0,25,1,0
57717,600,1,1,0,25,1,0
57719,600,1,1,0,25,1,0
57721,600,1,1,0,25,1,0
57723,600,1,1,0,25,1,0
57725,600,1,1,0,25,1,0
57727,800,1,1,0,25,1,0
57752,800,1,1,0,25,1,0
57777,800,1,1,0,25,1,0
57802,800,1,1,0,25,1,0
57827,800,1,1,0,25,1,0
57852,800,1,1,0,25,1,0
57877,800,1,1,0,25,1,0
57902,800,1,1,0,25,1,0
57927,800,1,1,0,25,1,0
57952,800,1,1,0,25,1,0
57977,800,1,1,0,25,1,0
58002,800,1,1,0,25,1,0
58027,800,1,1,0,25,1,0
58052,800,1,1,0,25,1,0
58077,800,1,1,0,25,1,0
58102,800,1,1,0,25,1,0
58127,800,1,1,0,25,1,0
58152,800,1,1,0,25,1,0
58177,800,1,1,0,25,1,0
58202,800,1,1,0,25,1,0
58227,800,1,1,0,25,1,0
58252,800,1,1,0,25,1,0
58277,800,1,1,0,25,1,0
58302,800,1,1,0,25,1,0
58327,800,1,1,0,25,1,0
58352,800,1,1,0,25,1,0
58377,800,1,1,0,25,1,0
58402,800,1,1,0,25,1,0
58427,800,1,1,0,25,1,0
58452,800,1,1,0,25,1,0
58477,800,1,1,0,25,1,0
58502,800,1,1,0,25,1,0
58527,800,1,1,0,25,1,0
58552,800,1,1,0,25,1,0
58577,800,1,1,0,25,1,0
58602,800,1,1,0,25,1,0
58627,800,1,1,0,25,1,0
58652,800,1,1,0,25,1,0
58677,800,1,1,0,25,1,0
58702,800,1,1,0,25,1,0
58727,800,1,1,0,25,1,0
58752,800,1,1,0,25,1,0
58777,800,1,1,0,25,1,0
58802,800,1,1,0,25,1,0
58827,800,1,1,0,25,1,0
58852,800,1,1,0,25,1,0
58877,800,1,1,0,25,1,0
58902,800,1,1,0,25,1,0
58927,800,1,1,0,25,1,0
58952,800,1,1,0,25,1,0
58977,800,1,1,0,25,1,0
59002,800,1,1,0,25,1,0
59027,800,1,1,0,25,1,0
59052,800,1,1,0,25,1,0
59077,800,1,1,0,25,1,0
59102,800,1,1,0,25,1,0
59127,800,1,1,0,25,1,0
59152,800,1,1,0,25,1,0
59177,800,1,1,0,25,1,0
59202,800,1,1,0,25,1,0
59227,800,1,1,0,25,1,0
59252,800,1,1,0,25,1,0
59277,800,1,1,0,25,1,0
59302,800,1,1,0,25,1,0
59327,800,1,1,0,25,1,0
59352,800,1,1,0,25,1,0
59377,800,1,1,0,25,1,0
59402,800,1,1,0,25,1,0
59427,800,1,1,0,25,1,0
59452,800,1,1,0,25,1,0
59477,800,1,1,0,25,1,0
59502,800,1,1,0,25,1,0
59527,800,1,1,0,25,1,0
59552,800,1,1,0,25,1,0
59577,800,1,1,0,25,1,0
59602,800,1,1,0,25,1,0
59627,800,1,1,0,25,1,0
59652,800,1,1,0,25,1,0
59677,800,1,1,0,25,1,0
59702,800,1,1,0,25,1,0
59727,800,1,1,0,25,1,0
59752,800,1,1,0,25,1,0
59777,800,1,1,0,25,1,0
59802,800,1,1,0,25,1,0
59827,800,1,1,0,25,1,0
59852,800,1,1,0,25,1,0
59877,800,1,1,0,25,1,0
59902,800,1,1,0,25,1,0
59927,800,1,1,0,25,1,0
59952,800,1,1,0,25,1,0
59977,800,1,1,0,25,1,0
60002,800,1,1,0,25,1,0
60027,800,1,1,0,25,1,0
60052,800,1,1,0,25,1,0
60077,800,1,1,0,25,1,0
60102,800,1,1,0,25,1,0
60127,800,1,1,0,25,1,0
60152,800,1,1,0,25,1,0
60177,800,1,1,0,25,1,0
60202,800,1,1,0,25,1,0
60227,800,1,1,0,25,1,0
60252,800,1,1,0,25,1,0
60277,800,1,1,0,25,1,0
60302,800,1,1,0,25,1,0
60327,800,1,1,0,25,1,0
60352,800,1,1,0,25,1,0
60377,800,1,1,0,25,1,0
60402,800,1,1,0,25,1,0
60427,800,1,1,0,25,1,0
60452,800,1,1,0,25,1,0
60477,800,1,1,0,25,1,0
60502,800,1,1,0,25,1,0
60527,800,1,1,0,25,1,0
60552,800,1,1,0,25,1,0
60577,800,1,1,0,25,1,0
60602,800,1,1,0,25,1,0
60627,800,1,1,0,25,1,0
60652,800,1,1,0,25,1,0
60677,800,1,1,0,25,1,0
60702,800,1,1,0,25,1,0
60727,800,1,1,0,25,1,0
60752,800,1,1,0,25,1,0
60777,800,1,1,0,25,1,0
60802,800,1,1,0,25,1,0
60827,800,1,1,0,25,1,0
60852,800,1,1,0,25,1,0
60877,800,1,1,0,25,1,0
60902,800,1,1,0,25,1,0
60927,800,1,1,0,25,1,0
60952,800,1,1,0,25,1,0
60977,800,1,1,0,25,1,0
61002,800,1,1,0,25,1,0
61027,800,1,1,0,25,1,0
61052,800,1,1,0,25,1,0
61077,800,1,1,0,25,1,0
61102,800,1,1,0,25,1,0
61127,800,1,1,0,25,1,0
61152,800,1,1,0,25,1,0
61177,800,1,1,0,25,1,0
61202,800,1,1,0,25,1,0
61227,800,1,1,0,25,1,0
61252,800,1,1,0,25,1,0
61277,800,1,1,0,25,1,0
61302,800,1,1,0,25,1,0
61327,800,1,1,0,25,1,0
61352,800,1,1,0,25,1,0
61377,800,1,1,0,25,1,0
61402,800,1,1,0,25,1,0
61427,800,1,1,0,25,1,0
61452,800,1,1,0,25,1,0
61477,800,1,1,0,25,1,0
61502,800,1,1,0,25,1,0
61527,800,1,1,0,25,1,0
61552,800,1,1,0,25,1,0
61577,800,1,1,0,25,1,0
61602,800,1,1,0,25,1,0
61627,800,1,1,0,25,1,0
61652,800,1,1,0,25,1,0
61677,800,1,1,0,25,1,0
61702,800,1,1,0,25,1,0
61727,800,1,1,0,25,1,0
61752,800,1,1,0,25,1,0
61777,1200,4,1,0,25,1,0
63202,2,1,1,0,25,1,0
63204,1200,1,1,0,25,1,0
63206,1200,1,1,0,25,1,0
63208,1200,1,1,0,25,1,0
63210,1200,1,1,0,25,1,0
63212,1200,1,1,0,25,1,0
63214,1200,1,1,0,25,1,0
63216,1200,1,1,0,25,1,0
63218,1200,1,1,0,25,1,0
63220,1200,1,1,0,25,1,0
63222,1200,1,1,0,25,1,0
63224,1200,1,1,0,25,1,0
63226,1200,1,1,0,25,1,0
63228,1200,1,1,0,25,1,0
63230,1200,1,1,0,25,1,0
63232,1200,1,1,0,25,1,0
63234,1200,1,1,0,25,1,0
63236,1200,1,1,0,25,1,0
63238,1200,1,1,0,25,1,0
63240,1200,1,1,0,25,1,0
63242,1200,1,1,0,25,1,0
63244,1200,1,1,0,25,1,0
63246,1200,1,1,0,25,1,0
63248,1200,1,1,0,25,1,0
63250,1200,1,1,0,25,1,0
63252,1200,1,1,0,25,1,0
63254,1200,1,1,0,25,1,0
63256,1200,1,1,0,25,1,0
63258,1200,1,1,0,25,1,0
63260,1200,1,1,0,25,1,0
63262,1200,1,1,0,25,1,0
63264,1200,1,1,0,25,1,0
63266,1200,1,1,0,25,1,0
63268,1200,1,1,0,25,1,0
63270,1200,1,1,0,25,1,0
63272,1200,1,1,0,25,1,0
63274,1200,1,1,0,25,1,0
63276,1200,1,1,0,25,1,0
63278,1200,1,1,0,25,1,0
63280,1200,1,1,0,25,1,0
63282,1200,1,1,0,25,1,0
63284,1200,1,1,0,25,1,0
63286,1200,1,1,0,25,1,0
63288,1200,1,1,0,25,1,0
63290,1200,1,1,0,25,1,0
63292,1200,1,1,0,25,1,0
63294,1200,1,1,0,25,1,0
63296,1200,1,1,0,25,1,0
63298,1200,1,1,0,25,1,0
63300,1200,1,1,0,25,1,0
63302,1200,1,1,0,25,1,0
63304,1200,1,1,0,25,1,0
63306,1200,1,1,0,25,1,0
63308,1200,1,1,0,25,1,0
63310,1200,1,1,0,25,1,0
63312,1200,1,1,0,25,1,0
63314,1200,1,1,0,25,1,0
63316,1200,1,1,0,25,1,0
63318,1200,1,1,0,25,1,0
63320,1200,1,1,0,25,1,0
63322,1200,1,1,0,25,1,0
63324,1200,1,1,0,25,1,0
63326,1200,1,1,0,25,1,0
63328,1200,1,1,0,25,1,0
63330,1200,1,1,0,25,1,0
63332,1200,1,1,0,25,1,0
63334,1200,1,1,0,25,1,0
63336,1200,1,1,0,25,1,0
63338,1200,1,1,0,25,1,0
63340,1200,1,1,0,25,1,0
63342,1200,1,1,0,25,1,0
63344,1200,1,1,0,25,1,0
63346,1200,1,1,0,25,1,0
63348,1200,1,1,0,25,1,0
63350,1200,1,1,0,25,1,0
63352,1200,1,1,0,25,1,0
64177,18.359853121175,4,1,0,25,1,0
64181,19.5439739413681,4,1,0,25,1,0
64185,9.93377483443709,4,1,0,25,1,0
64189,9.61846745751844,4,1,0,25,1,0
64193,16.3755458515284,4,1,0,25,1,0
64197,11.7279124315872,4,1,0,25,1,0
64201,19.1326530612245,4,1,0,25,1,0
64205,16.9875424688562,4,1,0,25,1,0
64209,6.16269515201315,4,1,0,25,1,0
64213,8.61573808156232,4,1,0,25,1,0
64217,8.00854244527496,4,1,0,25,1,0
64221,7.48129675810474,4,1,0,25,1,0
64225,23.60346184107,4,1,0,25,1,0
64229,201.342281879195,4,1,0,25,1,0
64233,17.3110213502597,4,1,0,25,1,0
64237,12.7118644067797,4,1,0,25,1,0
64241,120.967741935484,4,1,0,25,1,0
64245,6.33445945945946,4,1,0,25,1,0
64249,8.61573808156232,4,1,0,25,1,0
64253,19.5439739413681,4,1,0,25,1,0
64257,6.56311529205863,4,1,0,25,1,0
64261,8.4554678692221,4,1,0,25,1,0
64265,6.12119975515201,4,1,0,25,1,0
64269,9.41915227629513,4,1,0,25,1,0
64273,16.0857908847185,4,1,0,25,1,0
64277,42.2535211267606,4,1,0,25,1,0
64281,58.59375,4,1,0,25,1,0
64285,7.36015701668302,4,1,0,25,1,0
64289,8.69817338358945,4,1,0,25,1,0
64293,16.0857908847185,4,1,0,25,1,0
64297,38.659793814433,4,1,0,25,1,0
64301,10.7565435640014,4,1,0,25,1,0
64305,9.93377483443709,4,1,0,25,1,0
64309,12.8921357971637,4,1,0,25,1,0
64313,55.045871559633,4,1,0,25,1,0
64317,49.0998363338789,4,1,0,25,1,0
64321,37.0828182941904,4,1,0,25,1,0
64325,27.9589934762349,4,1,0,25,1,0
64329,6.86027898467871,4,1,0,25,1,0
64333,7.24287783679382,4,1,0,25,1,0
64337,11.5785411038209,4,1,0,25,1,0
64341,51.9031141868512,1,1,0,25,1,0
64345,7.48129675810474,1,1,0,25,1,0
64349,8.78220140515223,1,1,0,25,1,0
64353,13.077593722755,1,1,0,25,1,0
64357,10.6307583274274,1,1,0,25,1,0
64361,13.2684652808492,1,1,0,25,1,0
64365,35.6294536817102,1,1,0,25,1,0
64369,6.91244239631336,1,1,0,25,1,0
64373,24.896265560166,1,1,0,25,1,0
64377,44.3131462333826,1,1,0,25,1,0
64381,7.30104648332928,1,1,0,25,1,0
64385,13.077593722755,1,1,0,25,1,0
64389,8.37754817090198,1,1,0,25,1,0
64393,8.4554678692221,1,1,0,25,1,0
64397,11.0172603745869,1,1,0,25,1,0
64401,8.37754817090198,1,1,0,25,1,0
64405,12.8921357971637,1,1,0,25,1,0
64409,8.86786875554242,1,1,0,25,1,0
64413,7.30104648332928,1,1,0,25,1,0
64417,6.75827889164226,1,1,0,25,1,0
64421,20.4220558202859,1,1,0,25,1,0
64425,6.24739691795085,1,1,0,25,1,0
64429,600,1,1,0,25,1,0
64433,95.5414012738854,1,1,0,25,1,0
64437,9.41915227629513,1,1,0,25,1,0
64441,6.42398286937902,1,1,0,25,1,0
64445,7.67067246228586,1,1,0,25,1,0
64449,14.3129770992366,1,1,0,25,1,0
64453,72.6392251815981,1,1,0,25,1,0
64457,19.9733688415446,1,1,0,25,1,0
64461,6.91244239631336,1,1,0,25,1,0
64465,24.896265560166,1,1,0,25,1,0
64469,8.30105146651909,1,1,0,25,1,0
64473,7.07380334826692,1,1,0,25,1,0
64477,18.738288569644,1,1,0,25,1,0
64481,35.6294536817102,1,1,0,25,1,0
64485,18.359853121175,1,1,0,25,1,0
64489,38.659793814433,1,1,0,25,1,0
64493,9.93377483443709,1,1,0,25,1,0
64497,11.0172603745869,1,1,0,25,1,0
64501,55.045871559633,1,1,0,25,1,0
64505,7.86988457502623,1,1,0,25,1,0
64509,42.2535211267606,1,1,0,25,1,0
64513,16.0857908847185,1,1,0,25,1,0
64517,7.12927756653992,1,1,0,25,1,0
64521,12.5365649811952,1,1,0,25,1,0
64525,9.51776649746193,1,1,0,25,1,0
64529,7.24287783679382,1,1,0,25,1,0
64533,9.51776649746193,1,1,0,25,1,0
64537,40.3768506056528,1,1,0,25,1,0
64541,20.891364902507,1,1,0,25,1,0
64545,6.03986309643648,1,1,0,25,1,0
64549,11.8811881188119,1,1,0,25,1,0
64553,6.56311529205863,1,1,0,25,1,0
64557,7.60649087221095,1,1,0,25,1,0
64561,31.8809776833156,1,1,0,25,1,0
64565,29.7914597815293,1,1,0,25,1,0
64569,9.51776649746193,1,1,0,25,1,0
64573,12.0385232744783,1,1,0,25,1,0
64577,11.4329268292683,1,1,0,25,1,0
64581,7.07380334826692,1,1,0,25,1,0
64585,8.69817338358945,1,1,0,25,1,0
64589,23.60346184107,1,1,0,25,1,0
64593,6.33445945945946,1,1,0,25,1,0
64597,7.80234070221066,1,1,0,25,1,0
64601,19.9733688415446,1,1,0,25,1,0
64605,6.2047569803516,1,1,0,25,1,0
64609,18.738288569644,1,1,0,25,1,0
64613,106.761565836299,1,1,0,25,1,0
64617,24.896265560166,1,1,0,25,1,0
64621,78.9473684210526,1,1,0,25,1,0
64625,10.0435219283562,1,1,0,25,1,0
64629,600,1,1,0,25,1,0
64633,30.8008213552361,1,1,0,25,1,0
64637,10.507880910683,1,1,0,25,1,0
64641,27.124773960217,1,1,0,25,1,0
64645,17.996400719856,1,1,0,25,1,0
64649,7.86988457502623,1,1,0,25,1,0
64653,8.15217391304348,1,1,0,25,1,0
64657,21.8978102189781,1,1,0,25,1,0
64661,6.33445945945946,1,1,0,25,1,0
64665,11.4329268292683,1,1,0,25,1,0
64669,67.2645739910314,1,1,0,25,1,0
64673,21.8978102189781,1,1,0,25,1,0
64677,9.72132209980557,1,1,0,25,1,0
64681,27.124773960217,1,1,0,25,1,0
64685,17.3110213502597,1,1,0,25,1,0
64689,600,1,1,0,25,1,0
64693,11.7279124315872,1,1,0,25,1,0
64697,62.6304801670146,1,1,0,25,1,0
64701,19.5439739413681,1,1,0,25,1,0
64705,7.48129675810474,1,1,0,25,1,0
64709,86.4553314121038,1,1,0,25,1,0
64713,15.2749490835031,1,1,0,25,1,0
64717,24.232633279483,1,1,0,25,1,0
64721,6.42398286937902,1,1,0,25,1,0
64725,9.51776649746193,1,1,0,25,1,0
64729,7.42023250061835,1,1,0,25,1,0
64733,7.30104648332928,1,1,0,25,1,0
64737,46.583850931677,1,1,0,25,1,0
64741,9.22792986773301,1,1,0,25,1,0
64745,51.9031141868512,1,1,0,25,1,0
64749,14.5419292292778,1,1,0,25,1,0
64753,164.835164835165,1,1,0,25,1,0
64757,17.3110213502597,1,1,0,25,1,0
64761,14.5419292292778,1,1,0,25,1,0
64765,6.24739691795085,1,1,0,25,1,0
64769,8.69817338358945,1,1,0,25,1,0
64773,72.6392251815981,1,1,0,25,1,0
64777,1200,1,1,0,25,1,0
64927,19.9733688415446,4,1,0,25,1,0
64931,15.2749490835031,4,1,0,25,1,0
64935,258.620689655172,4,1,0,25,1,0
64939,7.24287783679382,4,1,0,25,1,0
64943,24.232633279483,4,1,0,25,1,0
64947,11.7279124315872,4,1,0,25,1,0
64951,13.4649910233393,4,1,0,25,1,0
64955,13.4649910233393,4,1,0,25,1,0
64959,6.33445945945946,4,1,0,25,1,0
64963,6.61084178052005,4,1,0,25,1,0
64967,19.9733688415446,4,1,0,25,1,0
64971,11.1524163568773,4,1,0,25,1,0
64975,38.659793814433,4,1,0,25,1,0
64979,8.30105146651909,4,1,0,25,1,0
64983,18.359853121175,4,1,0,25,1,0
64987,28.8461538461538,4,1,0,25,1,0
64991,11.4329268292683,4,1,0,25,1,0
64995,16.3755458515284,4,1,0,25,1,0
64999,13.4649910233393,4,1,0,25,1,0
65003,9.13520097442144,4,1,0,25,1,0
65007,11.7279124315872,4,1,0,25,1,0
65011,12.7118644067797,4,1,0,25,1,0
65015,10.8853410740203,4,1,0,25,1,0
65019,12.7118644067797,4,1,0,25,1,0
65023,6.24739691795085,4,1,0,25,1,0
65027,11.7279124315872,4,1,0,25,1,0
65031,6.16269515201315,4,1,0,25,1,0
65035,67.2645739910314,4,1,0,25,1,0
65039,58.59375,4,1,0,25,1,0
65043,18.359853121175,4,1,0,25,1,0
65047,11.1524163568773,4,1,0,25,1,0
65051,258.620689655172,4,1,0,25,1,0
65055,14.7783251231527,4,1,0,25,1,0
65059,21.8978102189781,4,1,0,25,1,0
65063,12.7118644067797,4,1,0,25,1,0
65067,6.51607298001738,4,1,0,25,1,0
65071,42.2535211267606,4,1,0,25,1,0
65075,78.9473684210526,4,1,0,25,1,0
65079,7.12927756653992,4,1,0,25,1,0
65083,11.4329268292683,4,1,0,25,1,0
65087,6.08025942440211,4,1,0,25,1,0
65091,12.7118644067797,1,1,0,25,1,0
65095,42.2535211267606,1,1,0,25,1,0
65099,7.73594636410521,1,1,0,25,1,0
65103,6.33445945945946,1,1,0,25,1,0
65107,9.32256059664388,1,1,0,25,1,0
65111,7.36015701668302,1,1,0,25,1,0
65115,6.61084178052005,1,1,0,25,1,0
65119,600,1,1,0,25,1,0
65123,8.61573808156232,1,1,0,25,1,0
65127,8.61573808156232,1,1,0,25,1,0
65131,8.00854244527496,1,1,0,25,1,0
65135,18.359853121175,1,1,0,25,1,0
65139,10.387811634349,1,1,0,25,1,0
65143,13.4649910233393,1,1,0,25,1,0
65147,42.2535211267606,1,1,0,25,1,0
65151,12.0385232744783,1,1,0,25,1,0
65155,51.9031141868512,1,1,0,25,1,0
65159,13.8760407030527,1,1,0,25,1,0
65163,6.61084178052005,1,1,0,25,1,0
65167,18.359853121175,1,1,0,25,1,0
65171,9.32256059664388,1,1,0,25,1,0
65175,13.077593722755,1,1,0,25,1,0
65179,16.3755458515284,1,1,0,25,1,0
65183,95.5414012738854,1,1,0,25,1,0
65187,9.51776649746193,1,1,0,25,1,0
65191,10.6307583274274,1,1,0,25,1,0
65195,6.80889695869269,1,1,0,25,1,0
65199,95.5414012738854,1,1,0,25,1,0
65203,24.232633279483,1,1,0,25,1,0
65207,8.4554678692221,1,1,0,25,1,0
65211,58.59375,1,1,0,25,1,0
65215,10.8853410740203,1,1,0,25,1,0
65219,8.95522388059701,1,1,0,25,1,0
65223,27.124773960217,1,1,0,25,1,0
65227,1200,1,1,0,25,1,0
65377,9.39481719251546,4,1,0,25,1,0
65381,6.70840787119857,4,1,0,25,1,0
65385,23.7576717481687,4,1,0,25,1,0
65389,6.44676050284732,4,1,0,25,1,0
65393,6.11091307226155,4,1,0,25,1,0
65397,24.896265560166,4,1,0,25,1,0
65401,13.3170569304184,4,1,0,25,1,0
65405,7.19985600287994,4,1,0,25,1,0
65409,7.57480116146951,4,1,0,25,1,0
65413,37.8548895899054,4,1,0,25,1,0
65417,9.18133129303749,4,1,0,25,1,0
65421,16.5998063355928,4,1,0,25,1,0
65425,13.1247949250793,4,1,0,25,1,0
65429,213.143872113677,4,1,0,25,1,0
65433,7.28641690448722,4,1,0,25,1,0
65437,13.2202269472293,4,1,0,25,1,0
65441,7.24287783679382,4,1,0,25,1,0
65445,16.6759310728182,4,1,0,25,1,0
65449,7.00566291085294,4,1,0,25,1,0
65453,9.72132209980557,4,1,0,25,1,0
65457,11.3614845673168,4,1,0,25,1,0
65461,38.659793814433,4,1,0,25,1,0
65465,14.6003163401874,4,1,0,25,1,0
65469,258.620689655172,4,1,0,25,1,0
65473,145.102781136638,4,1,0,25,1,0
65477,15.5359917141378,4,1,0,25,1,0
65481,9.7735787587555,4,1,0,25,1,0
65485,9.39481719251546,4,1,0,25,1,0
65489,7.78563550249789,4,1,0,25,1,0
65493,9.34652231482203,4,1,0,25,1,0
65497,39.4996708360764,4,1,0,25,1,0
65501,12.8013654789844,4,1,0,25,1,0
65505,12.8013654789844,4,1,0,25,1,0
65509,13.2202269472293,4,1,0,25,1,0
65513,20.4220558202859,4,1,0,25,1,0
65517,23.1526143160332,4,1,0,25,1,0
65521,7.59061294199507,4,1,0,25,1,0
65525,6.26893741510814,4,1,0,25,1,0
65529,9.02187805428163,4,1,0,25,1,0
65533,31.6038978140637,4,1,0,25,1,0
65537,7.81911774288135,4,1,0,25,1,0
65541,67.2645739910314,1,1,0,25,1,0
65545,6.95208852326053,1,1,0,25,1,0
65549,28.1756280817093,1,1,0,25,1,0
65553,21.1342021838676,1,1,0,25,1,0
65557,67.2645739910314,1,1,0,25,1,0
65561,13.4153158188932,1,1,0,25,1,0
65565,19.8642608839596,1,1,0,25,1,0
65569,6.09044307973405,1,1,0,25,1,0
65573,7.48129675810474,1,1,0,25,1,0
65577,9.2045716038966,1,1,0,25,1,0
65581,27.5355667737494,1,1,0,25,1,0
65585,301.507537688442,1,1,0,25,1,0
65589,11.998800119988,1,1,0,25,1,0
65593,7.15734224024812,1,1,0,25,1,0
65597,9.69540276318979,1,1,0,25,1,0
65601,90.7715582450832,1,1,0,25,1,0
65605,24.0722166499498,1,1,0,25,1,0
65609,8.33912439193885,1,1,0,25,1,0
65613,10.9509034495346,1,1,0,25,1,0
65617,139.53488372093,1,1,0,25,1,0
65621,14.2568611144113,1,1,0,25,1,0
65625,12.8465903008243,1,1,0,25,1,0
65629,18.6422246388069,1,1,0,25,1,0
65633,7.30104648332928,1,1,0,25,1,0
65637,9.5930929730594,1,1,0,25,1,0
65641,25.2419015565839,1,1,0,25,1,0
65645,6.63496627225478,1,1,0,25,1,0
65649,10.6307583274274,1,1,0,25,1,0
65653,7.68688745115624,1,1,0,25,1,0
65657,7.19985600287994,1,1,0,25,1,0
65661,8.26332461093513,1,1,0,25,1,0
65665,8.07971990304336,1,1,0,25,1,0
65669,8.39689314953467,1,1,0,25,1,0
65673,39.9334442595674,1,1,0,25,1,0
65677,11.2559797392365,1,1,0,25,1,0
65681,16.1572640366231,1,1,0,25,1,0
65685,7.33048259010385,1,1,0,25,1,0
65689,19.5439739413681,1,1,0,25,1,0
65693,7.22848021203542,1,1,0,25,1,0
65697,8.17049091032886,1,1,0,25,1,0
65701,7.80234070221066,1,1,0,25,1,0
65705,6.21536230382763,1,1,0,25,1,0
65709,7.28641690448722,1,1,0,25,1,0
65713,8.78220140515223,1,1,0,25,1,0
65717,22.5776105362183,1,1,0,25,1,0
65721,9.32256059664388,1,1,0,25,1,0
65725,15.6026524509167,1,1,0,25,1,0
65729,8.6567594863656,1,1,0,25,1,0
65733,75.6620428751576,1,1,0,25,1,0
65737,10.4475013059377,1,1,0,25,1,0
65741,6.32344416925752,1,1,0,25,1,0
65745,6.93882271307968,1,1,0,25,1,0
65749,13.1247949250793,1,1,0,25,1,0
65753,6.93882271307968,1,1,0,25,1,0
65757,8.82482718046772,1,1,0,25,1,0
65761,8.78220140515223,1,1,0,25,1,0
65765,134.37849944009,1,1,0,25,1,0
65769,26.9239398698676,1,1,0,25,1,0
65773,35.2837400764481,1,1,0,25,1,0
65777,16.229375169056,1,1,0,25,1,0
65781,6.15226864906434,1,1,0,25,1,0
65785,64.8648648648649,1,1,0,25,1,0
65789,13.5150354769681,1,1,0,25,1,0
65793,6.89932731558673,1,1,0,25,1,0
65797,258.620689655172,1,1,0,25,1,0
65801,21.7667331761292,1,1,0,25,1,0
65805,7.07380334826692,1,1,0,25,1,0
65809,8.00854244527496,1,1,0,25,1,0
65813,11.5785411038209,1,1,0,25,1,0
65817,11.397093741096,1,1,0,25,1,0
65821,18.5471406491499,1,1,0,25,1,0
65825,9.1582080439594,1,1,0,25,1,0
65829,21.8978102189781,1,1,0,25,1,0
65833,17.5618322845017,1,1,0,25,1,0
65837,11.6527481064284,1,1,0,25,1,0
65841,7.36015701668302,1,1,0,25,1,0
65845,61.5700359158543,1,1,0,25,1,0
65849,6.08025942440211,1,1,0,25,1,0
65853,6.10066090493137,1,1,0,25,1,0
65857,10.2704553235193,1,1,0,25,1,0
65861,7.88695366414722,1,1,0,25,1,0
65865,8.09771239624806,1,1,0,25,1,0
65869,28.1756280817093,1,1,0,25,1,0
65873,78.9473684210526,1,1,0,25,1,0
65877,6.70840787119857,1,1,0,25,1,0
65881,14.4840072420036,1,1,0,25,1,0
65885,7.14328233823442,1,1,0,25,1,0
65889,6.05999394000606,1,1,0,25,1,0
65893,8.6567594863656,1,1,0,25,1,0
65897,10.6619280319858,1,1,0,25,1,0
65901,40.3768506056528,1,1,0,25,1,0
65905,113.421550094518,1,1,0,25,1,0
65909,17.996400719856,1,1,0,25,1,0
65913,22.7186671715259,1,1,0,25,1,0
65917,7.88695366414722,1,1,0,25,1,0
65921,12.0385232744783,1,1,0,25,1,0
65925,6.17315705540409,1,1,0,25,1,0
65929,8.61573808156232,1,1,0,25,1,0
65933,13.172338090011,1,1,0,25,1,0
65937,19.3361263293587,1,1,0,25,1,0
65941,401.33779264214,1,1,0,25,1,0
65945,6.50441758360887,1,1,0,25,1,0
65949,13.077593722755,1,1,0,25,1,0
65953,8.4554678692221,1,1,0,25,1,0
65957,117.073170731707,1,1,0,25,1,0
65961,9.02187805428163,1,1,0,25,1,0
65965,16.0857908847185,1,1,0,25,1,0
65969,75.6620428751576,1,1,0,25,1,0
65973,7.42023250061835,1,1,0,25,1,0
65977,14.5419292292778,1,1,0,25,1,0
65981,17.996400719856,1,1,0,25,1,0
65985,6.83449139993166,1,1,0,25,1,0
65989,8.39689314953467,1,1,0,25,1,0
65993,86.4553314121038,1,1,0,25,1,0
65997,20.0836820083682,1,1,0,25,1,0
66001,7.42023250061835,1,1,0,25,1,0
66005,23.1526143160332,1,1,0,25,1,0
66009,6.73325103804287,1,1,0,25,1,0
66013,6.4013656246666,1,1,0,25,1,0
66017,20.6540447504303,1,1,0,25,1,0
66021,6.21536230382763,1,1,0,25,1,0
66025,6.31246712256707,1,1,0,25,1,0
66029,12.0785103170609,1,1,0,25,1,0
66033,24.3952022768855,1,1,0,25,1,0
66037,7.81911774288135,1,1,0,25,1,0
66041,600,1,1,0,25,1,0
66045,14.03672944204,1,1,0,25,1,0
66049,10.2127659574468,1,1,0,25,1,0
66053,6.70840787119857,1,1,0,25,1,0
66057,10.7884563517037,1,1,0,25,1,0
66061,14.4840072420036,1,1,0,25,1,0
66065,9.8797958175531,1,1,0,25,1,0
66069,9.41915227629513,1,1,0,25,1,0
66073,6.59884520208964,1,1,0,25,1,0
66077,11.4329268292683,1,1,0,25,1,0
66081,12.7118644067797,1,1,0,25,1,0
66085,33.3425951653237,1,1,0,25,1,0
66089,151.133501259446,1,1,0,25,1,0
66093,7.15734224024812,1,1,0,25,1,0
66097,40.8302143586254,1,1,0,25,1,0
66101,8.76104256406512,1,1,0,25,1,0
66105,11.5785411038209,1,1,0,25,1,0
66109,258.620689655172,1,1,0,25,1,0
66113,20.7720270036351,1,1,0,25,1,0
66117,7.68688745115624,1,1,0,25,1,0
66121,21.3827512473272,1,1,0,25,1,0
66125,13.4649910233393,1,1,0,25,1,0
66129,72.6392251815981,1,1,0,25,1,0
66133,401.33779264214,1,1,0,25,1,0
66137,16.0857908847185,1,1,0,25,1,0
66141,7.95597692766691,1,1,0,25,1,0
66145,11.0172603745869,1,1,0,25,1,0
66149,6.89932731558673,1,1,0,25,1,0
66153,6.70840787119857,1,1,0,25,1,0
66157,16.7527572246266,1,1,0,25,1,0
66161,9.08953188910771,1,1,0,25,1,0
66165,20.7720270036351,1,1,0,25,1,0
66169,43.2588320115357,1,1,0,25,1,0
66173,10.2995451034246,1,1,0,25,1,0
66177,14.6003163401874,1,1,0,25,1,0
66181,6.18365453983304,1,1,0,25,1,0
66185,6.63496627225478,1,1,0,25,1,0
66189,7.12927756653992,1,1,0,25,1,0
66193,6.11091307226155,1,1,0,25,1,0
66197,12.5365649811952,1,1,0,25,1,0
66201,9.29872142580395,1,1,0,25,1,0
66205,7.43540491975959,1,1,0,25,1,0
66209,9.93377483443709,1,1,0,25,1,0
66213,6.24739691795085,1,1,0,25,1,0
66217,7.62243536810011,1,1,0,25,1,0
66221,19.5439739413681,1,1,0,25,1,0
66225,9.5427435387674,1,1,0,25,1,0
66229,6.23668208513071,1,1,0,25,1,0
66233,6.2047569803516,1,1,0,25,1,0
66237,68.5322672758424,1,1,0,25,1,0
66241,16.52437345084,1,1,0,25,1,0
66245,13.3660057919358,1,1,0,25,1,0
66249,6.70840787119857,1,1,0,25,1,0
66253,151.133501259446,1,1,0,25,1,0
66257,15.4698981565038,1,1,0,25,1,0
66261,13.5150354769681,1,1,0,25,1,0
66265,6.24739691795085,1,1,0,25,1,0
66269,7.95597692766691,1,1,0,25,1,0
66273,19.2338515787787,1,1,0,25,1,0
66277,11.3260972156678,1,1,0,25,1,0
66281,14.8386298998392,1,1,0,25,1,0
66285,10.9180238376854,1,1,0,25,1,0
66289,10.0435219283562,1,1,0,25,1,0
66293,71.2166172106825,1,1,0,25,1,0
66297,26.9239398698676,1,1,0,25,1,0
66301,39.0752197981114,1,1,0,25,1,0
66305,13.2684652808492,1,1,0,25,1,0
66309,63.7280934678704,1,1,0,25,1,0
66313,23.3009708737864,1,1,0,25,1,0
66317,14.0911225927666,1,1,0,25,1,0
66321,6.86027898467871,1,1,0,25,1,0
66325,7.59061294199507,1,1,0,25,1,0
66329,13.077593722755,1,1,0,25,1,0
66333,20.7720270036351,1,1,0,25,1,0
66337,9.64397653299044,1,1,0,25,1,0
66341,106.761565836299,1,1,0,25,1,0
66345,7.11532760154165,1,1,0,25,1,0
66349,6.72080649677961,1,1,0,25,1,0
66353,27.9589934762349,1,1,0,25,1,0
66357,9.2045716038966,1,1,0,25,1,0
66361,8.39689314953467,1,1,0,25,1,0
66365,6.16269515201315,1,1,0,25,1,0
66369,78.9473684210526,1,1,0,25,1,0
66373,22.8614974280815,1,1,0,25,1,0
66377,16.9875424688562,1,1,0,25,1,0
66381,8.26332461093513,1,1,0,25,1,0
66385,8.17049091032886,1,1,0,25,1,0
66389,8.20737295670611,1,1,0,25,1,0
66393,6.83449139993166,1,1,0,25,1,0
66397,15.2110533654456,1,1,0,25,1,0
66401,100.840336134454,1,1,0,25,1,0
66405,6.42398286937902,1,1,0,25,1,0
66409,6.45820999946182,1,1,0,25,1,0
66413,129.589632829374,1,1,0,25,1,0
66417,8.5348506401138,1,1,0,25,1,0
66421,6.26893741510814,1,1,0,25,1,0
66425,13.5654533122315,1,1,0,25,1,0
66429,14.1459389366969,1,1,0,25,1,0
66433,9.8797958175531,1,1,0,25,1,0
66437,6.87324589037173,1,1,0,25,1,0
66441,20.1952204644901,1,1,0,25,1,0
66445,39.9334442595674,1,1,0,25,1,0
66449,14.960728088767,1,1,0,25,1,0
66453,7.90409695692267,1,1,0,25,1,0
66457,11.8424948189085,1,1,0,25,1,0
66461,11.5785411038209,1,1,0,25,1,0
66465,6.95208852326053,1,1,0,25,1,0
66469,7.62243536810011,1,1,0,25,1,0
66473,23.0061349693252,1,1,0,25,1,0
66477,10.3288001377173,1,1,0,25,1,0
66481,241.448692152918,1,1,0,25,1,0
66485,11.2559797392365,1,1,0,25,1,0
66489,13.5150354769681,1,1,0,25,1,0
66493,7.46593666397063,1,1,0,25,1,0
66497,10.1274369145076,1,1,0,25,1,0
66501,11.6527481064284,1,1,0,25,1,0
66505,16.9875424688562,1,1,0,25,1,0
66509,7.04638872577804,1,1,0,25,1,0
66513,7.31573492653783,1,1,0,25,1,0
66517,20.1952204644901,1,1,0,25,1,0
66521,8.5348506401138,1,1,0,25,1,0
66525,9.37060752772138,1,1,0,25,1,0
66529,7.57480116146951,1,1,0,25,1,0
66533,6.26893741510814,1,1,0,25,1,0
66537,10.241529401724,1,1,0,25,1,0
66541,9.56785201722213,1,1,0,25,1,0
66545,301.507537688442,1,1,0,25,1,0
66549,328.767123287671,1,1,0,25,1,0
66553,8.78220140515223,1,1,0,25,1,0
66557,6.49280380911157,1,1,0,25,1,0
66561,10.0435219283562,1,1,0,25,1,0
66565,172.661870503597,1,1,0,25,1,0
66569,6.58689208475135,1,1,0,25,1,0
66573,17.6470588235294,1,1,0,25,1,0
66577,31.0639399430494,1,1,0,25,1,0
66581,13.8760407030527,1,1,0,25,1,0
66585,8.73998543335761,1,1,0,25,1,0
66589,7.17145759875695,1,1,0,25,1,0
66593,8.1339388598929,1,1,0,25,1,0
66597,6.93882271307968,1,1,0,25,1,0
66601,157.687253613666,1,1,0,25,1,0
66605,12.4507159161652,1,1,0,25,1,0
66609,19.5439739413681,1,1,0,25,1,0
66613,13.172338090011,1,1,0,25,1,0
66617,18.5471406491499,1,1,0,25,1,0
66621,7.59061294199507,1,1,0,25,1,0
66625,16.5998063355928,1,1,0,25,1,0
66629,30.2877334679455,1,1,0,25,1,0
66633,11.3260972156678,1,1,0,25,1,0
66637,100.840336134454,1,1,0,25,1,0
66641,12.1592866551829,1,1,0,25,1,0
66645,16.229375169056,1,1,0,25,1,0
66649,6.44676050284732,1,1,0,25,1,0
66653,7.55905511811024,1,1,0,25,1,0
66657,6.33445945945946,1,1,0,25,1,0
66661,10.3582218385844,1,1,0,25,1,0
66665,10.8853410740203,1,1,0,25,1,0
66669,6.69605490765024,1,1,0,25,1,0
66673,28.3956460009465,1,1,0,25,1,0
66677,12.4507159161652,1,1,0,25,1,0
66681,6.73325103804287,1,1,0,25,1,0
66685,11.3260972156678,1,1,0,25,1,0
66689,9.27500386458494,1,1,0,25,1,0
66693,6.95208852326053,1,1,0,25,1,0
66697,12.9842025535598,1,1,0,25,1,0
66701,6.51607298001738,1,1,0,25,1,0
66705,12.4507159161652,1,1,0,25,1,0
66709,6.35660557262422,1,1,0,25,1,0
66713,7.54337440281619,1,1,0,25,1,0
66717,7.81911774288135,1,1,0,25,1,0
66721,28.3956460009465,1,1,0,25,1,0
66725,33.0396475770925,1,1,0,25,1,0
66729,28.3956460009465,1,1,0,25,1,0
66733,13.3170569304184,1,1,0,25,1,0
66737,19.1326530612245,1,1,0,25,1,0
66741,7.03276094473422,1,1,0,25,1,0
66745,6.24739691795085,1,1,0,25,1,0
66749,172.661870503597,1,1,0,25,1,0
66753,16.0857908847185,1,1,0,25,1,0
66757,37.8548895899054,1,1,0,25,1,0
66761,18.5471406491499,1,1,0,25,1,0
66765,35.6294536817102,1,1,0,25,1,0
66769,13.172338090011,1,1,0,25,1,0
66773,6.96540515439981,1,1,0,25,1,0
66777,7.80234070221066,1,1,0,25,1,0
66781,11.5785411038209,1,1,0,25,1,0
66785,12.8013654789844,1,1,0,25,1,0
66789,15.7377049180328,1,1,0,25,1,0
66793,7.6545257383428,1,1,0,25,1,0
66797,13.8232922474369,1,1,0,25,1,0
66801,42.7502671891699,1,1,0,25,1,0
66805,6.4013656246666,1,1,0,25,1,0
66809,9.06686815262562,1,1,0,25,1,0
66813,7.6545257383428,1,1,0,25,1,0
66817,14.3129770992366,1,1,0,25,1,0
66821,43.2588320115357,1,1,0,25,1,0
66825,25.0678922080635,1,1,0,25,1,0
66829,6.42398286937902,1,1,0,25,1,0
66833,13.5150354769681,1,1,0,25,1,0
66837,451.127819548872,1,1,0,25,1,0
66841,6.35660557262422,1,1,0,25,1,0
66845,8.84629561371176,1,1,0,25,1,0
66849,11.290929619872,1,1,0,25,1,0
66853,6.4126543044942,1,1,0,25,1,0
66857,37.0828182941904,1,1,0,25,1,0
66861,6.70840787119857,1,1,0,25,1,0
66865,13.7189893677832,1,1,0,25,1,0
66869,10.9509034495346,1,1,0,25,1,0
66873,9.06686815262562,1,1,0,25,1,0
66877,13.4649910233393,1,1,0,25,1,0
66881,8.1339388598929,1,1,0,25,1,0
66885,10.8853410740203,1,1,0,25,1,0
66889,68.5322672758424,1,1,0,25,1,0
66893,16.9085529096801,1,1,0,25,1,0
66897,25.5972696245734,1,1,0,25,1,0
66901,13.2684652808492,1,1,0,25,1,0
66905,39.9334442595674,1,1,0,25,1,0
66909,48.4457004440856,1,1,0,25,1,0
66913,34.6120565330257,1,1,0,25,1,0
66917,19.2338515787787,1,1,0,25,1,0
66921,6.18365453983304,1,1,0,25,1,0
66925,24.559967253377,1,1,0,25,1,0
66929,10.1841636255623,1,1,0,25,1,0
66933,8.69817338358945,1,1,0,25,1,0
66937,62.6304801670146,1,1,0,25,1,0
66941,10.7565435640014,1,1,0,25,1,0
66945,33.9654684404189,1,1,0,25,1,0
66949,82.5309491059147,1,1,0,25,1,0
66953,23.4512409615009,1,1,0,25,1,0
66957,21.2577502214349,1,1,0,25,1,0
66961,7.93860809738026,1,1,0,25,1,0
66965,10.2704553235193,1,1,0,25,1,0
66969,27.3286267365065,1,1,0,25,1,0
66973,8.39689314953467,1,1,0,25,1,0
66977,23.1526143160332,1,1,0,25,1,0
66981,74.1198270537369,1,1,0,25,1,0
66985,35.6294536817102,1,1,0,25,1,0
66989,6.92560743348531,1,1,0,25,1,0
66993,9.69540276318979,1,1,0,25,1,0
66997,8.22593912805045,1,1,0,25,1,0
67001,7.08759080975725,1,1,0,25,1,0
67005,120.967741935484,1,1,0,25,1,0
67009,12.1187638860836,1,1,0,25,1,0
67013,11.4329268292683,1,1,0,25,1,0
67017,12.366034624897,1,1,0,25,1,0
67021,11.7658593979802,1,1,0,25,1,0
67025,16.0149472841319,1,1,0,25,1,0
67029,6.73325103804287,1,1,0,25,1,0
67033,278.422273781903,1,1,0,25,1,0
67037,47.808764940239,1,1,0,25,1,0
67041,15.6698876991382,1,1,0,25,1,0
67045,8.97733223610384,1,1,0,25,1,0
67049,8.47517480048026,1,1,0,25,1,0
67053,12.5799350036691,1,1,0,25,1,0
67057,18.738288569644,1,1,0,25,1,0
67061,14.6003163401874,1,1,0,25,1,0
67065,6.87324589037173,1,1,0,25,1,0
67069,6.97877289909858,1,1,0,25,1,0
67073,27.124773960217,1,1,0,25,1,0
67077,8.51486553608174,1,1,0,25,1,0
67081,24.7269730063878,1,1,0,25,1,0
67085,8.15217391304348,1,1,0,25,1,0
67089,13.0307308068194,1,1,0,25,1,0
67093,6.7961714900606,1,1,0,25,1,0
67097,10.5383331869676,1,1,0,25,1,0
67101,6.23668208513071,1,1,0,25,1,0
67105,13.172338090011,1,1,0,25,1,0
67109,7.24287783679382,1,1,0,25,1,0
67113,24.559967253377,1,1,0,25,1,0
67117,16.3755458515284,1,1,0,25,1,0
67121,6.08025942440211,1,1,0,25,1,0
67125,20.7720270036351,1,1,0,25,1,0
67129,7.28641690448722,1,1,0,25,1,0
67133,15.4698981565038,1,1,0,25,1,0
67137,9.51776649746193,1,1,0,25,1,0
67141,39.4996708360764,1,1,0,25,1,0
67145,44.3131462333826,1,1,0,25,1,0
67149,6.7961714900606,1,1,0,25,1,0
67153,6.57498219275656,1,1,0,25,1,0
67157,9.2045716038966,1,1,0,25,1,0
67161,6.72080649677961,1,1,0,25,1,0
67165,157.687253613666,1,1,0,25,1,0
67169,7.57480116146951,1,1,0,25,1,0
67173,16.4496230294722,1,1,0,25,1,0
67177,6.45820999946182,1,1,0,25,1,0
67181,15.6698876991382,1,1,0,25,1,0
67185,19.3361263293587,1,1,0,25,1,0
67189,90.7715582450832,1,1,0,25,1,0
67193,8.97733223610384,1,1,0,25,1,0
67197,6.12119975515201,1,1,0,25,1,0
67201,10.5997703383093,1,1,0,25,1,0
67205,13.5150354769681,1,1,0,25,1,0
67209,6.68374735435001,1,1,0,25,1,0
67213,23.9139099242726,1,1,0,25,1,0
67217,401.33779264214,1,1,0,25,1,0
67221,10.3288001377173,1,1,0,25,1,0
67225,258.620689655172,1,1,0,25,1,0
67229,6.86027898467871,1,1,0,25,1,0
67233,27.7456647398844,1,1,0,25,1,0
67237,9.37060752772138,1,1,0,25,1,0
67241,31.331592689295,1,1,0,25,1,0
67245,6.58689208475135,1,1,0,25,1,0
67249,7.81911774288135,1,1,0,25,1,0
67253,19.9733688415446,1,1,0,25,1,0
67257,8.15217391304348,1,1,0,25,1,0
67261,18.9334174818555,1,1,0,25,1,0
67265,14.4840072420036,1,1,0,25,1,0
67269,10.155721056195,1,1,0,25,1,0
67273,13.3170569304184,1,1,0,25,1,0
67277,6.17315705540409,1,1,0,25,1,0
67281,66.042927903137,1,1,0,25,1,0
67285,8.41632767569084,1,1,0,25,1,0
67289,9.34652231482203,1,1,0,25,1,0
67293,14.6591741998534,1,1,0,25,1,0
67297,10.4175709697022,1,1,0,25,1,0
67301,15.2110533654456,1,1,0,25,1,0
67305,9.44361375619737,1,1,0,25,1,0
67309,12.366034624897,1,1,0,25,1,0
67313,20.3080047385344,1,1,0,25,1,0
67317,120.967741935484,1,1,0,25,1,0
67321,8.99955002249888,1,1,0,25,1,0
67325,7.31573492653783,1,1,0,25,1,0
67329,6.91244239631336,1,1,0,25,1,0
67333,7.14328233823442,1,1,0,25,1,0
67337,14.3695365824452,1,1,0,25,1,0
67341,15.0225338007011,1,1,0,25,1,0
67345,9.39481719251546,1,1,0,25,1,0
67349,23.60346184107,1,1,0,25,1,0
67353,201.342281879195,1,1,0,25,1,0
67357,6.48123143397246,1,1,0,25,1,0
67361,16.1572640366231,1,1,0,25,1,0
67365,22.8614974280815,1,1,0,25,1,0
67369,6.52777022248817,1,1,0,25,1,0
67373,14.6003163401874,1,1,0,25,1,0
67377,15.0225338007011,1,1,0,25,1,0
67381,7.22848021203542,1,1,0,25,1,0
67385,7.55905511811024,1,1,0,25,1,0
67389,6.4013656246666,1,1,0,25,1,0
67393,6.46970023722234,1,1,0,25,1,0
67397,10.4175709697022,1,1,0,25,1,0
67401,7.42023250061835,1,1,0,25,1,0
67405,9.11230921102589,1,1,0,25,1,0
67409,23.0061349693252,1,1,0,25,1,0
67413,8.71902928140667,1,1,0,25,1,0
67417,12.0785103170609,1,1,0,25,1,0
67421,44.3131462333826,1,1,0,25,1,0
67425,8.18889040535008,1,1,0,25,1,0
67429,9.8797958175531,1,1,0,25,1,0
67433,7.5122073369225,1,1,0,25,1,0
67437,95.5414012738854,1,1,0,25,1,0
67441,11.3614845673168,1,1,0,25,1,0
67445,10.0435219283562,1,1,0,25,1,0
67449,12.8921357971637,1,1,0,25,1,0
67453,11.8040527247688,1,1,0,25,1,0
67457,9.93377483443709,1,1,0,25,1,0
67461,8.63620007196833,1,1,0,25,1,0
67465,30.2877334679455,1,1,0,25,1,0
67469,28.6191271166229,1,1,0,25,1,0
67473,6.52777022248817,1,1,0,25,1,0
67477,49.0998363338789,1,1,0,25,1,0
67481,33.6511497476164,1,1,0,25,1,0
67485,10.9180238376854,1,1,0,25,1,0
67489,11.8040527247688,1,1,0,25,1,0
67493,44.3131462333826,1,1,0,25,1,0
67497,145.102781136638,1,1,0,25,1,0
67501,33.6511497476164,1,1,0,25,1,0
67505,6.33445945945946,1,1,0,25,1,0
67509,6.24739691795085,1,1,0,25,1,0
67513,7.95597692766691,1,1,0,25,1,0
67517,6.86027898467871,1,1,0,25,1,0
67521,6.75827889164226,1,1,0,25,1,0
67525,120.967741935484,1,1,0,25,1,0
67529,6.58689208475135,1,1,0,25,1,0
67533,10.155721056195,1,1,0,25,1,0
67537,34.944670937682,1,1,0,25,1,0
67541,38.659793814433,1,1,0,25,1,0
67545,16.6759310728182,1,1,0,25,1,0
67549,6.23668208513071,1,1,0,25,1,0
67553,8.17049091032886,1,1,0,25,1,0
67557,8.57510361583536,1,1,0,25,1,0
67561,10.2127659574468,1,1,0,25,1,0
67565,7.45063951322489,1,1,0,25,1,0
67569,7.39007266904791,1,1,0,25,1,0
67573,13.2202269472293,1,1,0,25,1,0
67577,38.2531080650303,1,1,0,25,1,0
67581,23.4512409615009,1,1,0,25,1,0
67585,12.5365649811952,1,1,0,25,1,0
67589,17.7331165952416,1,1,0,25,1,0
67593,6.80889695869269,1,1,0,25,1,0
67597,47.808764940239,1,1,0,25,1,0
67601,9.72132209980557,1,1,0,25,1,0
67605,515.021459227468,1,1,0,25,1,0
67609,72.6392251815981,1,1,0,25,1,0
67613,21.0120819471196,1,1,0,25,1,0
67617,30.8008213552361,1,1,0,25,1,0
67621,451.127819548872,1,1,0,25,1,0
67625,9.74738039151978,1,1,0,25,1,0
67629,20.5373951737121,1,1,0,25,1,0
67633,7.78563550249789,1,1,0,25,1,0
67637,93.0954228083786,1,1,0,25,1,0
67641,9.51776649746193,1,1,0,25,1,0
67645,8.41632767569084,1,1,0,25,1,0
67649,8.84629561371176,1,1,0,25,1,0
67653,55.045871559633,1,1,0,25,1,0
67657,14.2011834319527,1,1,0,25,1,0
67661,7.25733293014817,1,1,0,25,1,0
67665,16.3021328623828,1,1,0,25,1,0
67669,26.1494879058618,1,1,0,25,1,0
67673,17.6470588235294,1,1,0,25,1,0
67677,17.3938251920568,1,1,0,25,1,0
67681,16.3755458515284,1,1,0,25,1,0
67685,13.2202269472293,1,1,0,25,1,0
67689,7.73594636410521,1,1,0,25,1,0
67693,7.24287783679382,1,1,0,25,1,0
67697,7.86988457502623,1,1,0,25,1,0
67701,8.11578520221831,1,1,0,25,1,0
67705,9.02187805428163,1,1,0,25,1,0
67709,12.9842025535598,1,1,0,25,1,0
67713,47.1883602044829,1,1,0,25,1,0
67717,31.6038978140637,1,1,0,25,1,0
67721,9.5930929730594,1,1,0,25,1,0
67725,20.6540447504303,1,1,0,25,1,0
67729,8.07971990304336,1,1,0,25,1,0
67733,10.8205590622182,1,1,0,25,1,0
67737,11.2559797392365,1,1,0,25,1,0
67741,28.1756280817093,1,1,0,25,1,0
67745,13.1247949250793,1,1,0,25,1,0
67749,7.30104648332928,1,1,0,25,1,0
67753,18.8353476691257,1,1,0,25,1,0
67757,34.6120565330257,1,1,0,25,1,0
67761,15.9447249534946,1,1,0,25,1,0
67765,19.9733688415446,1,1,0,25,1,0
67769,8.88954737387955,1,1,0,25,1,0
67773,7.9734219269103,1,1,0,25,1,0
67777,6,1,1,0,25,1,0
67780,49.8640072529465,4,1,0,25,1,0
67793,6,1,1,0,25,1,0
67796,12.8748666996125,4,1,0,25,1,0
67809,6,1,1,0,25,1,0
67812,29.257048288906,4,1,0,25,1,0
67825,6,1,1,0,25,1,0
67828,41.1027152702815,4,1,0,25,1,0
67841,6,1,1,0,25,1,0
67844,8.82179964712801,4,1,0,25,1,0
67857,6,1,1,0,25,1,0
67860,10.741488184363,4,1,0,25,1,0
67873,6,1,1,0,25,1,0
67876,12.4287543626183,4,1,0,25,1,0
67889,6,1,1,0,25,1,0
67892,26.9153390245229,4,1,0,25,1,0
67905,6,1,1,0,25,1,0
67908,6.39840750746481,4,1,0,25,1,0
67921,6,1,1,0,25,1,0
67924,6.83748877684923,4,1,0,25,1,0
67937,6,1,1,0,25,1,0
67940,8.0077651055569,4,1,0,25,1,0
67953,6,1,1,0,25,1,0
67956,8.85082339478248,4,1,0,25,1,0
67969,6,1,1,0,25,1,0
67972,6.70123329768367,4,1,0,25,1,0
67985,6,1,1,0,25,1,0
67988,39.8839738941262,4,1,0,25,1,0
68001,6,1,1,0,25,1,0
68004,11.1188481322581,4,1,0,25,1,0
68017,6,1,1,0,25,1,0
68020,7.81015793874943,4,1,0,25,1,0
68033,6,1,1,0,25,1,0
68036,9.91050513544357,4,1,0,25,1,0
68049,6,1,1,0,25,1,0
68052,8.34302472569146,4,1,0,25,1,0
68065,6,1,1,0,25,1,0
68068,16.924812801313,4,1,0,25,1,0
68081,6,1,1,0,25,1,0
68084,94.5558739255014,4,1,0,25,1,0
68097,6,1,1,0,25,1,0
68100,10.0212572122684,4,1,0,25,1,0
68113,6,1,1,0,25,1,0
68116,69.0665550439514,4,1,0,25,1,0
68129,6,1,1,0,25,1,0
68132,6.66801374014953,4,1,0,25,1,0
68145,6,1,1,0,25,1,0
68148,7.94861501405058,4,1,0,25,1,0
68161,6,1,1,0,25,1,0
68164,40.7911001236094,4,1,0,25,1,0
68177,6,1,1,0,25,1,0
68180,9.98406583432502,4,1,0,25,1,0
68193,6,1,1,0,25,1,0
68196,14.8261299308114,4,1,0,25,1,0
68209,6,1,1,0,25,1,0
68212,8.69351411159311,4,1,0,25,1,0
68225,6,1,1,0,25,1,0
68228,11.4258015372897,4,1,0,25,1,0
68241,6,1,1,0,25,1,0
68244,30.9394337146072,4,1,0,25,1,0
68257,6,1,1,0,25,1,0
68260,8.31723095018063,4,1,0,25,1,0
68273,6,1,1,0,25,1,0
68276,6.86365590205078,4,1,0,25,1,0
68289,6,1,1,0,25,1,0
68292,48.0815930063137,4,1,0,25,1,0
68305,6,1,1,0,25,1,0
68308,134.8406428766,4,1,0,25,1,0
68321,6,1,1,0,25,1,0
68324,20.781728871909,4,1,0,25,1,0
68337,6,1,1,0,25,1,0
68340,61.2093483368369,4,1,0,25,1,0
68353,6,1,1,0,25,1,0
68356,6.52251255089536,4,1,0,25,1,0
68369,6,1,1,0,25,1,0
68372,10.698770181771,4,1,0,25,1,0
68385,6,1,1,0,25,1,0
68388,12.5446666159811,4,1,0,25,1,0
68401,6,1,1,0,25,1,0
68404,8.99885469122112,4,1,0,25,1,0
68417,6,1,1,0,25,1,0
68420,9.0442345288776,4,1,0,25,1,0
68433,6,1,1,0,25,1,0
68436,33.2326283987915,1,1,0,25,1,0
68449,6,1,1,0,25,1,0
68452,6.99755439008185,1,1,0,25,1,0
68465,6,1,1,0,25,1,0
68468,12.4287543626183,1,1,0,25,1,0
68481,6,1,1,0,25,1,0
68484,6.50673677292146,1,1,0,25,1,0
68497,6,1,1,0,25,1,0
68500,6.43667997347308,1,1,0,25,1,0
68513,6,1,1,0,25,1,0
68516,192.832099727308,1,1,0,25,1,0
68529,6,1,1,0,25,1,0
68532,15.0332553831202,1,1,0,25,1,0
68545,6,1,1,0,25,1,0
68548,18.3693917690281,1,1,0,25,1,0
68561,6,1,1,0,25,1,0
68564,34.7344046031857,1,1,0,25,1,0
68577,6,1,1,0,25,1,0
68580,6.33065186530419,1,1,0,25,1,0
68593,6,1,1,0,25,1,0
68596,29.7422339722406,1,1,0,25,1,0
68609,6,1,1,0,25,1,0
68612,82.9006866521521,1,1,0,25,1,0
68625,6,1,1,0,25,1,0
68628,11.6990853442367,1,1,0,25,1,0
68641,6,1,1,0,25,1,0
68644,6.65976024863105,1,1,0,25,1,0
68657,6,1,1,0,25,1,0
68660,9.40796350850518,1,1,0,25,1,0
68673,6,1,1,0,25,1,0
68676,6.68458224737006,1,1,0,25,1,0
68689,6,1,1,0,25,1,0
68692,7.49466289157721,1,1,0,25,1,0
68705,6,1,1,0,25,1,0
68708,11.1882105643831,1,1,0,25,1,0
68721,6,1,1,0,25,1,0
68724,10.8497906757557,1,1,0,25,1,0
68737,6,1,1,0,25,1,0
68740,7.07112552319186,1,1,0,25,1,0
68753,6,1,1,0,25,1,0
68756,8.50121077850482,1,1,0,25,1,0
68769,6,1,1,0,25,1,0
68772,9.39154192042803,1,1,0,25,1,0
68785,6,1,1,0,25,1,0
68788,8.72169852876399,1,1,0,25,1,0
68801,6,1,1,0,25,1,0
68804,10.8497906757557,1,1,0,25,1,0
68817,6,1,1,0,25,1,0
68820,16.8190003737556,1,1,0,25,1,0
68833,6,1,1,0,25,1,0
68836,14.9913686059541,1,1,0,25,1,0
68849,6,1,1,0,25,1,0
68852,9.94714948857585,1,1,0,25,1,0
68865,6,1,1,0,25,1,0
68868,18.1219110378913,1,1,0,25,1,0
68881,6,1,1,0,25,1,0
68884,9.7665884024229,1,1,0,25,1,0
68897,6,1,1,0,25,1,0
68900,9.8922840184656,1,1,0,25,1,0
68913,6,1,1,0,25,1,0
68916,78.0880265026029,1,1,0,25,1,0
68929,6,1,1,0,25,1,0
68932,13.7641464838862,1,1,0,25,1,0
68945,6,1,1,0,25,1,0
68948,14.7045717850459,1,1,0,25,1,0
68961,6,1,1,0,25,1,0
68964,16.0656908247055,1,1,0,25,1,0
68977,6,1,1,0,25,1,0
68980,6.60255298715503,1,1,0,25,1,0
68993,6,1,1,0,25,1,0
68996,8.09206977162381,1,1,0,25,1,0
69009,6,1,1,0,25,1,0
69012,22.1506242448651,1,1,0,25,1,0
69025,6,1,1,0,25,1,0
69028,7.53665555200292,1,1,0,25,1,0
69041,6,1,1,0,25,1,0
69044,45.6347377154974,1,1,0,25,1,0
69057,6,1,1,0,25,1,0
69060,32.0450572926782,1,1,0,25,1,0
69073,6,1,1,0,25,1,0
69076,10.115459282722,1,1,0,25,1,0
69089,6,1,1,0,25,1,0
69092,18.4323217277974,1,1,0,25,1,0
69105,6,1,1,0,25,1,0
69108,14.3899531963138,1,1,0,25,1,0
69121,6,1,1,0,25,1,0
69124,8.35598170124411,1,1,0,25,1,0
69137,6,1,1,0,25,1,0
69140,6.38322565669852,1,1,0,25,1,0
69153,6,1,1,0,25,1,0
69156,8.50121077850482,1,1,0,25,1,0
69169,6,1,1,0,25,1,0
69172,42.3982869379015,1,1,0,25,1,0
69185,6,1,1,0,25,1,0
69188,10.5726307695594,1,1,0,25,1,0
69201,6,1,1,0,25,1,0
69204,12.4864414903009,1,1,0,25,1,0
69217,6,1,1,0,25,1,0
69220,6.71796750946623,1,1,0,25,1,0
69233,6,1,1,0,25,1,0
69236,12.5154863341003,1,1,0,25,1,0
69249,6,1,1,0,25,1,0
69252,20.781728871909,1,1,0,25,1,0
69265,6,1,1,0,25,1,0
69268,13.4543774292626,1,1,0,25,1,0
69281,6,1,1,0,25,1,0
69284,9.7665884024229,1,1,0,25,1,0
69297,6,1,1,0,25,1,0
69300,16.8717406864583,1,1,0,25,1,0
69313,6,1,1,0,25,1,0
69316,27.0506585059293,1,1,0,25,1,0
69329,6,1,1,0,25,1,0
69332,81.6427511133102,1,1,0,25,1,0
69345,6,1,1,0,25,1,0
69348,21.9697305934046,1,1,0,25,1,0
69361,6,1,1,0,25,1,0
69364,8.19061801935964,1,1,0,25,1,0
69377,6,1,1,0,25,1,0
69380,20.6224221972253,1,1,0,25,1,0
69393,6,1,1,0,25,1,0
69396,6.33065186530419,1,1,0,25,1,0
69409,6,1,1,0,25,1,0
69412,9.60959794995244,1,1,0,25,1,0
69425,6,1,1,0,25,1,0
69428,18.688413183826,1,1,0,25,1,0
69441,6,1,1,0,25,1,0
69444,10.490177379363,1,1,0,25,1,0
69457,6,1,1,0,25,1,0
69460,6.79431747992588,1,1,0,25,1,0
69473,6,1,1,0,25,1,0
69476,30.2437832223376,1,1,0,25,1,0
69489,6,1,1,0,25,1,0
69492,18.6237254975733,1,1,0,25,1,0
69505,6,1,1,0,25,1,0
69508,33.0286248081671,1,1,0,25,1,0
69521,6,1,1,0,25,1,0
69524,6.99755439008185,1,1,0,25,1,0
69537,6,1,1,0,25,1,0
69540,10.3290695490683,1,1,0,25,1,0
69553,6,1,1,0,25,1,0
69556,8.95392797062388,1,1,0,25,1,0
69569,6,1,1,0,25,1,0
69572,7.18442938213907,1,1,0,25,1,0
69585,6,1,1,0,25,1,0
69588,11.2584438328747,1,1,0,25,1,0
69601,6,1,1,0,25,1,0
69604,14.7853878550733,1,1,0,25,1,0
69617,6,1,1,0,25,1,0
69620,8.52816015712489,1,1,0,25,1,0
69633,6,1,1,0,25,1,0
69636,18.819146105007,1,1,0,25,1,0
69649,6,1,1,0,25,1,0
69652,7.6328815284267,1,1,0,25,1,0
69665,6,1,1,0,25,1,0
69668,11.598209892453,1,1,0,25,1,0
69681,6,1,1,0,25,1,0
69684,72.8048242388587,1,1,0,25,1,0
69697,6,1,1,0,25,1,0
69700,15.9703177931925,1,1,0,25,1,0
69713,6,1,1,0,25,1,0
69716,7.75388085652971,1,1,0,25,1,0
69729,6,1,1,0,25,1,0
69732,8.93905191873589,1,1,0,25,1,0
69745,6,1,1,0,25,1,0
69748,98.0003959611958,1,1,0,25,1,0
69761,6,1,1,0,25,1,0
69764,26.9153390245229,1,1,0,25,1,0
69777,6,1,1,0,25,1,0
69780,25.1537171604248,1,1,0,25,1,0
69793,6,1,1,0,25,1,0
69796,9.73125995242495,1,1,0,25,1,0
69809,6,1,1,0,25,1,0
69812,10.2114492006189,1,1,0,25,1,0
69825,6,1,1,0,25,1,0
69828,149.863760217984,1,1,0,25,1,0
69841,6,1,1,0,25,1,0
69844,26.5173836181497,1,1,0,25,1,0
69857,6,1,1,0,25,1,0
69860,18.9517209694092,1,1,0,25,1,0
69873,6,1,1,0,25,1,0
69876,6.87242284143446,1,1,0,25,1,0
69889,6,1,1,0,25,1,0
69892,21.7917675544794,1,1,0,25,1,0
69905,6,1,1,0,25,1,0
69908,8.5416990215872,1,1,0,25,1,0
69921,6,1,1,0,25,1,0
69924,7.73159645752308,1,1,0,25,1,0
69937,6,1,1,0,25,1,0
69940,11.4990591678863,1,1,0,25,1,0
69953,6,1,1,0,25,1,0
69956,7.2522159548751,1,1,0,25,1,0
69969,6,1,1,0,25,1,0
69972,12.2868419093008,1,1,0,25,1,0
69985,6,1,1,0,25,1,0
69988,6.45986401659989,1,1,0,25,1,0
70001,6,1,1,0,25,1,0
70004,6.92549842602308,1,1,0,25,1,0
70017,6,1,1,0,25,1,0
70020,8.792965627498,1,1,0,25,1,0
70033,6,1,1,0,25,1,0
70036,10.2308662133394,1,1,0,25,1,0
70049,6,1,1,0,25,1,0
70052,39.3013100436681,1,1,0,25,1,0
70065,6,1,1,0,25,1,0
70068,8.31723095018063,1,1,0,25,1,0
70081,6,1,1,0,25,1,0
70084,20.4655393393145,1,1,0,25,1,0
70097,6,1,1,0,25,1,0
70100,40.1818329409855,1,1,0,25,1,0
70113,6,1,1,0,25,1,0
70116,7.51560056480877,1,1,0,25,1,0
70129,6,1,1,0,25,1,0
70132,14.4285422800012,1,1,0,25,1,0
70145,6,1,1,0,25,1,0
70148,82.9006866521521,1,1,0,25,1,0
70161,6,1,1,0,25,1,0
70164,6.95234483630388,1,1,0,25,1,0
70177,6,1,1,0,25,1,0
70180,6.42131617523058,1,1,0,25,1,0
70193,6,1,1,0,25,1,0
70196,158.704713049054,1,1,0,25,1,0
70209,6,1,1,0,25,1,0
70212,29.7422339722406,1,1,0,25,1,0
70225,6,1,1,0,25,1,0
70228,22.7116311080523,1,1,0,25,1,0
70241,6,1,1,0,25,1,0
70244,34.2916522341531,1,1,0,25,1,0
70257,6,1,1,0,25,1,0
70260,8.05572281803831,1,1,0,25,1,0
70273,6,1,1,0,25,1,0
70276,6.48321567497479,1,1,0,25,1,0
70289,6,1,1,0,25,1,0
70292,6.55429471816533,1,1,0,25,1,0
70305,6,1,1,0,25,1,0
70308,10.2699226125023,1,1,0,25,1,0
70321,6,1,1,0,25,1,0
70324,8.47443118590676,1,1,0,25,1,0
70337,6,1,1,0,25,1,0
70340,11.1649937972257,1,1,0,25,1,0
70353,6,1,1,0,25,1,0
70356,6.60255298715503,1,1,0,25,1,0
70369,6,1,1,0,25,1,0
70372,7.78754936047701,1,1,0,25,1,0
70385,6,1,1,0,25,1,0
70388,8.50121077850482,1,1,0,25,1,0
70401,6,1,1,0,25,1,0
70404,8.34302472569146,1,1,0,25,1,0
70417,6,1,1,0,25,1,0
70420,30.9394337146072,1,1,0,25,1,0
70433,6,1,1,0,25,1,0
70436,21.2747668371513,1,1,0,25,1,0
70449,6,1,1,0,25,1,0
70452,46.8262226847034,1,1,0,25,1,0
70465,6,1,1,0,25,1,0
70468,20.781728871909,1,1,0,25,1,0
70481,6,1,1,0,25,1,0
70484,6.89885855249404,1,1,0,25,1,0
70497,6,1,1,0,25,1,0
70500,8.75006628838097,1,1,0,25,1,0
70513,6,1,1,0,25,1,0
70516,92.9228458794819,1,1,0,25,1,0
70529,6,1,1,0,25,1,0
70532,15.8293626682869,1,1,0,25,1,0
70545,6,1,1,0,25,1,0
70548,15.6452479534751,1,1,0,25,1,0
70561,6,1,1,0,25,1,0
70564,12.7831004829171,1,1,0,25,1,0
70577,6,1,1,0,25,1,0
70580,50.3304524656838,1,1,0,25,1,0
70593,6,1,1,0,25,1,0
70596,7.43254403219268,1,1,0,25,1,0
70609,6,1,1,0,25,1,0
70612,7.68740973117361,1,1,0,25,1,0
70625,6,1,1,0,25,1,0
70628,7.14626012386851,1,1,0,25,1,0
70641,6,1,1,0,25,1,0
70644,158.704713049054,1,1,0,25,1,0
70657,6,1,1,0,25,1,0
70660,32.6280403401226,1,1,0,25,1,0
70673,6,1,1,0,25,1,0
70676,26.3873340796418,1,1,0,25,1,0
70689,6,1,1,0,25,1,0
70692,9.4909404659189,1,1,0,25,1,0
70705,6,1,1,0,25,1,0
70708,9.82006467355724,1,1,0,25,1,0
70721,6,1,1,0,25,1,0
70724,13.8705971362121,1,1,0,25,1,0
70737,6,1,1,0,25,1,0
70740,41.4191281064346,1,1,0,25,1,0
70753,6,1,1,0,25,1,0
70756,9.8380204710325,1,1,0,25,1,0
70769,6,1,1,0,25,1,0
70772,20.1588271227856,1,1,0,25,1,0
70785,6,1,1,0,25,1,0
70788,13.5220039883082,1,1,0,25,1,0
70801,6,1,1,0,25,1,0
70804,27.0506585059293,1,1,0,25,1,0
70817,6,1,1,0,25,1,0
70820,12.9367796565873,1,1,0,25,1,0
70833,6,1,1,0,25,1,0
70836,94.5558739255014,1,1,0,25,1,0
70849,6,1,1,0,25,1,0
70852,11.0276917593067,1,1,0,25,1,0
70865,6,1,1,0,25,1,0
70868,110.024449877751,1,1,0,25,1,0
70881,6,1,1,0,25,1,0
70884,35.4203935599284,1,1,0,25,1,0
70897,6,1,1,0,25,1,0
70900,32.6280403401226,1,1,0,25,1,0
70913,6,1,1,0,25,1,0
70916,10.698770181771,1,1,0,25,1,0
70929,6,1,1,0,25,1,0
70932,9.62679165289096,1,1,0,25,1,0
70945,6,1,1,0,25,1,0
70948,9.01393062004917,1,1,0,25,1,0
70961,6,1,1,0,25,1,0
70964,16.1138057879488,1,1,0,25,1,0
70977,6,1,1,0,25,1,0
70980,24.9207068418668,1,1,0,25,1,0
70993,6,1,1,0,25,1,0
70996,9.09007437333578,1,1,0,25,1,0
71009,6,1,1,0,25,1,0
71012,11.0959180471184,1,1,0,25,1,0
71025,6,1,1,0,25,1,0
71028,48.0815930063137,1,1,0,25,1,0
71041,6,1,1,0,25,1,0
71044,12.9679599696104,1,1,0,25,1,0
71057,6,1,1,0,25,1,0
71060,19.5012409880629,1,1,0,25,1,0
71073,6,1,1,0,25,1,0
71076,79.2380342564431,1,1,0,25,1,0
71089,6,1,1,0,25,1,0
71092,14.0517216907486,1,1,0,25,1,0
71105,6,1,1,0,25,1,0
71108,21.5301639772085,1,1,0,25,1,0
71121,6,1,1,0,25,1,0
71124,39.8839738941262,1,1,0,25,1,0
71137,6,1,1,0,25,1,0
71140,6.50673677292146,1,1,0,25,1,0
71153,6,1,1,0,25,1,0
71156,13.7290251005408,1,1,0,25,1,0
71169,6,1,1,0,25,1,0
71172,19.5012409880629,1,1,0,25,1,0
71185,6,1,1,0,25,1,0
71188,9.8922840184656,1,1,0,25,1,0
71201,6,1,1,0,25,1,0
71204,8.26611893191724,1,1,0,25,1,0
71217,6,1,1,0,25,1,0
71220,14.664494149015,1,1,0,25,1,0
71233,6,1,1,0,25,1,0
71236,17.0319650414617,1,1,0,25,1,0
71249,6,1,1,0,25,1,0
71252,15.1177350884158,1,1,0,25,1,0
71265,6,1,1,0,25,1,0
71268,14.5455613999001,1,1,0,25,1,0
71281,6,1,1,0,25,1,0
71284,15.2031696305169,1,1,0,25,1,0
71297,6,1,1,0,25,1,0
71300,38.4585502291974,1,1,0,25,1,0
71313,6,1,1,0,25,1,0
71316,86.918349429324,1,1,0,25,1,0
71329,6,1,1,0,25,1,0
71332,12.343216218238,1,1,0,25,1,0
71345,6,1,1,0,25,1,0
71348,10.5726307695594,1,1,0,25,1,0
71361,6,1,1,0,25,1,0
71364,8.61004331112696,1,1,0,25,1,0
71377,6,1,1,0,25,1,0
71380,8.42137498086051,1,1,0,25,1,0
71393,6,1,1,0,25,1,0
71396,12.7528017519,1,1,0,25,1,0
71409,6,1,1,0,25,1,0
71412,8.26611893191724,1,1,0,25,1,0
71425,6,1,1,0,25,1,0
71428,10.698770181771,1,1,0,25,1,0
71441,6,1,1,0,25,1,0
71444,16.8717406864583,1,1,0,25,1,0
71457,6,1,1,0,25,1,0
71460,60.5208460692016,1,1,0,25,1,0
71473,6,1,1,0,25,1,0
71476,13.4881059429412,1,1,0,25,1,0
71489,6,1,1,0,25,1,0
71492,7.14626012386851,1,1,0,25,1,0
71505,6,1,1,0,25,1,0
71508,94.5558739255014,1,1,0,25,1,0
71521,6,1,1,0,25,1,0
71524,149.863760217984,1,1,0,25,1,0
71537,6,1,1,0,25,1,0
71540,6.4988774666194,1,1,0,25,1,0
71553,6,1,1,0,25,1,0
71556,8.34302472569146,1,1,0,25,1,0
71569,6,1,1,0,25,1,0
71572,12.6627612493924,1,1,0,25,1,0
71585,6,1,1,0,25,1,0
71588,61.9136960600375,1,1,0,25,1,0
71601,6,1,1,0,25,1,0
71604,25.1537171604248,1,1,0,25,1,0
71617,6,1,1,0,25,1,0
71620,12.400110223202,1,1,0,25,1,0
71633,6,1,1,0,25,1,0
71636,8.69351411159311,1,1,0,25,1,0
71649,6,1,1,0,25,1,0
71652,15.42104115393,1,1,0,25,1,0
71665,6,1,1,0,25,1,0
71668,12.148133604928,1,1,0,25,1,0
71681,6,1,1,0,25,1,0
71684,29.7422339722406,1,1,0,25,1,0
71697,6,1,1,0,25,1,0
71700,174.111853675695,1,1,0,25,1,0
71713,6,1,1,0,25,1,0
71716,39.3013100436681,1,1,0,25,1,0
71729,6,1,1,0,25,1,0
71732,9.92879350115335,1,1,0,25,1,0
71745,6,1,1,0,25,1,0
71748,13.6593173100803,1,1,0,25,1,0
71761,6,1,1,0,25,1,0
71764,7.44282556723352,1,1,0,25,1,0
71777,6,1,1,0,25,1,0
71780,59.8476605005441,1,1,0,25,1,0
71793,6,1,1,0,25,1,0
71796,9.4909404659189,1,1,0,25,1,0
71809,6,1,1,0,25,1,0
71812,14.2000631113916,1,1,0,25,1,0
71825,6,1,1,0,25,1,0
71828,27.3254209218879,1,1,0,25,1,0
71841,6,1,1,0,25,1,0
71844,7.97216987969271,1,1,0,25,1,0
71857,6,1,1,0,25,1,0
71860,20.7017690602652,1,1,0,25,1,0
71873,6,1,1,0,25,1,0
71876,8.11648384081853,1,1,0,25,1,0
71889,6,1,1,0,25,1,0
71892,37.3895309313392,1,1,0,25,1,0
71905,6,1,1,0,25,1,0
71908,13.0307736857346,1,1,0,25,1,0
71921,6,1,1,0,25,1,0
71924,28.0373831775701,1,1,0,25,1,0
71937,6,1,1,0,25,1,0
71940,15.3331474770003,1,1,0,25,1,0
71953,6,1,1,0,25,1,0
71956,9.7665884024229,1,1,0,25,1,0
71969,6,1,1,0,25,1,0
71972,6.89885855249404,1,1,0,25,1,0
71985,6,1,1,0,25,1,0
71988,18.0610792863137,1,1,0,25,1,0
72001,6,1,1,0,25,1,0
72004,7.86725790301817,1,1,0,25,1,0
72017,6,1,1,0,25,1,0
72020,42.3982869379015,1,1,0,25,1,0
72033,6,1,1,0,25,1,0
72036,18.3068900477089,1,1,0,25,1,0
72049,6,1,1,0,25,1,0
72052,10.5934470434652,1,1,0,25,1,0
72065,6,1,1,0,25,1,0
72068,7.24245394823474,1,1,0,25,1,0
72081,6,1,1,0,25,1,0
72084,15.9230546530704,1,1,0,25,1,0
72097,6,1,1,0,25,1,0
72100,23.8175431843333,1,1,0,25,1,0
72113,6,1,1,0,25,1,0
72116,7.12732718031418,1,1,0,25,1,0
72129,6,1,1,0,25,1,0
72132,7.36136103386226,1,1,0,25,1,0
72145,6,1,1,0,25,1,0
72148,9.94714948857585,1,1,0,25,1,0
72161,6,1,1,0,25,1,0
72164,24.0302927326569,1,1,0,25,1,0
72177,6,1,1,0,25,1,0
72180,12.0935232464391,1,1,0,25,1,0
72193,6,1,1,0,25,1,0
72196,9.62679165289096,1,1,0,25,1,0
72209,6,1,1,0,25,1,0
72212,12.0125221442959,1,1,0,25,1,0
72225,6,1,1,0,25,1,0
72228,12.258847420689,1,1,0,25,1,0
72241,6,1,1,0,25,1,0
72244,11.2584438328747,1,1,0,25,1,0
72257,6,1,1,0,25,1,0
72260,19.7156171585614,1,1,0,25,1,0
72273,6,1,1,0,25,1,0
72276,16.1622098148692,1,1,0,25,1,0
72289,6,1,1,0,25,1,0
72292,6.65152716376194,1,1,0,25,1,0
72305,6,1,1,0,25,1,0
72308,46.0251046025105,1,1,0,25,1,0
72321,6,1,1,0,25,1,0
72324,37.3895309313392,1,1,0,25,1,0
72337,6,1,1,0,25,1,0
72340,12.6330296301968,1,1,0,25,1,0
72353,6,1,1,0,25,1,0
72356,47.6557235005295,1,1,0,25,1,0
72369,6,1,1,0,25,1,0
72372,40.1818329409855,1,1,0,25,1,0
72385,6,1,1,0,25,1,0
72388,8.22819528250137,1,1,0,25,1,0
72401,6,1,1,0,25,1,0
72404,14.664494149015,1,1,0,25,1,0
72417,6,1,1,0,25,1,0
72420,14.0885157250605,1,1,0,25,1,0
72433,6,1,1,0,25,1,0
72436,35.6551177699345,1,1,0,25,1,0
72449,6,1,1,0,25,1,0
72452,10.6353264722944,1,1,0,25,1,0
72465,6,1,1,0,25,1,0
72468,15.9230546530704,1,1,0,25,1,0
72481,6,1,1,0,25,1,0
72484,11.8537321296008,1,1,0,25,1,0
72497,6,1,1,0,25,1,0
72500,29.7422339722406,1,1,0,25,1,0
72513,6,1,1,0,25,1,0
72516,7.67644185289146,1,1,0,25,1,0
72529,6,1,1,0,25,1,0
72532,12.1207669139793,1,1,0,25,1,0
72545,6,1,1,0,25,1,0
72548,44.8735382104977,1,1,0,25,1,0
72561,6,1,1,0,25,1,0
72564,7.51560056480877,1,1,0,25,1,0
72577,6,1,1,0,25,1,0
72580,134.8406428766,1,1,0,25,1,0
72593,6,1,1,0,25,1,0
72596,21.7917675544794,1,1,0,25,1,0
72609,6,1,1,0,25,1,0
72612,9.55838337806785,1,1,0,25,1,0
72625,6,1,1,0,25,1,0
72628,41.7404502909183,1,1,0,25,1,0
72641,6,1,1,0,25,1,0
72644,11.6232653157067,1,1,0,25,1,0
72657,6,1,1,0,25,1,0
72660,7.51560056480877,1,1,0,25,1,0
72673,6,1,1,0,25,1,0
72676,9.91050513544357,1,1,0,25,1,0
72689,6,1,1,0,25,1,0
72692,26.9153390245229,1,1,0,25,1,0
72705,6,1,1,0,25,1,0
72708,7.78754936047701,1,1,0,25,1,0
72721,6,1,1,0,25,1,0
72724,30.7625380647567,1,1,0,25,1,0
72737,6,1,1,0,25,1,0
72740,6.81152041392027,1,1,0,25,1,0
72753,6,1,1,0,25,1,0
72756,6.86365590205078,1,1,0,25,1,0
72769,6,1,1,0,25,1,0
72772,11.4501168143231,1,1,0,25,1,0
72785,6,1,1,0,25,1,0
72788,9.82006467355724,1,1,0,25,1,0
72801,6,1,1,0,25,1,0
72804,6.93442416261575,1,1,0,25,1,0
72817,6,1,1,0,25,1,0
72820,20.6224221972253,1,1,0,25,1,0
72833,6,1,1,0,25,1,0
72836,18.6237254975733,1,1,0,25,1,0
72849,6,1,1,0,25,1,0
72852,17.3617200378801,1,1,0,25,1,0
72865,6,1,1,0,25,1,0
72868,6.87242284143446,1,1,0,25,1,0
72881,6,1,1,0,25,1,0
72884,8.46110455874058,1,1,0,25,1,0
72897,6,1,1,0,25,1,0
72900,9.40796350850518,1,1,0,25,1,0
72913,6,1,1,0,25,1,0
72916,11.2820512820513,1,1,0,25,1,0
72929,6,1,1,0,25,1,0
72932,9.67874391412314,1,1,0,25,1,0
72945,6,1,1,0,25,1,0
72948,20.9435159720753,1,1,0,25,1,0
72961,6,1,1,0,25,1,0
72964,6.57030223390276,1,1,0,25,1,0
72977,6,1,1,0,25,1,0
72980,8.69351411159311,1,1,0,25,1,0
72993,6,1,1,0,25,1,0
72996,9.59246555432824,1,1,0,25,1,0
73009,6,1,1,0,25,1,0
73012,186.160210605491,1,1,0,25,1,0
73025,6,1,1,0,25,1,0
73028,31.6678395496129,1,1,0,25,1,0
73041,6,1,1,0,25,1,0
73044,7.06184463941793,1,1,0,25,1,0
73057,6,1,1,0,25,1,0
73060,21.4443529870467,1,1,0,25,1,0
73073,6,1,1,0,25,1,0
73076,9.074742882285,1,1,0,25,1,0
73089,6,1,1,0,25,1,0
73092,7.55782884189633,1,1,0,25,1,0
73105,6,1,1,0,25,1,0
73108,117.215249822401,1,1,0,25,1,0
73121,6,1,1,0,25,1,0
73124,6.57030223390276,1,1,0,25,1,0
73137,6,1,1,0,25,1,0
73140,9.57539413869813,1,1,0,25,1,0
73153,6,1,1,0,25,1,0
73156,24.8058130794287,1,1,0,25,1,0
73169,6,1,1,0,25,1,0
73172,57.2982984141683,1,1,0,25,1,0
73185,6,1,1,0,25,1,0
73188,39.8839738941262,1,1,0,25,1,0
73201,6,1,1,0,25,1,0
73204,134.8406428766,1,1,0,25,1,0
73217,6,1,1,0,25,1,0
73220,10.7845486829778,1,1,0,25,1,0
73233,6,1,1,0,25,1,0
73236,8.40821457084133,1,1,0,25,1,0
73249,6,1,1,0,25,1,0
73252,10.8497906757557,1,1,0,25,1,0
73265,6,1,1,0,25,1,0
73268,9.4909404659189,1,1,0,25,1,0
73281,6,1,1,0,25,1,0
73284,50.3304524656838,1,1,0,25,1,0
73297,6,1,1,0,25,1,0
73300,7.19403549057509,1,1,0,25,1,0
73313,6,1,1,0,25,1,0
73316,15.2031696305169,1,1,0,25,1,0
73329,6,1,1,0,25,1,0
73332,14.5063446941945,1,1,0,25,1,0
73345,6,1,1,0,25,1,0
73348,24.6919738614256,1,1,0,25,1,0
73361,6,1,1,0,25,1,0
73364,7.69840899547427,1,1,0,25,1,0
73377,6,1,1,0,25,1,0
73380,9.01393062004917,1,1,0,25,1,0
73393,6,1,1,0,25,1,0
73396,44.1373160945163,1,1,0,25,1,0
73409,6,1,1,0,25,1,0
73412,34.0744819990363,1,1,0,25,1,0
73425,6,1,1,0,25,1,0
73428,22.5214977933482,1,1,0,25,1,0
73441,6,1,1,0,25,1,0
73444,6.91659563765423,1,1,0,25,1,0
73457,6,1,1,0,25,1,0
73460,10.7845486829778,1,1,0,25,1,0
73473,6,1,1,0,25,1,0
73476,28.1842509821784,1,1,0,25,1,0
73489,6,1,1,0,25,1,0
73492,6.33810932278262,1,1,0,25,1,0
73505,6,1,1,0,25,1,0
73508,16.5601686126259,1,1,0,25,1,0
73521,6,1,1,0,25,1,0
73524,16.0178623434618,1,1,0,25,1,0
73537,6,1,1,0,25,1,0
73540,7.19403549057509,1,1,0,25,1,0
73553,6,1,1,0,25,1,0
73556,50.8057066611927,1,1,0,25,1,0
73569,6,1,1,0,25,1,0
73572,48.9565819404609,1,1,0,25,1,0
73585,6,1,1,0,25,1,0
73588,11.5484217156989,1,1,0,25,1,0
73601,6,1,1,0,25,1,0
73604,11.1649937972257,1,1,0,25,1,0
73617,6,1,1,0,25,1,0
73620,43.4248618299851,1,1,0,25,1,0
73633,6,1,1,0,25,1,0
73636,7.55782884189633,1,1,0,25,1,0
73649,6,1,1,0,25,1,0
73652,110.024449877751,1,1,0,25,1,0
73665,6,1,1,0,25,1,0
73668,38.4585502291974,1,1,0,25,1,0
73681,6,1,1,0,25,1,0
73684,7.32129387229889,1,1,0,25,1,0
73697,6,1,1,0,25,1,0
73700,12.0935232464391,1,1,0,25,1,0
73713,6,1,1,0,25,1,0
73716,15.42104115393,1,1,0,25,1,0
73729,6,1,1,0,25,1,0
73732,17.3058770059085,1,1,0,25,1,0
73745,6,1,1,0,25,1,0
73748,8.98382910760631,1,1,0,25,1,0
73761,6,1,1,0,25,1,0
73764,9.32642487046632,1,1,0,25,1,0
73777,6,1,1,0,25,1,0
73780,7.73159645752308,1,1,0,25,1,0
73793,6,1,1,0,25,1,0
73796,8.72169852876399,1,1,0,25,1,0
73809,6,1,1,0,25,1,0
73812,85.5365474339036,1,1,0,25,1,0
73825,6,1,1,0,25,1,0
73828,9.21461680224874,1,1,0,25,1,0
73841,6,1,1,0,25,1,0
73844,6.54632017456854,1,1,0,25,1,0
73857,6,1,1,0,25,1,0
73860,9.0442345288776,1,1,0,25,1,0
73873,6,1,1,0,25,1,0
73876,9.96557347345534,1,1,0,25,1,0
73889,6,1,1,0,25,1,0
73892,13.7641464838862,1,1,0,25,1,0
73905,6,1,1,0,25,1,0
73908,9.074742882285,1,1,0,25,1,0
73921,6,1,1,0,25,1,0
73924,8.62384362096901,1,1,0,25,1,0
73937,6,1,1,0,25,1,0
73940,35.1887396033269,1,1,0,25,1,0
73953,6,1,1,0,25,1,0
73956,14.351569974776,1,1,0,25,1,0
73969,6,1,1,0,25,1,0
73972,7.04335576772578,1,1,0,25,1,0
73985,6,1,1,0,25,1,0
73988,9.29420379654143,1,1,0,25,1,0
74001,6,1,1,0,25,1,0
74004,6.67628771428186,1,1,0,25,1,0
74017,6,1,1,0,25,1,0
74020,40.7911001236094,1,1,0,25,1,0
74033,6,1,1,0,25,1,0
74036,10.0964774512004,1,1,0,25,1,0
74049,6,1,1,0,25,1,0
74052,18.1831539507035,1,1,0,25,1,0
74065,6,1,1,0,25,1,0
74068,20.6224221972253,1,1,0,25,1,0
74081,6,1,1,0,25,1,0
74084,8.85082339478248,1,1,0,25,1,0
74097,6,1,1,0,25,1,0
74100,7.64372519649778,1,1,0,25,1,0
74113,6,1,1,0,25,1,0
74116,14.0151193408647,1,1,0,25,1,0
74129,6,1,1,0,25,1,0
74132,7.15576436573907,1,1,0,25,1,0
74145,6,1,1,0,25,1,0
74148,10.6143454486973,1,1,0,25,1,0
74161,6,1,1,0,25,1,0
74164,7.34127278389962,1,1,0,25,1,0
74177,6,1,1,0,25,1,0
74180,54.4015825914936,1,1,0,25,1,0
74193,6,1,1,0,25,1,0
74196,8.56890612287292,1,1,0,25,1,0
74209,6,1,1,0,25,1,0
74212,9.8021743004812,1,1,0,25,1,0
74225,6,1,1,0,25,1,0
74228,11.2820512820513,1,1,0,25,1,0
74241,6,1,1,0,25,1,0
74244,6.40602554645339,1,1,0,25,1,0
74257,6,1,1,0,25,1,0
74260,10.0587267074435,1,1,0,25,1,0
74273,6,1,1,0,25,1,0
74276,8.20310557976899,1,1,0,25,1,0
74289,6,1,1,0,25,1,0
74292,7.91354254927979,1,1,0,25,1,0
74305,6,1,1,0,25,1,0
74308,9.074742882285,1,1,0,25,1,0
74321,6,1,1,0,25,1,0
74324,37.9165070854079,1,1,0,25,1,0
74337,6,1,1,0,25,1,0
74340,16.9782198593723,1,1,0,25,1,0
74353,6,1,1,0,25,1,0
74356,17.7629454193132,1,1,0,25,1,0
74369,6,1,1,0,25,1,0
74372,11.1649937972257,1,1,0,25,1,0
74385,6,1,1,0,25,1,0
74388,10.698770181771,1,1,0,25,1,0
74401,6,1,1,0,25,1,0
74404,11.5732622571368,1,1,0,25,1,0
74417,6,1,1,0,25,1,0
74420,10.9158268463184,1,1,0,25,1,0
74433,6,1,1,0,25,1,0
74436,6.82881068329494,1,1,0,25,1,0
74449,6,1,1,0,25,1,0
74452,38.4585502291974,1,1,0,25,1,0
74465,6,1,1,0,25,1,0
74468,7.79883726426242,1,1,0,25,1,0
74481,6,1,1,0,25,1,0
74484,7.93688970128433,1,1,0,25,1,0
74497,6,1,1,0,25,1,0
74500,11.5236875800256,1,1,0,25,1,0
74513,6,1,1,0,25,1,0
74516,38.4585502291974,1,1,0,25,1,0
74529,6,1,1,0,25,1,0
74532,29.257048288906,1,1,0,25,1,0
74545,6,1,1,0,25,1,0
74548,57.2982984141683,1,1,0,25,1,0
74561,6,1,1,0,25,1,0
74564,26.5173836181497,1,1,0,25,1,0
74577,6,1,1,0,25,1,0
74580,13.9064475347661,1,1,0,25,1,0
74593,6,1,1,0,25,1,0
74596,9.82006467355724,1,1,0,25,1,0
74609,6,1,1,0,25,1,0
74612,6.82881068329494,1,1,0,25,1,0
74625,6,1,1,0,25,1,0
74628,15.3331474770003,1,1,0,25,1,0
74641,6,1,1,0,25,1,0
74644,179.934569247546,1,1,0,25,1,0
74657,6,1,1,0,25,1,0
74660,40.4841743682015,1,1,0,25,1,0
74673,6,1,1,0,25,1,0
74676,35.1887396033269,1,1,0,25,1,0
74689,6,1,1,0,25,1,0
74692,138.306789606035,1,1,0,25,1,0
74705,6,1,1,0,25,1,0
74708,7.31134513980178,1,1,0,25,1,0
74721,6,1,1,0,25,1,0
74724,8.63768824052908,1,1,0,25,1,0
74737,6,1,1,0,25,1,0
74740,16.1622098148692,1,1,0,25,1,0
74753,6,1,1,0,25,1,0
74756,85.5365474339036,1,1,0,25,1,0
74769,6,1,1,0,25,1,0
74772,8.35598170124411,1,1,0,25,1,0
74785,6,1,1,0,25,1,0
74788,28.0373831775701,1,1,0,25,1,0
74801,6,1,1,0,25,1,0
74804,7.73159645752308,1,1,0,25,1,0
74817,6,1,1,0,25,1,0
74820,7.28166051280543,1,1,0,25,1,0
74833,6,1,1,0,25,1,0
74836,7.73159645752308,1,1,0,25,1,0
74849,6,1,1,0,25,1,0
74852,37.9165070854079,1,1,0,25,1,0
74865,6,1,1,0,25,1,0
74868,7.08043083348829,1,1,0,25,1,0
74881,6,1,1,0,25,1,0
74884,11.6484292269679,1,1,0,25,1,0
74897,6,1,1,0,25,1,0
74900,27.892038090945,1,1,0,25,1,0
74913,6,1,1,0,25,1,0
74916,8.75006628838097,1,1,0,25,1,0
74929,6,1,1,0,25,1,0
74932,55.524397083567,1,1,0,25,1,0
74945,6,1,1,0,25,1,0
74948,6.45211746764165,1,1,0,25,1,0
74961,6,1,1,0,25,1,0
74964,55.524397083567,1,1,0,25,1,0
74977,6,1,1,0,25,1,0
74980,13.158244504107,1,1,0,25,1,0
74993,6,1,1,0,25,1,0
74996,11.4258015372897,1,1,0,25,1,0
75009,6,1,1,0,25,1,0
75012,53.3232791123559,1,1,0,25,1,0
75025,6,1,1,0,25,1,0
75028,9.09007437333578,1,1,0,25,1,0
75041,6,1,1,0,25,1,0
75044,31.6678395496129,1,1,0,25,1,0
75057,6,1,1,0,25,1,0
75060,8.07991773174673,1,1,0,25,1,0
75073,6,1,1,0,25,1,0
75076,10.002626952533,1,1,0,25,1,0
75089,6,1,1,0,25,1,0
75092,55.524397083567,1,1,0,25,1,0
75105,6,1,1,0,25,1,0
75108,8.15338241834264,1,1,0,25,1,0
75121,6,1,1,0,25,1,0
75124,23.301793531987,1,1,0,25,1,0
75137,6,1,1,0,25,1,0
75140,6.77720122126535,1,1,0,25,1,0
75153,6,1,1,0,25,1,0
75156,18.9517209694092,1,1,0,25,1,0
75169,6,1,1,0,25,1,0
75172,37.1314980121521,1,1,0,25,1,0
75185,6,1,1,0,25,1,0
75188,163.528245787909,1,1,0,25,1,0
75201,6,1,1,0,25,1,0
75204,9.73125995242495,1,1,0,25,1,0
75217,6,1,1,0,25,1,0
75220,7.73159645752308,1,1,0,25,1,0
75233,6,1,1,0,25,1,0
75236,8.12874620247968,1,1,0,25,1,0
75249,6,1,1,0,25,1,0
75252,10.0399570005882,1,1,0,25,1,0
75265,6,1,1,0,25,1,0
75268,26.0047281323877,1,1,0,25,1,0
75281,6,1,1,0,25,1,0
75284,7.73159645752308,1,1,0,25,1,0
75297,6,1,1,0,25,1,0
75300,7.38155952221178,1,1,0,25,1,0
75313,6,1,1,0,25,1,0
75316,10.2114492006189,1,1,0,25,1,0
75329,6,1,1,0,25,1,0
75332,6.94337293627527,1,1,0,25,1,0
75345,6,1,1,0,25,1,0
75348,26.5173836181497,1,1,0,25,1,0
75361,6,1,1,0,25,1,0
75364,7.15576436573907,1,1,0,25,1,0
75377,6,1,1,0,25,1,0
75380,31.1183755579305,1,1,0,25,1,0
75393,6,1,1,0,25,1,0
75396,29.098818411616,1,1,0,25,1,0
75409,6,1,1,0,25,1,0
75412,10.0587267074435,1,1,0,25,1,0
75425,6,1,1,0,25,1,0
75428,13.942483733769,1,1,0,25,1,0
75441,6,1,1,0,25,1,0
75444,10.8717137774264,1,1,0,25,1,0
75457,6,1,1,0,25,1,0
75460,10.5106699224971,1,1,0,25,1,0
75473,6,1,1,0,25,1,0
75476,8.27883795220016,1,1,0,25,1,0
75489,6,1,1,0,25,1,0
75492,33.6482903949426,1,1,0,25,1,0
75505,6,1,1,0,25,1,0
75508,13.0624092888244,1,1,0,25,1,0
75521,6,1,1,0,25,1,0
75524,16.1138057879488,1,1,0,25,1,0
75537,6,1,1,0,25,1,0
75540,30.0747311501306,1,1,0,25,1,0
75553,6,1,1,0,25,1,0
75556,6.66801374014953,1,1,0,25,1,0
75569,6,1,1,0,25,1,0
75572,33.4391677362697,1,1,0,25,1,0
75585,6,1,1,0,25,1,0
75588,14.8261299308114,1,1,0,25,1,0
75601,6,1,1,0,25,1,0
75604,20.3879896206598,1,1,0,25,1,0
75617,6,1,1,0,25,1,0
75620,12.9057489245209,1,1,0,25,1,0
75633,6,1,1,0,25,1,0
75636,10.1345126220748,1,1,0,25,1,0
75649,6,1,1,0,25,1,0
75652,21.5301639772085,1,1,0,25,1,0
75665,6,1,1,0,25,1,0
75668,8.22819528250137,1,1,0,25,1,0
75681,6,1,1,0,25,1,0
75684,12.6330296301968,1,1,0,25,1,0
75697,6,1,1,0,25,1,0
75700,12.7226463104326,1,1,0,25,1,0
75713,6,1,1,0,25,1,0
75716,15.1603319959572,1,1,0,25,1,0
75729,6,1,1,0,25,1,0
75732,10.6353264722944,1,1,0,25,1,0
75745,6,1,1,0,25,1,0
75748,22.1506242448651,1,1,0,25,1,0
75761,6,1,1,0,25,1,0
75764,18.4956843403206,1,1,0,25,1,0
75777,6,1,1,0,25,1,0
75780,54.4015825914936,1,1,0,25,1,0
75793,6,1,1,0,25,1,0
75796,61.2093483368369,1,1,0,25,1,0
75809,6,1,1,0,25,1,0
75812,46.8262226847034,1,1,0,25,1,0
75825,6,1,1,0,25,1,0
75828,14.9913686059541,1,1,0,25,1,0
75841,6,1,1,0,25,1,0
75844,7.93688970128433,1,1,0,25,1,0
75857,6,1,1,0,25,1,0
75860,44.8735382104977,1,1,0,25,1,0
75873,6,1,1,0,25,1,0
75876,7.82151152685386,1,1,0,25,1,0
75889,6,1,1,0,25,1,0
75892,13.834931104838,1,1,0,25,1,0
75905,6,1,1,0,25,1,0
75908,21.1909756410805,1,1,0,25,1,0
75921,6,1,1,0,25,1,0
75924,9.18316234717919,1,1,0,25,1,0
75937,6,1,1,0,25,1,0
75940,15.5998865462797,1,1,0,25,1,0
75953,6,1,1,0,25,1,0
75956,17.0319650414617,1,1,0,25,1,0
75969,6,1,1,0,25,1,0
75972,6.39840750746481,1,1,0,25,1,0
75985,6,1,1,0,25,1,0
75988,6.61879738457219,1,1,0,25,1,0
76001,6,1,1,0,25,1,0
76004,7.4018691588785,1,1,0,25,1,0
76017,6,1,1,0,25,1,0
76020,12.400110223202,1,1,0,25,1,0
76033,6,1,1,0,25,1,0
76036,6.36811568100243,1,1,0,25,1,0
76049,6,1,1,0,25,1,0
76052,6.91659563765423,1,1,0,25,1,0
76065,6,1,1,0,25,1,0
76068,8.56890612287292,1,1,0,25,1,0
76081,6,1,1,0,25,1,0
76084,21.0253578558383,1,1,0,25,1,0
76097,6,1,1,0,25,1,0
76100,7.44282556723352,1,1,0,25,1,0
76113,6,1,1,0,25,1,0
76116,7.36136103386226,1,1,0,25,1,0
76129,6,1,1,0,25,1,0
76132,6.44438947546575,1,1,0,25,1,0
76145,6,1,1,0,25,1,0
76148,7.32129387229889,1,1,0,25,1,0
76161,6,1,1,0,25,1,0
76164,7.97216987969271,1,1,0,25,1,0
76177,6,1,1,0,25,1,0
76180,8.9242252149927,1,1,0,25,1,0
76193,6,1,1,0,25,1,0
76196,7.26200431319044,1,1,0,25,1,0
76209,6,1,1,0,25,1,0
76212,8.31723095018063,1,1,0,25,1,0
76225,6,1,1,0,25,1,0
76228,9.55838337806785,1,1,0,25,1,0
76241,6,1,1,0,25,1,0
76244,7.08043083348829,1,1,0,25,1,0
76257,6,1,1,0,25,1,0
76260,40.7911001236094,1,1,0,25,1,0
76273,6,1,1,0,25,1,0
76276,12.5739832854929,1,1,0,25,1,0
76289,6,1,1,0,25,1,0
76292,63.3721674561516,1,1,0,25,1,0
76305,6,1,1,0,25,1,0
76308,9.15192190359976,1,1,0,25,1,0
76321,6,1,1,0,25,1,0
76324,46.0251046025105,1,1,0,25,1,0
76337,6,1,1,0,25,1,0
76340,42.7350427350427,1,1,0,25,1,0
76353,6,1,1,0,25,1,0
76356,11.4258015372897,1,1,0,25,1,0
76369,6,1,1,0,25,1,0
76372,24.4674015125303,1,1,0,25,1,0
76385,6,1,1,0,25,1,0
76388,80.4224207961007,1,1,0,25,1,0
76401,6,1,1,0,25,1,0
76404,17.5314326190898,1,1,0,25,1,0
76417,6,1,1,0,25,1,0
76420,27.892038090945,1,1,0,25,1,0
76433,6,1,1,0,25,1,0
76436,16.8190003737556,1,1,0,25,1,0
76449,6,1,1,0,25,1,0
76452,20.3110253990398,1,1,0,25,1,0
76465,6,1,1,0,25,1,0
76468,70.8864384934842,1,1,0,25,1,0
76481,6,1,1,0,25,1,0
76484,22.6161648467127,1,1,0,25,1,0
76497,6,1,1,0,25,1,0
76500,6.65976024863105,1,1,0,25,1,0
76513,6,1,1,0,25,1,0
76516,8.50121077850482,1,1,0,25,1,0
76529,6,1,1,0,25,1,0
76532,6.66801374014953,1,1,0,25,1,0
76545,6,1,1,0,25,1,0
76548,24.8058130794287,1,1,0,25,1,0
76561,6,1,1,0,25,1,0
76564,22.0598065867463,1,1,0,25,1,0
76577,6,1,1,0,25,1,0
76580,13.3211335073603,1,1,0,25,1,0
76593,6,1,1,0,25,1,0
76596,84.1979928559279,1,1,0,25,1,0
76609,6,1,1,0,25,1,0
76612,12.9057489245209,1,1,0,25,1,0
76625,6,1,1,0,25,1,0
76628,7.61128623049127,1,1,0,25,1,0
76641,6,1,1,0,25,1,0
76644,105.701473414478,1,1,0,25,1,0
76657,6,1,1,0,25,1,0
76660,8.58257477243173,1,1,0,25,1,0
76673,6,1,1,0,25,1,0
76676,9.67874391412314,1,1,0,25,1,0
76689,6,1,1,0,25,1,0
76692,15.9230546530704,1,1,0,25,1,0
76705,6,1,1,0,25,1,0
76708,7.98399974193132,1,1,0,25,1,0
76721,6,1,1,0,25,1,0
76724,11.6484292269679,1,1,0,25,1,0
76737,6,1,1,0,25,1,0
76740,51.2900217594032,1,1,0,25,1,0
76753,6,1,1,0,25,1,0
76756,8.70758351364188,1,1,0,25,1,0
76769,6,1,1,0,25,1,0
76772,6.67628771428186,1,1,0,25,1,0
76785,6,1,1,0,25,1,0
76788,114.716106604867,1,1,0,25,1,0
76801,6,1,1,0,25,1,0
76804,9.60959794995244,1,1,0,25,1,0
76817,6,1,1,0,25,1,0
76820,26.5173836181497,1,1,0,25,1,0
76833,6,1,1,0,25,1,0
76836,23.9234449760766,1,1,0,25,1,0
76849,6,1,1,0,25,1,0
76852,7.47384155455904,1,1,0,25,1,0
76865,6,1,1,0,25,1,0
76868,23.201312397469,1,1,0,25,1,0
76881,6,1,1,0,25,1,0
76884,7.24245394823474,1,1,0,25,1,0
76897,6,1,1,0,25,1,0
76900,13.942483733769,1,1,0,25,1,0
76913,6,1,1,0,25,1,0
76916,6.52251255089536,1,1,0,25,1,0
76929,6,1,1,0,25,1,0
76932,7.32129387229889,1,1,0,25,1,0
76945,6,1,1,0,25,1,0
76948,16.1138057879488,1,1,0,25,1,0
76961,6,1,1,0,25,1,0
76964,6.60255298715503,1,1,0,25,1,0
76977,6,1,1,0,25,1,0
76980,39.0163159139276,1,1,0,25,1,0
76993,6,1,1,0,25,1,0
76996,7.05258808611281,1,1,0,25,1,0
77009,6,1,1,0,25,1,0
77012,39.0163159139276,1,1,0,25,1,0
77025,6,1,1,0,25,1,0
77028,9.91050513544357,1,1,0,25,1,0
77041,6,1,1,0,25,1,0
77044,10.1921057508185,1,1,0,25,1,0
77057,6,1,1,0,25,1,0
77060,15.5099483001723,1,1,0,25,1,0
77073,6,1,1,0,25,1,0
77076,12.9679599696104,1,1,0,25,1,0
77089,6,1,1,0,25,1,0
77092,15.42104115393,1,1,0,25,1,0
77105,6,1,1,0,25,1,0
77108,7.17484889333391,1,1,0,25,1,0
77121,6,1,1,0,25,1,0
77124,23.301793531987,1,1,0,25,1,0
77137,6,1,1,0,25,1,0
77140,28.0373831775701,1,1,0,25,1,0
77153,6,1,1,0,25,1,0
77156,8.17816842070481,1,1,0,25,1,0
77169,6,1,1,0,25,1,0
77172,6.53042916133458,1,1,0,25,1,0
77185,6,1,1,0,25,1,0
77188,8.80735903777378,1,1,0,25,1,0
77201,6,1,1,0,25,1,0
77204,8.80735903777378,1,1,0,25,1,0
77217,6,1,1,0,25,1,0
77220,9.02905714754756,1,1,0,25,1,0
77233,6,1,1,0,25,1,0
77236,9.1988626860679,1,1,0,25,1,0
77249,6,1,1,0,25,1,0
77252,12.7831004829171,1,1,0,25,1,0
77265,6,1,1,0,25,1,0
77268,47.2373318064701,1,1,0,25,1,0
77281,6,1,1,0,25,1,0
77284,15.3769687179646,1,1,0,25,1,0
77297,6,1,1,0,25,1,0
77300,6.83748877684923,1,1,0,25,1,0
77313,6,1,1,0,25,1,0
77316,7.53665555200292,1,1,0,25,1,0
77329,6,1,1,0,25,1,0
77332,11.6990853442367,1,1,0,25,1,0
77345,6,1,1,0,25,1,0
77348,7.3917003897442,1,1,0,25,1,0
77361,6,1,1,0,25,1,0
77364,11.9857623671275,1,1,0,25,1,0
77377,6,1,1,0,25,1,0
77380,18.3068900477089,1,1,0,25,1,0
77393,6,1,1,0,25,1,0
77396,8.70758351364188,1,1,0,25,1,0
77409,6,1,1,0,25,1,0
77412,13.0307736857346,1,1,0,25,1,0
77425,6,1,1,0,25,1,0
77428,60.5208460692016,1,1,0,25,1,0
77441,6,1,1,0,25,1,0
77444,9.73125995242495,1,1,0,25,1,0
77457,6,1,1,0,25,1,0
77460,57.9150579150579,1,1,0,25,1,0
77473,6,1,1,0,25,1,0
77476,10.698770181771,1,1,0,25,1,0
77489,6,1,1,0,25,1,0
77492,10.2308662133394,1,1,0,25,1,0
77505,6,1,1,0,25,1,0
77508,10.002626952533,1,1,0,25,1,0
77521,6,1,1,0,25,1,0
77524,6.59446065305144,1,1,0,25,1,0
77537,6,1,1,0,25,1,0
77540,12.258847420689,1,1,0,25,1,0
77553,6,1,1,0,25,1,0
77556,110.024449877751,1,1,0,25,1,0
77569,6,1,1,0,25,1,0
77572,16.0178623434618,1,1,0,25,1,0
77585,6,1,1,0,25,1,0
77588,11.7501839675268,1,1,0,25,1,0
77601,6,1,1,0,25,1,0
77604,6.4988774666194,1,1,0,25,1,0
77617,6,1,1,0,25,1,0
77620,12.1756241544705,1,1,0,25,1,0
77633,6,1,1,0,25,1,0
77636,6.99755439008185,1,1,0,25,1,0
77649,6,1,1,0,25,1,0
77652,6.87242284143446,1,1,0,25,1,0
77665,6,1,1,0,25,1,0
77668,7.17484889333391,1,1,0,25,1,0
77681,6,1,1,0,25,1,0
77684,8.82179964712801,1,1,0,25,1,0
77697,6,1,1,0,25,1,0
77700,8.67949010187442,1,1,0,25,1,0
77713,6,1,1,0,25,1,0
77716,21.3592233009709,1,1,0,25,1,0
77729,6,1,1,0,25,1,0
77732,14.8261299308114,1,1,0,25,1,0
77745,6,1,1,0,25,1,0
77748,37.9165070854079,1,1,0,25,1,0
77761,6,1,1,0,25,1,0
77764,11.8799049607603,1,1,0,25,1,0
77777,6,1,1,0,25,1,0
77780,29.5787272184045,1,1,0,25,1,0
77793,6,1,1,0,25,1,0
77796,6.61879738457219,1,1,0,25,1,0
77809,6,1,1,0,25,1,0
77812,9.18316234717919,1,1,0,25,1,0
77825,6,1,1,0,25,1,0
77828,7.01580327404153,1,1,0,25,1,0
77841,6,1,1,0,25,1,0
77844,7.83289817232376,1,1,0,25,1,0
77857,6,1,1,0,25,1,0
77860,22.9050020822729,1,1,0,25,1,0
77873,6,1,1,0,25,1,0
77876,6.84618895481515,1,1,0,25,1,0
77889,6,1,1,0,25,1,0
77892,6.43667997347308,1,1,0,25,1,0
77905,6,1,1,0,25,1,0
77908,168.654173764906,1,1,0,25,1,0
77921,6,1,1,0,25,1,0
77924,10.077566725707,1,1,0,25,1,0
77937,6,1,1,0,25,1,0
77940,10.741488184363,1,1,0,25,1,0
77953,6,1,1,0,25,1,0
77956,8.72169852876399,1,1,0,25,1,0
77969,6,1,1,0,25,1,0
77972,10.2308662133394,1,1,0,25,1,0
77985,6,1,1,0,25,1,0
77988,20.781728871909,1,1,0,25,1,0
78001,6,1,1,0,25,1,0
78004,45.6347377154974,1,1,0,25,1,0
78017,6,1,1,0,25,1,0
78020,13.4881059429412,1,1,0,25,1,0
78033,6,1,1,0,25,1,0
78036,69.9646643109541,1,1,0,25,1,0
78049,6,1,1,0,25,1,0
78052,17.6464297173006,1,1,0,25,1,0
78065,6,1,1,0,25,1,0
78068,60.5208460692016,1,1,0,25,1,0
78081,6,1,1,0,25,1,0
78084,11.0730823434669,1,1,0,25,1,0
78097,6,1,1,0,25,1,0
78100,15.8760704320216,1,1,0,25,1,0
78113,6,1,1,0,25,1,0
78116,6.71796750946623,1,1,0,25,1,0
78129,6,1,1,0,25,1,0
78132,67.3377771731737,1,1,0,25,1,0
78145,6,1,1,0,25,1,0
78148,10.8062086580654,1,1,0,25,1,0
78161,6,1,1,0,25,1,0
78164,61.2093483368369,1,1,0,25,1,0
78177,6,1,1,0,25,1,0
78180,6.40602554645339,1,1,0,25,1,0
78193,6,1,1,0,25,1,0
78196,60.5208460692016,1,1,0,25,1,0
78209,6,1,1,0,25,1,0
78212,9.1988626860679,1,1,0,25,1,0
78225,6,1,1,0,25,1,0
78228,10.6353264722944,1,1,0,25,1,0
78241,6,1,1,0,25,1,0
78244,7.74272262282774,1,1,0,25,1,0
78257,6,1,1,0,25,1,0
78260,59.8476605005441,1,1,0,25,1,0
78273,6,1,1,0,25,1,0
78276,50.3304524656838,1,1,0,25,1,0
78289,6,1,1,0,25,1,0
78292,12.6627612493924,1,1,0,25,1,0
78305,6,1,1,0,25,1,0
78308,7.20366732154551,1,1,0,25,1,0
78321,6,1,1,0,25,1,0
78324,6.40602554645339,1,1,0,25,1,0
78337,6,1,1,0,25,1,0
78340,18.0006545692571,1,1,0,25,1,0
78353,6,1,1,0,25,1,0
78356,7.12732718031418,1,1,0,25,1,0
78369,6,1,1,0,25,1,0
78372,6.63512191198745,1,1,0,25,1,0
78385,6,1,1,0,25,1,0
78388,7.04335576772578,1,1,0,25,1,0
78401,6,1,1,0,25,1,0
78404,179.934569247546,1,1,0,25,1,0
78417,6,1,1,0,25,1,0
78420,7.55782884189633,1,1,0,25,1,0
78433,6,1,1,0,25,1,0
78436,7.68740973117361,1,1,0,25,1,0
78449,6,1,1,0,25,1,0
78452,20.8623087621697,1,1,0,25,1,0
78465,6,1,1,0,25,1,0
78468,10.5934470434652,1,1,0,25,1,0
78481,6,1,1,0,25,1,0
78484,26.0047281323877,1,1,0,25,1,0
78497,6,1,1,0,25,1,0
78500,6.84618895481515,1,1,0,25,1,0
78513,6,1,1,0,25,1,0
78516,30.9394337146072,1,1,0,25,1,0
78529,6,1,1,0,25,1,0
78532,186.160210605491,1,1,0,25,1,0
78545,6,1,1,0,25,1,0
78548,8.66551126516464,1,1,0,25,1,0
78561,6,1,1,0,25,1,0
78564,28.4826514759192,1,1,0,25,1,0
78577,6,1,1,0,25,1,0
78580,8.35598170124411,1,1,0,25,1,0
78593,6,1,1,0,25,1,0
78596,7.35130318556471,1,1,0,25,1,0
78609,6,1,1,0,25,1,0
78612,14.7853878550733,1,1,0,25,1,0
78625,6,1,1,0,25,1,0
78628,9.10545775619447,1,1,0,25,1,0
78641,6,1,1,0,25,1,0
78644,13.6593173100803,1,1,0,25,1,0
78657,6,1,1,0,25,1,0
78660,9.09007437333578,1,1,0,25,1,0
78673,6,1,1,0,25,1,0
78676,14.6246343841404,1,1,0,25,1,0
78689,6,1,1,0,25,1,0
78692,20.0835801517426,1,1,0,25,1,0
78705,6,1,1,0,25,1,0
78708,63.3721674561516,1,1,0,25,1,0
78721,6,1,1,0,25,1,0
78724,12.0664017746142,1,1,0,25,1,0
78737,6,1,1,0,25,1,0
78740,10.6775383420695,1,1,0,25,1,0
78753,6,1,1,0,25,1,0
78756,8.39509522921154,1,1,0,25,1,0
78769,6,1,1,0,25,1,0
78772,22.0598065867463,1,1,0,25,1,0
78785,6,1,1,0,25,1,0
78788,8.792965627498,1,1,0,25,1,0
78801,6,1,1,0,25,1,0
78804,14.0885157250605,1,1,0,25,1,0
78817,6,1,1,0,25,1,0
78820,16.6112956810631,1,1,0,25,1,0
78833,6,1,1,0,25,1,0
78836,9.45757465752116,1,1,0,25,1,0
78849,6,1,1,0,25,1,0
78852,69.0665550439514,1,1,0,25,1,0
78865,6,1,1,0,25,1,0
78868,7.46347420955023,1,1,0,25,1,0
78881,6,1,1,0,25,1,0
78884,40.1818329409855,1,1,0,25,1,0
78897,6,1,1,0,25,1,0
78900,8.14104567208855,1,1,0,25,1,0
78913,6,1,1,0,25,1,0
78916,8.46110455874058,1,1,0,25,1,0
78929,6,1,1,0,25,1,0
78932,8.2534389328887,1,1,0,25,1,0
78945,6,1,1,0,25,1,0
78948,22.8079067410035,1,1,0,25,1,0
78961,6,1,1,0,25,1,0
78964,7.01580327404153,1,1,0,25,1,0
78977,6,1,1,0,25,1,0
78980,7.54722734688277,1,1,0,25,1,0
78993,6,1,1,0,25,1,0
78996,6.43667997347308,1,1,0,25,1,0
79009,6,1,1,0,25,1,0
79012,41.4191281064346,1,1,0,25,1,0
79025,6,1,1,0,25,1,0
79028,8.35598170124411,1,1,0,25,1,0
79041,6,1,1,0,25,1,0
79044,71.8328254244667,1,1,0,25,1,0
79057,6,1,1,0,25,1,0
79060,12.3715978106021,1,1,0,25,1,0
79073,6,1,1,0,25,1,0
79076,11.1882105643831,1,1,0,25,1,0
79089,6,1,1,0,25,1,0
79092,25.5115188372932,1,1,0,25,1,0
79105,6,1,1,0,25,1,0
79108,57.9150579150579,1,1,0,25,1,0
79121,6,1,1,0,25,1,0
79124,52.2868913066441,1,1,0,25,1,0
79137,6,1,1,0,25,1,0
79140,7.24245394823474,1,1,0,25,1,0
79153,6,1,1,0,25,1,0
79156,7.31134513980178,1,1,0,25,1,0
79169,6,1,1,0,25,1,0
79172,61.2093483368369,1,1,0,25,1,0
79185,6,1,1,0,25,1,0
79188,86.918349429324,1,1,0,25,1,0
79201,6,1,1,0,25,1,0
79204,13.0624092888244,1,1,0,25,1,0
79217,6,1,1,0,25,1,0
79220,9.27817660399992,1,1,0,25,1,0
79233,6,1,1,0,25,1,0
79236,6.46762918925982,1,1,0,25,1,0
79249,6,1,1,0,25,1,0
79252,14.7448690834351,1,1,0,25,1,0
79265,6,1,1,0,25,1,0
79268,28.0373831775701,1,1,0,25,1,0
79281,6,1,1,0,25,1,0
79284,8.38201676403353,1,1,0,25,1,0
79297,6,1,1,0,25,1,0
79300,39.3013100436681,1,1,0,25,1,0
79313,6,1,1,0,25,1,0
79316,29.5787272184045,1,1,0,25,1,0
79329,6,1,1,0,25,1,0
79332,88.345529180796,1,1,0,25,1,0
79345,6,1,1,0,25,1,0
79348,7.70943978070927,1,1,0,25,1,0
79361,6,1,1,0,25,1,0
79364,6.71796750946623,1,1,0,25,1,0
79377,6,1,1,0,25,1,0
79380,7.8443180197455,1,1,0,25,1,0
79393,6,1,1,0,25,1,0
79396,15.5099483001723,1,1,0,25,1,0
79409,6,1,1,0,25,1,0
79412,49.8640072529465,1,1,0,25,1,0
79425,6,1,1,0,25,1,0
79428,17.0319650414617,1,1,0,25,1,0
79441,6,1,1,0,25,1,0
79444,9.10545775619447,1,1,0,25,1,0
79457,6,1,1,0,25,1,0
79460,16.2598955424892,1,1,0,25,1,0
79473,6,1,1,0,25,1,0
79476,21.4443529870467,1,1,0,25,1,0
79489,6,1,1,0,25,1,0
79492,30.2437832223376,1,1,0,25,1,0
79505,6,1,1,0,25,1,0
79508,9.98406583432502,1,1,0,25,1,0
79521,6,1,1,0,25,1,0
79524,10.3092783505155,1,1,0,25,1,0
79537,6,1,1,0,25,1,0
79540,6.68458224737006,1,1,0,25,1,0
79553,6,1,1,0,25,1,0
79556,15.69087393413,1,1,0,25,1,0
79569,6,1,1,0,25,1,0
79572,36.1340243813417,1,1,0,25,1,0
79585,6,1,1,0,25,1,0
79588,7.33126971667234,1,1,0,25,1,0
79601,6,1,1,0,25,1,0
79604,32.4313699796894,1,1,0,25,1,0
79617,6,1,1,0,25,1,0
79620,11.4015893124496,1,1,0,25,1,0
79633,6,1,1,0,25,1,0
79636,6.57833534891756,1,1,0,25,1,0
79649,6,1,1,0,25,1,0
79652,21.3592233009709,1,1,0,25,1,0
79665,6,1,1,0,25,1,0
79668,8.99885469122112,1,1,0,25,1,0
79681,6,1,1,0,25,1,0
79684,16.6627394216851,1,1,0,25,1,0
79697,6,1,1,0,25,1,0
79700,14.5063446941945,1,1,0,25,1,0
79713,6,1,1,0,25,1,0
79716,7.94861501405058,1,1,0,25,1,0
79729,6,1,1,0,25,1,0
79732,27.0506585059293,1,1,0,25,1,0
79745,6,1,1,0,25,1,0
79748,7.54722734688277,1,1,0,25,1,0
79761,6,1,1,0,25,1,0
79764,14.3133909724431,1,1,0,25,1,0
79777,6,1,1,0,25,1,0
79780,8.50121077850482,1,1,0,25,1,0
79793,6,1,1,0,25,1,0
79796,8.51466414380322,1,1,0,25,1,0
79809,6,1,1,0,25,1,0
79812,15.6452479534751,1,1,0,25,1,0
79825,6,1,1,0,25,1,0
79828,9.29420379654143,1,1,0,25,1,0
79841,6,1,1,0,25,1,0
79844,9.34261933072872,1,1,0,25,1,0
79857,6,1,1,0,25,1,0
79860,19.3608949035867,1,1,0,25,1,0
79873,6,1,1,0,25,1,0
79876,13.9787071813843,1,1,0,25,1,0
79889,6,1,1,0,25,1,0
79892,6.33065186530419,1,1,0,25,1,0
79905,6,1,1,0,25,1,0
79908,8.63768824052908,1,1,0,25,1,0
79921,6,1,1,0,25,1,0
79924,10.0212572122684,1,1,0,25,1,0
79937,6,1,1,0,25,1,0
79940,18.5594840838364,1,1,0,25,1,0
79953,6,1,1,0,25,1,0
79956,6.76867539073717,1,1,0,25,1,0
79969,6,1,1,0,25,1,0
79972,40.7911001236094,1,1,0,25,1,0
79985,6,1,1,0,25,1,0
79988,7.13678109545985,1,1,0,25,1,0
80001,6,1,1,0,25,1,0
80004,8.09206977162381,1,1,0,25,1,0
80017,6,1,1,0,25,1,0
80020,9.29420379654143,1,1,0,25,1,0
80033,6,1,1,0,25,1,0
80036,9.21461680224874,1,1,0,25,1,0
80049,6,1,1,0,25,1,0
80052,49.4061283561234,1,1,0,25,1,0
80065,6,1,1,0,25,1,0
80068,7.98399974193132,1,1,0,25,1,0
80081,6,1,1,0,25,1,0
80084,7.72050222256882,1,1,0,25,1,0
80097,6,1,1,0,25,1,0
80100,15.3331474770003,1,1,0,25,1,0
80113,6,1,1,0,25,1,0
80116,20.1588271227856,1,1,0,25,1,0
80129,6,1,1,0,25,1,0
80132,7.23271818699864,1,1,0,25,1,0
80145,6,1,1,0,25,1,0
80148,7.91354254927979,1,1,0,25,1,0
80161,6,1,1,0,25,1,0
80164,6.83748877684923,1,1,0,25,1,0
80177,6,1,1,0,25,1,0
80180,10.6353264722944,1,1,0,25,1,0
80193,6,1,1,0,25,1,0
80196,10.8279558131904,1,1,0,25,1,0
80209,6,1,1,0,25,1,0
80212,10.8717137774264,1,1,0,25,1,0
80225,6,1,1,0,25,1,0
80228,11.4745358028698,1,1,0,25,1,0
80241,6,1,1,0,25,1,0
80244,6.36811568100243,1,1,0,25,1,0
80257,6,1,1,0,25,1,0
80260,25.2718639914229,1,1,0,25,1,0
80273,6,1,1,0,25,1,0
80276,14.2000631113916,1,1,0,25,1,0
80289,6,1,1,0,25,1,0
80292,36.6259711431743,1,1,0,25,1,0
80305,6,1,1,0,25,1,0
80308,8.27883795220016,1,1,0,25,1,0
80321,6,1,1,0,25,1,0
80324,7.05258808611281,1,1,0,25,1,0
80337,6,1,1,0,25,1,0
80340,7.57912143436787,1,1,0,25,1,0
80353,6,1,1,0,25,1,0
80356,71.8328254244667,1,1,0,25,1,0
80369,6,1,1,0,25,1,0
80372,15.0753768844221,1,1,0,25,1,0
80385,6,1,1,0,25,1,0
80388,9.8922840184656,1,1,0,25,1,0
80401,6,1,1,0,25,1,0
80404,42.7350427350427,1,1,0,25,1,0
80417,6,1,1,0,25,1,0
80420,8.16575661096356,1,1,0,25,1,0
80433,6,1,1,0,25,1,0
80436,13.3211335073603,1,1,0,25,1,0
80449,6,1,1,0,25,1,0
80452,28.9422908261708,1,1,0,25,1,0
80465,6,1,1,0,25,1,0
80468,10.2699226125023,1,1,0,25,1,0
80481,6,1,1,0,25,1,0
80484,11.4745358028698,1,1,0,25,1,0
80497,6,1,1,0,25,1,0
80500,10.741488184363,1,1,0,25,1,0
80513,6,1,1,0,25,1,0
80516,9.15192190359976,1,1,0,25,1,0
80529,6,1,1,0,25,1,0
80532,7.44282556723352,1,1,0,25,1,0
80545,6,1,1,0,25,1,0
80548,49.8640072529465,1,1,0,25,1,0
80561,6,1,1,0,25,1,0
80564,94.5558739255014,1,1,0,25,1,0
80577,6,1,1,0,25,1,0
80580,14.1255029535143,1,1,0,25,1,0
80593,6,1,1,0,25,1,0
80596,14.9913686059541,1,1,0,25,1,0
80609,6,1,1,0,25,1,0
80612,17.8217821782178,1,1,0,25,1,0
80625,6,1,1,0,25,1,0
80628,35.892973678486,1,1,0,25,1,0
80641,6,1,1,0,25,1,0
80644,37.3895309313392,1,1,0,25,1,0
80657,6,1,1,0,25,1,0
80660,64.1274776525457,1,1,0,25,1,0
80673,6,1,1,0,25,1,0
80676,14.1255029535143,1,1,0,25,1,0
80689,6,1,1,0,25,1,0
80692,8.240797775817,1,1,0,25,1,0
80705,6,1,1,0,25,1,0
80708,112.321307011572,1,1,0,25,1,0
80721,6,1,1,0,25,1,0
80724,10.741488184363,1,1,0,25,1,0
80737,6,1,1,0,25,1,0
80740,9.74889217134417,1,1,0,25,1,0
80753,6,1,1,0,25,1,0
80756,33.4391677362697,1,1,0,25,1,0
80769,6,1,1,0,25,1,0
80772,16.5093553013374,1,1,0,25,1,0
80785,6,1,1,0,25,1,0
80788,27.3254209218879,1,1,0,25,1,0
80801,6,1,1,0,25,1,0
80804,15.2462500385006,1,1,0,25,1,0
80817,6,1,1,0,25,1,0
80820,78.0880265026029,1,1,0,25,1,0
80833,6,1,1,0,25,1,0
80836,6.65152716376194,1,1,0,25,1,0
80849,6,1,1,0,25,1,0
80852,27.1873455264459,1,1,0,25,1,0
80865,6,1,1,0,25,1,0
80868,18.244812207438,1,1,0,25,1,0
80881,6,1,1,0,25,1,0
80884,8.7786191852732,1,1,0,25,1,0
80897,6,1,1,0,25,1,0
80900,14.5849907186423,1,1,0,25,1,0
80913,6,1,1,0,25,1,0
80916,7.2522159548751,1,1,0,25,1,0
80929,6,1,1,0,25,1,0
80932,21.2747668371513,1,1,0,25,1,0
80945,6,1,1,0,25,1,0
80948,10.3889017146935,1,1,0,25,1,0
80961,6,1,1,0,25,1,0
80964,10.4291764110992,1,1,0,25,1,0
80977,400,1,1,0,25,1,0
80981,402.684563758389,1,1,0,25,1,0
80985,405.405405405405,1,1,0,25,1,0
80989,408.163265306122,1,1,0,25,1,0
80993,410.958904109589,1,1,0,25,1,0
80997,413.793103448276,1,1,0,25,1,0
81001,416.666666666667,1,1,0,25,1,0
81005,419.58041958042,1,1,0,25,1,0
81009,422.535211267606,1,1,0,25,1,0
81013,425.531914893617,1,1,0,25,1,0
81017,428.571428571429,1,1,0,25,1,0
81021,431.654676258993,1,1,0,25,1,0
81025,434.782608695652,1,1,0,25,1,0
81029,437.956204379562,1,1,0,25,1,0
81033,441.176470588235,1,1,0,25,1,0
81037,444.444444444444,1,1,0,25,1,0
81041,447.761194029851,1,1,0,25,1,0
81045,451.127819548872,1,1,0,25,1,0
81049,454.545454545455,1,1,0,25,1,0
81053,458.015267175573,1,1,0,25,1,0
81057,461.538461538462,1,1,0,25,1,0
81061,465.116279069767,1,1,0,25,1,0
81065,468.75,1,1,0,25,1,0
81069,472.44094488189,1,1,0,25,1,0
81073,476.190476190476,1,1,0,25,1,0
81077,480,1,1,0,25,1,0
81081,483.870967741936,1,1,0,25,1,0
81085,487.804878048781,1,1,0,25,1,0
81089,491.803278688525,1,1,0,25,1,0
81093,495.867768595041,1,1,0,25,1,0
81097,500,1,1,0,25,1,0
81101,504.201680672269,1,1,0,25,1,0
81105,508.474576271186,1,1,0,25,1,0
81109,512.820512820513,1,1,0,25,1,0
81113,517.241379310345,1,1,0,25,1,0
81117,521.739130434783,1,1,0,25,1,0
81121,526.315789473684,1,1,0,25,1,0
81125,530.973451327434,1,1,0,25,1,0
81129,535.714285714286,1,1,0,25,1,0
81133,540.540540540541,1,1,0,25,1,0
81137,545.454545454546,1,1,0,25,1,0
81141,550.45871559633,1,1,0,25,1,0
81145,555.555555555556,1,1,0,25,1,0
81149,560.747663551402,1,1,0,25,1,0
81153,566.037735849057,1,1,0,25,1,0
81157,571.428571428571,1,1,0,25,1,0
81161,576.923076923077,1,1,0,25,1,0
81165,582.52427184466,1,1,0,25,1,0
81169,588.235294117647,1,1,0,25,1,0
81173,594.059405940594,1,1,0,25,1,0
81177,600,1,1,0,25,1,0
81181,606.060606060606,1,1,0,25,1,0
81185,612.244897959184,1,1,0,25,1,0
81189,618.556701030928,1,1,0,25,1,0
81193,625,1,1,0,25,1,0
81197,631.578947368421,1,1,0,25,1,0
81201,638.297872340426,1,1,0,25,1,0
81205,645.161290322581,1,1,0,25,1,0
81209,652.173913043478,1,1,0,25,1,0
81213,659.340659340659,1,1,0,25,1,0
81217,666.666666666667,1,1,0,25,1,0
81221,674.157303370787,1,1,0,25,1,0
81225,681.818181818182,1,1,0,25,1,0
81229,689.655172413793,1,1,0,25,1,0
81233,697.674418604651,1,1,0,25,1,0
81237,705.882352941177,1,1,0,25,1,0
81241,714.285714285714,1,1,0,25,1,0
81245,722.89156626506,1,1,0,25,1,0
81249,731.707317073171,1,1,0,25,1,0
81253,740.740740740741,1,1,0,25,1,0
81257,750,1,1,0,25,1,0
81261,759.493670886076,1,1,0,25,1,0
81265,769.230769230769,1,1,0,25,1,0
81269,779.220779220779,1,1,0,25,1,0
81273,789.473684210526,1,1,0,25,1,0
81277,800,1,1,0,25,1,0
81281,789.473684210526,1,1,0,25,1,0
81285,779.220779220779,1,1,0,25,1,0
81289,769.230769230769,1,1,0,25,1,0
81293,759.493670886076,1,1,0,25,1,0
81297,750,1,1,0,25,1,0
81301,740.740740740741,1,1,0,25,1,0
81305,731.707317073171,1,1,0,25,1,0
81309,722.89156626506,1,1,0,25,1,0
81313,714.285714285714,1,1,0,25,1,0
81317,705.882352941177,1,1,0,25,1,0
81321,697.674418604651,1,1,0,25,1,0
81325,689.655172413793,1,1,0,25,1,0
81329,681.818181818182,1,1,0,25,1,0
81333,674.157303370787,1,1,0,25,1,0
81337,666.666666666667,1,1,0,25,1,0
81341,659.340659340659,1,1,0,25,1,0
81345,652.173913043478,1,1,0,25,1,0
81349,645.161290322581,1,1,0,25,1,0
81353,638.297872340426,1,1,0,25,1,0
81357,631.578947368421,1,1,0,25,1,0
81361,625,1,1,0,25,1,0
81365,618.556701030928,1,1,0,25,1,0
81369,612.244897959184,1,1,0,25,1,0
81373,606.060606060606,1,1,0,25,1,0
81377,600,1,1,0,25,1,0
81381,594.059405940594,1,1,0,25,1,0
81385,588.235294117647,1,1,0,25,1,0
81389,582.52427184466,1,1,0,25,1,0
81393,576.923076923077,1,1,0,25,1,0
81397,571.428571428571,1,1,0,25,1,0
81401,566.037735849057,1,1,0,25,1,0
81405,560.747663551402,1,1,0,25,1,0
81409,555.555555555556,1,1,0,25,1,0
81413,550.45871559633,1,1,0,25,1,0
81417,545.454545454546,1,1,0,25,1,0
81421,540.540540540541,1,1,0,25,1,0
81425,535.714285714286,1,1,0,25,1,0
81429,530.973451327434,1,1,0,25,1,0
81433,526.315789473684,1,1,0,25,1,0
81437,521.739130434783,1,1,0,25,1,0
81441,517.241379310345,1,1,0,25,1,0
81445,512.820512820513,1,1,0,25,1,0
81449,508.474576271186,1,1,0,25,1,0
81453,504.201680672269,1,1,0,25,1,0
81457,500,1,1,0,25,1,0
81461,495.867768595041,1,1,0,25,1,0
81465,491.803278688525,1,1,0,25,1,0
81469,487.804878048781,1,1,0,25,1,0
81473,483.870967741936,1,1,0,25,1,0
81477,480,1,1,0,25,1,0
81481,476.190476190476,1,1,0,25,1,0
81485,472.44094488189,1,1,0,25,1,0
81489,468.75,1,1,0,25,1,0
81493,465.116279069767,1,1,0,25,1,0
81497,461.538461538462,1,1,0,25,1,0
81501,458.015267175573,1,1,0,25,1,0
81505,454.545454545455,1,1,0,25,1,0
81509,451.127819548872,1,1,0,25,1,0
81513,447.761194029851,1,1,0,25,1,0
81517,444.444444444444,1,1,0,25,1,0
81521,441.176470588235,1,1,0,25,1,0
81525,437.956204379562,1,1,0,25,1,0
81529,434.782608695652,1,1,0,25,1,0
81533,431.654676258993,1,1,0,25,1,0
81537,428.571428571429,1,1,0,25,1,0
81541,425.531914893617,1,1,0,25,1,0
81545,422.535211267606,1,1,0,25,1,0
81549,419.58041958042,1,1,0,25,1,0
81553,416.666666666667,1,1,0,25,1,0
81557,413.793103448276,1,1,0,25,1,0
81561,410.958904109589,1,1,0,25,1,0
81565,408.163265306122,1,1,0,25,1,0
81569,405.405405405405,1,1,0,25,1,0
81573,402.684563758389,1,1,0,25,1,0
81577,400,1,1,0,25,1,0
81581,402.684563758389,1,1,0,25,1,0
81585,405.405405405405,1,1,0,25,1,0
81589,408.163265306122,1,1,0,25,1,0
81593,410.958904109589,1,1,0,25,1,0
81597,413.793103448276,1,1,0,25,1,0
81601,416.666666666667,1,1,0,25,1,0
81605,419.58041958042,1,1,0,25,1,0
81609,422.535211267606,1,1,0,25,1,0
81613,425.531914893617,1,1,0,25,1,0
81617,428.571428571429,1,1,0,25,1,0
81621,431.654676258993,1,1,0,25,1,0
81625,434.782608695652,1,1,0,25,1,0
81629,437.956204379562,1,1,0,25,1,0
81633,441.176470588235,1,1,0,25,1,0
81637,444.444444444444,1,1,0,25,1,0
81641,447.761194029851,1,1,0,25,1,0
81645,451.127819548872,1,1,0,25,1,0
81649,454.545454545455,1,1,0,25,1,0
81653,458.015267175573,1,1,0,25,1,0
81657,461.538461538462,1,1,0,25,1,0
81661,465.116279069767,1,1,0,25,1,0
81665,468.75,1,1,0,25,1,0
81669,472.44094488189,1,1,0,25,1,0
81673,476.190476190476,1,1,0,25,1,0
81677,480,1,1,0,25,1,0
81681,483.870967741936,1,1,0,25,1,0
81685,487.804878048781,1,1,0,25,1,0
81689,491.803278688525,1,1,0,25,1,0
81693,495.867768595041,1,1,0,25,1,0
81697,500,1,1,0,25,1,0
81701,504.201680672269,1,1,0,25,1,0
81705,508.474576271186,1,1,0,25,1,0
81709,512.820512820513,1,1,0,25,1,0
81713,517.241379310345,1,1,0,25,1,0
81717,521.739130434783,1,1,0,25,1,0
81721,526.315789473684,1,1,0,25,1,0
81725,530.973451327434,1,1,0,25,1,0
81729,535.714285714286,1,1,0,25,1,0
81733,540.540540540541,1,1,0,25,1,0
81737,545.454545454546,1,1,0,25,1,0
81741,550.45871559633,1,1,0,25,1,0
81745,555.555555555556,1,1,0,25,1,0
81749,560.747663551402,1,1,0,25,1,0
81753,566.037735849057,1,1,0,25,1,0
81757,571.428571428571,1,1,0,25,1,0
81761,576.923076923077,1,1,0,25,1,0
81765,582.52427184466,1,1,0,25,1,0
81769,588.235294117647,1,1,0,25,1,0
81773,594.059405940594,1,1,0,25,1,0
81777,600,1,1,0,25,1,0
81781,606.060606060606,1,1,0,25,1,0
81785,612.244897959184,1,1,0,25,1,0
81789,618.556701030928,1,1,0,25,1,0
81793,625,1,1,0,25,1,0
81797,631.578947368421,1,1,0,25,1,0
81801,638.297872340426,1,1,0,25,1,0
81805,645.161290322581,1,1,0,25,1,0
81809,652.173913043478,1,1,0,25,1,0
81813,659.340659340659,1,1,0,25,1,0
81817,666.666666666667,1,1,0,25,1,0
81821,674.157303370787,1,1,0,25,1,0
81825,681.818181818182,1,1,0,25,1,0
81829,689.655172413793,1,1,0,25,1,0
81833,697.674418604651,1,1,0,25,1,0
81837,705.882352941177,1,1,0,25,1,0
81841,714.285714285714,1,1,0,25,1,0
81845,722.89156626506,1,1,0,25,1,0
81849,731.707317073171,1,1,0,25,1,0
81853,740.740740740741,1,1,0,25,1,0
81857,750,1,1,0,25,1,0
81861,759.493670886076,1,1,0,25,1,0
81865,769.230769230769,1,1,0,25,1,0
81869,779.220779220779,1,1,0,25,1,0
81873,789.473684210526,1,1,0,25,1,0
81877,800,1,1,0,25,1,0
81881,789.473684210526,1,1,0,25,1,0
81885,779.220779220779,1,1,0,25,1,0
81889,769.230769230769,1,1,0,25,1,0
81893,759.493670886076,1,1,0,25,1,0
81897,750,1,1,0,25,1,0
81901,740.740740740741,1,1,0,25,1,0
81905,731.707317073171,1,1,0,25,1,0
81909,722.89156626506,1,1,0,25,1,0
81913,714.285714285714,1,1,0,25,1,0
81917,705.882352941177,1,1,0,25,1,0
81921,697.674418604651,1,1,0,25,1,0
81925,689.655172413793,1,1,0,25,1,0
81929,681.818181818182,1,1,0,25,1,0
81933,674.157303370787,1,1,0,25,1,0
81937,666.666666666667,1,1,0,25,1,0
81941,659.340659340659,1,1,0,25,1,0
81945,652.173913043478,1,1,0,25,1,0
81949,645.161290322581,1,1,0,25,1,0
81953,638.297872340426,1,1,0,25,1,0
81957,631.578947368421,1,1,0,25,1,0
81961,625,1,1,0,25,1,0
81965,618.556701030928,1,1,0,25,1,0
81969,612.244897959184,1,1,0,25,1,0
81973,606.060606060606,1,1,0,25,1,0
81977,600,1,1,0,25,1,0
81981,594.059405940594,1,1,0,25,1,0
81985,588.235294117647,1,1,0,25,1,0
81989,582.52427184466,1,1,0,25,1,0
81993,576.923076923077,1,1,0,25,1,0
81997,571.428571428571,1,1,0,25,1,0
82001,566.037735849057,1,1,0,25,1,0
82005,560.747663551402,1,1,0,25,1,0
82009,555.555555555556,1,1,0,25,1,0
82013,550.45871559633,1,1,0,25,1,0
82017,545.454545454546,1,1,0,25,1,0
82021,540.540540540541,1,1,0,25,1,0
82025,535.714285714286,1,1,0,25,1,0
82029,530.973451327434,1,1,0,25,1,0
82033,526.315789473684,1,1,0,25,1,0
82037,521.739130434783,1,1,0,25,1,0
82041,517.241379310345,1,1,0,25,1,0
82045,512.820512820513,1,1,0,25,1,0
82049,508.474576271186,1,1,0,25,1,0
82053,504.201680672269,1,1,0,25,1,0
82057,500,1,1,0,25,1,0
82061,495.867768595041,1,1,0,25,1,0
82065,491.803278688525,1,1,0,25,1,0
82069,487.804878048781,1,1,0,25,1,0
82073,483.870967741936,1,1,0,25,1,0
82077,480,1,1,0,25,1,0
82081,476.190476190476,1,1,0,25,1,0
82085,472.44094488189,1,1,0,25,1,0
82089,468.75,1,1,0,25,1,0
82093,465.116279069767,1,1,0,25,1,0
82097,461.538461538462,1,1,0,25,1,0
82101,458.015267175573,1,1,0,25,1,0
82105,454.545454545455,1,1,0,25,1,0
82109,451.127819548872,1,1,0,25,1,0
82113,447.761194029851,1,1,0,25,1,0
82117,444.444444444444,1,1,0,25,1,0
82121,441.176470588235,1,1,0,25,1,0
82125,437.956204379562,1,1,0,25,1,0
82129,434.782608695652,1,1,0,25,1,0
82133,431.654676258993,1,1,0,25,1,0
82137,428.571428571429,1,1,0,25,1,0
82141,425.531914893617,1,1,0,25,1,0
82145,422.535211267606,1,1,0,25,1,0
82149,419.58041958042,1,1,0,25,1,0
82153,416.666666666667,1,1,0,25,1,0
82157,413.793103448276,1,1,0,25,1,0
82161,410.958904109589,1,1,0,25,1,0
82165,408.163265306122,1,1,0,25,1,0
82169,405.405405405405,1,1,0,25,1,0
82173,402.684563758389,1,1,0,25,1,0
82177,400,1,1,0,25,1,0
82181,402.684563758389,1,1,0,25,1,0
82185,405.405405405405,1,1,0,25,1,0
82189,408.163265306122,1,1,0,25,1,0
82193,410.958904109589,1,1,0,25,1,0
82197,413.793103448276,1,1,0,25,1,0
82201,416.666666666667,1,1,0,25,1,0
82205,419.58041958042,1,1,0,25,1,0
82209,422.535211267606,1,1,0,25,1,0
82213,425.531914893617,1,1,0,25,1,0
82217,428.571428571429,1,1,0,25,1,0
82221,431.654676258993,1,1,0,25,1,0
82225,434.782608695652,1,1,0,25,1,0
82229,437.956204379562,1,1,0,25,1,0
82233,441.176470588235,1,1,0,25,1,0
82237,444.444444444444,1,1,0,25,1,0
82241,447.761194029851,1,1,0,25,1,0
82245,451.127819548872,1,1,0,25,1,0
82249,454.545454545455,1,1,0,25,1,0
82253,458.015267175573,1,1,0,25,1,0
82257,461.538461538462,1,1,0,25,1,0
82261,465.116279069767,1,1,0,25,1,0
82265,468.75,1,1,0,25,1,0
82269,472.44094488189,1,1,0,25,1,0
82273,476.190476190476,1,1,0,25,1,0
82277,480,1,1,0,25,1,0
82281,483.870967741936,1,1,0,25,1,0
82285,487.804878048781,1,1,0,25,1,0
82289,491.803278688525,1,1,0,25,1,0
82293,495.867768595041,1,1,0,25,1,0
82297,500,1,1,0,25,1,0
82301,504.201680672269,1,1,0,25,1,0
82305,508.474576271186,1,1,0,25,1,0
82309,512.820512820513,1,1,0,25,1,0
82313,517.241379310345,1,1,0,25,1,0
82317,521.739130434783,1,1,0,25,1,0
82321,526.315789473684,1,1,0,25,1,0
82325,530.973451327434,1,1,0,25,1,0
82329,535.714285714286,1,1,0,25,1,0
82333,540.540540540541,1,1,0,25,1,0
82337,545.454545454546,1,1,0,25,1,0
82341,550.45871559633,1,1,0,25,1,0
82345,555.555555555556,1,1,0,25,1,0
82349,560.747663551402,1,1,0,25,1,0
82353,566.037735849057,1,1,0,25,1,0
82357,571.428571428571,1,1,0,25,1,0
82361,576.923076923077,1,1,0,25,1,0
82365,582.52427184466,1,1,0,25,1,0
82369,588.235294117647,1,1,0,25,1,0
82373,594.059405940594,1,1,0,25,1,0
82377,600,1,1,0,25,1,0
82381,606.060606060606,1,1,0,25,1,0
82385,612.244897959184,1,1,0,25,1,0
82389,618.556701030928,1,1,0,25,1,0
82393,625,1,1,0,25,1,0
82397,631.578947368421,1,1,0,25,1,0
82401,638.297872340426,1,1,0,25,1,0
82405,645.161290322581,1,1,0,25,1,0
82409,652.173913043478,1,1,0,25,1,0
82413,659.340659340659,1,1,0,25,1,0
82417,666.666666666667,1,1,0,25,1,0
82421,674.157303370787,1,1,0,25,1,0
82425,681.818181818182,1,1,0,25,1,0
82429,689.655172413793,1,1,0,25,1,0
82433,697.674418604651,1,1,0,25,1,0
82437,705.882352941177,1,1,0,25,1,0
82441,714.285714285714,1,1,0,25,1,0
82445,722.89156626506,1,1,0,25,1,0
82449,731.707317073171,1,1,0,25,1,0
82453,740.740740740741,1,1,0,25,1,0
82457,750,1,1,0,25,1,0
82461,759.493670886076,1,1,0,25,1,0
82465,769.230769230769,1,1,0,25,1,0
82469,779.220779220779,1,1,0,25,1,0
82473,789.473684210526,1,1,0,25,1,0
82477,800,1,1,0,25,1,0
82481,789.473684210526,1,1,0,25,1,0
82485,779.220779220779,1,1,0,25,1,0
82489,769.230769230769,1,1,0,25,1,0
82493,759.493670886076,1,1,0,25,1,0
82497,750,1,1,0,25,1,0
82501,740.740740740741,1,1,0,25,1,0
82505,731.707317073171,1,1,0,25,1,0
82509,722.89156626506,1,1,0,25,1,0
82513,714.285714285714,1,1,0,25,1,0
82517,705.882352941177,1,1,0,25,1,0
82521,697.674418604651,1,1,0,25,1,0
82525,689.655172413793,1,1,0,25,1,0
82529,681.818181818182,1,1,0,25,1,0
82533,674.157303370787,1,1,0,25,1,0
82537,666.666666666667,1,1,0,25,1,0
82541,659.340659340659,1,1,0,25,1,0
82545,652.173913043478,1,1,0,25,1,0
82549,645.161290322581,1,1,0,25,1,0
82553,638.297872340426,1,1,0,25,1,0
82557,631.578947368421,1,1,0,25,1,0
82561,625,1,1,0,25,1,0
82565,618.556701030928,1,1,0,25,1,0
82569,612.244897959184,1,1,0,25,1,0
82573,606.060606060606,1,1,0,25,1,0
82577,600,1,1,0,25,1,0
82581,594.059405940594,1,1,0,25,1,0
82585,588.235294117647,1,1,0,25,1,0
82589,582.52427184466,1,1,0,25,1,0
82593,576.923076923077,1,1,0,25,1,0
82597,571.428571428571,1,1,0,25,1,0
82601,566.037735849057,1,1,0,25,1,0
82605,560.747663551402,1,1,0,25,1,0
82609,555.555555555556,1,1,0,25,1,0
82613,550.45871559633,1,1,0,25,1,0
82617,545.454545454546,1,1,0,25,1,0
82621,540.540540540541,1,1,0,25,1,0
82625,535.714285714286,1,1,0,25,1,0
82629,530.973451327434,1,1,0,25,1,0
82633,526.315789473684,1,1,0,25,1,0
82637,521.739130434783,1,1,0,25,1,0
82641,517.241379310345,1,1,0,25,1,0
82645,512.820512820513,1,1,0,25,1,0
82649,508.474576271186,1,1,0,25,1,0
82653,504.201680672269,1,1,0,25,1,0
82657,500,1,1,0,25,1,0
82661,495.867768595041,1,1,0,25,1,0
82665,491.803278688525,1,1,0,25,1,0
82669,487.804878048781,1,1,0,25,1,0
82673,483.870967741936,1,1,0,25,1,0
82677,480,1,1,0,25,1,0
82681,476.190476190476,1,1,0,25,1,0
82685,472.44094488189,1,1,0,25,1,0
82689,468.75,1,1,0,25,1,0
82693,465.116279069767,1,1,0,25,1,0
82697,461.538461538462,1,1,0,25,1,0
82701,458.015267175573,1,1,0,25,1,0
82705,454.545454545455,1,1,0,25,1,0
82709,451.127819548872,1,1,0,25,1,0
82713,447.761194029851,1,1,0,25,1,0
82717,444.444444444444,1,1,0,25,1,0
82721,441.176470588235,1,1,0,25,1,0
82725,437.956204379562,1,1,0,25,1,0
82729,434.782608695652,1,1,0,25,1,0
82733,431.654676258993,1,1,0,25,1,0
82737,428.571428571429,1,1,0,25,1,0
82741,425.531914893617,1,1,0,25,1,0
82745,422.535211267606,1,1,0,25,1,0
82749,419.58041958042,1,1,0,25,1,0
82753,416.666666666667,1,1,0,25,1,0
82757,413.793103448276,1,1,0,25,1,0
82761,410.958904109589,1,1,0,25,1,0
82765,408.163265306122,1,1,0,25,1,0
82769,405.405405405405,1,1,0,25,1,0
82773,402.684563758389,1,1,0,25,1,0
82777,400,1,1,0,25,1,0
82781,402.684563758389,1,1,0,25,1,0
82785,405.405405405405,1,1,0,25,1,0
82789,408.163265306122,1,1,0,25,1,0
82793,410.958904109589,1,1,0,25,1,0
82797,413.793103448276,1,1,0,25,1,0
82801,416.666666666667,1,1,0,25,1,0
82805,419.58041958042,1,1,0,25,1,0
82809,422.535211267606,1,1,0,25,1,0
82813,425.531914893617,1,1,0,25,1,0
82817,428.571428571429,1,1,0,25,1,0
82821,431.654676258993,1,1,0,25,1,0
82825,434.782608695652,1,1,0,25,1,0
82829,437.956204379562,1,1,0,25,1,0
82833,441.176470588235,1,1,0,25,1,0
82837,444.444444444444,1,1,0,25,1,0
82841,447.761194029851,1,1,0,25,1,0
82845,451.127819548872,1,1,0,25,1,0
82849,454.545454545455,1,1,0,25,1,0
82853,458.015267175573,1,1,0,25,1,0
82857,461.538461538462,1,1,0,25,1,0
82861,465.116279069767,1,1,0,25,1,0
82865,468.75,1,1,0,25,1,0
82869,472.44094488189,1,1,0,25,1,0
82873,476.190476190476,1,1,0,25,1,0
82877,480,1,1,0,25,1,0
82881,483.870967741936,1,1,0,25,1,0
82885,487.804878048781,1,1,0,25,1,0
82889,491.803278688525,1,1,0,25,1,0
82893,495.867768595041,1,1,0,25,1,0
82897,500,1,1,0,25,1,0
82901,504.201680672269,1,1,0,25,1,0
82905,508.474576271186,1,1,0,25,1,0
82909,512.820512820513,1,1,0,25,1,0
82913,517.241379310345,1,1,0,25,1,0
82917,521.739130434783,1,1,0,25,1,0
82921,526.315789473684,1,1,0,25,1,0
82925,530.973451327434,1,1,0,25,1,0
82929,535.714285714286,1,1,0,25,1,0
82933,540.540540540541,1,1,0,25,1,0
82937,545.454545454546,1,1,0,25,1,0
82941,550.45871559633,1,1,0,25,1,0
82945,555.555555555556,1,1,0,25,1,0
82949,560.747663551402,1,1,0,25,1,0
82953,566.037735849057,1,1,0,25,1,0
82957,571.428571428571,1,1,0,25,1,0
82961,576.923076923077,1,1,0,25,1,0
82965,582.52427184466,1,1,0,25,1,0
82969,588.235294117647,1,1,0,25,1,0
82973,594.059405940594,1,1,0,25,1,0
82977,600,1,1,0,25,1,0
82981,606.060606060606,1,1,0,25,1,0
82985,612.244897959184,1,1,0,25,1,0
82989,618.556701030928,1,1,0,25,1,0
82993,625,1,1,0,25,1,0
82997,631.578947368421,1,1,0,25,1,0
83001,638.297872340426,1,1,0,25,1,0
83005,645.161290322581,1,1,0,25,1,0
83009,652.173913043478,1,1,0,25,1,0
83013,659.340659340659,1,1,0,25,1,0
83017,666.666666666667,1,1,0,25,1,0
83021,674.157303370787,1,1,0,25,1,0
83025,681.818181818182,1,1,0,25,1,0
83029,689.655172413793,1,1,0,25,1,0
83033,697.674418604651,1,1,0,25,1,0
83037,705.882352941177,1,1,0,25,1,0
83041,714.285714285714,1,1,0,25,1,0
83045,722.89156626506,1,1,0,25,1,0
83049,731.707317073171,1,1,0,25,1,0
83053,740.740740740741,1,1,0,25,1,0
83057,750,1,1,0,25,1,0
83061,759.493670886076,1,1,0,25,1,0
83065,769.230769230769,1,1,0,25,1,0
83069,779.220779220779,1,1,0,25,1,0
83073,789.473684210526,1,1,0,25,1,0
83077,800,1,1,0,25,1,0
83081,789.473684210526,1,1,0,25,1,0
83085,779.220779220779,1,1,0,25,1,0
83089,769.230769230769,1,1,0,25,1,0
83093,759.493670886076,1,1,0,25,1,0
83097,750,1,1,0,25,1,0
83101,740.740740740741,1,1,0,25,1,0
83105,731.707317073171,1,1,0,25,1,0
83109,722.89156626506,1,1,0,25,1,0
83113,714.285714285714,1,1,0,25,1,0
83117,705.882352941177,1,1,0,25,1,0
83121,697.674418604651,1,1,0,25,1,0
83125,689.655172413793,1,1,0,25,1,0
83129,681.818181818182,1,1,0,25,1,0
83133,674.157303370787,1,1,0,25,1,0
83137,666.666666666667,1,1,0,25,1,0
83141,659.340659340659,1,1,0,25,1,0
83145,652.173913043478,1,1,0,25,1,0
83149,645.161290322581,1,1,0,25,1,0
83153,638.297872340426,1,1,0,25,1,0
83157,631.578947368421,1,1,0,25,1,0
83161,625,1,1,0,25,1,0
83165,618.556701030928,1,1,0,25,1,0
83169,612.244897959184,1,1,0,25,1,0
83173,606.060606060606,1,1,0,25,1,0
83177,600,1,1,0,25,1,0
83181,594.059405940594,1,1,0,25,1,0
83185,588.235294117647,1,1,0,25,1,0
83189,582.52427184466,1,1,0,25,1,0
83193,576.923076923077,1,1,0,25,1,0
83197,571.428571428571,1,1,0,25,1,0
83201,566.037735849057,1,1,0,25,1,0
83205,560.747663551402,1,1,0,25,1,0
83209,555.555555555556,1,1,0,25,1,0
83213,550.45871559633,1,1,0,25,1,0
83217,545.454545454546,1,1,0,25,1,0
83221,540.540540540541,1,1,0,25,1,0
83225,535.714285714286,1,1,0,25,1,0
83229,530.973451327434,1,1,0,25,1,0
83233,526.315789473684,1,1,0,25,1,0
83237,521.739130434783,1,1,0,25,1,0
83241,517.241379310345,1,1,0,25,1,0
83245,512.820512820513,1,1,0,25,1,0
83249,508.474576271186,1,1,0,25,1,0
83253,504.201680672269,1,1,0,25,1,0
83257,500,1,1,0,25,1,0
83261,495.867768595041,1,1,0,25,1,0
83265,491.803278688525,1,1,0,25,1,0
83269,487.804878048781,1,1,0,25,1,0
83273,483.870967741936,1,1,0,25,1,0
83277,480,1,1,0,25,1,0
83281,476.190476190476,1,1,0,25,1,0
83285,472.44094488189,1,1,0,25,1,0
83289,468.75,1,1,0,25,1,0
83293,465.116279069767,1,1,0,25,1,0
83297,461.538461538462,1,1,0,25,1,0
83301,458.015267175573,1,1,0,25,1,0
83305,454.545454545455,1,1,0,25,1,0
83309,451.127819548872,1,1,0,25,1,0
83313,447.761194029851,1,1,0,25,1,0
83317,444.444444444444,1,1,0,25,1,0
83321,441.176470588235,1,1,0,25,1,0
83325,437.956204379562,1,1,0,25,1,0
83329,434.782608695652,1,1,0,25,1,0
83333,431.654676258993,1,1,0,25,1,0
83337,428.571428571429,1,1,0,25,1,0
83341,425.531914893617,1,1,0,25,1,0
83345,422.535211267606,1,1,0,25,1,0
83349,419.58041958042,1,1,0,25,1,0
83353,416.666666666667,1,1,0,25,1,0
83357,413.793103448276,1,1,0,25,1,0
83361,410.958904109589,1,1,0,25,1,0
83365,408.163265306122,1,1,0,25,1,0
83369,405.405405405405,1,1,0,25,1,0
83373,402.684563758389,1,1,0,25,1,0
83377,400,1,1,0,25,1,0
83381,402.684563758389,1,1,0,25,1,0
83385,405.405405405405,1,1,0,25,1,0
83389,408.163265306122,1,1,0,25,1,0
83393,410.958904109589,1,1,0,25,1,0
83397,413.793103448276,1,1,0,25,1,0
83401,416.666666666667,1,1,0,25,1,0
83405,419.58041958042,1,1,0,25,1,0
83409,422.535211267606,1,1,0,25,1,0
83413,425.531914893617,1,1,0,25,1,0
83417,428.571428571429,1,1,0,25,1,0
83421,431.654676258993,1,1,0,25,1,0
83425,434.782608695652,1,1,0,25,1,0
83429,437.956204379562,1,1,0,25,1,0
83433,441.176470588235,1,1,0,25,1,0
83437,444.444444444444,1,1,0,25,1,0
83441,447.761194029851,1,1,0,25,1,0
83445,451.127819548872,1,1,0,25,1,0
83449,454.545454545455,1,1,0,25,1,0
83453,458.015267175573,1,1,0,25,1,0
83457,461.538461538462,1,1,0,25,1,0
83461,465.116279069767,1,1,0,25,1,0
83465,468.75,1,1,0,25,1,0
83469,472.44094488189,1,1,0,25,1,0
83473,476.190476190476,1,1,0,25,1,0
83477,480,1,1,0,25,1,0
83481,483.870967741936,1,1,0,25,1,0
83485,487.804878048781,1,1,0,25,1,0
83489,491.803278688525,1,1,0,25,1,0
83493,495.867768595041,1,1,0,25,1,0
83497,500,1,1,0,25,1,0
83501,504.201680672269,1,1,0,25,1,0
83505,508.474576271186,1,1,0,25,1,0
83509,512.820512820513,1,1,0,25,1,0
83513,517.241379310345,1,1,0,25,1,0
83517,521.739130434783,1,1,0,25,1,0
83521,526.315789473684,1,1,0,25,1,0
83525,530.973451327434,1,1,0,25,1,0
83529,535.714285714286,1,1,0,25,1,0
83533,540.540540540541,1,1,0,25,1,0
83537,545.454545454546,1,1,0,25,1,0
83541,550.45871559633,1,1,0,25,1,0
83545,555.555555555556,1,1,0,25,1,0
83549,560.747663551402,1,1,0,25,1,0
83553,566.037735849057,1,1,0,25,1,0
83557,571.428571428571,1,1,0,25,1,0
83561,576.923076923077,1,1,0,25,1,0
83565,582.52427184466,1,1,0,25,1,0
83569,588.235294117647,1,1,0,25,1,0
83573,594.059405940594,1,1,0,25,1,0
83577,600,1,1,0,25,1,0
83581,606.060606060606,1,1,0,25,1,0
83585,612.244897959184,1,1,0,25,1,0
83589,618.556701030928,1,1,0,25,1,0
83593,625,1,1,0,25,1,0
83597,631.578947368421,1,1,0,25,1,0
83601,638.297872340426,1,1,0,25,1,0
83605,645.161290322581,1,1,0,25,1,0
83609,652.173913043478,1,1,0,25,1,0
83613,659.340659340659,1,1,0,25,1,0
83617,666.666666666667,1,1,0,25,1,0
83621,674.157303370787,1,1,0,25,1,0
83625,681.818181818182,1,1,0,25,1,0
83629,689.655172413793,1,1,0,25,1,0
83633,697.674418604651,1,1,0,25,1,0
83637,705.882352941177,1,1,0,25,1,0
83641,714.285714285714,1,1,0,25,1,0
83645,722.89156626506,1,1,0,25,1,0
83649,731.707317073171,1,1,0,25,1,0
83653,740.740740740741,1,1,0,25,1,0
83657,750,1,1,0,25,1,0
83661,759.493670886076,1,1,0,25,1,0
83665,769.230769230769,1,1,0,25,1,0
83669,779.220779220779,1,1,0,25,1,0
83673,789.473684210526,1,1,0,25,1,0
83677,800,1,1,0,25,1,0
83681,789.473684210526,1,1,0,25,1,0
83685,779.220779220779,1,1,0,25,1,0
83689,769.230769230769,1,1,0,25,1,0
83693,759.493670886076,1,1,0,25,1,0
83697,750,1,1,0,25,1,0
83701,740.740740740741,1,1,0,25,1,0
83705,731.707317073171,1,1,0,25,1,0
83709,722.89156626506,1,1,0,25,1,0
83713,714.285714285714,1,1,0,25,1,0
83717,705.882352941177,1,1,0,25,1,0
83721,697.674418604651,1,1,0,25,1,0
83725,689.655172413793,1,1,0,25,1,0
83729,681.818181818182,1,1,0,25,1,0
83733,674.157303370787,1,1,0,25,1,0
83737,666.666666666667,1,1,0,25,1,0
83741,659.340659340659,1,1,0,25,1,0
83745,652.173913043478,1,1,0,25,1,0
83749,645.161290322581,1,1,0,25,1,0
83753,638.297872340426,1,1,0,25,1,0
83757,631.578947368421,1,1,0,25,1,0
83761,625,1,1,0,25,1,0
83765,618.556701030928,1,1,0,25,1,0
83769,612.244897959184,1,1,0,25,1,0
83773,606.060606060606,1,1,0,25,1,0
83777,600,1,1,0,25,1,0
83781,594.059405940594,1,1,0,25,1,0
83785,588.235294117647,1,1,0,25,1,0
83789,582.52427184466,1,1,0,25,1,0
83793,576.923076923077,1,1,0,25,1,0
83797,571.428571428571,1,1,0,25,1,0
83801,566.037735849057,1,1,0,25,1,0
83805,560.747663551402,1,1,0,25,1,0
83809,555.555555555556,1,1,0,25,1,0
83813,550.45871559633,1,1,0,25,1,0
83817,545.454545454546,1,1,0,25,1,0
83821,540.540540540541,1,1,0,25,1,0
83825,535.714285714286,1,1,0,25,1,0
83829,530.973451327434,1,1,0,25,1,0
83833,526.315789473684,1,1,0,25,1,0
83837,521.739130434783,1,1,0,25,1,0
83841,517.241379310345,1,1,0,25,1,0
83845,512.820512820513,1,1,0,25,1,0
83849,508.474576271186,1,1,0,25,1,0
83853,504.201680672269,1,1,0,25,1,0
83857,500,1,1,0,25,1,0
83861,495.867768595041,1,1,0,25,1,0
83865,491.803278688525,1,1,0,25,1,0
83869,487.804878048781,1,1,0,25,1,0
83873,483.870967741936,1,1,0,25,1,0
83877,480,1,1,0,25,1,0
83881,476.190476190476,1,1,0,25,1,0
83885,472.44094488189,1,1,0,25,1,0
83889,468.75,1,1,0,25,1,0
83893,465.116279069767,1,1,0,25,1,0
83897,461.538461538462,1,1,0,25,1,0
83901,458.015267175573,1,1,0,25,1,0
83905,454.545454545455,1,1,0,25,1,0
83909,451.127819548872,1,1,0,25,1,0
83913,447.761194029851,1,1,0,25,1,0
83917,444.444444444444,1,1,0,25,1,0
83921,441.176470588235,1,1,0,25,1,0
83925,437.956204379562,1,1,0,25,1,0
83929,434.782608695652,1,1,0,25,1,0
83933,431.654676258993,1,1,0,25,1,0
83937,428.571428571429,1,1,0,25,1,0
83941,425.531914893617,1,1,0,25,1,0
83945,422.535211267606,1,1,0,25,1,0
83949,419.58041958042,1,1,0,25,1,0
83953,416.666666666667,1,1,0,25,1,0
83957,413.793103448276,1,1,0,25,1,0
83961,410.958904109589,1,1,0,25,1,0
83965,408.163265306122,1,1,0,25,1,0
83969,405.405405405405,1,1,0,25,1,0
83973,402.684563758389,1,1,0,25,1,0
83977,400,1,1,0,25,1,0
83981,402.684563758389,1,1,0,25,1,0
83985,405.405405405405,1,1,0,25,1,0
83989,408.163265306122,1,1,0,25,1,0
83993,410.958904109589,1,1,0,25,1,0
83997,413.793103448276,1,1,0,25,1,0
84001,416.666666666667,1,1,0,25,1,0
84005,419.58041958042,1,1,0,25,1,0
84009,422.535211267606,1,1,0,25,1,0
84013,425.531914893617,1,1,0,25,1,0
84017,428.571428571429,1,1,0,25,1,0
84021,431.654676258993,1,1,0,25,1,0
84025,434.782608695652,1,1,0,25,1,0
84029,437.956204379562,1,1,0,25,1,0
84033,441.176470588235,1,1,0,25,1,0
84037,444.444444444444,1,1,0,25,1,0
84041,447.761194029851,1,1,0,25,1,0
84045,451.127819548872,1,1,0,25,1,0
84049,454.545454545455,1,1,0,25,1,0
84053,458.015267175573,1,1,0,25,1,0
84057,461.538461538462,1,1,0,25,1,0
84061,465.116279069767,1,1,0,25,1,0
84065,468.75,1,1,0,25,1,0
84069,472.44094488189,1,1,0,25,1,0
84073,476.190476190476,1,1,0,25,1,0
84077,480,1,1,0,25,1,0
84081,483.870967741936,1,1,0,25,1,0
84085,487.804878048781,1,1,0,25,1,0
84089,491.803278688525,1,1,0,25,1,0
84093,495.867768595041,1,1,0,25,1,0
84097,500,1,1,0,25,1,0
84101,504.201680672269,1,1,0,25,1,0
84105,508.474576271186,1,1,0,25,1,0
84109,512.820512820513,1,1,0,25,1,0
84113,517.241379310345,1,1,0,25,1,0
84117,521.739130434783,1,1,0,25,1,0
84121,526.315789473684,1,1,0,25,1,0
84125,530.973451327434,1,1,0,25,1,0
84129,535.714285714286,1,1,0,25,1,0
84133,540.540540540541,1,1,0,25,1,0
84137,545.454545454546,1,1,0,25,1,0
84141,550.45871559633,1,1,0,25,1,0
84145,555.555555555556,1,1,0,25,1,0
84149,560.747663551402,1,1,0,25,1,0
84153,566.037735849057,1,1,0,25,1,0
84157,571.428571428571,1,1,0,25,1,0
84161,576.923076923077,1,1,0,25,1,0
84165,582.52427184466,1,1,0,25,1,0
84169,588.235294117647,1,1,0,25,1,0
84173,594.059405940594,1,1,0,25,1,0
84177,600,1,1,0,25,1,0
84181,606.060606060606,1,1,0,25,1,0
84185,612.244897959184,1,1,0,25,1,0
84189,618.556701030928,1,1,0,25,1,0
84193,625,1,1,0,25,1,0
84197,631.578947368421,1,1,0,25,1,0
84201,638.297872340426,1,1,0,25,1,0
84205,645.161290322581,1,1,0,25,1,0
84209,652.173913043478,1,1,0,25,1,0
84213,659.340659340659,1,1,0,25,1,0
84217,666.666666666667,1,1,0,25,1,0
84221,674.157303370787,1,1,0,25,1,0
84225,681.818181818182,1,1,0,25,1,0
84229,689.655172413793,1,1,0,25,1,0
84233,697.674418604651,1,1,0,25,1,0
84237,705.882352941177,1,1,0,25,1,0
84241,714.285714285714,1,1,0,25,1,0
84245,722.89156626506,1,1,0,25,1,0
84249,731.707317073171,1,1,0,25,1,0
84253,740.740740740741,1,1,0,25,1,0
84257,750,1,1,0,25,1,0
84261,759.493670886076,1,1,0,25,1,0
84265,769.230769230769,1,1,0,25,1,0
84269,779.220779220779,1,1,0,25,1,0
84273,789.473684210526,1,1,0,25,1,0
84277,800,1,1,0,25,1,0
84281,789.473684210526,1,1,0,25,1,0
84285,779.220779220779,1,1,0,25,1,0
84289,769.230769230769,1,1,0,25,1,0
84293,759.493670886076,1,1,0,25,1,0
84297,750,1,1,0,25,1,0
84301,740.740740740741,1,1,0,25,1,0
84305,731.707317073171,1,1,0,25,1,0
84309,722.89156626506,1,1,0,25,1,0
84313,714.285714285714,1,1,0,25,1,0
84317,705.882352941177,1,1,0,25,1,0
84321,697.674418604651,1,1,0,25,1,0
84325,689.655172413793,1,1,0,25,1,0
84329,681.818181818182,1,1,0,25,1,0
84333,674.157303370787,1,1,0,25,1,0
84337,666.666666666667,1,1,0,25,1,0
84341,659.340659340659,1,1,0,25,1,0
84345,652.173913043478,1,1,0,25,1,0
84349,645.161290322581,1,1,0,25,1,0
84353,638.297872340426,1,1,0,25,1,0
84357,631.578947368421,1,1,0,25,1,0
84361,625,1,1,0,25,1,0
84365,618.556701030928,1,1,0,25,1,0
84369,612.244897959184,1,1,0,25,1,0
84373,606.060606060606,1,1,0,25,1,0
84377,600,1,1,0,25,1,0
84381,594.059405940594,1,1,0,25,1,0
84385,588.235294117647,1,1,0,25,1,0
84389,582.52427184466,1,1,0,25,1,0
84393,576.923076923077,1,1,0,25,1,0
84397,571.428571428571,1,1,0,25,1,0
84401,566.037735849057,1,1,0,25,1,0
84405,560.747663551402,1,1,0,25,1,0
84409,555.555555555556,1,1,0,25,1,0
84413,550.45871559633,1,1,0,25,1,0
84417,545.454545454546,1,1,0,25,1,0
84421,540.540540540541,1,1,0,25,1,0
84425,535.714285714286,1,1,0,25,1,0
84429,530.973451327434,1,1,0,25,1,0
84433,526.315789473684,1,1,0,25,1,0
84437,521.739130434783,1,1,0,25,1,0
84441,517.241379310345,1,1,0,25,1,0
84445,512.820512820513,1,1,0,25,1,0
84449,508.474576271186,1,1,0,25,1,0
84453,504.201680672269,1,1,0,25,1,0
84457,500,1,1,0,25,1,0
84461,495.867768595041,1,1,0,25,1,0
84465,491.803278688525,1,1,0,25,1,0
84469,487.804878048781,1,1,0,25,1,0
84473,483.870967741936,1,1,0,25,1,0
84477,480,1,1,0,25,1,0
84481,476.190476190476,1,1,0,25,1,0
84485,472.44094488189,1,1,0,25,1,0
84489,468.75,1,1,0,25,1,0
84493,465.116279069767,1,1,0,25,1,0
84497,461.538461538462,1,1,0,25,1,0
84501,458.015267175573,1,1,0,25,1,0
84505,454.545454545455,1,1,0,25,1,0
84509,451.127819548872,1,1,0,25,1,0
84513,447.761194029851,1,1,0,25,1,0
84517,444.444444444444,1,1,0,25,1,0
84521,441.176470588235,1,1,0,25,1,0
84525,437.956204379562,1,1,0,25,1,0
84529,434.782608695652,1,1,0,25,1,0
84533,431.654676258993,1,1,0,25,1,0
84537,428.571428571429,1,1,0,25,1,0
84541,425.531914893617,1,1,0,25,1,0
84545,422.535211267606,1,1,0,25,1,0
84549,419.58041958042,1,1,0,25,1,0
84553,416.666666666667,1,1,0,25,1,0
84557,413.793103448276,1,1,0,25,1,0
84561,410.958904109589,1,1,0,25,1,0
84565,408.163265306122,1,1,0,25,1,0
84569,405.405405405405,1,1,0,25,1,0
84573,402.684563758389,1,1,0,25,1,0
84577,400,1,1,0,25,1,0
84581,402.684563758389,1,1,0,25,1,0
84585,405.405405405405,1,1,0,25,1,0
84589,408.163265306122,1,1,0,25,1,0
84593,410.958904109589,1,1,0,25,1,0
84597,413.793103448276,1,1,0,25,1,0
84601,416.666666666667,1,1,0,25,1,0
84605,419.58041958042,1,1,0,25,1,0
84609,422.535211267606,1,1,0,25,1,0
84613,425.531914893617,1,1,0,25,1,0
84617,428.571428571429,1,1,0,25,1,0
84621,431.654676258993,1,1,0,25,1,0
84625,434.782608695652,1,1,0,25,1,0
84629,437.956204379562,1,1,0,25,1,0
84633,441.176470588235,1,1,0,25,1,0
84637,444.444444444444,1,1,0,25,1,0
84641,447.761194029851,1,1,0,25,1,0
84645,451.127819548872,1,1,0,25,1,0
84649,454.545454545455,1,1,0,25,1,0
84653,458.015267175573,1,1,0,25,1,0
84657,461.538461538462,1,1,0,25,1,0
84661,465.116279069767,1,1,0,25,1,0
84665,468.75,1,1,0,25,1,0
84669,472.44094488189,1,1,0,25,1,0
84673,476.190476190476,1,1,0,25,1,0
84677,480,1,1,0,25,1,0
84681,483.870967741936,1,1,0,25,1,0
84685,487.804878048781,1,1,0,25,1,0
84689,491.803278688525,1,1,0,25,1,0
84693,495.867768595041,1,1,0,25,1,0
84697,500,1,1,0,25,1,0
84701,504.201680672269,1,1,0,25,1,0
84705,508.474576271186,1,1,0,25,1,0
84709,512.820512820513,1,1,0,25,1,0
84713,517.241379310345,1,1,0,25,1,0
84717,521.739130434783,1,1,0,25,1,0
84721,526.315789473684,1,1,0,25,1,0
84725,530.973451327434,1,1,0,25,1,0
84729,535.714285714286,1,1,0,25,1,0
84733,540.540540540541,1,1,0,25,1,0
84737,545.454545454546,1,1,0,25,1,0
84741,550.45871559633,1,1,0,25,1,0
84745,555.555555555556,1,1,0,25,1,0
84749,560.747663551402,1,1,0,25,1,0
84753,566.037735849057,1,1,0,25,1,0
84757,571.428571428571,1,1,0,25,1,0
84761,576.923076923077,1,1,0,25,1,0
84765,582.52427184466,1,1,0,25,1,0
84769,588.235294117647,1,1,0,25,1,0
84773,594.059405940594,1,1,0,25,1,0
84777,600,1,1,0,25,1,0
84781,606.060606060606,1,1,0,25,1,0
84785,612.244897959184,1,1,0,25,1,0
84789,618.556701030928,1,1,0,25,1,0
84793,625,1,1,0,25,1,0
84797,631.578947368421,1,1,0,25,1,0
84801,638.297872340426,1,1,0,25,1,0
84805,645.161290322581,1,1,0,25,1,0
84809,652.173913043478,1,1,0,25,1,0
84813,659.340659340659,1,1,0,25,1,0
84817,666.666666666667,1,1,0,25,1,0
84821,674.157303370787,1,1,0,25,1,0
84825,681.818181818182,1,1,0,25,1,0
84829,689.655172413793,1,1,0,25,1,0
84833,697.674418604651,1,1,0,25,1,0
84837,705.882352941177,1,1,0,25,1,0
84841,714.285714285714,1,1,0,25,1,0
84845,722.89156626506,1,1,0,25,1,0
84849,731.707317073171,1,1,0,25,1,0
84853,740.740740740741,1,1,0,25,1,0
84857,750,1,1,0,25,1,0
84861,759.493670886076,1,1,0,25,1,0
84865,769.230769230769,1,1,0,25,1,0
84869,779.220779220779,1,1,0,25,1,0
84873,789.473684210526,1,1,0,25,1,0
84877,800,1,1,0,25,1,0
84881,789.473684210526,1,1,0,25,1,0
84885,779.220779220779,1,1,0,25,1,0
84889,769.230769230769,1,1,0,25,1,0
84893,759.493670886076,1,1,0,25,1,0
84897,750,1,1,0,25,1,0
84901,740.740740740741,1,1,0,25,1,0
84905,731.707317073171,1,1,0,25,1,0
84909,722.89156626506,1,1,0,25,1,0
84913,714.285714285714,1,1,0,25,1,0
84917,705.882352941177,1,1,0,25,1,0
84921,697.674418604651,1,1,0,25,1,0
84925,689.655172413793,1,1,0,25,1,0
84929,681.818181818182,1,1,0,25,1,0
84933,674.157303370787,1,1,0,25,1,0
84937,666.666666666667,1,1,0,25,1,0
84941,659.340659340659,1,1,0,25,1,0
84945,652.173913043478,1,1,0,25,1,0
84949,645.161290322581,1,1,0,25,1,0
84953,638.297872340426,1,1,0,25,1,0
84957,631.578947368421,1,1,0,25,1,0
84961,625,1,1,0,25,1,0
84965,618.556701030928,1,1,0,25,1,0
84969,612.244897959184,1,1,0,25,1,0
84973,606.060606060606,1,1,0,25,1,0
84977,600,1,1,0,25,1,0
84981,594.059405940594,1,1,0,25,1,0
84985,588.235294117647,1,1,0,25,1,0
84989,582.52427184466,1,1,0,25,1,0
84993,576.923076923077,1,1,0,25,1,0
84997,571.428571428571,1,1,0,25,1,0
85001,566.037735849057,1,1,0,25,1,0
85005,560.747663551402,1,1,0,25,1,0
85009,555.555555555556,1,1,0,25,1,0
85013,550.45871559633,1,1,0,25,1,0
85017,545.454545454546,1,1,0,25,1,0
85021,540.540540540541,1,1,0,25,1,0
85025,535.714285714286,1,1,0,25,1,0
85029,530.973451327434,1,1,0,25,1,0
85033,526.315789473684,1,1,0,25,1,0
85037,521.739130434783,1,1,0,25,1,0
85041,517.241379310345,1,1,0,25,1,0
85045,512.820512820513,1,1,0,25,1,0
85049,508.474576271186,1,1,0,25,1,0
85053,504.201680672269,1,1,0,25,1,0
85057,500,1,1,0,25,1,0
85061,495.867768595041,1,1,0,25,1,0
85065,491.803278688525,1,1,0,25,1,0
85069,487.804878048781,1,1,0,25,1,0
85073,483.870967741936,1,1,0,25,1,0
85077,480,1,1,0,25,1,0
85081,476.190476190476,1,1,0,25,1,0
85085,472.44094488189,1,1,0,25,1,0
85089,468.75,1,1,0,25,1,0
85093,465.116279069767,1,1,0,25,1,0
85097,461.538461538462,1,1,0,25,1,0
85101,458.015267175573,1,1,0,25,1,0
85105,454.545454545455,1,1,0,25,1,0
85109,451.127819548872,1,1,0,25,1,0
85113,447.761194029851,1,1,0,25,1,0
85117,444.444444444444,1,1,0,25,1,0
85121,441.176470588235,1,1,0,25,1,0
85125,437.956204379562,1,1,0,25,1,0
85129,434.782608695652,1,1,0,25,1,0
85133,431.654676258993,1,1,0,25,1,0
85137,428.571428571429,1,1,0,25,1,0
85141,425.531914893617,1,1,0,25,1,0
85145,422.535211267606,1,1,0,25,1,0
85149,419.58041958042,1,1,0,25,1,0
85153,416.666666666667,1,1,0,25,1,0
85157,413.793103448276,1,1,0,25,1,0
85161,410.958904109589,1,1,0,25,1,0
85165,408.163265306122,1,1,0,25,1,0
85169,405.405405405405,1,1,0,25,1,0
85173,402.684563758389,1,1,0,25,1,0
85177,400,1,1,0,25,1,0
85181,402.684563758389,1,1,0,25,1,0
85185,405.405405405405,1,1,0,25,1,0
85189,408.163265306122,1,1,0,25,1,0
85193,410.958904109589,1,1,0,25,1,0
85197,413.793103448276,1,1,0,25,1,0
85201,416.666666666667,1,1,0,25,1,0
85205,419.58041958042,1,1,0,25,1,0
85209,422.535211267606,1,1,0,25,1,0
85213,425.531914893617,1,1,0,25,1,0
85217,428.571428571429,1,1,0,25,1,0
85221,431.654676258993,1,1,0,25,1,0
85225,434.782608695652,1,1,0,25,1,0
85229,437.956204379562,1,1,0,25,1,0
85233,441.176470588235,1,1,0,25,1,0
85237,444.444444444444,1,1,0,25,1,0
85241,447.761194029851,1,1,0,25,1,0
85245,451.127819548872,1,1,0,25,1,0
85249,454.545454545455,1,1,0,25,1,0
85253,458.015267175573,1,1,0,25,1,0
85257,461.538461538462,1,1,0,25,1,0
85261,465.116279069767,1,1,0,25,1,0
85265,468.75,1,1,0,25,1,0
85269,472.44094488189,1,1,0,25,1,0
85273,476.190476190476,1,1,0,25,1,0
85277,480,1,1,0,25,1,0
85281,483.870967741936,1,1,0,25,1,0
85285,487.804878048781,1,1,0,25,1,0
85289,491.803278688525,1,1,0,25,1,0
85293,495.867768595041,1,1,0,25,1,0
85297,500,1,1,0,25,1,0
85301,504.201680672269,1,1,0,25,1,0
85305,508.474576271186,1,1,0,25,1,0
85309,512.820512820513,1,1,0,25,1,0
85313,517.241379310345,1,1,0,25,1,0
85317,521.739130434783,1,1,0,25,1,0
85321,526.315789473684,1,1,0,25,1,0
85325,530.973451327434,1,1,0,25,1,0
85329,535.714285714286,1,1,0,25,1,0
85333,540.540540540541,1,1,0,25,1,0
85337,545.454545454546,1,1,0,25,1,0
85341,550.45871559633,1,1,0,25,1,0
85345,555.555555555556,1,1,0,25,1,0
85349,560.747663551402,1,1,0,25,1,0
85353,566.037735849057,1,1,0,25,1,0
85357,571.428571428571,1,1,0,25,1,0
85361,576.923076923077,1,1,0,25,1,0
85365,582.52427184466,1,1,0,25,1,0
85369,588.235294117647,1,1,0,25,1,0
85373,594.059405940594,1,1,0,25,1,0
85377,600,1,1,0,25,1,0
85381,606.060606060606,1,1,0,25,1,0
85385,612.244897959184,1,1,0,25,1,0
85389,618.556701030928,1,1,0,25,1,0
85393,625,1,1,0,25,1,0
85397,631.578947368421,1,1,0,25,1,0
85401,638.297872340426,1,1,0,25,1,0
85405,645.161290322581,1,1,0,25,1,0
85409,652.173913043478,1,1,0,25,1,0
85413,659.340659340659,1,1,0,25,1,0
85417,666.666666666667,1,1,0,25,1,0
85421,674.157303370787,1,1,0,25,1,0
85425,681.818181818182,1,1,0,25,1,0
85429,689.655172413793,1,1,0,25,1,0
85433,697.674418604651,1,1,0,25,1,0
85437,705.882352941177,1,1,0,25,1,0
85441,714.285714285714,1,1,0,25,1,0
85445,722.89156626506,1,1,0,25,1,0
85449,731.707317073171,1,1,0,25,1,0
85453,740.740740740741,1,1,0,25,1,0
85457,750,1,1,0,25,1,0
85461,759.493670886076,1,1,0,25,1,0
85465,769.230769230769,1,1,0,25,1,0
85469,779.220779220779,1,1,0,25,1,0
85473,789.473684210526,1,1,0,25,1,0
85477,800,1,1,0,25,1,0
85481,789.473684210526,1,1,0,25,1,0
85485,779.220779220779,1,1,0,25,1,0
85489,769.230769230769,1,1,0,25,1,0
85493,759.493670886076,1,1,0,25,1,0
85497,750,1,1,0,25,1,0
85501,740.740740740741,1,1,0,25,1,0
85505,731.707317073171,1,1,0,25,1,0
85509,722.89156626506,1,1,0,25,1,0
85513,714.285714285714,1,1,0,25,1,0
85517,705.882352941177,1,1,0,25,1,0
85521,697.674418604651,1,1,0,25,1,0
85525,689.655172413793,1,1,0,25,1,0
85529,681.818181818182,1,1,0,25,1,0
85533,674.157303370787,1,1,0,25,1,0
85537,666.666666666667,1,1,0,25,1,0
85541,659.340659340659,1,1,0,25,1,0
85545,652.173913043478,1,1,0,25,1,0
85549,645.161290322581,1,1,0,25,1,0
85553,638.297872340426,1,1,0,25,1,0
85557,631.578947368421,1,1,0,25,1,0
85561,625,1,1,0,25,1,0
85565,618.556701030928,1,1,0,25,1,0
85569,612.244897959184,1,1,0,25,1,0
85573,606.060606060606,1,1,0,25,1,0
85577,600,1,1,0,25,1,0
85581,594.059405940594,1,1,0,25,1,0
85585,588.235294117647,1,1,0,25,1,0
85589,582.52427184466,1,1,0,25,1,0
85593,576.923076923077,1,1,0,25,1,0
85597,571.428571428571,1,1,0,25,1,0
85601,566.037735849057,1,1,0,25,1,0
85605,560.747663551402,1,1,0,25,1,0
85609,555.555555555556,1,1,0,25,1,0
85613,550.45871559633,1,1,0,25,1,0
85617,545.454545454546,1,1,0,25,1,0
85621,540.540540540541,1,1,0,25,1,0
85625,535.714285714286,1,1,0,25,1,0
85629,530.973451327434,1,1,0,25,1,0
85633,526.315789473684,1,1,0,25,1,0
85637,521.739130434783,1,1,0,25,1,0
85641,517.241379310345,1,1,0,25,1,0
85645,512.820512820513,1,1,0,25,1,0
85649,508.474576271186,1,1,0,25,1,0
85653,504.201680672269,1,1,0,25,1,0
85657,500,1,1,0,25,1,0
85661,495.867768595041,1,1,0,25,1,0
85665,491.803278688525,1,1,0,25,1,0
85669,487.804878048781,1,1,0,25,1,0
85673,483.870967741936,1,1,0,25,1,0
85677,480,1,1,0,25,1,0
85681,476.190476190476,1,1,0,25,1,0
85685,472.44094488189,1,1,0,25,1,0
85689,468.75,1,1,0,25,1,0
85693,465.116279069767,1,1,0,25,1,0
85697,461.538461538462,1,1,0,25,1,0
85701,458.015267175573,1,1,0,25,1,0
85705,454.545454545455,1,1,0,25,1,0
85709,451.127819548872,1,1,0,25,1,0
85713,447.761194029851,1,1,0,25,1,0
85717,444.444444444444,1,1,0,25,1,0
85721,441.176470588235,1,1,0,25,1,0
85725,437.956204379562,1,1,0,25,1,0
85729,434.782608695652,1,1,0,25,1,0
85733,431.654676258993,1,1,0,25,1,0
85737,428.571428571429,1,1,0,25,1,0
85741,425.531914893617,1,1,0,25,1,0
85745,422.535211267606,1,1,0,25,1,0
85749,419.58041958042,1,1,0,25,1,0
85753,416.666666666667,1,1,0,25,1,0
85757,413.793103448276,1,1,0,25,1,0
85761,410.958904109589,1,1,0,25,1,0
85765,408.163265306122,1,1,0,25,1,0
85769,405.405405405405,1,1,0,25,1,0
85773,402.684563758389,1,1,0,25,1,0
85777,400,1,1,0,25,1,0
85781,402.684563758389,1,1,0,25,1,0
85785,405.405405405405,1,1,0,25,1,0
85789,408.163265306122,1,1,0,25,1,0
85793,410.958904109589,1,1,0,25,1,0
85797,413.793103448276,1,1,0,25,1,0
85801,416.666666666667,1,1,0,25,1,0
85805,419.58041958042,1,1,0,25,1,0
85809,422.535211267606,1,1,0,25,1,0
85813,425.531914893617,1,1,0,25,1,0
85817,428.571428571429,1,1,0,25,1,0
85821,431.654676258993,1,1,0,25,1,0
85825,434.782608695652,1,1,0,25,1,0
85829,437.956204379562,1,1,0,25,1,0
85833,441.176470588235,1,1,0,25,1,0
85837,444.444444444444,1,1,0,25,1,0
85841,447.761194029851,1,1,0,25,1,0
85845,451.127819548872,1,1,0,25,1,0
85849,454.545454545455,1,1,0,25,1,0
85853,458.015267175573,1,1,0,25,1,0
85857,461.538461538462,1,1,0,25,1,0
85861,465.116279069767,1,1,0,25,1,0
85865,468.75,1,1,0,25,1,0
85869,472.44094488189,1,1,0,25,1,0
85873,476.190476190476,1,1,0,25,1,0
85877,480,1,1,0,25,1,0
85881,483.870967741936,1,1,0,25,1,0
85885,487.804878048781,1,1,0,25,1,0
85889,491.803278688525,1,1,0,25,1,0
85893,495.867768595041,1,1,0,25,1,0
85897,500,1,1,0,25,1,0
85901,504.201680672269,1,1,0,25,1,0
85905,508.474576271186,1,1,0,25,1,0
85909,512.820512820513,1,1,0,25,1,0
85913,517.241379310345,1,1,0,25,1,0
85917,521.739130434783,1,1,0,25,1,0
85921,526.315789473684,1,1,0,25,1,0
85925,530.973451327434,1,1,0,25,1,0
85929,535.714285714286,1,1,0,25,1,0
85933,540.540540540541,1,1,0,25,1,0
85937,545.454545454546,1,1,0,25,1,0
85941,550.45871559633,1,1,0,25,1,0
85945,555.555555555556,1,1,0,25,1,0
85949,560.747663551402,1,1,0,25,1,0
85953,566.037735849057,1,1,0,25,1,0
85957,571.428571428571,1,1,0,25,1,0
85961,576.923076923077,1,1,0,25,1,0
85965,582.52427184466,1,1,0,25,1,0
85969,588.235294117647,1,1,0,25,1,0
85973,594.059405940594,1,1,0,25,1,0
85977,600,1,1,0,25,1,0
85981,606.060606060606,1,1,0,25,1,0
85985,612.244897959184,1,1,0,25,1,0
85989,618.556701030928,1,1,0,25,1,0
85993,625,1,1,0,25,1,0
85997,631.578947368421,1,1,0,25,1,0
86001,638.297872340426,1,1,0,25,1,0
86005,645.161290322581,1,1,0,25,1,0
86009,652.173913043478,1,1,0,25,1,0
86013,659.340659340659,1,1,0,25,1,0
86017,666.666666666667,1,1,0,25,1,0
86021,674.157303370787,1,1,0,25,1,0
86025,681.818181818182,1,1,0,25,1,0
86029,689.655172413793,1,1,0,25,1,0
86033,697.674418604651,1,1,0,25,1,0
86037,705.882352941177,1,1,0,25,1,0
86041,714.285714285714,1,1,0,25,1,0
86045,722.89156626506,1,1,0,25,1,0
86049,731.707317073171,1,1,0,25,1,0
86053,740.740740740741,1,1,0,25,1,0
86057,750,1,1,0,25,1,0
86061,759.493670886076,1,1,0,25,1,0
86065,769.230769230769,1,1,0,25,1,0
86069,779.220779220779,1,1,0,25,1,0
86073,789.473684210526,1,1,0,25,1,0
86077,800,1,1,0,25,1,0
86081,789.473684210526,1,1,0,25,1,0
86085,779.220779220779,1,1,0,25,1,0
86089,769.230769230769,1,1,0,25,1,0
86093,759.493670886076,1,1,0,25,1,0
86097,750,1,1,0,25,1,0
86101,740.740740740741,1,1,0,25,1,0
86105,731.707317073171,1,1,0,25,1,0
86109,722.89156626506,1,1,0,25,1,0
86113,714.285714285714,1,1,0,25,1,0
86117,705.882352941177,1,1,0,25,1,0
86121,697.674418604651,1,1,0,25,1,0
86125,689.655172413793,1,1,0,25,1,0
86129,681.818181818182,1,1,0,25,1,0
86133,674.157303370787,1,1,0,25,1,0
86137,666.666666666667,1,1,0,25,1,0
86141,659.340659340659,1,1,0,25,1,0
86145,652.173913043478,1,1,0,25,1,0
86149,645.161290322581,1,1,0,25,1,0
86153,638.297872340426,1,1,0,25,1,0
86157,631.578947368421,1,1,0,25,1,0
86161,625,1,1,0,25,1,0
86165,618.556701030928,1,1,0,25,1,0
86169,612.244897959184,1,1,0,25,1,0
86173,606.060606060606,1,1,0,25,1,0
86177,600,1,1,0,25,1,0
86181,594.059405940594,1,1,0,25,1,0
86185,588.235294117647,1,1,0,25,1,0
86189,582.52427184466,1,1,0,25,1,0
86193,576.923076923077,1,1,0,25,1,0
86197,571.428571428571,1,1,0,25,1,0
86201,566.037735849057,1,1,0,25,1,0
86205,560.747663551402,1,1,0,25,1,0
86209,555.555555555556,1,1,0,25,1,0
86213,550.45871559633,1,1,0,25,1,0
86217,545.454545454546,1,1,0,25,1,0
86221,540.540540540541,1,1,0,25,1,0
86225,535.714285714286,1,1,0,25,1,0
86229,530.973451327434,1,1,0,25,1,0
86233,526.315789473684,1,1,0,25,1,0
86237,521.739130434783,1,1,0,25,1,0
86241,517.241379310345,1,1,0,25,1,0
86245,512.820512820513,1,1,0,25,1,0
86249,508.474576271186,1,1,0,25,1,0
86253,504.201680672269,1,1,0,25,1,0
86257,500,1,1,0,25,1,0
86261,495.867768595041,1,1,0,25,1,0
86265,491.803278688525,1,1,0,25,1,0
86269,487.804878048781,1,1,0,25,1,0
86273,483.870967741936,1,1,0,25,1,0
86277,480,1,1,0,25,1,0
86281,476.190476190476,1,1,0,25,1,0
86285,472.44094488189,1,1,0,25,1,0
86289,468.75,1,1,0,25,1,0
86293,465.116279069767,1,1,0,25,1,0
86297,461.538461538462,1,1,0,25,1,0
86301,458.015267175573,1,1,0,25,1,0
86305,454.545454545455,1,1,0,25,1,0
86309,451.127819548872,1,1,0,25,1,0
86313,447.761194029851,1,1,0,25,1,0
86317,444.444444444444,1,1,0,25,1,0
86321,441.176470588235,1,1,0,25,1,0
86325,437.956204379562,1,1,0,25,1,0
86329,434.782608695652,1,1,0,25,1,0
86333,431.654676258993,1,1,0,25,1,0
86337,428.571428571429,1,1,0,25,1,0
86341,425.531914893617,1,1,0,25,1,0
86345,422.535211267606,1,1,0,25,1,0
86349,419.58041958042,1,1,0,25,1,0
86353,416.666666666667,1,1,0,25,1,0
86357,413.793103448276,1,1,0,25,1,0
86361,410.958904109589,1,1,0,25,1,0
86365,408.163265306122,1,1,0,25,1,0
86369,405.405405405405,1,1,0,25,1,0
86373,402.684563758389,1,1,0,25,1,0
86377,400,1,1,0,25,1,0
86381,402.684563758389,1,1,0,25,1,0
86385,405.405405405405,1,1,0,25,1,0
86389,408.163265306122,1,1,0,25,1,0
86393,410.958904109589,1,1,0,25,1,0
86397,413.793103448276,1,1,0,25,1,0
86401,416.666666666667,1,1,0,25,1,0
86405,419.58041958042,1,1,0,25,1,0
86409,422.535211267606,1,1,0,25,1,0
86413,425.531914893617,1,1,0,25,1,0
86417,428.571428571429,1,1,0,25,1,0
86421,431.654676258993,1,1,0,25,1,0
86425,434.782608695652,1,1,0,25,1,0
86429,437.956204379562,1,1,0,25,1,0
86433,441.176470588235,1,1,0,25,1,0
86437,444.444444444444,1,1,0,25,1,0
86441,447.761194029851,1,1,0,25,1,0
86445,451.127819548872,1,1,0,25,1,0
86449,454.545454545455,1,1,0,25,1,0
86453,458.015267175573,1,1,0,25,1,0
86457,461.538461538462,1,1,0,25,1,0
86461,465.116279069767,1,1,0,25,1,0
86465,468.75,1,1,0,25,1,0
86469,472.44094488189,1,1,0,25,1,0
86473,476.190476190476,1,1,0,25,1,0
86477,480,1,1,0,25,1,0
86481,483.870967741936,1,1,0,25,1,0
86485,487.804878048781,1,1,0,25,1,0
86489,491.803278688525,1,1,0,25,1,0
86493,495.867768595041,1,1,0,25,1,0
86497,500,1,1,0,25,1,0
86501,504.201680672269,1,1,0,25,1,0
86505,508.474576271186,1,1,0,25,1,0
86509,512.820512820513,1,1,0,25,1,0
86513,517.241379310345,1,1,0,25,1,0
86517,521.739130434783,1,1,0,25,1,0
86521,526.315789473684,1,1,0,25,1,0
86525,530.973451327434,1,1,0,25,1,0
86529,535.714285714286,1,1,0,25,1,0
86533,540.540540540541,1,1,0,25,1,0
86537,545.454545454546,1,1,0,25,1,0
86541,550.45871559633,1,1,0,25,1,0
86545,555.555555555556,1,1,0,25,1,0
86549,560.747663551402,1,1,0,25,1,0
86553,566.037735849057,1,1,0,25,1,0
86557,571.428571428571,1,1,0,25,1,0
86561,576.923076923077,1,1,0,25,1,0
86565,582.52427184466,1,1,0,25,1,0
86569,588.235294117647,1,1,0,25,1,0
86573,594.059405940594,1,1,0,25,1,0
86577,600,1,1,0,25,1,0
86581,606.060606060606,1,1,0,25,1,0
86585,612.244897959184,1,1,0,25,1,0
86589,618.556701030928,1,1,0,25,1,0
86593,625,1,1,0,25,1,0
86597,631.578947368421,1,1,0,25,1,0
86601,638.297872340426,1,1,0,25,1,0
86605,645.161290322581,1,1,0,25,1,0
86609,652.173913043478,1,1,0,25,1,0
86613,659.340659340659,1,1,0,25,1,0
86617,666.666666666667,1,1,0,25,1,0
86621,674.157303370787,1,1,0,25,1,0
86625,681.818181818182,1,1,0,25,1,0
86629,689.655172413793,1,1,0,25,1,0
86633,697.674418604651,1,1,0,25,1,0
86637,705.882352941177,1,1,0,25,1,0
86641,714.285714285714,1,1,0,25,1,0
86645,722.89156626506,1,1,0,25,1,0
86649,731.707317073171,1,1,0,25,1,0
86653,740.740740740741,1,1,0,25,1,0
86657,750,1,1,0,25,1,0
86661,759.493670886076,1,1,0,25,1,0
86665,769.230769230769,1,1,0,25,1,0
86669,779.220779220779,1,1,0,25,1,0
86673,789.473684210526,1,1,0,25,1,0
86677,800,1,1,0,25,1,0
86681,789.473684210526,1,1,0,25,1,0
86685,779.220779220779,1,1,0,25,1,0
86689,769.230769230769,1,1,0,25,1,0
86693,759.493670886076,1,1,0,25,1,0
86697,750,1,1,0,25,1,0
86701,740.740740740741,1,1,0,25,1,0
86705,731.707317073171,1,1,0,25,1,0
86709,722.89156626506,1,1,0,25,1,0
86713,714.285714285714,1,1,0,25,1,0
86717,705.882352941177,1,1,0,25,1,0
86721,697.674418604651,1,1,0,25,1,0
86725,689.655172413793,1,1,0,25,1,0
86729,681.818181818182,1,1,0,25,1,0
86733,674.157303370787,1,1,0,25,1,0
86737,666.666666666667,1,1,0,25,1,0
86741,659.340659340659,1,1,0,25,1,0
86745,652.173913043478,1,1,0,25,1,0
86749,645.161290322581,1,1,0,25,1,0
86753,638.297872340426,1,1,0,25,1,0
86757,631.578947368421,1,1,0,25,1,0
86761,625,1,1,0,25,1,0
86765,618.556701030928,1,1,0,25,1,0
86769,612.244897959184,1,1,0,25,1,0
86773,606.060606060606,1,1,0,25,1,0
86777,600,1,1,0,25,1,0
86781,594.059405940594,1,1,0,25,1,0
86785,588.235294117647,1,1,0,25,1,0
86789,582.52427184466,1,1,0,25,1,0
86793,576.923076923077,1,1,0,25,1,0
86797,571.428571428571,1,1,0,25,1,0
86801,566.037735849057,1,1,0,25,1,0
86805,560.747663551402,1,1,0,25,1,0
86809,555.555555555556,1,1,0,25,1,0
86813,550.45871559633,1,1,0,25,1,0
86817,545.454545454546,1,1,0,25,1,0
86821,540.540540540541,1,1,0,25,1,0
86825,535.714285714286,1,1,0,25,1,0
86829,530.973451327434,1,1,0,25,1,0
86833,526.315789473684,1,1,0,25,1,0
86837,521.739130434783,1,1,0,25,1,0
86841,517.241379310345,1,1,0,25,1,0
86845,512.820512820513,1,1,0,25,1,0
86849,508.474576271186,1,1,0,25,1,0
86853,504.201680672269,1,1,0,25,1,0
86857,500,1,1,0,25,1,0
86861,495.867768595041,1,1,0,25,1,0
86865,491.803278688525,1,1,0,25,1,0
86869,487.804878048781,1,1,0,25,1,0
86873,483.870967741936,1,1,0,25,1,0
86877,480,1,1,0,25,1,0
86881,476.190476190476,1,1,0,25,1,0
86885,472.44094488189,1,1,0,25,1,0
86889,468.75,1,1,0,25,1,0
86893,465.116279069767,1,1,0,25,1,0
86897,461.538461538462,1,1,0,25,1,0
86901,458.015267175573,1,1,0,25,1,0
86905,454.545454545455,1,1,0,25,1,0
86909,451.127819548872,1,1,0,25,1,0
86913,447.761194029851,1,1,0,25,1,0
86917,444.444444444444,1,1,0,25,1,0
86921,441.176470588235,1,1,0,25,1,0
86925,437.956204379562,1,1,0,25,1,0
86929,434.782608695652,1,1,0,25,1,0
86933,431.654676258993,1,1,0,25,1,0
86937,428.571428571429,1,1,0,25,1,0
86941,425.531914893617,1,1,0,25,1,0
86945,422.535211267606,1,1,0,25,1,0
86949,419.58041958042,1,1,0,25,1,0
86953,416.666666666667,1,1,0,25,1,0
86957,413.793103448276,1,1,0,25,1,0
86961,410.958904109589,1,1,0,25,1,0
86965,408.163265306122,1,1,0,25,1,0
86969,405.405405405405,1,1,0,25,1,0
86973,402.684563758389,1,1,0,25,1,0
86977,400,1,1,0,25,1,0
86981,402.684563758389,1,1,0,25,1,0
86985,405.405405405405,1,1,0,25,1,0
86989,408.163265306122,1,1,0,25,1,0
86993,410.958904109589,1,1,0,25,1,0
86997,413.793103448276,1,1,0,25,1,0
87001,416.666666666667,1,1,0,25,1,0
87005,419.58041958042,1,1,0,25,1,0
87009,422.535211267606,1,1,0,25,1,0
87013,425.531914893617,1,1,0,25,1,0
87017,428.571428571429,1,1,0,25,1,0
87021,431.654676258993,1,1,0,25,1,0
87025,434.782608695652,1,1,0,25,1,0
87029,437.956204379562,1,1,0,25,1,0
87033,441.176470588235,1,1,0,25,1,0
87037,444.444444444444,1,1,0,25,1,0
87041,447.761194029851,1,1,0,25,1,0
87045,451.127819548872,1,1,0,25,1,0
87049,454.545454545455,1,1,0,25,1,0
87053,458.015267175573,1,1,0,25,1,0
87057,461.538461538462,1,1,0,25,1,0
87061,465.116279069767,1,1,0,25,1,0
87065,468.75,1,1,0,25,1,0
87069,472.44094488189,1,1,0,25,1,0
87073,476.190476190476,1,1,0,25,1,0
87077,480,1,1,0,25,1,0
87081,483.870967741936,1,1,0,25,1,0
87085,487.804878048781,1,1,0,25,1,0
87089,491.803278688525,1,1,0,25,1,0
87093,495.867768595041,1,1,0,25,1,0
87097,500,1,1,0,25,1,0
87101,504.201680672269,1,1,0,25,1,0
87105,508.474576271186,1,1,0,25,1,0
87109,512.820512820513,1,1,0,25,1,0
87113,517.241379310345,1,1,0,25,1,0
87117,521.739130434783,1,1,0,25,1,0
87121,526.315789473684,1,1,0,25,1,0
87125,530.973451327434,1,1,0,25,1,0
87129,535.714285714286,1,1,0,25,1,0
87133,540.540540540541,1,1,0,25,1,0
87137,545.454545454546,1,1,0,25,1,0
87141,550.45871559633,1,1,0,25,1,0
87145,555.555555555556,1,1,0,25,1,0
87149,560.747663551402,1,1,0,25,1,0
87153,566.037735849057,1,1,0,25,1,0
87157,571.428571428571,1,1,0,25,1,0
87161,576.923076923077,1,1,0,25,1,0
87165,582.52427184466,1,1,0,25,1,0
87169,588.235294117647,1,1,0,25,1,0
87173,594.059405940594,1,1,0,25,1,0
87177,600,1,1,0,25,1,0
87181,606.060606060606,1,1,0,25,1,0
87185,612.244897959184,1,1,0,25,1,0
87189,618.556701030928,1,1,0,25,1,0
87193,625,1,1,0,25,1,0
87197,631.578947368421,1,1,0,25,1,0
87201,638.297872340426,1,1,0,25,1,0
87205,645.161290322581,1,1,0,25,1,0
87209,652.173913043478,1,1,0,25,1,0
87213,659.340659340659,1,1,0,25,1,0
87217,666.666666666667,1,1,0,25,1,0
87221,674.157303370787,1,1,0,25,1,0
87225,681.818181818182,1,1,0,25,1,0
87229,689.655172413793,1,1,0,25,1,0
87233,697.674418604651,1,1,0,25,1,0
87237,705.882352941177,1,1,0,25,1,0
87241,714.285714285714,1,1,0,25,1,0
87245,722.89156626506,1,1,0,25,1,0
87249,731.707317073171,1,1,0,25,1,0
87253,740.740740740741,1,1,0,25,1,0
87257,750,1,1,0,25,1,0
87261,759.493670886076,1,1,0,25,1,0
87265,769.230769230769,1,1,0,25,1,0
87269,779.220779220779,1,1,0,25,1,0
87273,789.473684210526,1,1,0,25,1,0
87277,800,1,1,0,25,1,0
87281,789.473684210526,1,1,0,25,1,0
87285,779.220779220779,1,1,0,25,1,0
87289,769.230769230769,1,1,0,25,1,0
87293,759.493670886076,1,1,0,25,1,0
87297,750,1,1,0,25,1,0
87301,740.740740740741,1,1,0,25,1,0
87305,731.707317073171,1,1,0,25,1,0
87309,722.89156626506,1,1,0,25,1,0
87313,714.285714285714,1,1,0,25,1,0
87317,705.882352941177,1,1,0,25,1,0
87321,697.674418604651,1,1,0,25,1,0
87325,689.655172413793,1,1,0,25,1,0
87329,681.818181818182,1,1,0,25,1,0
87333,674.157303370787,1,1,0,25,1,0
87337,666.666666666667,1,1,0,25,1,0
87341,659.340659340659,1,1,0,25,1,0
87345,652.173913043478,1,1,0,25,1,0
87349,645.161290322581,1,1,0,25,1,0
87353,638.297872340426,1,1,0,25,1,0
87357,631.578947368421,1,1,0,25,1,0
87361,625,1,1,0,25,1,0
87365,618.556701030928,1,1,0,25,1,0
87369,612.244897959184,1,1,0,25,1,0
87373,606.060606060606,1,1,0,25,1,0
87377,600,1,1,0,25,1,0
87381,594.059405940594,1,1,0,25,1,0
87385,588.235294117647,1,1,0,25,1,0
87389,582.52427184466,1,1,0,25,1,0
87393,576.923076923077,1,1,0,25,1,0
87397,571.428571428571,1,1,0,25,1,0
87401,566.037735849057,1,1,0,25,1,0
87405,560.747663551402,1,1,0,25,1,0
87409,555.555555555556,1,1,0,25,1,0
87413,550.45871559633,1,1,0,25,1,0
87417,545.454545454546,1,1,0,25,1,0
87421,540.540540540541,1,1,0,25,1,0
87425,535.714285714286,1,1,0,25,1,0
87429,530.973451327434,1,1,0,25,1,0
87433,526.315789473684,1,1,0,25,1,0
87437,521.739130434783,1,1,0,25,1,0
87441,517.241379310345,1,1,0,25,1,0
87445,512.820512820513,1,1,0,25,1,0
87449,508.474576271186,1,1,0,25,1,0
87453,504.201680672269,1,1,0,25,1,0
87457,500,1,1,0,25,1,0
87461,495.867768595041,1,1,0,25,1,0
87465,491.803278688525,1,1,0,25,1,0
87469,487.804878048781,1,1,0,25,1,0
87473,483.870967741936,1,1,0,25,1,0
87477,480,1,1,0,25,1,0
87481,476.190476190476,1,1,0,25,1,0
87485,472.44094488189,1,1,0,25,1,0
87489,468.75,1,1,0,25,1,0
87493,465.116279069767,1,1,0,25,1,0
87497,461.538461538462,1,1,0,25,1,0
87501,458.015267175573,1,1,0,25,1,0
87505,454.545454545455,1,1,0,25,1,0
87509,451.127819548872,1,1,0,25,1,0
87513,447.761194029851,1,1,0,25,1,0
87517,444.444444444444,1,1,0,25,1,0
87521,441.176470588235,1,1,0,25,1,0
87525,437.956204379562,1,1,0,25,1,0
87529,434.782608695652,1,1,0,25,1,0
87533,431.654676258993,1,1,0,25,1,0
87537,428.571428571429,1,1,0,25,1,0
87541,425.531914893617,1,1,0,25,1,0
87545,422.535211267606,1,1,0,25,1,0
87549,419.58041958042,1,1,0,25,1,0
87553,416.666666666667,1,1,0,25,1,0
87557,413.793103448276,1,1,0,25,1,0
87561,410.958904109589,1,1,0,25,1,0
87565,408.163265306122,1,1,0,25,1,0
87569,405.405405405405,1,1,0,25,1,0
87573,402.684563758389,1,1,0,25,1,0
87577,400,1,1,0,25,1,0
87581,402.684563758389,1,1,0,25,1,0
87585,405.405405405405,1,1,0,25,1,0
87589,408.163265306122,1,1,0,25,1,0
87593,410.958904109589,1,1,0,25,1,0
87597,413.793103448276,1,1,0,25,1,0
87601,416.666666666667,1,1,0,25,1,0
87605,419.58041958042,1,1,0,25,1,0
87609,422.535211267606,1,1,0,25,1,0
87613,425.531914893617,1,1,0,25,1,0
87617,428.571428571429,1,1,0,25,1,0
87621,431.654676258993,1,1,0,25,1,0
87625,434.782608695652,1,1,0,25,1,0
87629,437.956204379562,1,1,0,25,1,0
87633,441.176470588235,1,1,0,25,1,0
87637,444.444444444444,1,1,0,25,1,0
87641,447.761194029851,1,1,0,25,1,0
87645,451.127819548872,1,1,0,25,1,0
87649,454.545454545455,1,1,0,25,1,0
87653,458.015267175573,1,1,0,25,1,0
87657,461.538461538462,1,1,0,25,1,0
87661,465.116279069767,1,1,0,25,1,0
87665,468.75,1,1,0,25,1,0
87669,472.44094488189,1,1,0,25,1,0
87673,476.190476190476,1,1,0,25,1,0
87677,480,1,1,0,25,1,0
87681,483.870967741936,1,1,0,25,1,0
87685,487.804878048781,1,1,0,25,1,0
87689,491.803278688525,1,1,0,25,1,0
87693,495.867768595041,1,1,0,25,1,0
87697,500,1,1,0,25,1,0
87701,504.201680672269,1,1,0,25,1,0
87705,508.474576271186,1,1,0,25,1,0
87709,512.820512820513,1,1,0,25,1,0
87713,517.241379310345,1,1,0,25,1,0
87717,521.739130434783,1,1,0,25,1,0
87721,526.315789473684,1,1,0,25,1,0
87725,530.973451327434,1,1,0,25,1,0
87729,535.714285714286,1,1,0,25,1,0
87733,540.540540540541,1,1,0,25,1,0
87737,545.454545454546,1,1,0,25,1,0
87741,550.45871559633,1,1,0,25,1,0
87745,555.555555555556,1,1,0,25,1,0
87749,560.747663551402,1,1,0,25,1,0
87753,566.037735849057,1,1,0,25,1,0
87757,571.428571428571,1,1,0,25,1,0
87761,576.923076923077,1,1,0,25,1,0
87765,582.52427184466,1,1,0,25,1,0
87769,588.235294117647,1,1,0,25,1,0
87773,594.059405940594,1,1,0,25,1,0
87777,600,1,1,0,25,1,0
87781,606.060606060606,1,1,0,25,1,0
87785,612.244897959184,1,1,0,25,1,0
87789,618.556701030928,1,1,0,25,1,0
87793,625,1,1,0,25,1,0
87797,631.578947368421,1,1,0,25,1,0
87801,638.297872340426,1,1,0,25,1,0
87805,645.161290322581,1,1,0,25,1,0
87809,652.173913043478,1,1,0,25,1,0
87813,659.340659340659,1,1,0,25,1,0
87817,666.666666666667,1,1,0,25,1,0
87821,674.157303370787,1,1,0,25,1,0
87825,681.818181818182,1,1,0,25,1,0
87829,689.655172413793,1,1,0,25,1,0
87833,697.674418604651,1,1,0,25,1,0
87837,705.882352941177,1,1,0,25,1,0
87841,714.285714285714,1,1,0,25,1,0
87845,722.89156626506,1,1,0,25,1,0
87849,731.707317073171,1,1,0,25,1,0
87853,740.740740740741,1,1,0,25,1,0
87857,750,1,1,0,25,1,0
87861,759.493670886076,1,1,0,25,1,0
87865,769.230769230769,1,1,0,25,1,0
87869,779.220779220779,1,1,0,25,1,0
87873,789.473684210526,1,1,0,25,1,0
87877,800,1,1,0,25,1,0
87881,789.473684210526,1,1,0,25,1,0
87885,779.220779220779,1,1,0,25,1,0
87889,769.230769230769,1,1,0,25,1,0
87893,759.493670886076,1,1,0,25,1,0
87897,750,1,1,0,25,1,0
87901,740.740740740741,1,1,0,25,1,0
87905,731.707317073171,1,1,0,25,1,0
87909,722.89156626506,1,1,0,25,1,0
87913,714.285714285714,1,1,0,25,1,0
87917,705.882352941177,1,1,0,25,1,0
87921,697.674418604651,1,1,0,25,1,0
87925,689.655172413793,1,1,0,25,1,0
87929,681.818181818182,1,1,0,25,1,0
87933,674.157303370787,1,1,0,25,1,0
87937,666.666666666667,1,1,0,25,1,0
87941,659.340659340659,1,1,0,25,1,0
87945,652.173913043478,1,1,0,25,1,0
87949,645.161290322581,1,1,0,25,1,0
87953,638.297872340426,1,1,0,25,1,0
87957,631.578947368421,1,1,0,25,1,0
87961,625,1,1,0,25,1,0
87965,618.556701030928,1,1,0,25,1,0
87969,612.244897959184,1,1,0,25,1,0
87973,606.060606060606,1,1,0,25,1,0
87977,600,1,1,0,25,1,0
87981,594.059405940594,1,1,0,25,1,0
87985,588.235294117647,1,1,0,25,1,0
87989,582.52427184466,1,1,0,25,1,0
87993,576.923076923077,1,1,0,25,1,0
87997,571.428571428571,1,1,0,25,1,0
88001,566.037735849057,1,1,0,25,1,0
88005,560.747663551402,1,1,0,25,1,0
88009,555.555555555556,1,1,0,25,1,0
88013,550.45871559633,1,1,0,25,1,0
88017,545.454545454546,1,1,0,25,1,0
88021,540.540540540541,1,1,0,25,1,0
88025,535.714285714286,1,1,0,25,1,0
88029,530.973451327434,1,1,0,25,1,0
88033,526.315789473684,1,1,0,25,1,0
88037,521.739130434783,1,1,0,25,1,0
88041,517.241379310345,1,1,0,25,1,0
88045,512.820512820513,1,1,0,25,1,0
88049,508.474576271186,1,1,0,25,1,0
88053,504.201680672269,1,1,0,25,1,0
88057,500,1,1,0,25,1,0
88061,495.867768595041,1,1,0,25,1,0
88065,491.803278688525,1,1,0,25,1,0
88069,487.804878048781,1,1,0,25,1,0
88073,483.870967741936,1,1,0,25,1,0
88077,480,1,1,0,25,1,0
88081,476.190476190476,1,1,0,25,1,0
88085,472.44094488189,1,1,0,25,1,0
88089,468.75,1,1,0,25,1,0
88093,465.116279069767,1,1,0,25,1,0
88097,461.538461538462,1,1,0,25,1,0
88101,458.015267175573,1,1,0,25,1,0
88105,454.545454545455,1,1,0,25,1,0
88109,451.127819548872,1,1,0,25,1,0
88113,447.761194029851,1,1,0,25,1,0
88117,444.444444444444,1,1,0,25,1,0
88121,441.176470588235,1,1,0,25,1,0
88125,437.956204379562,1,1,0,25,1,0
88129,434.782608695652,1,1,0,25,1,0
88133,431.654676258993,1,1,0,25,1,0
88137,428.571428571429,1,1,0,25,1,0
88141,425.531914893617,1,1,0,25,1,0
88145,422.535211267606,1,1,0,25,1,0
88149,419.58041958042,1,1,0,25,1,0
88153,416.666666666667,1,1,0,25,1,0
88157,413.793103448276,1,1,0,25,1,0
88161,410.958904109589,1,1,0,25,1,0
88165,408.163265306122,1,1,0,25,1,0
88169,405.405405405405,1,1,0,25,1,0
88173,402.684563758389,1,1,0,25,1,0
88177,400,1,1,0,25,1,0
88181,402.684563758389,1,1,0,25,1,0
88185,405.405405405405,1,1,0,25,1,0
88189,408.163265306122,1,1,0,25,1,0
88193,410.958904109589,1,1,0,25,1,0
88197,413.793103448276,1,1,0,25,1,0
88201,416.666666666667,1,1,0,25,1,0
88205,419.58041958042,1,1,0,25,1,0
88209,422.535211267606,1,1,0,25,1,0
88213,425.531914893617,1,1,0,25,1,0
88217,428.571428571429,1,1,0,25,1,0
88221,431.654676258993,1,1,0,25,1,0
88225,434.782608695652,1,1,0,25,1,0
88229,437.956204379562,1,1,0,25,1,0
88233,441.176470588235,1,1,0,25,1,0
88237,444.444444444444,1,1,0,25,1,0
88241,447.761194029851,1,1,0,25,1,0
88245,451.127819548872,1,1,0,25,1,0
88249,454.545454545455,1,1,0,25,1,0
88253,458.015267175573,1,1,0,25,1,0
88257,461.538461538462,1,1,0,25,1,0
88261,465.116279069767,1,1,0,25,1,0
88265,468.75,1,1,0,25,1,0
88269,472.44094488189,1,1,0,25,1,0
88273,476.190476190476,1,1,0,25,1,0
88277,480,1,1,0,25,1,0
88281,483.870967741936,1,1,0,25,1,0
88285,487.804878048781,1,1,0,25,1,0
88289,491.803278688525,1,1,0,25,1,0
88293,495.867768595041,1,1,0,25,1,0
88297,500,1,1,0,25,1,0
88301,504.201680672269,1,1,0,25,1,0
88305,508.474576271186,1,1,0,25,1,0
88309,512.820512820513,1,1,0,25,1,0
88313,517.241379310345,1,1,0,25,1,0
88317,521.739130434783,1,1,0,25,1,0
88321,526.315789473684,1,1,0,25,1,0
88325,530.973451327434,1,1,0,25,1,0
88329,535.714285714286,1,1,0,25,1,0
88333,540.540540540541,1,1,0,25,1,0
88337,545.454545454546,1,1,0,25,1,0
88341,550.45871559633,1,1,0,25,1,0
88345,555.555555555556,1,1,0,25,1,0
88349,560.747663551402,1,1,0,25,1,0
88353,566.037735849057,1,1,0,25,1,0
88357,571.428571428571,1,1,0,25,1,0
88361,576.923076923077,1,1,0,25,1,0
88365,582.52427184466,1,1,0,25,1,0
88369,588.235294117647,1,1,0,25,1,0
88373,594.059405940594,1,1,0,25,1,0
88377,600,1,1,0,25,1,0
88381,606.060606060606,1,1,0,25,1,0
88385,612.244897959184,1,1,0,25,1,0
88389,618.556701030928,1,1,0,25,1,0
88393,625,1,1,0,25,1,0
88397,631.578947368421,1,1,0,25,1,0
88401,638.297872340426,1,1,0,25,1,0
88405,645.161290322581,1,1,0,25,1,0
88409,652.173913043478,1,1,0,25,1,0
88413,659.340659340659,1,1,0,25,1,0
88417,666.666666666667,1,1,0,25,1,0
88421,674.157303370787,1,1,0,25,1,0
88425,681.818181818182,1,1,0,25,1,0
88429,689.655172413793,1,1,0,25,1,0
88433,697.674418604651,1,1,0,25,1,0
88437,705.882352941177,1,1,0,25,1,0
88441,714.285714285714,1,1,0,25,1,0
88445,722.89156626506,1,1,0,25,1,0
88449,731.707317073171,1,1,0,25,1,0
88453,740.740740740741,1,1,0,25,1,0
88457,750,1,1,0,25,1,0
88461,759.493670886076,1,1,0,25,1,0
88465,769.230769230769,1,1,0,25,1,0
88469,779.220779220779,1,1,0,25,1,0
88473,789.473684210526,1,1,0,25,1,0
88477,800,1,1,0,25,1,0
88481,789.473684210526,1,1,0,25,1,0
88485,779.220779220779,1,1,0,25,1,0
88489,769.230769230769,1,1,0,25,1,0
88493,759.493670886076,1,1,0,25,1,0
88497,750,1,1,0,25,1,0
88501,740.740740740741,1,1,0,25,1,0
88505,731.707317073171,1,1,0,25,1,0
88509,722.89156626506,1,1,0,25,1,0
88513,714.285714285714,1,1,0,25,1,0
88517,705.882352941177,1,1,0,25,1,0
88521,697.674418604651,1,1,0,25,1,0
88525,689.655172413793,1,1,0,25,1,0
88529,681.818181818182,1,1,0,25,1,0
88533,674.157303370787,1,1,0,25,1,0
88537,666.666666666667,1,1,0,25,1,0
88541,659.340659340659,1,1,0,25,1,0
88545,652.173913043478,1,1,0,25,1,0
88549,645.161290322581,1,1,0,25,1,0
88553,638.297872340426,1,1,0,25,1,0
88557,631.578947368421,1,1,0,25,1,0
88561,625,1,1,0,25,1,0
88565,618.556701030928,1,1,0,25,1,0
88569,612.244897959184,1,1,0,25,1,0
88573,606.060606060606,1,1,0,25,1,0
88577,600,1,1,0,25,1,0
88581,594.059405940594,1,1,0,25,1,0
88585,588.235294117647,1,1,0,25,1,0
88589,582.52427184466,1,1,0,25,1,0
88593,576.923076923077,1,1,0,25,1,0
88597,571.428571428571,1,1,0,25,1,0
88601,566.037735849057,1,1,0,25,1,0
88605,560.747663551402,1,1,0,25,1,0
88609,555.555555555556,1,1,0,25,1,0
88613,550.45871559633,1,1,0,25,1,0
88617,545.454545454546,1,1,0,25,1,0
88621,540.540540540541,1,1,0,25,1,0
88625,535.714285714286,1,1,0,25,1,0
88629,530.973451327434,1,1,0,25,1,0
88633,526.315789473684,1,1,0,25,1,0
88637,521.739130434783,1,1,0,25,1,0
88641,517.241379310345,1,1,0,25,1,0
88645,512.820512820513,1,1,0,25,1,0
88649,508.474576271186,1,1,0,25,1,0
88653,504.201680672269,1,1,0,25,1,0
88657,500,1,1,0,25,1,0
88661,495.867768595041,1,1,0,25,1,0
88665,491.803278688525,1,1,0,25,1,0
88669,487.804878048781,1,1,0,25,1,0
88673,483.870967741936,1,1,0,25,1,0
88677,480,1,1,0,25,1,0
88681,476.190476190476,1,1,0,25,1,0
88685,472.44094488189,1,1,0,25,1,0
88689,468.75,1,1,0,25,1,0
88693,465.116279069767,1,1,0,25,1,0
88697,461.538461538462,1,1,0,25,1,0
88701,458.015267175573,1,1,0,25,1,0
88705,454.545454545455,1,1,0,25,1,0
88709,451.127819548872,1,1,0,25,1,0
88713,447.761194029851,1,1,0,25,1,0
88717,444.444444444444,1,1,0,25,1,0
88721,441.176470588235,1,1,0,25,1,0
88725,437.956204379562,1,1,0,25,1,0
88729,434.782608695652,1,1,0,25,1,0
88733,431.654676258993,1,1,0,25,1,0
88737,428.571428571429,1,1,0,25,1,0
88741,425.531914893617,1,1,0,25,1,0
88745,422.535211267606,1,1,0,25,1,0
88749,419.58041958042,1,1,0,25,1,0
88753,416.666666666667,1,1,0,25,1,0
88757,413.793103448276,1,1,0,25,1,0
88761,410.958904109589,1,1,0,25,1,0
88765,408.163265306122,1,1,0,25,1,0
88769,405.405405405405,1,1,0,25,1,0
88773,402.684563758389,1,1,0,25,1,0
88777,400,1,1,0,25,1,0
88781,402.684563758389,1,1,0,25,1,0
88785,405.405405405405,1,1,0,25,1,0
88789,408.163265306122,1,1,0,25,1,0
88793,410.958904109589,1,1,0,25,1,0
88797,413.793103448276,1,1,0,25,1,0
88801,416.666666666667,1,1,0,25,1,0
88805,419.58041958042,1,1,0,25,1,0
88809,422.535211267606,1,1,0,25,1,0
88813,425.531914893617,1,1,0,25,1,0
88817,428.571428571429,1,1,0,25,1,0
88821,431.654676258993,1,1,0,25,1,0
88825,434.782608695652,1,1,0,25,1,0
88829,437.956204379562,1,1,0,25,1,0
88833,441.176470588235,1,1,0,25,1,0
88837,444.444444444444,1,1,0,25,1,0
88841,447.761194029851,1,1,0,25,1,0
88845,451.127819548872,1,1,0,25,1,0
88849,454.545454545455,1,1,0,25,1,0
88853,458.015267175573,1,1,0,25,1,0
88857,461.538461538462,1,1,0,25,1,0
88861,465.116279069767,1,1,0,25,1,0
88865,468.75,1,1,0,25,1,0
88869,472.44094488189,1,1,0,25,1,0
88873,476.190476190476,1,1,0,25,1,0
88877,480,1,1,0,25,1,0
88881,483.870967741936,1,1,0,25,1,0
88885,487.804878048781,1,1,0,25,1,0
88889,491.803278688525,1,1,0,25,1,0
88893,495.867768595041,1,1,0,25,1,0
88897,500,1,1,0,25,1,0
88901,504.201680672269,1,1,0,25,1,0
88905,508.474576271186,1,1,0,25,1,0
88909,512.820512820513,1,1,0,25,1,0
88913,517.241379310345,1,1,0,25,1,0
88917,521.739130434783,1,1,0,25,1,0
88921,526.315789473684,1,1,0,25,1,0
88925,530.973451327434,1,1,0,25,1,0
88929,535.714285714286,1,1,0,25,1,0
88933,540.540540540541,1,1,0,25,1,0
88937,545.454545454546,1,1,0,25,1,0
88941,550.45871559633,1,1,0,25,1,0
88945,555.555555555556,1,1,0,25,1,0
88949,560.747663551402,1,1,0,25,1,0
88953,566.037735849057,1,1,0,25,1,0
88957,571.428571428571,1,1,0,25,1,0
88961,576.923076923077,1,1,0,25,1,0
88965,582.52427184466,1,1,0,25,1,0
88969,588.235294117647,1,1,0,25,1,0
88973,594.059405940594,1,1,0,25,1,0
88977,600,1,1,0,25,1,0
88981,606.060606060606,1,1,0,25,1,0
88985,612.244897959184,1,1,0,25,1,0
88989,618.556701030928,1,1,0,25,1,0
88993,625,1,1,0,25,1,0
88997,631.578947368421,1,1,0,25,1,0
89001,638.297872340426,1,1,0,25,1,0
89005,645.161290322581,1,1,0,25,1,0
89009,652.173913043478,1,1,0,25,1,0
89013,659.340659340659,1,1,0,25,1,0
89017,666.666666666667,1,1,0,25,1,0
89021,674.157303370787,1,1,0,25,1,0
89025,681.818181818182,1,1,0,25,1,0
89029,689.655172413793,1,1,0,25,1,0
89033,697.674418604651,1,1,0,25,1,0
89037,705.882352941177,1,1,0,25,1,0
89041,714.285714285714,1,1,0,25,1,0
89045,722.89156626506,1,1,0,25,1,0
89049,731.707317073171,1,1,0,25,1,0
89053,740.740740740741,1,1,0,25,1,0
89057,750,1,1,0,25,1,0
89061,759.493670886076,1,1,0,25,1,0
89065,769.230769230769,1,1,0,25,1,0
89069,779.220779220779,1,1,0,25,1,0
89073,789.473684210526,1,1,0,25,1,0
89077,800,1,1,0,25,1,0
89081,789.473684210526,1,1,0,25,1,0
89085,779.220779220779,1,1,0,25,1,0
89089,769.230769230769,1,1,0,25,1,0
89093,759.493670886076,1,1,0,25,1,0
89097,750,1,1,0,25,1,0
89101,740.740740740741,1,1,0,25,1,0
89105,731.707317073171,1,1,0,25,1,0
89109,722.89156626506,1,1,0,25,1,0
89113,714.285714285714,1,1,0,25,1,0
89117,705.882352941177,1,1,0,25,1,0
89121,697.674418604651,1,1,0,25,1,0
89125,689.655172413793,1,1,0,25,1,0
89129,681.818181818182,1,1,0,25,1,0
89133,674.157303370787,1,1,0,25,1,0
89137,666.666666666667,1,1,0,25,1,0
89141,659.340659340659,1,1,0,25,1,0
89145,652.173913043478,1,1,0,25,1,0
89149,645.161290322581,1,1,0,25,1,0
89153,638.297872340426,1,1,0,25,1,0
89157,631.578947368421,1,1,0,25,1,0
89161,625,1,1,0,25,1,0
89165,618.556701030928,1,1,0,25,1,0
89169,612.244897959184,1,1,0,25,1,0
89173,606.060606060606,1,1,0,25,1,0
89177,600,1,1,0,25,1,0
89181,594.059405940594,1,1,0,25,1,0
89185,588.235294117647,1,1,0,25,1,0
89189,582.52427184466,1,1,0,25,1,0
89193,576.923076923077,1,1,0,25,1,0
89197,571.428571428571,1,1,0,25,1,0
89201,566.037735849057,1,1,0,25,1,0
89205,560.747663551402,1,1,0,25,1,0
89209,555.555555555556,1,1,0,25,1,0
89213,550.45871559633,1,1,0,25,1,0
89217,545.454545454546,1,1,0,25,1,0
89221,540.540540540541,1,1,0,25,1,0
89225,535.714285714286,1,1,0,25,1,0
89229,530.973451327434,1,1,0,25,1,0
89233,526.315789473684,1,1,0,25,1,0
89237,521.739130434783,1,1,0,25,1,0
89241,517.241379310345,1,1,0,25,1,0
89245,512.820512820513,1,1,0,25,1,0
89249,508.474576271186,1,1,0,25,1,0
89253,504.201680672269,1,1,0,25,1,0
89257,500,1,1,0,25,1,0
89261,495.867768595041,1,1,0,25,1,0
89265,491.803278688525,1,1,0,25,1,0
89269,487.804878048781,1,1,0,25,1,0
89273,483.870967741936,1,1,0,25,1,0
89277,480,1,1,0,25,1,0
89281,476.190476190476,1,1,0,25,1,0
89285,472.44094488189,1,1,0,25,1,0
89289,468.75,1,1,0,25,1,0
89293,465.116279069767,1,1,0,25,1,0
89297,461.538461538462,1,1,0,25,1,0
89301,458.015267175573,1,1,0,25,1,0
89305,454.545454545455,1,1,0,25,1,0
89309,451.127819548872,1,1,0,25,1,0
89313,447.761194029851,1,1,0,25,1,0
89317,444.444444444444,1,1,0,25,1,0
89321,441.176470588235,1,1,0,25,1,0
89325,437.956204379562,1,1,0,25,1,0
89329,434.782608695652,1,1,0,25,1,0
89333,431.654676258993,1,1,0,25,1,0
89337,428.571428571429,1,1,0,25,1,0
89341,425.531914893617,1,1,0,25,1,0
89345,422.535211267606,1,1,0,25,1,0
89349,419.58041958042,1,1,0,25,1,0
89353,416.666666666667,1,1,0,25,1,0
89357,413.793103448276,1,1,0,25,1,0
89361,410.958904109589,1,1,0,25,1,0
89365,408.163265306122,1,1,0,25,1,0
89369,405.405405405405,1,1,0,25,1,0
89373,402.684563758389,1,1,0,25,1,0
89377,400,1,1,0,25,1,0
89381,402.684563758389,1,1,0,25,1,0
89385,405.405405405405,1,1,0,25,1,0
89389,408.163265306122,1,1,0,25,1,0
89393,410.958904109589,1,1,0,25,1,0
89397,413.793103448276,1,1,0,25,1,0
89401,416.666666666667,1,1,0,25,1,0
89405,419.58041958042,1,1,0,25,1,0
89409,422.535211267606,1,1,0,25,1,0
89413,425.531914893617,1,1,0,25,1,0
89417,428.571428571429,1,1,0,25,1,0
89421,431.654676258993,1,1,0,25,1,0
89425,434.782608695652,1,1,0,25,1,0
89429,437.956204379562,1,1,0,25,1,0
89433,441.176470588235,1,1,0,25,1,0
89437,444.444444444444,1,1,0,25,1,0
89441,447.761194029851,1,1,0,25,1,0
89445,451.127819548872,1,1,0,25,1,0
89449,454.545454545455,1,1,0,25,1,0
89453,458.015267175573,1,1,0,25,1,0
89457,461.538461538462,1,1,0,25,1,0
89461,465.116279069767,1,1,0,25,1,0
89465,468.75,1,1,0,25,1,0
89469,472.44094488189,1,1,0,25,1,0
89473,476.190476190476,1,1,0,25,1,0
89477,480,1,1,0,25,1,0
89481,483.870967741936,1,1,0,25,1,0
89485,487.804878048781,1,1,0,25,1,0
89489,491.803278688525,1,1,0,25,1,0
89493,495.867768595041,1,1,0,25,1,0
89497,500,1,1,0,25,1,0
89501,504.201680672269,1,1,0,25,1,0
89505,508.474576271186,1,1,0,25,1,0
89509,512.820512820513,1,1,0,25,1,0
89513,517.241379310345,1,1,0,25,1,0
89517,521.739130434783,1,1,0,25,1,0
89521,526.315789473684,1,1,0,25,1,0
89525,530.973451327434,1,1,0,25,1,0
89529,535.714285714286,1,1,0,25,1,0
89533,540.540540540541,1,1,0,25,1,0
89537,545.454545454546,1,1,0,25,1,0
89541,550.45871559633,1,1,0,25,1,0
89545,555.555555555556,1,1,0,25,1,0
89549,560.747663551402,1,1,0,25,1,0
89553,566.037735849057,1,1,0,25,1,0
89557,571.428571428571,1,1,0,25,1,0
89561,576.923076923077,1,1,0,25,1,0
89565,582.52427184466,1,1,0,25,1,0
89569,588.235294117647,1,1,0,25,1,0
89573,594.059405940594,1,1,0,25,1,0
89577,600,1,1,0,25,1,0
89581,606.060606060606,1,1,0,25,1,0
89585,612.244897959184,1,1,0,25,1,0
89589,618.556701030928,1,1,0,25,1,0
89593,625,1,1,0,25,1,0
89597,631.578947368421,1,1,0,25,1,0
89601,638.297872340426,1,1,0,25,1,0
89605,645.161290322581,1,1,0,25,1,0
89609,652.173913043478,1,1,0,25,1,0
89613,659.340659340659,1,1,0,25,1,0
89617,666.666666666667,1,1,0,25,1,0
89621,674.157303370787,1,1,0,25,1,0
89625,681.818181818182,1,1,0,25,1,0
89629,689.655172413793,1,1,0,25,1,0
89633,697.674418604651,1,1,0,25,1,0
89637,705.882352941177,1,1,0,25,1,0
89641,714.285714285714,1,1,0,25,1,0
89645,722.89156626506,1,1,0,25,1,0
89649,731.707317073171,1,1,0,25,1,0
89653,740.740740740741,1,1,0,25,1,0
89657,750,1,1,0,25,1,0
89661,759.493670886076,1,1,0,25,1,0
89665,769.230769230769,1,1,0,25,1,0
89669,779.220779220779,1,1,0,25,1,0
89673,789.473684210526,1,1,0,25,1,0
89677,800,1,1,0,25,1,0
89681,789.473684210526,1,1,0,25,1,0
89685,779.220779220779,1,1,0,25,1,0
89689,769.230769230769,1,1,0,25,1,0
89693,759.493670886076,1,1,0,25,1,0
89697,750,1,1,0,25,1,0
89701,740.740740740741,1,1,0,25,1,0
89705,731.707317073171,1,1,0,25,1,0
89709,722.89156626506,1,1,0,25,1,0
89713,714.285714285714,1,1,0,25,1,0
89717,705.882352941177,1,1,0,25,1,0
89721,697.674418604651,1,1,0,25,1,0
89725,689.655172413793,1,1,0,25,1,0
89729,681.818181818182,1,1,0,25,1,0
89733,674.157303370787,1,1,0,25,1,0
89737,666.666666666667,1,1,0,25,1,0
89741,659.340659340659,1,1,0,25,1,0
89745,652.173913043478,1,1,0,25,1,0
89749,645.161290322581,1,1,0,25,1,0
89753,638.297872340426,1,1,0,25,1,0
89757,631.578947368421,1,1,0,25,1,0
89761,625,1,1,0,25,1,0
89765,618.556701030928,1,1,0,25,1,0
89769,612.244897959184,1,1,0,25,1,0
89773,606.060606060606,1,1,0,25,1,0
89777,600,1,1,0,25,1,0
89781,594.059405940594,1,1,0,25,1,0
89785,588.235294117647,1,1,0,25,1,0
89789,582.52427184466,1,1,0,25,1,0
89793,576.923076923077,1,1,0,25,1,0
89797,571.428571428571,1,1,0,25,1,0
89801,566.037735849057,1,1,0,25,1,0
89805,560.747663551402,1,1,0,25,1,0
89809,555.555555555556,1,1,0,25,1,0
89813,550.45871559633,1,1,0,25,1,0
89817,545.454545454546,1,1,0,25,1,0
89821,540.540540540541,1,1,0,25,1,0
89825,535.714285714286,1,1,0,25,1,0
89829,530.973451327434,1,1,0,25,1,0
89833,526.315789473684,1,1,0,25,1,0
89837,521.739130434783,1,1,0,25,1,0
89841,517.241379310345,1,1,0,25,1,0
89845,512.820512820513,1,1,0,25,1,0
89849,508.474576271186,1,1,0,25,1,0
89853,504.201680672269,1,1,0,25,1,0
89857,500,1,1,0,25,1,0
89861,495.867768595041,1,1,0,25,1,0
89865,491.803278688525,1,1,0,25,1,0
89869,487.804878048781,1,1,0,25,1,0
89873,483.870967741936,1,1,0,25,1,0
89877,480,1,1,0,25,1,0
89881,476.190476190476,1,1,0,25,1,0
89885,472.44094488189,1,1,0,25,1,0
89889,468.75,1,1,0,25,1,0
89893,465.116279069767,1,1,0,25,1,0
89897,461.538461538462,1,1,0,25,1,0
89901,458.015267175573,1,1,0,25,1,0
89905,454.545454545455,1,1,0,25,1,0
89909,451.127819548872,1,1,0,25,1,0
89913,447.761194029851,1,1,0,25,1,0
89917,444.444444444444,1,1,0,25,1,0
89921,441.176470588235,1,1,0,25,1,0
89925,437.956204379562,1,1,0,25,1,0
89929,434.782608695652,1,1,0,25,1,0
89933,431.654676258993,1,1,0,25,1,0
89937,428.571428571429,1,1,0,25,1,0
89941,425.531914893617,1,1,0,25,1,0
89945,422.535211267606,1,1,0,25,1,0
89949,419.58041958042,1,1,0,25,1,0
89953,416.666666666667,1,1,0,25,1,0
89957,413.793103448276,1,1,0,25,1,0
89961,410.958904109589,1,1,0,25,1,0
89965,408.163265306122,1,1,0,25,1,0
89969,405.405405405405,1,1,0,25,1,0
89973,402.684563758389,1,1,0,25,1,0
89977,400,1,1,0,25,1,0
89981,402.684563758389,1,1,0,25,1,0
89985,405.405405405405,1,1,0,25,1,0
89989,408.163265306122,1,1,0,25,1,0
89993,410.958904109589,1,1,0,25,1,0
89997,413.793103448276,1,1,0,25,1,0
90001,416.666666666667,1,1,0,25,1,0
90005,419.58041958042,1,1,0,25,1,0
90009,422.535211267606,1,1,0,25,1,0
90013,425.531914893617,1,1,0,25,1,0
90017,428.571428571429,1,1,0,25,1,0
90021,431.654676258993,1,1,0,25,1,0
90025,434.782608695652,1,1,0,25,1,0
90029,437.956204379562,1,1,0,25,1,0
90033,441.176470588235,1,1,0,25,1,0
90037,444.444444444444,1,1,0,25,1,0
90041,447.761194029851,1,1,0,25,1,0
90045,451.127819548872,1,1,0,25,1,0
90049,454.545454545455,1,1,0,25,1,0
90053,458.015267175573,1,1,0,25,1,0
90057,461.538461538462,1,1,0,25,1,0
90061,465.116279069767,1,1,0,25,1,0
90065,468.75,1,1,0,25,1,0
90069,472.44094488189,1,1,0,25,1,0
90073,476.190476190476,1,1,0,25,1,0
90077,480,1,1,0,25,1,0
90081,483.870967741936,1,1,0,25,1,0
90085,487.804878048781,1,1,0,25,1,0
90089,491.803278688525,1,1,0,25,1,0
90093,495.867768595041,1,1,0,25,1,0
90097,500,1,1,0,25,1,0
90101,504.201680672269,1,1,0,25,1,0
90105,508.474576271186,1,1,0,25,1,0
90109,512.820512820513,1,1,0,25,1,0
90113,517.241379310345,1,1,0,25,1,0
90117,521.739130434783,1,1,0,25,1,0
90121,526.315789473684,1,1,0,25,1,0
90125,530.973451327434,1,1,0,25,1,0
90129,535.714285714286,1,1,0,25,1,0
90133,540.540540540541,1,1,0,25,1,0
90137,545.454545454546,1,1,0,25,1,0
90141,550.45871559633,1,1,0,25,1,0
90145,555.555555555556,1,1,0,25,1,0
90149,560.747663551402,1,1,0,25,1,0
90153,566.037735849057,1,1,0,25,1,0
90157,571.428571428571,1,1,0,25,1,0
90161,576.923076923077,1,1,0,25,1,0
90165,582.52427184466,1,1,0,25,1,0
90169,588.235294117647,1,1,0,25,1,0
90173,594.059405940594,1,1,0,25,1,0
90177,600,1,1,0,25,1,0
90181,606.060606060606,1,1,0,25,1,0
90185,612.244897959184,1,1,0,25,1,0
90189,618.556701030928,1,1,0,25,1,0
90193,625,1,1,0,25,1,0
90197,631.578947368421,1,1,0,25,1,0
90201,638.297872340426,1,1,0,25,1,0
90205,645.161290322581,1,1,0,25,1,0
90209,652.173913043478,1,1,0,25,1,0
90213,659.340659340659,1,1,0,25,1,0
90217,666.666666666667,1,1,0,25,1,0
90221,674.157303370787,1,1,0,25,1,0
90225,681.818181818182,1,1,0,25,1,0
90229,689.655172413793,1,1,0,25,1,0
90233,697.674418604651,1,1,0,25,1,0
90237,705.882352941177,1,1,0,25,1,0
90241,714.285714285714,1,1,0,25,1,0
90245,722.89156626506,1,1,0,25,1,0
90249,731.707317073171,1,1,0,25,1,0
90253,740.740740740741,1,1,0,25,1,0
90257,750,1,1,0,25,1,0
90261,759.493670886076,1,1,0,25,1,0
90265,769.230769230769,1,1,0,25,1,0
90269,779.220779220779,1,1,0,25,1,0
90273,789.473684210526,1,1,0,25,1,0
90277,800,1,1,0,25,1,0
90281,789.473684210526,1,1,0,25,1,0
90285,779.220779220779,1,1,0,25,1,0
90289,769.230769230769,1,1,0,25,1,0
90293,759.493670886076,1,1,0,25,1,0
90297,750,1,1,0,25,1,0
90301,740.740740740741,1,1,0,25,1,0
90305,731.707317073171,1,1,0,25,1,0
90309,722.89156626506,1,1,0,25,1,0
90313,714.285714285714,1,1,0,25,1,0
90317,705.882352941177,1,1,0,25,1,0
90321,697.674418604651,1,1,0,25,1,0
90325,689.655172413793,1,1,0,25,1,0
90329,681.818181818182,1,1,0,25,1,0
90333,674.157303370787,1,1,0,25,1,0
90337,666.666666666667,1,1,0,25,1,0
90341,659.340659340659,1,1,0,25,1,0
90345,652.173913043478,1,1,0,25,1,0
90349,645.161290322581,1,1,0,25,1,0
90353,638.297872340426,1,1,0,25,1,0
90357,631.578947368421,1,1,0,25,1,0
90361,625,1,1,0,25,1,0
90365,618.556701030928,1,1,0,25,1,0
90369,612.244897959184,1,1,0,25,1,0
90373,606.060606060606,1,1,0,25,1,0
90377,600,1,1,0,25,1,0
90381,594.059405940594,1,1,0,25,1,0
90385,588.235294117647,1,1,0,25,1,0
90389,582.52427184466,1,1,0,25,1,0
90393,576.923076923077,1,1,0,25,1,0
90397,571.428571428571,1,1,0,25,1,0
90401,566.037735849057,1,1,0,25,1,0
90405,560.747663551402,1,1,0,25,1,0
90409,555.555555555556,1,1,0,25,1,0
90413,550.45871559633,1,1,0,25,1,0
90417,545.454545454546,1,1,0,25,1,0
90421,540.540540540541,1,1,0,25,1,0
90425,535.714285714286,1,1,0,25,1,0
90429,530.973451327434,1,1,0,25,1,0
90433,526.315789473684,1,1,0,25,1,0
90437,521.739130434783,1,1,0,25,1,0
90441,517.241379310345,1,1,0,25,1,0
90445,512.820512820513,1,1,0,25,1,0
90449,508.474576271186,1,1,0,25,1,0
90453,504.201680672269,1,1,0,25,1,0
90457,500,1,1,0,25,1,0
90461,495.867768595041,1,1,0,25,1,0
90465,491.803278688525,1,1,0,25,1,0
90469,487.804878048781,1,1,0,25,1,0
90473,483.870967741936,1,1,0,25,1,0
90477,480,1,1,0,25,1,0
90481,476.190476190476,1,1,0,25,1,0
90485,472.44094488189,1,1,0,25,1,0
90489,468.75,1,1,0,25,1,0
90493,465.116279069767,1,1,0,25,1,0
90497,461.538461538462,1,1,0,25,1,0
90501,458.015267175573,1,1,0,25,1,0
90505,454.545454545455,1,1,0,25,1,0
90509,451.127819548872,1,1,0,25,1,0
90513,447.761194029851,1,1,0,25,1,0
90517,444.444444444444,1,1,0,25,1,0
90521,441.176470588235,1,1,0,25,1,0
90525,437.956204379562,1,1,0,25,1,0
90529,434.782608695652,1,1,0,25,1,0
90533,431.654676258993,1,1,0,25,1,0
90537,428.571428571429,1,1,0,25,1,0
90541,425.531914893617,1,1,0,25,1,0
90545,422.535211267606,1,1,0,25,1,0
90549,419.58041958042,1,1,0,25,1,0
90553,416.666666666667,1,1,0,25,1,0
90557,413.793103448276,1,1,0,25,1,0
90561,410.958904109589,1,1,0,25,1,0
90565,408.163265306122,1,1,0,25,1,0
90569,405.405405405405,1,1,0,25,1,0
90573,402.684563758389,1,1,0,25,1,0
90577,400,1,1,0,25,1,0
90581,402.684563758389,1,1,0,25,1,0
90585,405.405405405405,1,1,0,25,1,0
90589,408.163265306122,1,1,0,25,1,0
90593,410.958904109589,1,1,0,25,1,0
90597,413.793103448276,1,1,0,25,1,0
90601,416.666666666667,1,1,0,25,1,0
90605,419.58041958042,1,1,0,25,1,0
90609,422.535211267606,1,1,0,25,1,0
90613,425.531914893617,1,1,0,25,1,0
90617,428.571428571429,1,1,0,25,1,0
90621,431.654676258993,1,1,0,25,1,0
90625,434.782608695652,1,1,0,25,1,0
90629,437.956204379562,1,1,0,25,1,0
90633,441.176470588235,1,1,0,25,1,0
90637,444.444444444444,1,1,0,25,1,0
90641,447.761194029851,1,1,0,25,1,0
90645,451.127819548872,1,1,0,25,1,0
90649,454.545454545455,1,1,0,25,1,0
90653,458.015267175573,1,1,0,25,1,0
90657,461.538461538462,1,1,0,25,1,0
90661,465.116279069767,1,1,0,25,1,0
90665,468.75,1,1,0,25,1,0
90669,472.44094488189,1,1,0,25,1,0
90673,476.190476190476,1,1,0,25,1,0
90677,480,1,1,0,25,1,0
90681,483.870967741936,1,1,0,25,1,0
90685,487.804878048781,1,1,0,25,1,0
90689,491.803278688525,1,1,0,25,1,0
90693,495.867768595041,1,1,0,25,1,0
90697,500,1,1,0,25,1,0
90701,504.201680672269,1,1,0,25,1,0
90705,508.474576271186,1,1,0,25,1,0
90709,512.820512820513,1,1,0,25,1,0
90713,517.241379310345,1,1,0,25,1,0
90717,521.739130434783,1,1,0,25,1,0
90721,526.315789473684,1,1,0,25,1,0
90725,530.973451327434,1,1,0,25,1,0
90729,535.714285714286,1,1,0,25,1,0
90733,540.540540540541,1,1,0,25,1,0
90737,545.454545454546,1,1,0,25,1,0
90741,550.45871559633,1,1,0,25,1,0
90745,555.555555555556,1,1,0,25,1,0
90749,560.747663551402,1,1,0,25,1,0
90753,566.037735849057,1,1,0,25,1,0
90757,571.428571428571,1,1,0,25,1,0
90761,576.923076923077,1,1,0,25,1,0
90765,582.52427184466,1,1,0,25,1,0
90769,588.235294117647,1,1,0,25,1,0
90773,594.059405940594,1,1,0,25,1,0
90777,600,1,1,0,25,1,0
90781,606.060606060606,1,1,0,25,1,0
90785,612.244897959184,1,1,0,25,1,0
90789,618.556701030928,1,1,0,25,1,0
90793,625,1,1,0,25,1,0
90797,631.578947368421,1,1,0,25,1,0
90801,638.297872340426,1,1,0,25,1,0
90805,645.161290322581,1,1,0,25,1,0
90809,652.173913043478,1,1,0,25,1,0
90813,659.340659340659,1,1,0,25,1,0
90817,666.666666666667,1,1,0,25,1,0
90821,674.157303370787,1,1,0,25,1,0
90825,681.818181818182,1,1,0,25,1,0
90829,689.655172413793,1,1,0,25,1,0
90833,697.674418604651,1,1,0,25,1,0
90837,705.882352941177,1,1,0,25,1,0
90841,714.285714285714,1,1,0,25,1,0
90845,722.89156626506,1,1,0,25,1,0
90849,731.707317073171,1,1,0,25,1,0
90853,740.740740740741,1,1,0,25,1,0
90857,750,1,1,0,25,1,0
90861,759.493670886076,1,1,0,25,1,0
90865,769.230769230769,1,1,0,25,1,0
90869,779.220779220779,1,1,0,25,1,0
90873,789.473684210526,1,1,0,25,1,0
90877,800,1,1,0,25,1,0
90881,789.473684210526,1,1,0,25,1,0
90885,779.220779220779,1,1,0,25,1,0
90889,769.230769230769,1,1,0,25,1,0
90893,759.493670886076,1,1,0,25,1,0
90897,750,1,1,0,25,1,0
90901,740.740740740741,1,1,0,25,1,0
90905,731.707317073171,1,1,0,25,1,0
90909,722.89156626506,1,1,0,25,1,0
90913,714.285714285714,1,1,0,25,1,0
90917,705.882352941177,1,1,0,25,1,0
90921,697.674418604651,1,1,0,25,1,0
90925,689.655172413793,1,1,0,25,1,0
90929,681.818181818182,1,1,0,25,1,0
90933,674.157303370787,1,1,0,25,1,0
90937,666.666666666667,1,1,0,25,1,0
90941,659.340659340659,1,1,0,25,1,0
90945,652.173913043478,1,1,0,25,1,0
90949,645.161290322581,1,1,0,25,1,0
90953,638.297872340426,1,1,0,25,1,0
90957,631.578947368421,1,1,0,25,1,0
90961,625,1,1,0,25,1,0
90965,618.556701030928,1,1,0,25,1,0
90969,612.244897959184,1,1,0,25,1,0
90973,606.060606060606,1,1,0,25,1,0
90977,600,1,1,0,25,1,0
90981,594.059405940594,1,1,0,25,1,0
90985,588.235294117647,1,1,0,25,1,0
90989,582.52427184466,1,1,0,25,1,0
90993,576.923076923077,1,1,0,25,1,0
90997,571.428571428571,1,1,0,25,1,0
91001,566.037735849057,1,1,0,25,1,0
91005,560.747663551402,1,1,0,25,1,0
91009,555.555555555556,1,1,0,25,1,0
91013,550.45871559633,1,1,0,25,1,0
91017,545.454545454546,1,1,0,25,1,0
91021,540.540540540541,1,1,0,25,1,0
91025,535.714285714286,1,1,0,25,1,0
91029,530.973451327434,1,1,0,25,1,0
91033,526.315789473684,1,1,0,25,1,0
91037,521.739130434783,1,1,0,25,1,0
91041,517.241379310345,1,1,0,25,1,0
91045,512.820512820513,1,1,0,25,1,0
91049,508.474576271186,1,1,0,25,1,0
91053,504.201680672269,1,1,0,25,1,0
91057,500,1,1,0,25,1,0
91061,495.867768595041,1,1,0,25,1,0
91065,491.803278688525,1,1,0,25,1,0
91069,487.804878048781,1,1,0,25,1,0
91073,483.870967741936,1,1,0,25,1,0
91077,480,1,1,0,25,1,0
91081,476.190476190476,1,1,0,25,1,0
91085,472.44094488189,1,1,0,25,1,0
91089,468.75,1,1,0,25,1,0
91093,465.116279069767,1,1,0,25,1,0
91097,461.538461538462,1,1,0,25,1,0
91101,458.015267175573,1,1,0,25,1,0
91105,454.545454545455,1,1,0,25,1,0
91109,451.127819548872,1,1,0,25,1,0
91113,447.761194029851,1,1,0,25,1,0
91117,444.444444444444,1,1,0,25,1,0
91121,441.176470588235,1,1,0,25,1,0
91125,437.956204379562,1,1,0,25,1,0
91129,434.782608695652,1,1,0,25,1,0
91133,431.654676258993,1,1,0,25,1,0
91137,428.571428571429,1,1,0,25,1,0
91141,425.531914893617,1,1,0,25,1,0
91145,422.535211267606,1,1,0,25,1,0
91149,419.58041958042,1,1,0,25,1,0
91153,416.666666666667,1,1,0,25,1,0
91157,413.793103448276,1,1,0,25,1,0
91161,410.958904109589,1,1,0,25,1,0
91165,408.163265306122,1,1,0,25,1,0
91169,405.405405405405,1,1,0,25,1,0
91173,402.684563758389,1,1,0,25,1,0
91177,400,1,1,0,25,1,0
91181,402.684563758389,1,1,0,25,1,0
91185,405.405405405405,1,1,0,25,1,0
91189,408.163265306122,1,1,0,25,1,0
91193,410.958904109589,1,1,0,25,1,0
91197,413.793103448276,1,1,0,25,1,0
91201,416.666666666667,1,1,0,25,1,0
91205,419.58041958042,1,1,0,25,1,0
91209,422.535211267606,1,1,0,25,1,0
91213,425.531914893617,1,1,0,25,1,0
91217,428.571428571429,1,1,0,25,1,0
91221,431.654676258993,1,1,0,25,1,0
91225,434.782608695652,1,1,0,25,1,0
91229,437.956204379562,1,1,0,25,1,0
91233,441.176470588235,1,1,0,25,1,0
91237,444.444444444444,1,1,0,25,1,0
91241,447.761194029851,1,1,0,25,1,0
91245,451.127819548872,1,1,0,25,1,0
91249,454.545454545455,1,1,0,25,1,0
91253,458.015267175573,1,1,0,25,1,0
91257,461.538461538462,1,1,0,25,1,0
91261,465.116279069767,1,1,0,25,1,0
91265,468.75,1,1,0,25,1,0
91269,472.44094488189,1,1,0,25,1,0
91273,476.190476190476,1,1,0,25,1,0
91277,480,1,1,0,25,1,0
91281,483.870967741936,1,1,0,25,1,0
91285,487.804878048781,1,1,0,25,1,0
91289,491.803278688525,1,1,0,25,1,0
91293,495.867768595041,1,1,0,25,1,0
91297,500,1,1,0,25,1,0
91301,504.201680672269,1,1,0,25,1,0
91305,508.474576271186,1,1,0,25,1,0
91309,512.820512820513,1,1,0,25,1,0
91313,517.241379310345,1,1,0,25,1,0
91317,521.739130434783,1,1,0,25,1,0
91321,526.315789473684,1,1,0,25,1,0
91325,530.973451327434,1,1,0,25,1,0
91329,535.714285714286,1,1,0,25,1,0
91333,540.540540540541,1,1,0,25,1,0
91337,545.454545454546,1,1,0,25,1,0
91341,550.45871559633,1,1,0,25,1,0
91345,555.555555555556,1,1,0,25,1,0
91349,560.747663551402,1,1,0,25,1,0
91353,566.037735849057,1,1,0,25,1,0
91357,571.428571428571,1,1,0,25,1,0
91361,576.923076923077,1,1,0,25,1,0
91365,582.52427184466,1,1,0,25,1,0
91369,588.235294117647,1,1,0,25,1,0
91373,594.059405940594,1,1,0,25,1,0
91377,600,1,1,0,25,1,0
91381,606.060606060606,1,1,0,25,1,0
91385,612.244897959184,1,1,0,25,1,0
91389,618.556701030928,1,1,0,25,1,0
91393,625,1,1,0,25,1,0
91397,631.578947368421,1,1,0,25,1,0
91401,638.297872340426,1,1,0,25,1,0
91405,645.161290322581,1,1,0,25,1,0
91409,652.173913043478,1,1,0,25,1,0
91413,659.340659340659,1,1,0,25,1,0
91417,666.666666666667,1,1,0,25,1,0
91421,674.157303370787,1,1,0,25,1,0
91425,681.818181818182,1,1,0,25,1,0
91429,689.655172413793,1,1,0,25,1,0
91433,697.674418604651,1,1,0,25,1,0
91437,705.882352941177,1,1,0,25,1,0
91441,714.285714285714,1,1,0,25,1,0
91445,722.89156626506,1,1,0,25,1,0
91449,731.707317073171,1,1,0,25,1,0
91453,740.740740740741,1,1,0,25,1,0
91457,750,1,1,0,25,1,0
91461,759.493670886076,1,1,0,25,1,0
91465,769.230769230769,1,1,0,25,1,0
91469,779.220779220779,1,1,0,25,1,0
91473,789.473684210526,1,1,0,25,1,0
91477,800,1,1,0,25,1,0
91481,789.473684210526,1,1,0,25,1,0
91485,779.220779220779,1,1,0,25,1,0
91489,769.230769230769,1,1,0,25,1,0
91493,759.493670886076,1,1,0,25,1,0
91497,750,1,1,0,25,1,0
91501,740.740740740741,1,1,0,25,1,0
91505,731.707317073171,1,1,0,25,1,0
91509,722.89156626506,1,1,0,25,1,0
91513,714.285714285714,1,1,0,25,1,0
91517,705.882352941177,1,1,0,25,1,0
91521,697.674418604651,1,1,0,25,1,0
91525,689.655172413793,1,1,0,25,1,0
91529,681.818181818182,1,1,0,25,1,0
91533,674.157303370787,1,1,0,25,1,0
91537,666.666666666667,1,1,0,25,1,0
91541,659.340659340659,1,1,0,25,1,0
91545,652.173913043478,1,1,0,25,1,0
91549,645.161290322581,1,1,0,25,1,0
91553,638.297872340426,1,1,0,25,1,0
91557,631.578947368421,1,1,0,25,1,0
91561,625,1,1,0,25,1,0
91565,618.556701030928,1,1,0,25,1,0
91569,612.244897959184,1,1,0,25,1,0
91573,606.060606060606,1,1,0,25,1,0
91577,600,1,1,0,25,1,0
91581,594.059405940594,1,1,0,25,1,0
91585,588.235294117647,1,1,0,25,1,0
91589,582.52427184466,1,1,0,25,1,0
91593,576.923076923077,1,1,0,25,1,0
91597,571.428571428571,1,1,0,25,1,0
91601,566.037735849057,1,1,0,25,1,0
91605,560.747663551402,1,1,0,25,1,0
91609,555.555555555556,1,1,0,25,1,0
91613,550.45871559633,1,1,0,25,1,0
91617,545.454545454546,1,1,0,25,1,0
91621,540.540540540541,1,1,0,25,1,0
91625,535.714285714286,1,1,0,25,1,0
91629,530.973451327434,1,1,0,25,1,0
91633,526.315789473684,1,1,0,25,1,0
91637,521.739130434783,1,1,0,25,1,0
91641,517.241379310345,1,1,0,25,1,0
91645,512.820512820513,1,1,0,25,1,0
91649,508.474576271186,1,1,0,25,1,0
91653,504.201680672269,1,1,0,25,1,0
91657,500,1,1,0,25,1,0
91661,495.867768595041,1,1,0,25,1,0
91665,491.803278688525,1,1,0,25,1,0
91669,487.804878048781,1,1,0,25,1,0
91673,483.870967741936,1,1,0,25,1,0
91677,480,1,1,0,25,1,0
91681,476.190476190476,1,1,0,25,1,0
91685,472.44094488189,1,1,0,25,1,0
91689,468.75,1,1,0,25,1,0
91693,465.116279069767,1,1,0,25,1,0
91697,461.538461538462,1,1,0,25,1,0
91701,458.015267175573,1,1,0,25,1,0
91705,454.545454545455,1,1,0,25,1,0
91709,451.127819548872,1,1,0,25,1,0
91713,447.761194029851,1,1,0,25,1,0
91717,444.444444444444,1,1,0,25,1,0
91721,441.176470588235,1,1,0,25,1,0
91725,437.956204379562,1,1,0,25,1,0
91729,434.782608695652,1,1,0,25,1,0
91733,431.654676258993,1,1,0,25,1,0
91737,428.571428571429,1,1,0,25,1,0
91741,425.531914893617,1,1,0,25,1,0
91745,422.535211267606,1,1,0,25,1,0
91749,419.58041958042,1,1,0,25,1,0
91753,416.666666666667,1,1,0,25,1,0
91757,413.793103448276,1,1,0,25,1,0
91761,410.958904109589,1,1,0,25,1,0
91765,408.163265306122,1,1,0,25,1,0
91769,405.405405405405,1,1,0,25,1,0
91773,402.684563758389,1,1,0,25,1,0
91777,400,1,1,0,25,1,0
91781,402.684563758389,1,1,0,25,1,0
91785,405.405405405405,1,1,0,25,1,0
91789,408.163265306122,1,1,0,25,1,0
91793,410.958904109589,1,1,0,25,1,0
91797,413.793103448276,1,1,0,25,1,0
91801,416.666666666667,1,1,0,25,1,0
91805,419.58041958042,1,1,0,25,1,0
91809,422.535211267606,1,1,0,25,1,0
91813,425.531914893617,1,1,0,25,1,0
91817,428.571428571429,1,1,0,25,1,0
91821,431.654676258993,1,1,0,25,1,0
91825,434.782608695652,1,1,0,25,1,0
91829,437.956204379562,1,1,0,25,1,0
91833,441.176470588235,1,1,0,25,1,0
91837,444.444444444444,1,1,0,25,1,0
91841,447.761194029851,1,1,0,25,1,0
91845,451.127819548872,1,1,0,25,1,0
91849,454.545454545455,1,1,0,25,1,0
91853,458.015267175573,1,1,0,25,1,0
91857,461.538461538462,1,1,0,25,1,0
91861,465.116279069767,1,1,0,25,1,0
91865,468.75,1,1,0,25,1,0
91869,472.44094488189,1,1,0,25,1,0
91873,476.190476190476,1,1,0,25,1,0
91877,480,1,1,0,25,1,0
91881,483.870967741936,1,1,0,25,1,0
91885,487.804878048781,1,1,0,25,1,0
91889,491.803278688525,1,1,0,25,1,0
91893,495.867768595041,1,1,0,25,1,0
91897,500,1,1,0,25,1,0
91901,504.201680672269,1,1,0,25,1,0
91905,508.474576271186,1,1,0,25,1,0
91909,512.820512820513,1,1,0,25,1,0
91913,517.241379310345,1,1,0,25,1,0
91917,521.739130434783,1,1,0,25,1,0
91921,526.315789473684,1,1,0,25,1,0
91925,530.973451327434,1,1,0,25,1,0
91929,535.714285714286,1,1,0,25,1,0
91933,540.540540540541,1,1,0,25,1,0
91937,545.454545454546,1,1,0,25,1,0
91941,550.45871559633,1,1,0,25,1,0
91945,555.555555555556,1,1,0,25,1,0
91949,560.747663551402,1,1,0,25,1,0
91953,566.037735849057,1,1,0,25,1,0
91957,571.428571428571,1,1,0,25,1,0
91961,576.923076923077,1,1,0,25,1,0
91965,582.52427184466,1,1,0,25,1,0
91969,588.235294117647,1,1,0,25,1,0
91973,594.059405940594,1,1,0,25,1,0
91977,600,1,1,0,25,1,0
91981,606.060606060606,1,1,0,25,1,0
91985,612.244897959184,1,1,0,25,1,0
91989,618.556701030928,1,1,0,25,1,0
91993,625,1,1,0,25,1,0
91997,631.578947368421,1,1,0,25,1,0
92001,638.297872340426,1,1,0,25,1,0
92005,645.161290322581,1,1,0,25,1,0
92009,652.173913043478,1,1,0,25,1,0
92013,659.340659340659,1,1,0,25,1,0
92017,666.666666666667,1,1,0,25,1,0
92021,674.157303370787,1,1,0,25,1,0
92025,681.818181818182,1,1,0,25,1,0
92029,689.655172413793,1,1,0,25,1,0
92033,697.674418604651,1,1,0,25,1,0
92037,705.882352941177,1,1,0,25,1,0
92041,714.285714285714,1,1,0,25,1,0
92045,722.89156626506,1,1,0,25,1,0
92049,731.707317073171,1,1,0,25,1,0
92053,740.740740740741,1,1,0,25,1,0
92057,750,1,1,0,25,1,0
92061,759.493670886076,1,1,0,25,1,0
92065,769.230769230769,1,1,0,25,1,0
92069,779.220779220779,1,1,0,25,1,0
92073,789.473684210526,1,1,0,25,1,0
92077,800,1,1,0,25,1,0
92081,789.473684210526,1,1,0,25,1,0
92085,779.220779220779,1,1,0,25,1,0
92089,769.230769230769,1,1,0,25,1,0
92093,759.493670886076,1,1,0,25,1,0
92097,750,1,1,0,25,1,0
92101,740.740740740741,1,1,0,25,1,0
92105,731.707317073171,1,1,0,25,1,0
92109,722.89156626506,1,1,0,25,1,0
92113,714.285714285714,1,1,0,25,1,0
92117,705.882352941177,1,1,0,25,1,0
92121,697.674418604651,1,1,0,25,1,0
92125,689.655172413793,1,1,0,25,1,0
92129,681.818181818182,1,1,0,25,1,0
92133,674.157303370787,1,1,0,25,1,0
92137,666.666666666667,1,1,0,25,1,0
92141,659.340659340659,1,1,0,25,1,0
92145,652.173913043478,1,1,0,25,1,0
92149,645.161290322581,1,1,0,25,1,0
92153,638.297872340426,1,1,0,25,1,0
92157,631.578947368421,1,1,0,25,1,0
92161,625,1,1,0,25,1,0
92165,618.556701030928,1,1,0,25,1,0
92169,612.244897959184,1,1,0,25,1,0
92173,606.060606060606,1,1,0,25,1,0
92177,600,1,1,0,25,1,0
92181,594.059405940594,1,1,0,25,1,0
92185,588.235294117647,1,1,0,25,1,0
92189,582.52427184466,1,1,0,25,1,0
92193,576.923076923077,1,1,0,25,1,0
92197,571.428571428571,1,1,0,25,1,0
92201,566.037735849057,1,1,0,25,1,0
92205,560.747663551402,1,1,0,25,1,0
92209,555.555555555556,1,1,0,25,1,0
92213,550.45871559633,1,1,0,25,1,0
92217,545.454545454546,1,1,0,25,1,0
92221,540.540540540541,1,1,0,25,1,0
92225,535.714285714286,1,1,0,25,1,0
92229,530.973451327434,1,1,0,25,1,0
92233,526.315789473684,1,1,0,25,1,0
92237,521.739130434783,1,1,0,25,1,0
92241,517.241379310345,1,1,0,25,1,0
92245,512.820512820513,1,1,0,25,1,0
92249,508.474576271186,1,1,0,25,1,0
92253,504.201680672269,1,1,0,25,1,0
92257,500,1,1,0,25,1,0
92261,495.867768595041,1,1,0,25,1,0
92265,491.803278688525,1,1,0,25,1,0
92269,487.804878048781,1,1,0,25,1,0
92273,483.870967741936,1,1,0,25,1,0
92277,480,1,1,0,25,1,0
92281,476.190476190476,1,1,0,25,1,0
92285,472.44094488189,1,1,0,25,1,0
92289,468.75,1,1,0,25,1,0
92293,465.116279069767,1,1,0,25,1,0
92297,461.538461538462,1,1,0,25,1,0
92301,458.015267175573,1,1,0,25,1,0
92305,454.545454545455,1,1,0,25,1,0
92309,451.127819548872,1,1,0,25,1,0
92313,447.761194029851,1,1,0,25,1,0
92317,444.444444444444,1,1,0,25,1,0
92321,441.176470588235,1,1,0,25,1,0
92325,437.956204379562,1,1,0,25,1,0
92329,434.782608695652,1,1,0,25,1,0
92333,431.654676258993,1,1,0,25,1,0
92337,428.571428571429,1,1,0,25,1,0
92341,425.531914893617,1,1,0,25,1,0
92345,422.535211267606,1,1,0,25,1,0
92349,419.58041958042,1,1,0,25,1,0
92353,416.666666666667,1,1,0,25,1,0
92357,413.793103448276,1,1,0,25,1,0
92361,410.958904109589,1,1,0,25,1,0
92365,408.163265306122,1,1,0,25,1,0
92369,405.405405405405,1,1,0,25,1,0
92373,402.684563758389,1,1,0,25,1,0
92377,400,1,1,0,25,1,0
92381,402.684563758389,1,1,0,25,1,0
92385,405.405405405405,1,1,0,25,1,0
92389,408.163265306122,1,1,0,25,1,0
92393,410.958904109589,1,1,0,25,1,0
92397,413.793103448276,1,1,0,25,1,0
92401,416.666666666667,1,1,0,25,1,0
92405,419.58041958042,1,1,0,25,1,0
92409,422.535211267606,1,1,0,25,1,0
92413,425.531914893617,1,1,0,25,1,0
92417,428.571428571429,1,1,0,25,1,0
92421,431.654676258993,1,1,0,25,1,0
92425,434.782608695652,1,1,0,25,1,0
92429,437.956204379562,1,1,0,25,1,0
92433,441.176470588235,1,1,0,25,1,0
92437,444.444444444444,1,1,0,25,1,0
92441,447.761194029851,1,1,0,25,1,0
92445,451.127819548872,1,1,0,25,1,0
92449,454.545454545455,1,1,0,25,1,0
92453,458.015267175573,1,1,0,25,1,0
92457,461.538461538462,1,1,0,25,1,0
92461,465.116279069767,1,1,0,25,1,0
92465,468.75,1,1,0,25,1,0
92469,472.44094488189,1,1,0,25,1,0
92473,476.190476190476,1,1,0,25,1,0
92477,480,1,1,0,25,1,0
92481,483.870967741936,1,1,0,25,1,0
92485,487.804878048781,1,1,0,25,1,0
92489,491.803278688525,1,1,0,25,1,0
92493,495.867768595041,1,1,0,25,1,0
92497,500,1,1,0,25,1,0
92501,504.201680672269,1,1,0,25,1,0
92505,508.474576271186,1,1,0,25,1,0
92509,512.820512820513,1,1,0,25,1,0
92513,517.241379310345,1,1,0,25,1,0
92517,521.739130434783,1,1,0,25,1,0
92521,526.315789473684,1,1,0,25,1,0
92525,530.973451327434,1,1,0,25,1,0
92529,535.714285714286,1,1,0,25,1,0
92533,540.540540540541,1,1,0,25,1,0
92537,545.454545454546,1,1,0,25,1,0
92541,550.45871559633,1,1,0,25,1,0
92545,555.555555555556,1,1,0,25,1,0
92549,560.747663551402,1,1,0,25,1,0
92553,566.037735849057,1,1,0,25,1,0
92557,571.428571428571,1,1,0,25,1,0
92561,576.923076923077,1,1,0,25,1,0
92565,582.52427184466,1,1,0,25,1,0
92569,588.235294117647,1,1,0,25,1,0
92573,594.059405940594,1,1,0,25,1,0
92577,600,1,1,0,25,1,0
92581,606.060606060606,1,1,0,25,1,0
92585,612.244897959184,1,1,0,25,1,0
92589,618.556701030928,1,1,0,25,1,0
92593,625,1,1,0,25,1,0
92597,631.578947368421,1,1,0,25,1,0
92601,638.297872340426,1,1,0,25,1,0
92605,645.161290322581,1,1,0,25,1,0
92609,652.173913043478,1,1,0,25,1,0
92613,659.340659340659,1,1,0,25,1,0
92617,666.666666666667,1,1,0,25,1,0
92621,674.157303370787,1,1,0,25,1,0
92625,681.818181818182,1,1,0,25,1,0
92629,689.655172413793,1,1,0,25,1,0
92633,697.674418604651,1,1,0,25,1,0
92637,705.882352941177,1,1,0,25,1,0
92641,714.285714285714,1,1,0,25,1,0
92645,722.89156626506,1,1,0,25,1,0
92649,731.707317073171,1,1,0,25,1,0
92653,740.740740740741,1,1,0,25,1,0
92657,750,1,1,0,25,1,0
92661,759.493670886076,1,1,0,25,1,0
92665,769.230769230769,1,1,0,25,1,0
92669,779.220779220779,1,1,0,25,1,0
92673,789.473684210526,1,1,0,25,1,0
92677,800,1,1,0,25,1,0
92681,789.473684210526,1,1,0,25,1,0
92685,779.220779220779,1,1,0,25,1,0
92689,769.230769230769,1,1,0,25,1,0
92693,759.493670886076,1,1,0,25,1,0
92697,750,1,1,0,25,1,0
92701,740.740740740741,1,1,0,25,1,0
92705,731.707317073171,1,1,0,25,1,0
92709,722.89156626506,1,1,0,25,1,0
92713,714.285714285714,1,1,0,25,1,0
92717,705.882352941177,1,1,0,25,1,0
92721,697.674418604651,1,1,0,25,1,0
92725,689.655172413793,1,1,0,25,1,0
92729,681.818181818182,1,1,0,25,1,0
92733,674.157303370787,1,1,0,25,1,0
92737,666.666666666667,1,1,0,25,1,0
92741,659.340659340659,1,1,0,25,1,0
92745,652.173913043478,1,1,0,25,1,0
92749,645.161290322581,1,1,0,25,1,0
92753,638.297872340426,1,1,0,25,1,0
92757,631.578947368421,1,1,0,25,1,0
92761,625,1,1,0,25,1,0
92765,618.556701030928,1,1,0,25,1,0
92769,612.244897959184,1,1,0,25,1,0
92773,606.060606060606,1,1,0,25,1,0
92777,600,1,1,0,25,1,0
92781,594.059405940594,1,1,0,25,1,0
92785,588.235294117647,1,1,0,25,1,0
92789,582.52427184466,1,1,0,25,1,0
92793,576.923076923077,1,1,0,25,1,0
92797,571.428571428571,1,1,0,25,1,0
92801,566.037735849057,1,1,0,25,1,0
92805,560.747663551402,1,1,0,25,1,0
92809,555.555555555556,1,1,0,25,1,0
92813,550.45871559633,1,1,0,25,1,0
92817,545.454545454546,1,1,0,25,1,0
92821,540.540540540541,1,1,0,25,1,0
92825,535.714285714286,1,1,0,25,1,0
92829,530.973451327434,1,1,0,25,1,0
92833,526.315789473684,1,1,0,25,1,0
92837,521.739130434783,1,1,0,25,1,0
92841,517.241379310345,1,1,0,25,1,0
92845,512.820512820513,1,1,0,25,1,0
92849,508.474576271186,1,1,0,25,1,0
92853,504.201680672269,1,1,0,25,1,0
92857,500,1,1,0,25,1,0
92861,495.867768595041,1,1,0,25,1,0
92865,491.803278688525,1,1,0,25,1,0
92869,487.804878048781,1,1,0,25,1,0
92873,483.870967741936,1,1,0,25,1,0
92877,480,1,1,0,25,1,0
92881,476.190476190476,1,1,0,25,1,0
92885,472.44094488189,1,1,0,25,1,0
92889,468.75,1,1,0,25,1,0
92893,465.116279069767,1,1,0,25,1,0
92897,461.538461538462,1,1,0,25,1,0
92901,458.015267175573,1,1,0,25,1,0
92905,454.545454545455,1,1,0,25,1,0
92909,451.127819548872,1,1,0,25,1,0
92913,447.761194029851,1,1,0,25,1,0
92917,444.444444444444,1,1,0,25,1,0
92921,441.176470588235,1,1,0,25,1,0
92925,437.956204379562,1,1,0,25,1,0
92929,434.782608695652,1,1,0,25,1,0
92933,431.654676258993,1,1,0,25,1,0
92937,428.571428571429,1,1,0,25,1,0
92941,425.531914893617,1,1,0,25,1,0
92945,422.535211267606,1,1,0,25,1,0
92949,419.58041958042,1,1,0,25,1,0
92953,416.666666666667,1,1,0,25,1,0
92957,413.793103448276,1,1,0,25,1,0
92961,410.958904109589,1,1,0,25,1,0
92965,408.163265306122,1,1,0,25,1,0
92969,405.405405405405,1,1,0,25,1,0
92973,402.684563758389,1,1,0,25,1,0
92977,400,1,1,0,25,1,0
92981,402.684563758389,1,1,0,25,1,0
92985,405.405405405405,1,1,0,25,1,0
92989,408.163265306122,1,1,0,25,1,0
92993,410.958904109589,1,1,0,25,1,0
92997,413.793103448276,1,1,0,25,1,0
93001,416.666666666667,1,1,0,25,1,0
93005,419.58041958042,1,1,0,25,1,0
93009,422.535211267606,1,1,0,25,1,0
93013,425.531914893617,1,1,0,25,1,0
93017,428.571428571429,1,1,0,25,1,0
93021,431.654676258993,1,1,0,25,1,0
93025,434.782608695652,1,1,0,25,1,0
93029,437.956204379562,1,1,0,25,1,0
93033,441.176470588235,1,1,0,25,1,0
93037,444.444444444444,1,1,0,25,1,0
93041,447.761194029851,1,1,0,25,1,0
93045,451.127819548872,1,1,0,25,1,0
93049,454.545454545455,1,1,0,25,1,0
93053,458.015267175573,1,1,0,25,1,0
93057,461.538461538462,1,1,0,25,1,0
93061,465.116279069767,1,1,0,25,1,0
93065,468.75,1,1,0,25,1,0
93069,472.44094488189,1,1,0,25,1,0
93073,476.190476190476,1,1,0,25,1,0
93077,480,1,1,0,25,1,0
93081,483.870967741936,1,1,0,25,1,0
93085,487.804878048781,1,1,0,25,1,0
93089,491.803278688525,1,1,0,25,1,0
93093,495.867768595041,1,1,0,25,1,0
93097,500,1,1,0,25,1,0
93101,504.201680672269,1,1,0,25,1,0
93105,508.474576271186,1,1,0,25,1,0
93109,512.820512820513,1,1,0,25,1,0
93113,517.241379310345,1,1,0,25,1,0
93117,521.739130434783,1,1,0,25,1,0
93121,526.315789473684,1,1,0,25,1,0
93125,530.973451327434,1,1,0,25,1,0
93129,535.714285714286,1,1,0,25,1,0
93133,540.540540540541,1,1,0,25,1,0
93137,545.454545454546,1,1,0,25,1,0
93141,550.45871559633,1,1,0,25,1,0
93145,555.555555555556,1,1,0,25,1,0
93149,560.747663551402,1,1,0,25,1,0
93153,566.037735849057,1,1,0,25,1,0
93157,571.428571428571,1,1,0,25,1,0
93161,576.923076923077,1,1,0,25,1,0
93165,582.52427184466,1,1,0,25,1,0
93169,588.235294117647,1,1,0,25,1,0
93173,594.059405940594,1,1,0,25,1,0
93177,600,1,1,0,25,1,0
93181,606.060606060606,1,1,0,25,1,0
93185,612.244897959184,1,1,0,25,1,0
93189,618.556701030928,1,1,0,25,1,0
93193,625,1,1,0,25,1,0
93197,631.578947368421,1,1,0,25,1,0
93201,638.297872340426,1,1,0,25,1,0
93205,645.161290322581,1,1,0,25,1,0
93209,652.173913043478,1,1,0,25,1,0
93213,659.340659340659,1,1,0,25,1,0
93217,666.666666666667,1,1,0,25,1,0
93221,674.157303370787,1,1,0,25,1,0
93225,681.818181818182,1,1,0,25,1,0
93229,689.655172413793,1,1,0,25,1,0
93233,697.674418604651,1,1,0,25,1,0
93237,705.882352941177,1,1,0,25,1,0
93241,714.285714285714,1,1,0,25,1,0
93245,722.89156626506,1,1,0,25,1,0
93249,731.707317073171,1,1,0,25,1,0
93253,740.740740740741,1,1,0,25,1,0
93257,750,1,1,0,25,1,0
93261,759.493670886076,1,1,0,25,1,0
93265,769.230769230769,1,1,0,25,1,0
93269,779.220779220779,1,1,0,25,1,0
93273,789.473684210526,1,1,0,25,1,0
93277,800,1,1,0,25,1,0
93281,789.473684210526,1,1,0,25,1,0
93285,779.220779220779,1,1,0,25,1,0
93289,769.230769230769,1,1,0,25,1,0
93293,759.493670886076,1,1,0,25,1,0
93297,750,1,1,0,25,1,0
93301,740.740740740741,1,1,0,25,1,0
93305,731.707317073171,1,1,0,25,1,0
93309,722.89156626506,1,1,0,25,1,0
93313,714.285714285714,1,1,0,25,1,0
93317,705.882352941177,1,1,0,25,1,0
93321,697.674418604651,1,1,0,25,1,0
93325,689.655172413793,1,1,0,25,1,0
93329,681.818181818182,1,1,0,25,1,0
93333,674.157303370787,1,1,0,25,1,0
93337,666.666666666667,1,1,0,25,1,0
93341,659.340659340659,1,1,0,25,1,0
93345,652.173913043478,1,1,0,25,1,0
93349,645.161290322581,1,1,0,25,1,0
93353,638.297872340426,1,1,0,25,1,0
93357,631.578947368421,1,1,0,25,1,0
93361,625,1,1,0,25,1,0
93365,618.556701030928,1,1,0,25,1,0
93369,612.244897959184,1,1,0,25,1,0
93373,606.060606060606,1,1,0,25,1,0
93377,600,1,1,0,25,1,0
93381,594.059405940594,1,1,0,25,1,0
93385,588.235294117647,1,1,0,25,1,0
93389,582.52427184466,1,1,0,25,1,0
93393,576.923076923077,1,1,0,25,1,0
93397,571.428571428571,1,1,0,25,1,0
93401,566.037735849057,1,1,0,25,1,0
93405,560.747663551402,1,1,0,25,1,0
93409,555.555555555556,1,1,0,25,1,0
93413,550.45871559633,1,1,0,25,1,0
93417,545.454545454546,1,1,0,25,1,0
93421,540.540540540541,1,1,0,25,1,0
93425,535.714285714286,1,1,0,25,1,0
93429,530.973451327434,1,1,0,25,1,0
93433,526.315789473684,1,1,0,25,1,0
93437,521.739130434783,1,1,0,25,1,0
93441,517.241379310345,1,1,0,25,1,0
93445,512.820512820513,1,1,0,25,1,0
93449,508.474576271186,1,1,0,25,1,0
93453,504.201680672269,1,1,0,25,1,0
93457,500,1,1,0,25,1,0
93461,495.867768595041,1,1,0,25,1,0
93465,491.803278688525,1,1,0,25,1,0
93469,487.804878048781,1,1,0,25,1,0
93473,483.870967741936,1,1,0,25,1,0
93477,480,1,1,0,25,1,0
93481,476.190476190476,1,1,0,25,1,0
93485,472.44094488189,1,1,0,25,1,0
93489,468.75,1,1,0,25,1,0
93493,465.116279069767,1,1,0,25,1,0
93497,461.538461538462,1,1,0,25,1,0
93501,458.015267175573,1,1,0,25,1,0
93505,454.545454545455,1,1,0,25,1,0
93509,451.127819548872,1,1,0,25,1,0
93513,447.761194029851,1,1,0,25,1,0
93517,444.444444444444,1,1,0,25,1,0
93521,441.176470588235,1,1,0,25,1,0
93525,437.956204379562,1,1,0,25,1,0
93529,434.782608695652,1,1,0,25,1,0
93533,431.654676258993,1,1,0,25,1,0
93537,428.571428571429,1,1,0,25,1,0
93541,425.531914893617,1,1,0,25,1,0
93545,422.535211267606,1,1,0,25,1,0
93549,419.58041958042,1,1,0,25,1,0
93553,416.666666666667,1,1,0,25,1,0
93557,413.793103448276,1,1,0,25,1,0
93561,410.958904109589,1,1,0,25,1,0
93565,408.163265306122,1,1,0,25,1,0
93569,405.405405405405,1,1,0,25,1,0
93573,402.684563758389,1,1,0,25,1,0
93577,400,1,1,0,25,1,0
93581,402.684563758389,1,1,0,25,1,0
93585,405.405405405405,1,1,0,25,1,0
93589,408.163265306122,1,1,0,25,1,0
93593,410.958904109589,1,1,0,25,1,0
93597,413.793103448276,1,1,0,25,1,0
93601,416.666666666667,1,1,0,25,1,0
93605,419.58041958042,1,1,0,25,1,0
93609,422.535211267606,1,1,0,25,1,0
93613,425.531914893617,1,1,0,25,1,0
93617,428.571428571429,1,1,0,25,1,0
93621,431.654676258993,1,1,0,25,1,0
93625,434.782608695652,1,1,0,25,1,0
93629,437.956204379562,1,1,0,25,1,0
93633,441.176470588235,1,1,0,25,1,0
93637,444.444444444444,1,1,0,25,1,0
93641,447.761194029851,1,1,0,25,1,0
93645,451.127819548872,1,1,0,25,1,0
93649,454.545454545455,1,1,0,25,1,0
93653,458.015267175573,1,1,0,25,1,0
93657,461.538461538462,1,1,0,25,1,0
93661,465.116279069767,1,1,0,25,1,0
93665,468.75,1,1,0,25,1,0
93669,472.44094488189,1,1,0,25,1,0
93673,476.190476190476,1,1,0,25,1,0
93677,480,1,1,0,25,1,0
93681,483.870967741936,1,1,0,25,1,0
93685,487.804878048781,1,1,0,25,1,0
93689,491.803278688525,1,1,0,25,1,0
93693,495.867768595041,1,1,0,25,1,0
93697,500,1,1,0,25,1,0
93701,504.201680672269,1,1,0,25,1,0
93705,508.474576271186,1,1,0,25,1,0
93709,512.820512820513,1,1,0,25,1,0
93713,517.241379310345,1,1,0,25,1,0
93717,521.739130434783,1,1,0,25,1,0
93721,526.315789473684,1,1,0,25,1,0
93725,530.973451327434,1,1,0,25,1,0
93729,535.714285714286,1,1,0,25,1,0
93733,540.540540540541,1,1,0,25,1,0
93737,545.454545454546,1,1,0,25,1,0
93741,550.45871559633,1,1,0,25,1,0
93745,555.555555555556,1,1,0,25,1,0
93749,560.747663551402,1,1,0,25,1,0
93753,566.037735849057,1,1,0,25,1,0
93757,571.428571428571,1,1,0,25,1,0
93761,576.923076923077,1,1,0,25,1,0
93765,582.52427184466,1,1,0,25,1,0
93769,588.235294117647,1,1,0,25,1,0
93773,594.059405940594,1,1,0,25,1,0
93777,600,1,1,0,25,1,0
93781,606.060606060606,1,1,0,25,1,0
93785,612.244897959184,1,1,0,25,1,0
93789,618.556701030928,1,1,0,25,1,0
93793,625,1,1,0,25,1,0
93797,631.578947368421,1,1,0,25,1,0
93801,638.297872340426,1,1,0,25,1,0
93805,645.161290322581,1,1,0,25,1,0
93809,652.173913043478,1,1,0,25,1,0
93813,659.340659340659,1,1,0,25,1,0
93817,666.666666666667,1,1,0,25,1,0
93821,674.157303370787,1,1,0,25,1,0
93825,681.818181818182,1,1,0,25,1,0
93829,689.655172413793,1,1,0,25,1,0
93833,697.674418604651,1,1,0,25,1,0
93837,705.882352941177,1,1,0,25,1,0
93841,714.285714285714,1,1,0,25,1,0
93845,722.89156626506,1,1,0,25,1,0
93849,731.707317073171,1,1,0,25,1,0
93853,740.740740740741,1,1,0,25,1,0
93857,750,1,1,0,25,1,0
93861,759.493670886076,1,1,0,25,1,0
93865,769.230769230769,1,1,0,25,1,0
93869,779.220779220779,1,1,0,25,1,0
93873,789.473684210526,1,1,0,25,1,0
93877,800,1,1,0,25,1,0
93881,789.473684210526,1,1,0,25,1,0
93885,779.220779220779,1,1,0,25,1,0
93889,769.230769230769,1,1,0,25,1,0
93893,759.493670886076,1,1,0,25,1,0
93897,750,1,1,0,25,1,0
93901,740.740740740741,1,1,0,25,1,0
93905,731.707317073171,1,1,0,25,1,0
93909,722.89156626506,1,1,0,25,1,0
93913,714.285714285714,1,1,0,25,1,0
93917,705.882352941177,1,1,0,25,1,0
93921,697.674418604651,1,1,0,25,1,0
93925,689.655172413793,1,1,0,25,1,0
93929,681.818181818182,1,1,0,25,1,0
93933,674.157303370787,1,1,0,25,1,0
93937,666.666666666667,1,1,0,25,1,0
93941,659.340659340659,1,1,0,25,1,0
93945,652.173913043478,1,1,0,25,1,0
93949,645.161290322581,1,1,0,25,1,0
93953,638.297872340426,1,1,0,25,1,0
93957,631.578947368421,1,1,0,25,1,0
93961,625,1,1,0,25,1,0
93965,618.556701030928,1,1,0,25,1,0
93969,612.244897959184,1,1,0,25,1,0
93973,606.060606060606,1,1,0,25,1,0
93977,600,1,1,0,25,1,0
93981,594.059405940594,1,1,0,25,1,0
93985,588.235294117647,1,1,0,25,1,0
93989,582.52427184466,1,1,0,25,1,0
93993,576.923076923077,1,1,0,25,1,0
93997,571.428571428571,1,1,0,25,1,0
94001,566.037735849057,1,1,0,25,1,0
94005,560.747663551402,1,1,0,25,1,0
94009,555.555555555556,1,1,0,25,1,0
94013,550.45871559633,1,1,0,25,1,0
94017,545.454545454546,1,1,0,25,1,0
94021,540.540540540541,1,1,0,25,1,0
94025,535.714285714286,1,1,0,25,1,0
94029,530.973451327434,1,1,0,25,1,0
94033,526.315789473684,1,1,0,25,1,0
94037,521.739130434783,1,1,0,25,1,0
94041,517.241379310345,1,1,0,25,1,0
94045,512.820512820513,1,1,0,25,1,0
94049,508.474576271186,1,1,0,25,1,0
94053,504.201680672269,1,1,0,25,1,0
94057,500,1,1,0,25,1,0
94061,495.867768595041,1,1,0,25,1,0
94065,491.803278688525,1,1,0,25,1,0
94069,487.804878048781,1,1,0,25,1,0
94073,483.870967741936,1,1,0,25,1,0
94077,480,1,1,0,25,1,0
94081,476.190476190476,1,1,0,25,1,0
94085,472.44094488189,1,1,0,25,1,0
94089,468.75,1,1,0,25,1,0
94093,465.116279069767,1,1,0,25,1,0
94097,461.538461538462,1,1,0,25,1,0
94101,458.015267175573,1,1,0,25,1,0
94105,454.545454545455,1,1,0,25,1,0
94109,451.127819548872,1,1,0,25,1,0
94113,447.761194029851,1,1,0,25,1,0
94117,444.444444444444,1,1,0,25,1,0
94121,441.176470588235,1,1,0,25,1,0
94125,437.956204379562,1,1,0,25,1,0
94129,434.782608695652,1,1,0,25,1,0
94133,431.654676258993,1,1,0,25,1,0
94137,428.571428571429,1,1,0,25,1,0
94141,425.531914893617,1,1,0,25,1,0
94145,422.535211267606,1,1,0,25,1,0
94149,419.58041958042,1,1,0,25,1,0
94153,416.666666666667,1,1,0,25,1,0
94157,413.793103448276,1,1,0,25,1,0
94161,410.958904109589,1,1,0,25,1,0
94165,408.163265306122,1,1,0,25,1,0
94169,405.405405405405,1,1,0,25,1,0
94173,402.684563758389,1,1,0,25,1,0
94177,400,1,1,0,25,1,0
94181,402.684563758389,1,1,0,25,1,0
94185,405.405405405405,1,1,0,25,1,0
94189,408.163265306122,1,1,0,25,1,0
94193,410.958904109589,1,1,0,25,1,0
94197,413.793103448276,1,1,0,25,1,0
94201,416.666666666667,1,1,0,25,1,0
94205,419.58041958042,1,1,0,25,1,0
94209,422.535211267606,1,1,0,25,1,0
94213,425.531914893617,1,1,0,25,1,0
94217,428.571428571429,1,1,0,25,1,0
94221,431.654676258993,1,1,0,25,1,0
94225,434.782608695652,1,1,0,25,1,0
94229,437.956204379562,1,1,0,25,1,0
94233,441.176470588235,1,1,0,25,1,0
94237,444.444444444444,1,1,0,25,1,0
94241,447.761194029851,1,1,0,25,1,0
94245,451.127819548872,1,1,0,25,1,0
94249,454.545454545455,1,1,0,25,1,0
94253,458.015267175573,1,1,0,25,1,0
94257,461.538461538462,1,1,0,25,1,0
94261,465.116279069767,1,1,0,25,1,0
94265,468.75,1,1,0,25,1,0
94269,472.44094488189,1,1,0,25,1,0
94273,476.190476190476,1,1,0,25,1,0
94277,480,1,1,0,25,1,0
94281,483.870967741936,1,1,0,25,1,0
94285,487.804878048781,1,1,0,25,1,0
94289,491.803278688525,1,1,0,25,1,0
94293,495.867768595041,1,1,0,25,1,0
94297,500,1,1,0,25,1,0
94301,504.201680672269,1,1,0,25,1,0
94305,508.474576271186,1,1,0,25,1,0
94309,512.820512820513,1,1,0,25,1,0
94313,517.241379310345,1,1,0,25,1,0
94317,521.739130434783,1,1,0,25,1,0
94321,526.315789473684,1,1,0,25,1,0
94325,530.973451327434,1,1,0,25,1,0
94329,535.714285714286,1,1,0,25,1,0
94333,540.540540540541,1,1,0,25,1,0
94337,545.454545454546,1,1,0,25,1,0
94341,550.45871559633,1,1,0,25,1,0
94345,555.555555555556,1,1,0,25,1,0
94349,560.747663551402,1,1,0,25,1,0
94353,566.037735849057,1,1,0,25,1,0
94357,571.428571428571,1,1,0,25,1,0
94361,576.923076923077,1,1,0,25,1,0
94365,582.52427184466,1,1,0,25,1,0
94369,588.235294117647,1,1,0,25,1,0
94373,594.059405940594,1,1,0,25,1,0
94377,600,1,1,0,25,1,0
94381,606.060606060606,1,1,0,25,1,0
94385,612.244897959184,1,1,0,25,1,0
94389,618.556701030928,1,1,0,25,1,0
94393,625,1,1,0,25,1,0
94397,631.578947368421,1,1,0,25,1,0
94401,638.297872340426,1,1,0,25,1,0
94405,645.161290322581,1,1,0,25,1,0
94409,652.173913043478,1,1,0,25,1,0
94413,659.340659340659,1,1,0,25,1,0
94417,666.666666666667,1,1,0,25,1,0
94421,674.157303370787,1,1,0,25,1,0
94425,681.818181818182,1,1,0,25,1,0
94429,689.655172413793,1,1,0,25,1,0
94433,697.674418604651,1,1,0,25,1,0
94437,705.882352941177,1,1,0,25,1,0
94441,714.285714285714,1,1,0,25,1,0
94445,722.89156626506,1,1,0,25,1,0
94449,731.707317073171,1,1,0,25,1,0
94453,740.740740740741,1,1,0,25,1,0
94457,750,1,1,0,25,1,0
94461,759.493670886076,1,1,0,25,1,0
94465,769.230769230769,1,1,0,25,1,0
94469,779.220779220779,1,1,0,25,1,0
94473,789.473684210526,1,1,0,25,1,0
94477,800,1,1,0,25,1,0
94481,789.473684210526,1,1,0,25,1,0
94485,779.220779220779,1,1,0,25,1,0
94489,769.230769230769,1,1,0,25,1,0
94493,759.493670886076,1,1,0,25,1,0
94497,750,1,1,0,25,1,0
94501,740.740740740741,1,1,0,25,1,0
94505,731.707317073171,1,1,0,25,1,0
94509,722.89156626506,1,1,0,25,1,0
94513,714.285714285714,1,1,0,25,1,0
94517,705.882352941177,1,1,0,25,1,0
94521,697.674418604651,1,1,0,25,1,0
94525,689.655172413793,1,1,0,25,1,0
94529,681.818181818182,1,1,0,25,1,0
94533,674.157303370787,1,1,0,25,1,0
94537,666.666666666667,1,1,0,25,1,0
94541,659.340659340659,1,1,0,25,1,0
94545,652.173913043478,1,1,0,25,1,0
94549,645.161290322581,1,1,0,25,1,0
94553,638.297872340426,1,1,0,25,1,0
94557,631.578947368421,1,1,0,25,1,0
94561,625,1,1,0,25,1,0
94565,618.556701030928,1,1,0,25,1,0
94569,612.244897959184,1,1,0,25,1,0
94573,606.060606060606,1,1,0,25,1,0
94577,600,1,1,0,25,1,0
94581,594.059405940594,1,1,0,25,1,0
94585,588.235294117647,1,1,0,25,1,0
94589,582.52427184466,1,1,0,25,1,0
94593,576.923076923077,1,1,0,25,1,0
94597,571.428571428571,1,1,0,25,1,0
94601,566.037735849057,1,1,0,25,1,0
94605,560.747663551402,1,1,0,25,1,0
94609,555.555555555556,1,1,0,25,1,0
94613,550.45871559633,1,1,0,25,1,0
94617,545.454545454546,1,1,0,25,1,0
94621,540.540540540541,1,1,0,25,1,0
94625,535.714285714286,1,1,0,25,1,0
94629,530.973451327434,1,1,0,25,1,0
94633,526.315789473684,1,1,0,25,1,0
94637,521.739130434783,1,1,0,25,1,0
94641,517.241379310345,1,1,0,25,1,0
94645,512.820512820513,1,1,0,25,1,0
94649,508.474576271186,1,1,0,25,1,0
94653,504.201680672269,1,1,0,25,1,0
94657,500,1,1,0,25,1,0
94661,495.867768595041,1,1,0,25,1,0
94665,491.803278688525,1,1,0,25,1,0
94669,487.804878048781,1,1,0,25,1,0
94673,483.870967741936,1,1,0,25,1,0
94677,480,1,1,0,25,1,0
94681,476.190476190476,1,1,0,25,1,0
94685,472.44094488189,1,1,0,25,1,0
94689,468.75,1,1,0,25,1,0
94693,465.116279069767,1,1,0,25,1,0
94697,461.538461538462,1,1,0,25,1,0
94701,458.015267175573,1,1,0,25,1,0
94705,454.545454545455,1,1,0,25,1,0
94709,451.127819548872,1,1,0,25,1,0
94713,447.761194029851,1,1,0,25,1,0
94717,444.444444444444,1,1,0,25,1,0
94721,441.176470588235,1,1,0,25,1,0
94725,437.956204379562,1,1,0,25,1,0
94729,434.782608695652,1,1,0,25,1,0
94733,431.654676258993,1,1,0,25,1,0
94737,428.571428571429,1,1,0,25,1,0
94741,425.531914893617,1,1,0,25,1,0
94745,422.535211267606,1,1,0,25,1,0
94749,419.58041958042,1,1,0,25,1,0
94753,416.666666666667,1,1,0,25,1,0
94757,413.793103448276,1,1,0,25,1,0
94761,410.958904109589,1,1,0,25,1,0
94765,408.163265306122,1,1,0,25,1,0
94769,405.405405405405,1,1,0,25,1,0
94773,402.684563758389,1,1,0,25,1,0
94777,400,1,1,0,25,1,0
94781,402.684563758389,1,1,0,25,1,0
94785,405.405405405405,1,1,0,25,1,0
94789,408.163265306122,1,1,0,25,1,0
94793,410.958904109589,1,1,0,25,1,0
94797,413.793103448276,1,1,0,25,1,0
94801,416.666666666667,1,1,0,25,1,0
94805,419.58041958042,1,1,0,25,1,0
94809,422.535211267606,1,1,0,25,1,0
94813,425.531914893617,1,1,0,25,1,0
94817,428.571428571429,1,1,0,25,1,0
94821,431.654676258993,1,1,0,25,1,0
94825,434.782608695652,1,1,0,25,1,0
94829,437.956204379562,1,1,0,25,1,0
94833,441.176470588235,1,1,0,25,1,0
94837,444.444444444444,1,1,0,25,1,0
94841,447.761194029851,1,1,0,25,1,0
94845,451.127819548872,1,1,0,25,1,0
94849,454.545454545455,1,1,0,25,1,0
94853,458.015267175573,1,1,0,25,1,0
94857,461.538461538462,1,1,0,25,1,0
94861,465.116279069767,1,1,0,25,1,0
94865,468.75,1,1,0,25,1,0
94869,472.44094488189,1,1,0,25,1,0
94873,476.190476190476,1,1,0,25,1,0
94877,480,1,1,0,25,1,0
94881,483.870967741936,1,1,0,25,1,0
94885,487.804878048781,1,1,0,25,1,0
94889,491.803278688525,1,1,0,25,1,0
94893,495.867768595041,1,1,0,25,1,0
94897,500,1,1,0,25,1,0
94901,504.201680672269,1,1,0,25,1,0
94905,508.474576271186,1,1,0,25,1,0
94909,512.820512820513,1,1,0,25,1,0
94913,517.241379310345,1,1,0,25,1,0
94917,521.739130434783,1,1,0,25,1,0
94921,526.315789473684,1,1,0,25,1,0
94925,530.973451327434,1,1,0,25,1,0
94929,535.714285714286,1,1,0,25,1,0
94933,540.540540540541,1,1,0,25,1,0
94937,545.454545454546,1,1,0,25,1,0
94941,550.45871559633,1,1,0,25,1,0
94945,555.555555555556,1,1,0,25,1,0
94949,560.747663551402,1,1,0,25,1,0
94953,566.037735849057,1,1,0,25,1,0
94957,571.428571428571,1,1,0,25,1,0
94961,576.923076923077,1,1,0,25,1,0
94965,582.52427184466,1,1,0,25,1,0
94969,588.235294117647,1,1,0,25,1,0
94973,594.059405940594,1,1,0,25,1,0
94977,600,1,1,0,25,1,0
94981,606.060606060606,1,1,0,25,1,0
94985,612.244897959184,1,1,0,25,1,0
94989,618.556701030928,1,1,0,25,1,0
94993,625,1,1,0,25,1,0
94997,631.578947368421,1,1,0,25,1,0
95001,638.297872340426,1,1,0,25,1,0
95005,645.161290322581,1,1,0,25,1,0
95009,652.173913043478,1,1,0,25,1,0
95013,659.340659340659,1,1,0,25,1,0
95017,666.666666666667,1,1,0,25,1,0
95021,674.157303370787,1,1,0,25,1,0
95025,681.818181818182,1,1,0,25,1,0
95029,689.655172413793,1,1,0,25,1,0
95033,697.674418604651,1,1,0,25,1,0
95037,705.882352941177,1,1,0,25,1,0
95041,714.285714285714,1,1,0,25,1,0
95045,722.89156626506,1,1,0,25,1,0
95049,731.707317073171,1,1,0,25,1,0
95053,740.740740740741,1,1,0,25,1,0
95057,750,1,1,0,25,1,0
95061,759.493670886076,1,1,0,25,1,0
95065,769.230769230769,1,1,0,25,1,0
95069,779.220779220779,1,1,0,25,1,0
95073,789.473684210526,1,1,0,25,1,0
95077,800,1,1,0,25,1,0
95081,789.473684210526,1,1,0,25,1,0
95085,779.220779220779,1,1,0,25,1,0
95089,769.230769230769,1,1,0,25,1,0
95093,759.493670886076,1,1,0,25,1,0
95097,750,1,1,0,25,1,0
95101,740.740740740741,1,1,0,25,1,0
95105,731.707317073171,1,1,0,25,1,0
95109,722.89156626506,1,1,0,25,1,0
95113,714.285714285714,1,1,0,25,1,0
95117,705.882352941177,1,1,0,25,1,0
95121,697.674418604651,1,1,0,25,1,0
95125,689.655172413793,1,1,0,25,1,0
95129,681.818181818182,1,1,0,25,1,0
95133,674.157303370787,1,1,0,25,1,0
95137,666.666666666667,1,1,0,25,1,0
95141,659.340659340659,1,1,0,25,1,0
95145,652.173913043478,1,1,0,25,1,0
95149,645.161290322581,1,1,0,25,1,0
95153,638.297872340426,1,1,0,25,1,0
95157,631.578947368421,1,1,0,25,1,0
95161,625,1,1,0,25,1,0
95165,618.556701030928,1,1,0,25,1,0
95169,612.244897959184,1,1,0,25,1,0
95173,606.060606060606,1,1,0,25,1,0
95177,600,1,1,0,25,1,0
95181,594.059405940594,1,1,0,25,1,0
95185,588.235294117647,1,1,0,25,1,0
95189,582.52427184466,1,1,0,25,1,0
95193,576.923076923077,1,1,0,25,1,0
95197,571.428571428571,1,1,0,25,1,0
95201,566.037735849057,1,1,0,25,1,0
95205,560.747663551402,1,1,0,25,1,0
95209,555.555555555556,1,1,0,25,1,0
95213,550.45871559633,1,1,0,25,1,0
95217,545.454545454546,1,1,0,25,1,0
95221,540.540540540541,1,1,0,25,1,0
95225,535.714285714286,1,1,0,25,1,0
95229,530.973451327434,1,1,0,25,1,0
95233,526.315789473684,1,1,0,25,1,0
95237,521.739130434783,1,1,0,25,1,0
95241,517.241379310345,1,1,0,25,1,0
95245,512.820512820513,1,1,0,25,1,0
95249,508.474576271186,1,1,0,25,1,0
95253,504.201680672269,1,1,0,25,1,0
95257,500,1,1,0,25,1,0
95261,495.867768595041,1,1,0,25,1,0
95265,491.803278688525,1,1,0,25,1,0
95269,487.804878048781,1,1,0,25,1,0
95273,483.870967741936,1,1,0,25,1,0
95277,480,1,1,0,25,1,0
95281,476.190476190476,1,1,0,25,1,0
95285,472.44094488189,1,1,0,25,1,0
95289,468.75,1,1,0,25,1,0
95293,465.116279069767,1,1,0,25,1,0
95297,461.538461538462,1,1,0,25,1,0
95301,458.015267175573,1,1,0,25,1,0
95305,454.545454545455,1,1,0,25,1,0
95309,451.127819548872,1,1,0,25,1,0
95313,447.761194029851,1,1,0,25,1,0
95317,444.444444444444,1,1,0,25,1,0
95321,441.176470588235,1,1,0,25,1,0
95325,437.956204379562,1,1,0,25,1,0
95329,434.782608695652,1,1,0,25,1,0
95333,431.654676258993,1,1,0,25,1,0
95337,428.571428571429,1,1,0,25,1,0
95341,425.531914893617,1,1,0,25,1,0
95345,422.535211267606,1,1,0,25,1,0
95349,419.58041958042,1,1,0,25,1,0
95353,416.666666666667,1,1,0,25,1,0
95357,413.793103448276,1,1,0,25,1,0
95361,410.958904109589,1,1,0,25,1,0
95365,408.163265306122,1,1,0,25,1,0
95369,405.405405405405,1,1,0,25,1,0
95373,402.684563758389,1,1,0,25,1,0
95377,400,1,1,0,25,1,0
95381,402.684563758389,1,1,0,25,1,0
95385,405.405405405405,1,1,0,25,1,0
95389,408.163265306122,1,1,0,25,1,0
95393,410.958904109589,1,1,0,25,1,0
95397,413.793103448276,1,1,0,25,1,0
95401,416.666666666667,1,1,0,25,1,0
95405,419.58041958042,1,1,0,25,1,0
95409,422.535211267606,1,1,0,25,1,0
95413,425.531914893617,1,1,0,25,1,0
95417,428.571428571429,1,1,0,25,1,0
95421,431.654676258993,1,1,0,25,1,0
95425,434.782608695652,1,1,0,25,1,0
95429,437.956204379562,1,1,0,25,1,0
95433,441.176470588235,1,1,0,25,1,0
95437,444.444444444444,1,1,0,25,1,0
95441,447.761194029851,1,1,0,25,1,0
95445,451.127819548872,1,1,0,25,1,0
95449,454.545454545455,1,1,0,25,1,0
95453,458.015267175573,1,1,0,25,1,0
95457,461.538461538462,1,1,0,25,1,0
95461,465.116279069767,1,1,0,25,1,0
95465,468.75,1,1,0,25,1,0
95469,472.44094488189,1,1,0,25,1,0
95473,476.190476190476,1,1,0,25,1,0
95477,480,1,1,0,25,1,0
95481,483.870967741936,1,1,0,25,1,0
95485,487.804878048781,1,1,0,25,1,0
95489,491.803278688525,1,1,0,25,1,0
95493,495.867768595041,1,1,0,25,1,0
95497,500,1,1,0,25,1,0
95501,504.201680672269,1,1,0,25,1,0
95505,508.474576271186,1,1,0,25,1,0
95509,512.820512820513,1,1,0,25,1,0
95513,517.241379310345,1,1,0,25,1,0
95517,521.739130434783,1,1,0,25,1,0
95521,526.315789473684,1,1,0,25,1,0
95525,530.973451327434,1,1,0,25,1,0
95529,535.714285714286,1,1,0,25,1,0
95533,540.540540540541,1,1,0,25,1,0
95537,545.454545454546,1,1,0,25,1,0
95541,550.45871559633,1,1,0,25,1,0
95545,555.555555555556,1,1,0,25,1,0
95549,560.747663551402,1,1,0,25,1,0
95553,566.037735849057,1,1,0,25,1,0
95557,571.428571428571,1,1,0,25,1,0
95561,576.923076923077,1,1,0,25,1,0
95565,582.52427184466,1,1,0,25,1,0
95569,588.235294117647,1,1,0,25,1,0
95573,594.059405940594,1,1,0,25,1,0
95577,600,1,1,0,25,1,0
95581,606.060606060606,1,1,0,25,1,0
95585,612.244897959184,1,1,0,25,1,0
95589,618.556701030928,1,1,0,25,1,0
95593,625,1,1,0,25,1,0
95597,631.578947368421,1,1,0,25,1,0
95601,638.297872340426,1,1,0,25,1,0
95605,645.161290322581,1,1,0,25,1,0
95609,652.173913043478,1,1,0,25,1,0
95613,659.340659340659,1,1,0,25,1,0
95617,666.666666666667,1,1,0,25,1,0
95621,674.157303370787,1,1,0,25,1,0
95625,681.818181818182,1,1,0,25,1,0
95629,689.655172413793,1,1,0,25,1,0
95633,697.674418604651,1,1,0,25,1,0
95637,705.882352941177,1,1,0,25,1,0
95641,714.285714285714,1,1,0,25,1,0
95645,722.89156626506,1,1,0,25,1,0
95649,731.707317073171,1,1,0,25,1,0
95653,740.740740740741,1,1,0,25,1,0
95657,750,1,1,0,25,1,0
95661,759.493670886076,1,1,0,25,1,0
95665,769.230769230769,1,1,0,25,1,0
95669,779.220779220779,1,1,0,25,1,0
95673,789.473684210526,1,1,0,25,1,0
95677,800,1,1,0,25,1,0
95681,789.473684210526,1,1,0,25,1,0
95685,779.220779220779,1,1,0,25,1,0
95689,769.230769230769,1,1,0,25,1,0
95693,759.493670886076,1,1,0,25,1,0
95697,750,1,1,0,25,1,0
95701,740.740740740741,1,1,0,25,1,0
95705,731.707317073171,1,1,0,25,1,0
95709,722.89156626506,1,1,0,25,1,0
95713,714.285714285714,1,1,0,25,1,0
95717,705.882352941177,1,1,0,25,1,0
95721,697.674418604651,1,1,0,25,1,0
95725,689.655172413793,1,1,0,25,1,0
95729,681.818181818182,1,1,0,25,1,0
95733,674.157303370787,1,1,0,25,1,0
95737,666.666666666667,1,1,0,25,1,0
95741,659.340659340659,1,1,0,25,1,0
95745,652.173913043478,1,1,0,25,1,0
95749,645.161290322581,1,1,0,25,1,0
95753,638.297872340426,1,1,0,25,1,0
95757,631.578947368421,1,1,0,25,1,0
95761,625,1,1,0,25,1,0
95765,618.556701030928,1,1,0,25,1,0
95769,612.244897959184,1,1,0,25,1,0
95773,606.060606060606,1,1,0,25,1,0
95777,600,1,1,0,25,1,0
95781,594.059405940594,1,1,0,25,1,0
95785,588.235294117647,1,1,0,25,1,0
95789,582.52427184466,1,1,0,25,1,0
95793,576.923076923077,1,1,0,25,1,0
95797,571.428571428571,1,1,0,25,1,0
95801,566.037735849057,1,1,0,25,1,0
95805,560.747663551402,1,1,0,25,1,0
95809,555.555555555556,1,1,0,25,1,0
95813,550.45871559633,1,1,0,25,1,0
95817,545.454545454546,1,1,0,25,1,0
95821,540.540540540541,1,1,0,25,1,0
95825,535.714285714286,1,1,0,25,1,0
95829,530.973451327434,1,1,0,25,1,0
95833,526.315789473684,1,1,0,25,1,0
95837,521.739130434783,1,1,0,25,1,0
95841,517.241379310345,1,1,0,25,1,0
95845,512.820512820513,1,1,0,25,1,0
95849,508.474576271186,1,1,0,25,1,0
95853,504.201680672269,1,1,0,25,1,0
95857,500,1,1,0,25,1,0
95861,495.867768595041,1,1,0,25,1,0
95865,491.803278688525,1,1,0,25,1,0
95869,487.804878048781,1,1,0,25,1,0
95873,483.870967741936,1,1,0,25,1,0
95877,480,1,1,0,25,1,0
95881,476.190476190476,1,1,0,25,1,0
95885,472.44094488189,1,1,0,25,1,0
95889,468.75,1,1,0,25,1,0
95893,465.116279069767,1,1,0,25,1,0
95897,461.538461538462,1,1,0,25,1,0
95901,458.015267175573,1,1,0,25,1,0
95905,454.545454545455,1,1,0,25,1,0
95909,451.127819548872,1,1,0,25,1,0
95913,447.761194029851,1,1,0,25,1,0
95917,444.444444444444,1,1,0,25,1,0
95921,441.176470588235,1,1,0,25,1,0
95925,437.956204379562,1,1,0,25,1,0
95929,434.782608695652,1,1,0,25,1,0
95933,431.654676258993,1,1,0,25,1,0
95937,428.571428571429,1,1,0,25,1,0
95941,425.531914893617,1,1,0,25,1,0
95945,422.535211267606,1,1,0,25,1,0
95949,419.58041958042,1,1,0,25,1,0
95953,416.666666666667,1,1,0,25,1,0
95957,413.793103448276,1,1,0,25,1,0
95961,410.958904109589,1,1,0,25,1,0
95965,408.163265306122,1,1,0,25,1,0
95969,405.405405405405,1,1,0,25,1,0
95973,402.684563758389,1,1,0,25,1,0
95977,400,1,1,0,25,1,0
95981,402.684563758389,1,1,0,25,1,0
95985,405.405405405405,1,1,0,25,1,0
95989,408.163265306122,1,1,0,25,1,0
95993,410.958904109589,1,1,0,25,1,0
95997,413.793103448276,1,1,0,25,1,0
96001,416.666666666667,1,1,0,25,1,0
96005,419.58041958042,1,1,0,25,1,0
96009,422.535211267606,1,1,0,25,1,0
96013,425.531914893617,1,1,0,25,1,0
96017,428.571428571429,1,1,0,25,1,0
96021,431.654676258993,1,1,0,25,1,0
96025,434.782608695652,1,1,0,25,1,0
96029,437.956204379562,1,1,0,25,1,0
96033,441.176470588235,1,1,0,25,1,0
96037,444.444444444444,1,1,0,25,1,0
96041,447.761194029851,1,1,0,25,1,0
96045,451.127819548872,1,1,0,25,1,0
96049,454.545454545455,1,1,0,25,1,0
96053,458.015267175573,1,1,0,25,1,0
96057,461.538461538462,1,1,0,25,1,0
96061,465.116279069767,1,1,0,25,1,0
96065,468.75,1,1,0,25,1,0
96069,472.44094488189,1,1,0,25,1,0
96073,476.190476190476,1,1,0,25,1,0
96077,480,1,1,0,25,1,0
96081,483.870967741936,1,1,0,25,1,0
96085,487.804878048781,1,1,0,25,1,0
96089,491.803278688525,1,1,0,25,1,0
96093,495.867768595041,1,1,0,25,1,0
96097,500,1,1,0,25,1,0
96101,504.201680672269,1,1,0,25,1,0
96105,508.474576271186,1,1,0,25,1,0
96109,512.820512820513,1,1,0,25,1,0
96113,517.241379310345,1,1,0,25,1,0
96117,521.739130434783,1,1,0,25,1,0
96121,526.315789473684,1,1,0,25,1,0
96125,530.973451327434,1,1,0,25,1,0
96129,535.714285714286,1,1,0,25,1,0
96133,540.540540540541,1,1,0,25,1,0
96137,545.454545454546,1,1,0,25,1,0
96141,550.45871559633,1,1,0,25,1,0
96145,555.555555555556,1,1,0,25,1,0
96149,560.747663551402,1,1,0,25,1,0
96153,566.037735849057,1,1,0,25,1,0
96157,571.428571428571,1,1,0,25,1,0
96161,576.923076923077,1,1,0,25,1,0
96165,582.52427184466,1,1,0,25,1,0
96169,588.235294117647,1,1,0,25,1,0
96173,594.059405940594,1,1,0,25,1,0
96177,600,1,1,0,25,1,0
96181,606.060606060606,1,1,0,25,1,0
96185,612.244897959184,1,1,0,25,1,0
96189,618.556701030928,1,1,0,25,1,0
96193,625,1,1,0,25,1,0
96197,631.578947368421,1,1,0,25,1,0
96201,638.297872340426,1,1,0,25,1,0
96205,645.161290322581,1,1,0,25,1,0
96209,652.173913043478,1,1,0,25,1,0
96213,659.340659340659,1,1,0,25,1,0
96217,666.666666666667,1,1,0,25,1,0
96221,674.157303370787,1,1,0,25,1,0
96225,681.818181818182,1,1,0,25,1,0
96229,689.655172413793,1,1,0,25,1,0
96233,697.674418604651,1,1,0,25,1,0
96237,705.882352941177,1,1,0,25,1,0
96241,714.285714285714,1,1,0,25,1,0
96245,722.89156626506,1,1,0,25,1,0
96249,731.707317073171,1,1,0,25,1,0
96253,740.740740740741,1,1,0,25,1,0
96257,750,1,1,0,25,1,0
96261,759.493670886076,1,1,0,25,1,0
96265,769.230769230769,1,1,0,25,1,0
96269,779.220779220779,1,1,0,25,1,0
96273,789.473684210526,1,1,0,25,1,0
96277,800,1,1,0,25,1,0
96281,789.473684210526,1,1,0,25,1,0
96285,779.220779220779,1,1,0,25,1,0
96289,769.230769230769,1,1,0,25,1,0
96293,759.493670886076,1,1,0,25,1,0
96297,750,1,1,0,25,1,0
96301,740.740740740741,1,1,0,25,1,0
96305,731.707317073171,1,1,0,25,1,0
96309,722.89156626506,1,1,0,25,1,0
96313,714.285714285714,1,1,0,25,1,0
96317,705.882352941177,1,1,0,25,1,0
96321,697.674418604651,1,1,0,25,1,0
96325,689.655172413793,1,1,0,25,1,0
96329,681.818181818182,1,1,0,25,1,0
96333,674.157303370787,1,1,0,25,1,0
96337,666.666666666667,1,1,0,25,1,0
96341,659.340659340659,1,1,0,25,1,0
96345,652.173913043478,1,1,0,25,1,0
96349,645.161290322581,1,1,0,25,1,0
96353,638.297872340426,1,1,0,25,1,0
96357,631.578947368421,1,1,0,25,1,0
96361,625,1,1,0,25,1,0
96365,618.556701030928,1,1,0,25,1,0
96369,612.244897959184,1,1,0,25,1,0
96373,606.060606060606,1,1,0,25,1,0
96377,600,1,1,0,25,1,0
96381,594.059405940594,1,1,0,25,1,0
96385,588.235294117647,1,1,0,25,1,0
96389,582.52427184466,1,1,0,25,1,0
96393,576.923076923077,1,1,0,25,1,0
96397,571.428571428571,1,1,0,25,1,0
96401,566.037735849057,1,1,0,25,1,0
96405,560.747663551402,1,1,0,25,1,0
96409,555.555555555556,1,1,0,25,1,0
96413,550.45871559633,1,1,0,25,1,0
96417,545.454545454546,1,1,0,25,1,0
96421,540.540540540541,1,1,0,25,1,0
96425,535.714285714286,1,1,0,25,1,0
96429,530.973451327434,1,1,0,25,1,0
96433,526.315789473684,1,1,0,25,1,0
96437,521.739130434783,1,1,0,25,1,0
96441,517.241379310345,1,1,0,25,1,0
96445,512.820512820513,1,1,0,25,1,0
96449,508.474576271186,1,1,0,25,1,0
96453,504.201680672269,1,1,0,25,1,0
96457,500,1,1,0,25,1,0
96461,495.867768595041,1,1,0,25,1,0
96465,491.803278688525,1,1,0,25,1,0
96469,487.804878048781,1,1,0,25,1,0
96473,483.870967741936,1,1,0,25,1,0
96477,480,1,1,0,25,1,0
96481,476.190476190476,1,1,0,25,1,0
96485,472.44094488189,1,1,0,25,1,0
96489,468.75,1,1,0,25,1,0
96493,465.116279069767,1,1,0,25,1,0
96497,461.538461538462,1,1,0,25,1,0
96501,458.015267175573,1,1,0,25,1,0
96505,454.545454545455,1,1,0,25,1,0
96509,451.127819548872,1,1,0,25,1,0
96513,447.761194029851,1,1,0,25,1,0
96517,444.444444444444,1,1,0,25,1,0
96521,441.176470588235,1,1,0,25,1,0
96525,437.956204379562,1,1,0,25,1,0
96529,434.782608695652,1,1,0,25,1,0
96533,431.654676258993,1,1,0,25,1,0
96537,428.571428571429,1,1,0,25,1,0
96541,425.531914893617,1,1,0,25,1,0
96545,422.535211267606,1,1,0,25,1,0
96549,419.58041958042,1,1,0,25,1,0
96553,416.666666666667,1,1,0,25,1,0
96557,413.793103448276,1,1,0,25,1,0
96561,410.958904109589,1,1,0,25,1,0
96565,408.163265306122,1,1,0,25,1,0
96569,405.405405405405,1,1,0,25,1,0
96573,402.684563758389,1,1,0,25,1,0
96577,400,1,1,0,25,1,0
96581,402.684563758389,1,1,0,25,1,0
96585,405.405405405405,1,1,0,25,1,0
96589,408.163265306122,1,1,0,25,1,0
96593,410.958904109589,1,1,0,25,1,0
96597,413.793103448276,1,1,0,25,1,0
96601,416.666666666667,1,1,0,25,1,0
96605,419.58041958042,1,1,0,25,1,0
96609,422.535211267606,1,1,0,25,1,0
96613,425.531914893617,1,1,0,25,1,0
96617,428.571428571429,1,1,0,25,1,0
96621,431.654676258993,1,1,0,25,1,0
96625,434.782608695652,1,1,0,25,1,0
96629,437.956204379562,1,1,0,25,1,0
96633,441.176470588235,1,1,0,25,1,0
96637,444.444444444444,1,1,0,25,1,0
96641,447.761194029851,1,1,0,25,1,0
96645,451.127819548872,1,1,0,25,1,0
96649,454.545454545455,1,1,0,25,1,0
96653,458.015267175573,1,1,0,25,1,0
96657,461.538461538462,1,1,0,25,1,0
96661,465.116279069767,1,1,0,25,1,0
96665,468.75,1,1,0,25,1,0
96669,472.44094488189,1,1,0,25,1,0
96673,476.190476190476,1,1,0,25,1,0
96677,480,1,1,0,25,1,0
96681,483.870967741936,1,1,0,25,1,0
96685,487.804878048781,1,1,0,25,1,0
96689,491.803278688525,1,1,0,25,1,0
96693,495.867768595041,1,1,0,25,1,0
96697,500,1,1,0,25,1,0
96701,504.201680672269,1,1,0,25,1,0
96705,508.474576271186,1,1,0,25,1,0
96709,512.820512820513,1,1,0,25,1,0
96713,517.241379310345,1,1,0,25,1,0
96717,521.739130434783,1,1,0,25,1,0
96721,526.315789473684,1,1,0,25,1,0
96725,530.973451327434,1,1,0,25,1,0
96729,535.714285714286,1,1,0,25,1,0
96733,540.540540540541,1,1,0,25,1,0
96737,545.454545454546,1,1,0,25,1,0
96741,550.45871559633,1,1,0,25,1,0
96745,555.555555555556,1,1,0,25,1,0
96749,560.747663551402,1,1,0,25,1,0
96753,566.037735849057,1,1,0,25,1,0
96757,571.428571428571,1,1,0,25,1,0
96761,576.923076923077,1,1,0,25,1,0
96765,582.52427184466,1,1,0,25,1,0
96769,588.235294117647,1,1,0,25,1,0
96773,594.059405940594,1,1,0,25,1,0
96777,600,1,1,0,25,1,0
96781,606.060606060606,1,1,0,25,1,0
96785,612.244897959184,1,1,0,25,1,0
96789,618.556701030928,1,1,0,25,1,0
96793,625,1,1,0,25,1,0
96797,631.578947368421,1,1,0,25,1,0
96801,638.297872340426,1,1,0,25,1,0
96805,645.161290322581,1,1,0,25,1,0
96809,652.173913043478,1,1,0,25,1,0
96813,659.340659340659,1,1,0,25,1,0
96817,666.666666666667,1,1,0,25,1,0
96821,674.157303370787,1,1,0,25,1,0
96825,681.818181818182,1,1,0,25,1,0
96829,689.655172413793,1,1,0,25,1,0
96833,697.674418604651,1,1,0,25,1,0
96837,705.882352941177,1,1,0,25,1,0
96841,714.285714285714,1,1,0,25,1,0
96845,722.89156626506,1,1,0,25,1,0
96849,731.707317073171,1,1,0,25,1,0
96853,740.740740740741,1,1,0,25,1,0
96857,750,1,1,0,25,1,0
96861,759.493670886076,1,1,0,25,1,0
96865,769.230769230769,1,1,0,25,1,0
96869,779.220779220779,1,1,0,25,1,0
96873,789.473684210526,1,1,0,25,1,0
96877,800,1,1,0,25,1,0
96881,789.473684210526,1,1,0,25,1,0
96885,779.220779220779,1,1,0,25,1,0
96889,769.230769230769,1,1,0,25,1,0
96893,759.493670886076,1,1,0,25,1,0
96897,750,1,1,0,25,1,0
96901,740.740740740741,1,1,0,25,1,0
96905,731.707317073171,1,1,0,25,1,0
96909,722.89156626506,1,1,0,25,1,0
96913,714.285714285714,1,1,0,25,1,0
96917,705.882352941177,1,1,0,25,1,0
96921,697.674418604651,1,1,0,25,1,0
96925,689.655172413793,1,1,0,25,1,0
96929,681.818181818182,1,1,0,25,1,0
96933,674.157303370787,1,1,0,25,1,0
96937,666.666666666667,1,1,0,25,1,0
96941,659.340659340659,1,1,0,25,1,0
96945,652.173913043478,1,1,0,25,1,0
96949,645.161290322581,1,1,0,25,1,0
96953,638.297872340426,1,1,0,25,1,0
96957,631.578947368421,1,1,0,25,1,0
96961,625,1,1,0,25,1,0
96965,618.556701030928,1,1,0,25,1,0
96969,612.244897959184,1,1,0,25,1,0
96973,606.060606060606,1,1,0,25,1,0
96977,600,1,1,0,25,1,0
96981,594.059405940594,1,1,0,25,1,0
96985,588.235294117647,1,1,0,25,1,0
96989,582.52427184466,1,1,0,25,1,0
96993,576.923076923077,1,1,0,25,1,0
96997,571.428571428571,1,1,0,25,1,0
97001,566.037735849057,1,1,0,25,1,0
97005,560.747663551402,1,1,0,25,1,0
97009,555.555555555556,1,1,0,25,1,0
97013,550.45871559633,1,1,0,25,1,0
97017,545.454545454546,1,1,0,25,1,0
97021,540.540540540541,1,1,0,25,1,0
97025,535.714285714286,1,1,0,25,1,0
97029,530.973451327434,1,1,0,25,1,0
97033,526.315789473684,1,1,0,25,1,0
97037,521.739130434783,1,1,0,25,1,0
97041,517.241379310345,1,1,0,25,1,0
97045,512.820512820513,1,1,0,25,1,0
97049,508.474576271186,1,1,0,25,1,0
97053,504.201680672269,1,1,0,25,1,0
97057,500,1,1,0,25,1,0
97061,495.867768595041,1,1,0,25,1,0
97065,491.803278688525,1,1,0,25,1,0
97069,487.804878048781,1,1,0,25,1,0
97073,483.870967741936,1,1,0,25,1,0
97077,480,1,1,0,25,1,0
97081,476.190476190476,1,1,0,25,1,0
97085,472.44094488189,1,1,0,25,1,0
97089,468.75,1,1,0,25,1,0
97093,465.116279069767,1,1,0,25,1,0
97097,461.538461538462,1,1,0,25,1,0
97101,458.015267175573,1,1,0,25,1,0
97105,454.545454545455,1,1,0,25,1,0
97109,451.127819548872,1,1,0,25,1,0
97113,447.761194029851,1,1,0,25,1,0
97117,444.444444444444,1,1,0,25,1,0
97121,441.176470588235,1,1,0,25,1,0
97125,437.956204379562,1,1,0,25,1,0
97129,434.782608695652,1,1,0,25,1,0
97133,431.654676258993,1,1,0,25,1,0
97137,428.571428571429,1,1,0,25,1,0
97141,425.531914893617,1,1,0,25,1,0
97145,422.535211267606,1,1,0,25,1,0
97149,419.58041958042,1,1,0,25,1,0
97153,416.666666666667,1,1,0,25,1,0
97157,413.793103448276,1,1,0,25,1,0
97161,410.958904109589,1,1,0,25,1,0
97165,408.163265306122,1,1,0,25,1,0
97169,405.405405405405,1,1,0,25,1,0
97173,402.684563758389,1,1,0,25,1,0
97177,400,1,1,0,25,1,0
97181,402.684563758389,1,1,0,25,1,0
97185,405.405405405405,1,1,0,25,1,0
97189,408.163265306122,1,1,0,25,1,0
97193,410.958904109589,1,1,0,25,1,0
97197,413.793103448276,1,1,0,25,1,0
97201,416.666666666667,1,1,0,25,1,0
97205,419.58041958042,1,1,0,25,1,0
97209,422.535211267606,1,1,0,25,1,0
97213,425.531914893617,1,1,0,25,1,0
97217,428.571428571429,1,1,0,25,1,0
97221,431.654676258993,1,1,0,25,1,0
97225,434.782608695652,1,1,0,25,1,0
97229,437.956204379562,1,1,0,25,1,0
97233,441.176470588235,1,1,0,25,1,0
97237,444.444444444444,1,1,0,25,1,0
97241,447.761194029851,1,1,0,25,1,0
97245,451.127819548872,1,1,0,25,1,0
97249,454.545454545455,1,1,0,25,1,0
97253,458.015267175573,1,1,0,25,1,0
97257,461.538461538462,1,1,0,25,1,0
97261,465.116279069767,1,1,0,25,1,0
97265,468.75,1,1,0,25,1,0
97269,472.44094488189,1,1,0,25,1,0
97273,476.190476190476,1,1,0,25,1,0
97277,480,1,1,0,25,1,0
97281,483.870967741936,1,1,0,25,1,0
97285,487.804878048781,1,1,0,25,1,0
97289,491.803278688525,1,1,0,25,1,0
97293,495.867768595041,1,1,0,25,1,0
97297,500,1,1,0,25,1,0
97301,504.201680672269,1,1,0,25,1,0
97305,508.474576271186,1,1,0,25,1,0
97309,512.820512820513,1,1,0,25,1,0
97313,517.241379310345,1,1,0,25,1,0
97317,521.739130434783,1,1,0,25,1,0
97321,526.315789473684,1,1,0,25,1,0
97325,530.973451327434,1,1,0,25,1,0
97329,535.714285714286,1,1,0,25,1,0
97333,540.540540540541,1,1,0,25,1,0
97337,545.454545454546,1,1,0,25,1,0
97341,550.45871559633,1,1,0,25,1,0
97345,555.555555555556,1,1,0,25,1,0
97349,560.747663551402,1,1,0,25,1,0
97353,566.037735849057,1,1,0,25,1,0
97357,571.428571428571,1,1,0,25,1,0
97361,576.923076923077,1,1,0,25,1,0
97365,582.52427184466,1,1,0,25,1,0
97369,588.235294117647,1,1,0,25,1,0
97373,594.059405940594,1,1,0,25,1,0
97377,600,1,1,0,25,1,0
97381,606.060606060606,1,1,0,25,1,0
97385,612.244897959184,1,1,0,25,1,0
97389,618.556701030928,1,1,0,25,1,0
97393,625,1,1,0,25,1,0
97397,631.578947368421,1,1,0,25,1,0
97401,638.297872340426,1,1,0,25,1,0
97405,645.161290322581,1,1,0,25,1,0
97409,652.173913043478,1,1,0,25,1,0
97413,659.340659340659,1,1,0,25,1,0
97417,666.666666666667,1,1,0,25,1,0
97421,674.157303370787,1,1,0,25,1,0
97425,681.818181818182,1,1,0,25,1,0
97429,689.655172413793,1,1,0,25,1,0
97433,697.674418604651,1,1,0,25,1,0
97437,705.882352941177,1,1,0,25,1,0
97441,714.285714285714,1,1,0,25,1,0
97445,722.89156626506,1,1,0,25,1,0
97449,731.707317073171,1,1,0,25,1,0
97453,740.740740740741,1,1,0,25,1,0
97457,750,1,1,0,25,1,0
97461,759.493670886076,1,1,0,25,1,0
97465,769.230769230769,1,1,0,25,1,0
97469,779.220779220779,1,1,0,25,1,0
97473,789.473684210526,1,1,0,25,1,0
97477,800,1,1,0,25,1,0
97481,789.473684210526,1,1,0,25,1,0
97485,779.220779220779,1,1,0,25,1,0
97489,769.230769230769,1,1,0,25,1,0
97493,759.493670886076,1,1,0,25,1,0
97497,750,1,1,0,25,1,0
97501,740.740740740741,1,1,0,25,1,0
97505,731.707317073171,1,1,0,25,1,0
97509,722.89156626506,1,1,0,25,1,0
97513,714.285714285714,1,1,0,25,1,0
97517,705.882352941177,1,1,0,25,1,0
97521,697.674418604651,1,1,0,25,1,0
97525,689.655172413793,1,1,0,25,1,0
97529,681.818181818182,1,1,0,25,1,0
97533,674.157303370787,1,1,0,25,1,0
97537,666.666666666667,1,1,0,25,1,0
97541,659.340659340659,1,1,0,25,1,0
97545,652.173913043478,1,1,0,25,1,0
97549,645.161290322581,1,1,0,25,1,0
97553,638.297872340426,1,1,0,25,1,0
97557,631.578947368421,1,1,0,25,1,0
97561,625,1,1,0,25,1,0
97565,618.556701030928,1,1,0,25,1,0
97569,612.244897959184,1,1,0,25,1,0
97573,606.060606060606,1,1,0,25,1,0
97577,600,1,1,0,25,1,0
97581,594.059405940594,1,1,0,25,1,0
97585,588.235294117647,1,1,0,25,1,0
97589,582.52427184466,1,1,0,25,1,0
97593,576.923076923077,1,1,0,25,1,0
97597,571.428571428571,1,1,0,25,1,0
97601,566.037735849057,1,1,0,25,1,0
97605,560.747663551402,1,1,0,25,1,0
97609,555.555555555556,1,1,0,25,1,0
97613,550.45871559633,1,1,0,25,1,0
97617,545.454545454546,1,1,0,25,1,0
97621,540.540540540541,1,1,0,25,1,0
97625,535.714285714286,1,1,0,25,1,0
97629,530.973451327434,1,1,0,25,1,0
97633,526.315789473684,1,1,0,25,1,0
97637,521.739130434783,1,1,0,25,1,0
97641,517.241379310345,1,1,0,25,1,0
97645,512.820512820513,1,1,0,25,1,0
97649,508.474576271186,1,1,0,25,1,0
97653,504.201680672269,1,1,0,25,1,0
97657,500,1,1,0,25,1,0
97661,495.867768595041,1,1,0,25,1,0
97665,491.803278688525,1,1,0,25,1,0
97669,487.804878048781,1,1,0,25,1,0
97673,483.870967741936,1,1,0,25,1,0
97677,480,1,1,0,25,1,0
97681,476.190476190476,1,1,0,25,1,0
97685,472.44094488189,1,1,0,25,1,0
97689,468.75,1,1,0,25,1,0
97693,465.116279069767,1,1,0,25,1,0
97697,461.538461538462,1,1,0,25,1,0
97701,458.015267175573,1,1,0,25,1,0
97705,454.545454545455,1,1,0,25,1,0
97709,451.127819548872,1,1,0,25,1,0
97713,447.761194029851,1,1,0,25,1,0
97717,444.444444444444,1,1,0,25,1,0
97721,441.176470588235,1,1,0,25,1,0
97725,437.956204379562,1,1,0,25,1,0
97729,434.782608695652,1,1,0,25,1,0
97733,431.654676258993,1,1,0,25,1,0
97737,428.571428571429,1,1,0,25,1,0
97741,425.531914893617,1,1,0,25,1,0
97745,422.535211267606,1,1,0,25,1,0
97749,419.58041958042,1,1,0,25,1,0
97753,416.666666666667,1,1,0,25,1,0
97757,413.793103448276,1,1,0,25,1,0
97761,410.958904109589,1,1,0,25,1,0
97765,408.163265306122,1,1,0,25,1,0
97769,405.405405405405,1,1,0,25,1,0
97773,402.684563758389,1,1,0,25,1,0
97777,400,1,1,0,25,1,0
97781,402.684563758389,1,1,0,25,1,0
97785,405.405405405405,1,1,0,25,1,0
97789,408.163265306122,1,1,0,25,1,0
97793,410.958904109589,1,1,0,25,1,0
97797,413.793103448276,1,1,0,25,1,0
97801,416.666666666667,1,1,0,25,1,0
97805,419.58041958042,1,1,0,25,1,0
97809,422.535211267606,1,1,0,25,1,0
97813,425.531914893617,1,1,0,25,1,0
97817,428.571428571429,1,1,0,25,1,0
97821,431.654676258993,1,1,0,25,1,0
97825,434.782608695652,1,1,0,25,1,0
97829,437.956204379562,1,1,0,25,1,0
97833,441.176470588235,1,1,0,25,1,0
97837,444.444444444444,1,1,0,25,1,0
97841,447.761194029851,1,1,0,25,1,0
97845,451.127819548872,1,1,0,25,1,0
97849,454.545454545455,1,1,0,25,1,0
97853,458.015267175573,1,1,0,25,1,0
97857,461.538461538462,1,1,0,25,1,0
97861,465.116279069767,1,1,0,25,1,0
97865,468.75,1,1,0,25,1,0
97869,472.44094488189,1,1,0,25,1,0
97873,476.190476190476,1,1,0,25,1,0
97877,480,1,1,0,25,1,0
97881,483.870967741936,1,1,0,25,1,0
97885,487.804878048781,1,1,0,25,1,0
97889,491.803278688525,1,1,0,25,1,0
97893,495.867768595041,1,1,0,25,1,0
97897,500,1,1,0,25,1,0
97901,504.201680672269,1,1,0,25,1,0
97905,508.474576271186,1,1,0,25,1,0
97909,512.820512820513,1,1,0,25,1,0
97913,517.241379310345,1,1,0,25,1,0
97917,521.739130434783,1,1,0,25,1,0
97921,526.315789473684,1,1,0,25,1,0
97925,530.973451327434,1,1,0,25,1,0
97929,535.714285714286,1,1,0,25,1,0
97933,540.540540540541,1,1,0,25,1,0
97937,545.454545454546,1,1,0,25,1,0
97941,550.45871559633,1,1,0,25,1,0
97945,555.555555555556,1,1,0,25,1,0
97949,560.747663551402,1,1,0,25,1,0
97953,566.037735849057,1,1,0,25,1,0
97957,571.428571428571,1,1,0,25,1,0
97961,576.923076923077,1,1,0,25,1,0
97965,582.52427184466,1,1,0,25,1,0
97969,588.235294117647,1,1,0,25,1,0
97973,594.059405940594,1,1,0,25,1,0
97977,600,1,1,0,25,1,0
97981,606.060606060606,1,1,0,25,1,0
97985,612.244897959184,1,1,0,25,1,0
97989,618.556701030928,1,1,0,25,1,0
97993,625,1,1,0,25,1,0
97997,631.578947368421,1,1,0,25,1,0
98001,638.297872340426,1,1,0,25,1,0
98005,645.161290322581,1,1,0,25,1,0
98009,652.173913043478,1,1,0,25,1,0
98013,659.340659340659,1,1,0,25,1,0
98017,666.666666666667,1,1,0,25,1,0
98021,674.157303370787,1,1,0,25,1,0
98025,681.818181818182,1,1,0,25,1,0
98029,689.655172413793,1,1,0,25,1,0
98033,697.674418604651,1,1,0,25,1,0
98037,705.882352941177,1,1,0,25,1,0
98041,714.285714285714,1,1,0,25,1,0
98045,722.89156626506,1,1,0,25,1,0
98049,731.707317073171,1,1,0,25,1,0
98053,740.740740740741,1,1,0,25,1,0
98057,750,1,1,0,25,1,0
98061,759.493670886076,1,1,0,25,1,0
98065,769.230769230769,1,1,0,25,1,0
98069,779.220779220779,1,1,0,25,1,0
98073,789.473684210526,1,1,0,25,1,0
98077,800,1,1,0,25,1,0
98081,789.473684210526,1,1,0,25,1,0
98085,779.220779220779,1,1,0,25,1,0
98089,769.230769230769,1,1,0,25,1,0
98093,759.493670886076,1,1,0,25,1,0
98097,750,1,1,0,25,1,0
98101,740.740740740741,1,1,0,25,1,0
98105,731.707317073171,1,1,0,25,1,0
98109,722.89156626506,1,1,0,25,1,0
98113,714.285714285714,1,1,0,25,1,0
98117,705.882352941177,1,1,0,25,1,0
98121,697.674418604651,1,1,0,25,1,0
98125,689.655172413793,1,1,0,25,1,0
98129,681.818181818182,1,1,0,25,1,0
98133,674.157303370787,1,1,0,25,1,0
98137,666.666666666667,1,1,0,25,1,0
98141,659.340659340659,1,1,0,25,1,0
98145,652.173913043478,1,1,0,25,1,0
98149,645.161290322581,1,1,0,25,1,0
98153,638.297872340426,1,1,0,25,1,0
98157,631.578947368421,1,1,0,25,1,0
98161,625,1,1,0,25,1,0
98165,618.556701030928,1,1,0,25,1,0
98169,612.244897959184,1,1,0,25,1,0
98173,606.060606060606,1,1,0,25,1,0
98177,600,1,1,0,25,1,0
98181,594.059405940594,1,1,0,25,1,0
98185,588.235294117647,1,1,0,25,1,0
98189,582.52427184466,1,1,0,25,1,0
98193,576.923076923077,1,1,0,25,1,0
98197,571.428571428571,1,1,0,25,1,0
98201,566.037735849057,1,1,0,25,1,0
98205,560.747663551402,1,1,0,25,1,0
98209,555.555555555556,1,1,0,25,1,0
98213,550.45871559633,1,1,0,25,1,0
98217,545.454545454546,1,1,0,25,1,0
98221,540.540540540541,1,1,0,25,1,0
98225,535.714285714286,1,1,0,25,1,0
98229,530.973451327434,1,1,0,25,1,0
98233,526.315789473684,1,1,0,25,1,0
98237,521.739130434783,1,1,0,25,1,0
98241,517.241379310345,1,1,0,25,1,0
98245,512.820512820513,1,1,0,25,1,0
98249,508.474576271186,1,1,0,25,1,0
98253,504.201680672269,1,1,0,25,1,0
98257,500,1,1,0,25,1,0
98261,495.867768595041,1,1,0,25,1,0
98265,491.803278688525,1,1,0,25,1,0
98269,487.804878048781,1,1,0,25,1,0
98273,483.870967741936,1,1,0,25,1,0
98277,480,1,1,0,25,1,0
98281,476.190476190476,1,1,0,25,1,0
98285,472.44094488189,1,1,0,25,1,0
98289,468.75,1,1,0,25,1,0
98293,465.116279069767,1,1,0,25,1,0
98297,461.538461538462,1,1,0,25,1,0
98301,458.015267175573,1,1,0,25,1,0
98305,454.545454545455,1,1,0,25,1,0
98309,451.127819548872,1,1,0,25,1,0
98313,447.761194029851,1,1,0,25,1,0
98317,444.444444444444,1,1,0,25,1,0
98321,441.176470588235,1,1,0,25,1,0
98325,437.956204379562,1,1,0,25,1,0
98329,434.782608695652,1,1,0,25,1,0
98333,431.654676258993,1,1,0,25,1,0
98337,428.571428571429,1,1,0,25,1,0
98341,425.531914893617,1,1,0,25,1,0
98345,422.535211267606,1,1,0,25,1,0
98349,419.58041958042,1,1,0,25,1,0
98353,416.666666666667,1,1,0,25,1,0
98357,413.793103448276,1,1,0,25,1,0
98361,410.958904109589,1,1,0,25,1,0
98365,408.163265306122,1,1,0,25,1,0
98369,405.405405405405,1,1,0,25,1,0
98373,402.684563758389,1,1,0,25,1,0
98377,400,1,1,0,25,1,0
98381,402.684563758389,1,1,0,25,1,0
98385,405.405405405405,1,1,0,25,1,0
98389,408.163265306122,1,1,0,25,1,0
98393,410.958904109589,1,1,0,25,1,0
98397,413.793103448276,1,1,0,25,1,0
98401,416.666666666667,1,1,0,25,1,0
98405,419.58041958042,1,1,0,25,1,0
98409,422.535211267606,1,1,0,25,1,0
98413,425.531914893617,1,1,0,25,1,0
98417,428.571428571429,1,1,0,25,1,0
98421,431.654676258993,1,1,0,25,1,0
98425,434.782608695652,1,1,0,25,1,0
98429,437.956204379562,1,1,0,25,1,0
98433,441.176470588235,1,1,0,25,1,0
98437,444.444444444444,1,1,0,25,1,0
98441,447.761194029851,1,1,0,25,1,0
98445,451.127819548872,1,1,0,25,1,0
98449,454.545454545455,1,1,0,25,1,0
98453,458.015267175573,1,1,0,25,1,0
98457,461.538461538462,1,1,0,25,1,0
98461,465.116279069767,1,1,0,25,1,0
98465,468.75,1,1,0,25,1,0
98469,472.44094488189,1,1,0,25,1,0
98473,476.190476190476,1,1,0,25,1,0
98477,480,1,1,0,25,1,0
98481,483.870967741936,1,1,0,25,1,0
98485,487.804878048781,1,1,0,25,1,0
98489,491.803278688525,1,1,0,25,1,0
98493,495.867768595041,1,1,0,25,1,0
98497,500,1,1,0,25,1,0
98501,504.201680672269,1,1,0,25,1,0
98505,508.474576271186,1,1,0,25,1,0
98509,512.820512820513,1,1,0,25,1,0
98513,517.241379310345,1,1,0,25,1,0
98517,521.739130434783,1,1,0,25,1,0
98521,526.315789473684,1,1,0,25,1,0
98525,530.973451327434,1,1,0,25,1,0
98529,535.714285714286,1,1,0,25,1,0
98533,540.540540540541,1,1,0,25,1,0
98537,545.454545454546,1,1,0,25,1,0
98541,550.45871559633,1,1,0,25,1,0
98545,555.555555555556,1,1,0,25,1,0
98549,560.747663551402,1,1,0,25,1,0
98553,566.037735849057,1,1,0,25,1,0
98557,571.428571428571,1,1,0,25,1,0
98561,576.923076923077,1,1,0,25,1,0
98565,582.52427184466,1,1,0,25,1,0
98569,588.235294117647,1,1,0,25,1,0
98573,594.059405940594,1,1,0,25,1,0
98577,600,1,1,0,25,1,0
98581,606.060606060606,1,1,0,25,1,0
98585,612.244897959184,1,1,0,25,1,0
98589,618.556701030928,1,1,0,25,1,0
98593,625,1,1,0,25,1,0
98597,631.578947368421,1,1,0,25,1,0
98601,638.297872340426,1,1,0,25,1,0
98605,645.161290322581,1,1,0,25,1,0
98609,652.173913043478,1,1,0,25,1,0
98613,659.340659340659,1,1,0,25,1,0
98617,666.666666666667,1,1,0,25,1,0
98621,674.157303370787,1,1,0,25,1,0
98625,681.818181818182,1,1,0,25,1,0
98629,689.655172413793,1,1,0,25,1,0
98633,697.674418604651,1,1,0,25,1,0
98637,705.882352941177,1,1,0,25,1,0
98641,714.285714285714,1,1,0,25,1,0
98645,722.89156626506,1,1,0,25,1,0
98649,731.707317073171,1,1,0,25,1,0
98653,740.740740740741,1,1,0,25,1,0
98657,750,1,1,0,25,1,0
98661,759.493670886076,1,1,0,25,1,0
98665,769.230769230769,1,1,0,25,1,0
98669,779.220779220779,1,1,0,25,1,0
98673,789.473684210526,1,1,0,25,1,0
98677,800,1,1,0,25,1,0
98681,789.473684210526,1,1,0,25,1,0
98685,779.220779220779,1,1,0,25,1,0
98689,769.230769230769,1,1,0,25,1,0
98693,759.493670886076,1,1,0,25,1,0
98697,750,1,1,0,25,1,0
98701,740.740740740741,1,1,0,25,1,0
98705,731.707317073171,1,1,0,25,1,0
98709,722.89156626506,1,1,0,25,1,0
98713,714.285714285714,1,1,0,25,1,0
98717,705.882352941177,1,1,0,25,1,0
98721,697.674418604651,1,1,0,25,1,0
98725,689.655172413793,1,1,0,25,1,0
98729,681.818181818182,1,1,0,25,1,0
98733,674.157303370787,1,1,0,25,1,0
98737,666.666666666667,1,1,0,25,1,0
98741,659.340659340659,1,1,0,25,1,0
98745,652.173913043478,1,1,0,25,1,0
98749,645.161290322581,1,1,0,25,1,0
98753,638.297872340426,1,1,0,25,1,0
98757,631.578947368421,1,1,0,25,1,0
98761,625,1,1,0,25,1,0
98765,618.556701030928,1,1,0,25,1,0
98769,612.244897959184,1,1,0,25,1,0
98773,606.060606060606,1,1,0,25,1,0
98777,600,1,1,0,25,1,0
98781,594.059405940594,1,1,0,25,1,0
98785,588.235294117647,1,1,0,25,1,0
98789,582.52427184466,1,1,0,25,1,0
98793,576.923076923077,1,1,0,25,1,0
98797,571.428571428571,1,1,0,25,1,0
98801,566.037735849057,1,1,0,25,1,0
98805,560.747663551402,1,1,0,25,1,0
98809,555.555555555556,1,1,0,25,1,0
98813,550.45871559633,1,1,0,25,1,0
98817,545.454545454546,1,1,0,25,1,0
98821,540.540540540541,1,1,0,25,1,0
98825,535.714285714286,1,1,0,25,1,0
98829,530.973451327434,1,1,0,25,1,0
98833,526.315789473684,1,1,0,25,1,0
98837,521.739130434783,1,1,0,25,1,0
98841,517.241379310345,1,1,0,25,1,0
98845,512.820512820513,1,1,0,25,1,0
98849,508.474576271186,1,1,0,25,1,0
98853,504.201680672269,1,1,0,25,1,0
98857,500,1,1,0,25,1,0
98861,495.867768595041,1,1,0,25,1,0
98865,491.803278688525,1,1,0,25,1,0
98869,487.804878048781,1,1,0,25,1,0
98873,483.870967741936,1,1,0,25,1,0
98877,480,1,1,0,25,1,0
98881,476.190476190476,1,1,0,25,1,0
98885,472.44094488189,1,1,0,25,1,0
98889,468.75,1,1,0,25,1,0
98893,465.116279069767,1,1,0,25,1,0
98897,461.538461538462,1,1,0,25,1,0
98901,458.015267175573,1,1,0,25,1,0
98905,454.545454545455,1,1,0,25,1,0
98909,451.127819548872,1,1,0,25,1,0
98913,447.761194029851,1,1,0,25,1,0
98917,444.444444444444,1,1,0,25,1,0
98921,441.176470588235,1,1,0,25,1,0
98925,437.956204379562,1,1,0,25,1,0
98929,434.782608695652,1,1,0,25,1,0
98933,431.654676258993,1,1,0,25,1,0
98937,428.571428571429,1,1,0,25,1,0
98941,425.531914893617,1,1,0,25,1,0
98945,422.535211267606,1,1,0,25,1,0
98949,419.58041958042,1,1,0,25,1,0
98953,416.666666666667,1,1,0,25,1,0
98957,413.793103448276,1,1,0,25,1,0
98961,410.958904109589,1,1,0,25,1,0
98965,408.163265306122,1,1,0,25,1,0
98969,405.405405405405,1,1,0,25,1,0
98973,402.684563758389,1,1,0,25,1,0
98977,400,1,1,0,25,1,0
98981,402.684563758389,1,1,0,25,1,0
98985,405.405405405405,1,1,0,25,1,0
98989,408.163265306122,1,1,0,25,1,0
98993,410.958904109589,1,1,0,25,1,0
98997,413.793103448276,1,1,0,25,1,0
99001,416.666666666667,1,1,0,25,1,0
99005,419.58041958042,1,1,0,25,1,0
99009,422.535211267606,1,1,0,25,1,0
99013,425.531914893617,1,1,0,25,1,0
99017,428.571428571429,1,1,0,25,1,0
99021,431.654676258993,1,1,0,25,1,0
99025,434.782608695652,1,1,0,25,1,0
99029,437.956204379562,1,1,0,25,1,0
99033,441.176470588235,1,1,0,25,1,0
99037,444.444444444444,1,1,0,25,1,0
99041,447.761194029851,1,1,0,25,1,0
99045,451.127819548872,1,1,0,25,1,0
99049,454.545454545455,1,1,0,25,1,0
99053,458.015267175573,1,1,0,25,1,0
99057,461.538461538462,1,1,0,25,1,0
99061,465.116279069767,1,1,0,25,1,0
99065,468.75,1,1,0,25,1,0
99069,472.44094488189,1,1,0,25,1,0
99073,476.190476190476,1,1,0,25,1,0
99077,480,1,1,0,25,1,0
99081,483.870967741936,1,1,0,25,1,0
99085,487.804878048781,1,1,0,25,1,0
99089,491.803278688525,1,1,0,25,1,0
99093,495.867768595041,1,1,0,25,1,0
99097,500,1,1,0,25,1,0
99101,504.201680672269,1,1,0,25,1,0
99105,508.474576271186,1,1,0,25,1,0
99109,512.820512820513,1,1,0,25,1,0
99113,517.241379310345,1,1,0,25,1,0
99117,521.739130434783,1,1,0,25,1,0
99121,526.315789473684,1,1,0,25,1,0
99125,530.973451327434,1,1,0,25,1,0
99129,535.714285714286,1,1,0,25,1,0
99133,540.540540540541,1,1,0,25,1,0
99137,545.454545454546,1,1,0,25,1,0
99141,550.45871559633,1,1,0,25,1,0
99145,555.555555555556,1,1,0,25,1,0
99149,560.747663551402,1,1,0,25,1,0
99153,566.037735849057,1,1,0,25,1,0
99157,571.428571428571,1,1,0,25,1,0
99161,576.923076923077,1,1,0,25,1,0
99165,582.52427184466,1,1,0,25,1,0
99169,588.235294117647,1,1,0,25,1,0
99173,594.059405940594,1,1,0,25,1,0
99177,600,1,1,0,25,1,0
99181,606.060606060606,1,1,0,25,1,0
99185,612.244897959184,1,1,0,25,1,0
99189,618.556701030928,1,1,0,25,1,0
99193,625,1,1,0,25,1,0
99197,631.578947368421,1,1,0,25,1,0
99201,638.297872340426,1,1,0,25,1,0
99205,645.161290322581,1,1,0,25,1,0
99209,652.173913043478,1,1,0,25,1,0
99213,659.340659340659,1,1,0,25,1,0
99217,666.666666666667,1,1,0,25,1,0
99221,674.157303370787,1,1,0,25,1,0
99225,681.818181818182,1,1,0,25,1,0
99229,689.655172413793,1,1,0,25,1,0
99233,697.674418604651,1,1,0,25,1,0
99237,705.882352941177,1,1,0,25,1,0
99241,714.285714285714,1,1,0,25,1,0
99245,722.89156626506,1,1,0,25,1,0
99249,731.707317073171,1,1,0,25,1,0
99253,740.740740740741,1,1,0,25,1,0
99257,750,1,1,0,25,1,0
99261,759.493670886076,1,1,0,25,1,0
99265,769.230769230769,1,1,0,25,1,0
99269,779.220779220779,1,1,0,25,1,0
99273,789.473684210526,1,1,0,25,1,0
99277,800,1,1,0,25,1,0
99281,789.473684210526,1,1,0,25,1,0
99285,779.220779220779,1,1,0,25,1,0
99289,769.230769230769,1,1,0,25,1,0
99293,759.493670886076,1,1,0,25,1,0
99297,750,1,1,0,25,1,0
99301,740.740740740741,1,1,0,25,1,0
99305,731.707317073171,1,1,0,25,1,0
99309,722.89156626506,1,1,0,25,1,0
99313,714.285714285714,1,1,0,25,1,0
99317,705.882352941177,1,1,0,25,1,0
99321,697.674418604651,1,1,0,25,1,0
99325,689.655172413793,1,1,0,25,1,0
99329,681.818181818182,1,1,0,25,1,0
99333,674.157303370787,1,1,0,25,1,0
99337,666.666666666667,1,1,0,25,1,0
99341,659.340659340659,1,1,0,25,1,0
99345,652.173913043478,1,1,0,25,1,0
99349,645.161290322581,1,1,0,25,1,0
99353,638.297872340426,1,1,0,25,1,0
99357,631.578947368421,1,1,0,25,1,0
99361,625,1,1,0,25,1,0
99365,618.556701030928,1,1,0,25,1,0
99369,612.244897959184,1,1,0,25,1,0
99373,606.060606060606,1,1,0,25,1,0
99377,600,1,1,0,25,1,0
99381,594.059405940594,1,1,0,25,1,0
99385,588.235294117647,1,1,0,25,1,0
99389,582.52427184466,1,1,0,25,1,0
99393,576.923076923077,1,1,0,25,1,0
99397,571.428571428571,1,1,0,25,1,0
99401,566.037735849057,1,1,0,25,1,0
99405,560.747663551402,1,1,0,25,1,0
99409,555.555555555556,1,1,0,25,1,0
99413,550.45871559633,1,1,0,25,1,0
99417,545.454545454546,1,1,0,25,1,0
99421,540.540540540541,1,1,0,25,1,0
99425,535.714285714286,1,1,0,25,1,0
99429,530.973451327434,1,1,0,25,1,0
99433,526.315789473684,1,1,0,25,1,0
99437,521.739130434783,1,1,0,25,1,0
99441,517.241379310345,1,1,0,25,1,0
99445,512.820512820513,1,1,0,25,1,0
99449,508.474576271186,1,1,0,25,1,0
99453,504.201680672269,1,1,0,25,1,0
99457,500,1,1,0,25,1,0
99461,495.867768595041,1,1,0,25,1,0
99465,491.803278688525,1,1,0,25,1,0
99469,487.804878048781,1,1,0,25,1,0
99473,483.870967741936,1,1,0,25,1,0
99477,480,1,1,0,25,1,0
99481,476.190476190476,1,1,0,25,1,0
99485,472.44094488189,1,1,0,25,1,0
99489,468.75,1,1,0,25,1,0
99493,465.116279069767,1,1,0,25,1,0
99497,461.538461538462,1,1,0,25,1,0
99501,458.015267175573,1,1,0,25,1,0
99505,454.545454545455,1,1,0,25,1,0
99509,451.127819548872,1,1,0,25,1,0
99513,447.761194029851,1,1,0,25,1,0
99517,444.444444444444,1,1,0,25,1,0
99521,441.176470588235,1,1,0,25,1,0
99525,437.956204379562,1,1,0,25,1,0
99529,434.782608695652,1,1,0,25,1,0
99533,431.654676258993,1,1,0,25,1,0
99537,428.571428571429,1,1,0,25,1,0
99541,425.531914893617,1,1,0,25,1,0
99545,422.535211267606,1,1,0,25,1,0
99549,419.58041958042,1,1,0,25,1,0
99553,416.666666666667,1,1,0,25,1,0
99557,413.793103448276,1,1,0,25,1,0
99561,410.958904109589,1,1,0,25,1,0
99565,408.163265306122,1,1,0,25,1,0
99569,405.405405405405,1,1,0,25,1,0
99573,402.684563758389,1,1,0,25,1,0
99577,400,1,1,0,25,1,0
99581,402.684563758389,1,1,0,25,1,0
99585,405.405405405405,1,1,0,25,1,0
99589,408.163265306122,1,1,0,25,1,0
99593,410.958904109589,1,1,0,25,1,0
99597,413.793103448276,1,1,0,25,1,0
99601,416.666666666667,1,1,0,25,1,0
99605,419.58041958042,1,1,0,25,1,0
99609,422.535211267606,1,1,0,25,1,0
99613,425.531914893617,1,1,0,25,1,0
99617,428.571428571429,1,1,0,25,1,0
99621,431.654676258993,1,1,0,25,1,0
99625,434.782608695652,1,1,0,25,1,0
99629,437.956204379562,1,1,0,25,1,0
99633,441.176470588235,1,1,0,25,1,0
99637,444.444444444444,1,1,0,25,1,0
99641,447.761194029851,1,1,0,25,1,0
99645,451.127819548872,1,1,0,25,1,0
99649,454.545454545455,1,1,0,25,1,0
99653,458.015267175573,1,1,0,25,1,0
99657,461.538461538462,1,1,0,25,1,0
99661,465.116279069767,1,1,0,25,1,0
99665,468.75,1,1,0,25,1,0
99669,472.44094488189,1,1,0,25,1,0
99673,476.190476190476,1,1,0,25,1,0
99677,480,1,1,0,25,1,0
99681,483.870967741936,1,1,0,25,1,0
99685,487.804878048781,1,1,0,25,1,0
99689,491.803278688525,1,1,0,25,1,0
99693,495.867768595041,1,1,0,25,1,0
99697,500,1,1,0,25,1,0
99701,504.201680672269,1,1,0,25,1,0
99705,508.474576271186,1,1,0,25,1,0
99709,512.820512820513,1,1,0,25,1,0
99713,517.241379310345,1,1,0,25,1,0
99717,521.739130434783,1,1,0,25,1,0
99721,526.315789473684,1,1,0,25,1,0
99725,530.973451327434,1,1,0,25,1,0
99729,535.714285714286,1,1,0,25,1,0
99733,540.540540540541,1,1,0,25,1,0
99737,545.454545454546,1,1,0,25,1,0
99741,550.45871559633,1,1,0,25,1,0
99745,555.555555555556,1,1,0,25,1,0
99749,560.747663551402,1,1,0,25,1,0
99753,566.037735849057,1,1,0,25,1,0
99757,571.428571428571,1,1,0,25,1,0
99761,576.923076923077,1,1,0,25,1,0
99765,582.52427184466,1,1,0,25,1,0
99769,588.235294117647,1,1,0,25,1,0
99773,594.059405940594,1,1,0,25,1,0
99777,600,1,1,0,25,1,0
99781,606.060606060606,1,1,0,25,1,0
99785,612.244897959184,1,1,0,25,1,0
99789,618.556701030928,1,1,0,25,1,0
99793,625,1,1,0,25,1,0
99797,631.578947368421,1,1,0,25,1,0
99801,638.297872340426,1,1,0,25,1,0
99805,645.161290322581,1,1,0,25,1,0
99809,652.173913043478,1,1,0,25,1,0
99813,659.340659340659,1,1,0,25,1,0
99817,666.666666666667,1,1,0,25,1,0
99821,674.157303370787,1,1,0,25,1,0
99825,681.818181818182,1,1,0,25,1,0
99829,689.655172413793,1,1,0,25,1,0
99833,697.674418604651,1,1,0,25,1,0
99837,705.882352941177,1,1,0,25,1,0
99841,714.285714285714,1,1,0,25,1,0
99845,722.89156626506,1,1,0,25,1,0
99849,731.707317073171,1,1,0,25,1,0
99853,740.740740740741,1,1,0,25,1,0
99857,750,1,1,0,25,1,0
99861,759.493670886076,1,1,0,25,1,0
99865,769.230769230769,1,1,0,25,1,0
99869,779.220779220779,1,1,0,25,1,0
99873,789.473684210526,1,1,0,25,1,0
99877,800,1,1,0,25,1,0
99881,789.473684210526,1,1,0,25,1,0
99885,779.220779220779,1,1,0,25,1,0
99889,769.230769230769,1,1,0,25,1,0
99893,759.493670886076,1,1,0,25,1,0
99897,750,1,1,0,25,1,0
99901,740.740740740741,1,1,0,25,1,0
99905,731.707317073171,1,1,0,25,1,0
99909,722.89156626506,1,1,0,25,1,0
99913,714.285714285714,1,1,0,25,1,0
99917,705.882352941177,1,1,0,25,1,0
99921,697.674418604651,1,1,0,25,1,0
99925,689.655172413793,1,1,0,25,1,0
99929,681.818181818182,1,1,0,25,1,0
99933,674.157303370787,1,1,0,25,1,0
99937,666.666666666667,1,1,0,25,1,0
99941,659.340659340659,1,1,0,25,1,0
99945,652.173913043478,1,1,0,25,1,0
99949,645.161290322581,1,1,0,25,1,0
99953,638.297872340426,1,1,0,25,1,0
99957,631.578947368421,1,1,0,25,1,0
99961,625,1,1,0,25,1,0
99965,618.556701030928,1,1,0,25,1,0
99969,612.244897959184,1,1,0,25,1,0
99973,606.060606060606,1,1,0,25,1,0
99977,600,1,1,0,25,1,0
99981,594.059405940594,1,1,0,25,1,0
99985,588.235294117647,1,1,0,25,1,0
99989,582.52427184466,1,1,0,25,1,0
99993,576.923076923077,1,1,0,25,1,0
99997,571.428571428571,1,1,0,25,1,0
100001,566.037735849057,1,1,0,25,1,0
100005,560.747663551402,1,1,0,25,1,0
100009,555.555555555556,1,1,0,25,1,0
100013,550.45871559633,1,1,0,25,1,0
100017,545.454545454546,1,1,0,25,1,0
100021,540.540540540541,1,1,0,25,1,0
100025,535.714285714286,1,1,0,25,1,0
100029,530.973451327434,1,1,0,25,1,0
100033,526.315789473684,1,1,0,25,1,0
100037,521.739130434783,1,1,0,25,1,0
100041,517.241379310345,1,1,0,25,1,0
100045,512.820512820513,1,1,0,25,1,0
100049,508.474576271186,1,1,0,25,1,0
100053,504.201680672269,1,1,0,25,1,0
100057,500,1,1,0,25,1,0
100061,495.867768595041,1,1,0,25,1,0
100065,491.803278688525,1,1,0,25,1,0
100069,487.804878048781,1,1,0,25,1,0
100073,483.870967741936,1,1,0,25,1,0
100077,480,1,1,0,25,1,0
100081,476.190476190476,1,1,0,25,1,0
100085,472.44094488189,1,1,0,25,1,0
100089,468.75,1,1,0,25,1,0
100093,465.116279069767,1,1,0,25,1,0
100097,461.538461538462,1,1,0,25,1,0
100101,458.015267175573,1,1,0,25,1,0
100105,454.545454545455,1,1,0,25,1,0
100109,451.127819548872,1,1,0,25,1,0
100113,447.761194029851,1,1,0,25,1,0
100117,444.444444444444,1,1,0,25,1,0
100121,441.176470588235,1,1,0,25,1,0
100125,437.956204379562,1,1,0,25,1,0
100129,434.782608695652,1,1,0,25,1,0
100133,431.654676258993,1,1,0,25,1,0
100137,428.571428571429,1,1,0,25,1,0
100141,425.531914893617,1,1,0,25,1,0
100145,422.535211267606,1,1,0,25,1,0
100149,419.58041958042,1,1,0,25,1,0
100153,416.666666666667,1,1,0,25,1,0
100157,413.793103448276,1,1,0,25,1,0
100161,410.958904109589,1,1,0,25,1,0
100165,408.163265306122,1,1,0,25,1,0
100169,405.405405405405,1,1,0,25,1,0
100173,402.684563758389,1,1,0,25,1,0
100177,1,1,1,0,25,1,0
100179,600,4,1,0,25,1,0
100179,-200,4,1,0,25,0,0
110601,1,1,1,0,25,1,0
110603,6,1,1,0,25,1,0
110603,-1000,1,1,0,25,0,0
110605,6,1,1,0,25,1,0
110605,-1000,1,1,0,25,0,0
110607,6,1,1,0,25,1,0
110607,-1000,1,1,0,25,0,0
110609,6,1,1,0,25,1,0
110609,-1000,1,1,0,25,0,0
110611,6,1,1,0,25,1,0
110611,-1000,1,1,0,25,0,0
110613,6,1,1,0,25,1,0
110613,-1000,1,1,0,25,0,0
110615,6,1,1,0,25,1,0
110615,-1000,1,1,0,25,0,0
110617,6,1,1,0,25,1,0
110617,-1000,1,1,0,25,0,0
110619,6,1,1,0,25,1,0
110619,-1000,1,1,0,25,0,0
110621,6,1,1,0,25,1,0
110621,-1000,1,1,0,25,0,0
110623,6,1,1,0,25,1,0
110623,-1000,1,1,0,25,0,0
110625,6,1,1,0,25,1,0
110625,-1000,1,1,0,25,0,0
110627,6,1,1,0,25,1,0
110627,-1000,1,1,0,25,0,0
110629,6,1,1,0,25,1,0
110629,-1000,1,1,0,25,0,0
110631,6,1,1,0,25,1,0
110631,-1000,1,1,0,25,0,0
110633,6,1,1,0,25,1,0
110633,-1000,1,1,0,25,0,0
110635,6,1,1,0,25,1,0
110635,-1000,1,1,0,25,0,0
110637,6,1,1,0,25,1,0
110637,-1000,1,1,0,25,0,0
110639,6,1,1,0,25,1,0
110639,-1000,1,1,0,25,0,0
110641,6,1,1,0,25,1,0
110641,-1000,1,1,0,25,0,0
110643,6,1,1,0,25,1,0
110643,-1000,1,1,0,25,0,0
110645,6,1,1,0,25,1,0
110645,-1000,1,1,0,25,0,0
110647,6,1,1,0,25,1,0
110647,-1000,1,1,0,25,0,0
110649,6,1,1,0,25,1,0
110649,-1000,1,1,0,25,0,0
110651,6,1,1,0,25,1,0
110651,-1000,1,1,0,25,0,0
110653,6,1,1,0,25,1,0
110653,-1000,1,1,0,25,0,0
110655,6,1,1,0,25,1,0
110655,-1000,1,1,0,25,0,0
110657,6,1,1,0,25,1,0
110657,-1000,1,1,0,25,0,0
110659,6,1,1,0,25,1,0
110659,-1000,1,1,0,25,0,0
110661,6,1,1,0,25,1,0
110661,-1000,1,1,0,25,0,0
110663,6,1,1,0,25,1,0
110663,-1000,1,1,0,25,0,0
110665,6,1,1,0,25,1,0
110665,-1000,1,1,0,25,0,0
110667,6,1,1,0,25,1,0
110667,-1000,1,1,0,25,0,0
110669,6,1,1,0,25,1,0
110669,-1000,1,1,0,25,0,0
110671,6,1,1,0,25,1,0
110671,-1000,1,1,0,25,0,0
110673,6,1,1,0,25,1,0
110673,-1000,1,1,0,25,0,0
110675,6,1,1,0,25,1,0
110675,-1000,1,1,0,25,0,0
110677,6,1,1,0,25,1,0
110677,-1000,1,1,0,25,0,0
110679,6,1,1,0,25,1,0
110679,-1000,1,1,0,25,0,0
110681,6,1,1,0,25,1,0
110681,-1000,1,1,0,25,0,0
110683,6,1,1,0,25,1,0
110683,-1000,1,1,0,25,0,0
110685,6,1,1,0,25,1,0
110685,-1000,1,1,0,25,0,0
110687,6,1,1,0,25,1,0
110687,-1000,1,1,0,25,0,0
110689,6,1,1,0,25,1,0
110689,-1000,1,1,0,25,0,0
110691,6,1,1,0,25,1,0
110691,-1000,1,1,0,25,0,0
110693,6,1,1,0,25,1,0
110693,-1000,1,1,0,25,0,0
110695,6,1,1,0,25,1,0
110695,-1000,1,1,0,25,0,0
110697,6,1,1,0,25,1,0
110697,-1000,1,1,0,25,0,0
110699,6,1,1,0,25,1,0
110699,-1000,1,1,0,25,0,0
110701,6,1,1,0,25,1,0
110701,-1000,1,1,0,25,0,0
110703,6,1,1,0,25,1,0
110703,-1000,1,1,0,25,0,0
110705,6,1,1,0,25,1,0
110705,-1000,1,1,0,25,0,0
110707,6,1,1,0,25,1,0
110707,-1000,1,1,0,25,0,0
110709,6,1,1,0,25,1,0
110709,-1000,1,1,0,25,0,0
110711,6,1,1,0,25,1,0
110711,-1000,1,1,0,25,0,0
110713,6,1,1,0,25,1,0
110713,-1000,1,1,0,25,0,0
110715,6,1,1,0,25,1,0
110715,-1000,1,1,0,25,0,0
110717,6,1,1,0,25,1,0
110717,-1000,1,1,0,25,0,0
110719,6,1,1,0,25,1,0
110719,-1000,1,1,0,25,0,0
110721,6,1,1,0,25,1,0
110721,-1000,1,1,0,25,0,0
110723,6,1,1,0,25,1,0
110723,-1000,1,1,0,25,0,0
110725,6,1,1,0,25,1,0
110725,-1000,1,1,0,25,0,0
110727,6,1,1,0,25,1,0
110727,-1000,1,1,0,25,0,0
110729,6,1,1,0,25,1,0
110729,-1000,1,1,0,25,0,0
110731,6,1,1,0,25,1,0
110731,-1000,1,1,0,25,0,0
110733,6,1,1,0,25,1,0
110733,-1000,1,1,0,25,0,0
110735,6,1,1,0,25,1,0
110735,-1000,1,1,0,25,0,0
110737,6,1,1,0,25,1,0
110737,-1000,1,1,0,25,0,0
110739,6,1,1,0,25,1,0
110739,-1000,1,1,0,25,0,0
110741,6,1,1,0,25,1,0
110741,-1000,1,1,0,25,0,0
110743,6,1,1,0,25,1,0
110743,-1000,1,1,0,25,0,0
110745,6,1,1,0,25,1,0
110745,-1000,1,1,0,25,0,0
110747,6,1,1,0,25,1,0
110747,-1000,1,1,0,25,0,0
110749,6,1,1,0,25,1,0
110749,-1000,1,1,0,25,0,0
110751,6,1,1,0,25,1,0
110751,-1000,1,1,0,25,0,0
110753,6,1,1,0,25,1,0
110753,-1000,1,1,0,25,0,0
110755,6,1,1,0,25,1,0
110755,-1000,1,1,0,25,0,0
110757,6,1,1,0,25,1,0
110757,-1000,1,1,0,25,0,0
110759,6,1,1,0,25,1,0
110759,-1000,1,1,0,25,0,0
110761,6,1,1,0,25,1,0
110761,-1000,1,1,0,25,0,0
110763,6,1,1,0,25,1,0
110763,-1000,1,1,0,25,0,0
110765,6,1,1,0,25,1,0
110765,-1000,1,1,0,25,0,0
110767,6,1,1,0,25,1,0
110767,-1000,1,1,0,25,0,0
110769,6,1,1,0,25,1,0
110769,-1000,1,1,0,25,0,0
110771,6,1,1,0,25,1,0
110771,-1000,1,1,0,25,0,0
110773,6,1,1,0,25,1,0
110773,-1000,1,1,0,25,0,0
110775,6,1,1,0,25,1,0
110775,-1000,1,1,0,25,0,0
110777,6,1,1,0,25,1,0
110777,-1000,1,1,0,25,0,0
110779,6,1,1,0,25,1,0
110779,-1000,1,1,0,25,0,0
110781,6,1,1,0,25,1,0
110781,-1000,1,1,0,25,0,0
110783,6,1,1,0,25,1,0
110783,-1000,1,1,0,25,0,0
110785,6,1,1,0,25,1,0
110785,-1000,1,1,0,25,0,0
110787,6,1,1,0,25,1,0
110787,-1000,1,1,0,25,0,0
110789,6,1,1,0,25,1,0
110789,-1000,1,1,0,25,0,0
110791,6,1,1,0,25,1,0
110791,-1000,1,1,0,25,0,0
110793,6,1,1,0,25,1,0
110793,-1000,1,1,0,25,0,0
110795,6,1,1,0,25,1,0
110795,-1000,1,1,0,25,0,0
110797,6,1,1,0,25,1,0
110797,-1000,1,1,0,25,0,0
110799,6,1,1,0,25,1,0
110799,-1000,1,1,0,25,0,0
110801,6,1,1,0,25,1,0
110801,-1000,1,1,0,25,0,0
110803,6,1,1,0,25,1,0
110803,-1000,1,1,0,25,0,0
110805,6,1,1,0,25,1,0
110805,-1000,1,1,0,25,0,0
110807,6,1,1,0,25,1,0
110807,-1000,1,1,0,25,0,0
110809,6,1,1,0,25,1,0
110809,-1000,1,1,0,25,0,0
110811,6,1,1,0,25,1,0
110811,-1000,1,1,0,25,0,0
110813,6,1,1,0,25,1,0
110813,-1000,1,1,0,25,0,0
110815,6,1,1,0,25,1,0
110815,-1000,1,1,0,25,0,0
110817,6,1,1,0,25,1,0
110817,-1000,1,1,0,25,0,0
110819,6,1,1,0,25,1,0
110819,-1000,1,1,0,25,0,0
110821,6,1,1,0,25,1,0
110821,-1000,1,1,0,25,0,0
110823,6,1,1,0,25,1,0
110823,-1000,1,1,0,25,0,0
110825,6,1,1,0,25,1,0
110825,-1000,1,1,0,25,0,0
110827,600,4,1,0,25,1,0
110827,-100,4,1,0,25,0,0
110836,-99.009900990099,4,1,0,25,0,0
110845,-98.0392156862745,4,1,0,25,0,0
110854,-97.0873786407767,4,1,0,25,0,0
110863,-96.1538461538462,4,1,0,25,0,0
110872,-95.2380952380952,4,1,0,25,0,0
110881,-94.3396226415094,4,1,0,25,0,0
110890,-93.4579439252336,4,1,0,25,0,0
110899,-92.5925925925926,4,1,0,25,0,0
110908,-91.743119266055,4,1,0,25,0,0
110917,-90.9090909090909,4,1,0,25,0,0
110926,-90.0900900900901,4,1,0,25,0,0
110935,-89.2857142857143,4,1,0,25,0,0
110944,-88.495575221239,4,1,0,25,0,0
110953,-87.719298245614,4,1,0,25,0,0
110962,-86.9565217391304,4,1,0,25,0,0
110971,-86.2068965517241,4,1,0,25,0,0
110980,-85.4700854700855,4,1,0,25,0,0
110989,-84.7457627118644,4,1,0,25,0,0
110998,-84.0336134453782,4,1,0,25,0,0
111007,-83.3333333333333,4,1,0,25,0,0
111016,-82.6446280991736,4,1,0,25,0,0
111025,-81.9672131147541,4,1,0,25,0,0
111034,-81.3008130081301,4,1,0,25,0,0
111043,-80.6451612903226,4,1,0,25,0,0
111052,-80,4,1,0,25,0,0
111061,-79.3650793650794,4,1,0,25,0,0
111070,-78.740157480315,4,1,0,25,0,0
111079,-78.125,4,1,0,25,0,0
111088,-77.5193798449612,4,1,0,25,0,0
111097,-76.9230769230769,4,1,0,25,0,0
111106,-76.3358778625954,4,1,0,25,0,0
111115,-75.7575757575758,4,1,0,25,0,0
111124,-75.187969924812,4,1,0,25,0,0
111133,-74.6268656716418,4,1,0,25,0,0
111142,-74.0740740740741,4,1,0,25,0,0
111151,-73.5294117647059,4,1,0,25,0,0
111160,-72.992700729927,4,1,0,25,0,0
111169,-72.463768115942,4,1,0,25,0,0
111178,-71.9424460431655,4,1,0,25,0,0
111187,-71.4285714285714,4,1,0,25,0,0
111196,-70.9219858156028,4,1,0,25,0,0
111205,-70.4225352112676,4,1,0,25,0,0
111214,-69.9300699300699,4,1,0,25,0,0
111223,-69.4444444444444,4,1,0,25,0,0
111232,-68.9655172413793,4,1,0,25,0,0
111241,-68.4931506849315,4,1,0,25,0,0
111250,-68.0272108843538,4,1,0,25,0,0
111259,-67.5675675675676,4,1,0,25,0,0
111268,-67.1140939597316,4,1,0,25,0,0
111277,-66.6666666666667,4,1,0,25,0,0

[HitObjects]
448,192,3577,5,0,0:0:0:0:
64,192,3577,1,0,0:0:0:0:
320,192,3727,1,0,0:0:0:0:
448,192,3877,1,0,0:0:0:0:
192,192,3877,1,0,0:0:0:0:
320,192,4027,1,0,0:0:0:0:
192,192,4177,1,0,0:0:0:0:
64,192,4177,1,0,0:0:0:0:
320,192,4327,1,0,0:0:0:0:
192,192,4477,1,0,0:0:0:0:
448,192,4477,1,0,0:0:0:0:
320,192,4627,1,0,0:0:0:0:
64,192,4777,1,0,0:0:0:0:
448,192,4777,1,0,0:0:0:0:
192,192,4927,1,0,0:0:0:0:
64,192,5077,1,0,0:0:0:0:
320,192,5077,1,0,0:0:0:0:
192,192,5227,1,0,0:0:0:0:
320,192,5227,1,0,0:0:0:0:
448,192,5377,1,0,0:0:0:0:
64,192,5377,1,0,0:0:0:0:
320,192,5527,1,0,0:0:0:0:
448,192,5677,1,0,0:0:0:0:
192,192,5677,1,0,0:0:0:0:
320,192,5827,1,0,0:0:0:0:
192,192,5977,1,0,0:0:0:0:
448,192,5977,1,0,0:0:0:0:
64,192,6127,1,0,0:0:0:0:
192,192,6277,1,0,0:0:0:0:
320,192,6277,1,0,0:0:0:0:
64,192,6427,1,0,0:0:0:0:
320,192,6577,1,0,0:0:0:0:
192,192,6577,1,0,0:0:0:0:
448,192,6727,1,0,0:0:0:0:
320,192,6877,1,0,0:0:0:0:
64,192,6877,1,0,0:0:0:0:
448,192,7027,1,0,0:0:0:0:
192,192,7177,1,0,0:0:0:0:
64,192,7177,1,0,0:0:0:0:
320,192,7327,1,0,0:0:0:0:
192,192,7477,1,0,0:0:0:0:
448,192,7477,1,0,0:0:0:0:
320,192,7627,1,0,0:0:0:0:
448,192,7627,1,0,0:0:0:0:
192,192,7777,1,0,0:0:0:0:
448,192,7777,1,0,0:0:0:0:
64,192,7927,1,0,0:0:0:0:
192,192,8077,1,0,0:0:0:0:
448,192,8077,1,0,0:0:0:0:
64,192,8227,1,0,0:0:0:0:
320,192,8377,1,0,0:0:0:0:
448,192,8377,1,0,0:0:0:0:
448,192,8677,1,0,0:0:0:0:
64,192,8677,1,0,0:0:0:0:
320,192,8977,1,0,0:0:0:0:
192,192,8977,1,0,0:0:0:0:
64,192,9277,1,0,0:0:0:0:
320,192,9277,1,0,0:0:0:0:
448,192,9577,1,0,0:0:0:0:
192,192,9577,1,0,0:0:0:0:
320,192,9727,1,0,0:0:0:0:
64,192,9877,1,0,0:0:0:0:
192,192,9877,1,0,0:0:0:0:
64,192,10027,1,0,0:0:0:0:
320,192,10177,1,0,0:0:0:0:
448,192,10177,1,0,0:0:0:0:
64,192,10477,1,0,0:0:0:0:
448,192,10477,1,0,0:0:0:0:
192,192,10627,1,0,0:0:0:0:
320,192,10777,1,0,0:0:0:0:
64,192,10777,1,0,0:0:0:0:
448,192,11077,1,0,0:0:0:0:
192,192,11077,1,0,0:0:0:0:
64,192,11227,1,0,0:0:0:0:
320,192,11377,1,0,0:0:0:0:
448,192,11377,1,0,0:0:0:0:
320,192,11677,1,0,0:0:0:0:
64,192,11677,1,0,0:0:0:0:
64,192,11977,1,0,0:0:0:0:
192,192,11977,1,0,0:0:0:0:
192,192,12277,1,0,0:0:0:0:
320,192,12277,1,0,0:0:0:0:
320,192,12427,1,0,0:0:0:0:
448,192,12577,1,0,0:0:0:0:
64,192,12577,1,0,0:0:0:0:
192,192,12877,1,0,0:0:0:0:
320,192,12877,1,0,0:0:0:0:
320,192,13177,1,0,0:0:0:0:
448,192,13177,1,0,0:0:0:0:
320,192,13477,1,0,0:0:0:0:
64,192,13477,1,0,0:0:0:0:
64,192,13777,1,0,0:0:0:0:
448,192,13777,1,0,0:0:0:0:
192,192,14077,1,0,0:0:0:0:
320,192,14077,1,0,0:0:0:0:
448,192,14377,1,0,0:0:0:0:
64,192,14377,1,0,0:0:0:0:
192,192,14527,1,0,0:0:0:0:
320,192,14677,1,0,0:0:0:0:
448,192,14677,1,0,0:0:0:0:
448,192,14827,1,0,0:0:0:0:
192,192,14977,1,0,0:0:0:0:
64,192,14977,1,0,0:0:0:0:
448,192,15277,1,0,0:0:0:0:
64,192,15277,1,0,0:0:0:0:
192,192,15427,1,0,0:0:0:0:
320,192,15577,1,0,0:0:0:0:
448,192,15577,1,0,0:0:0:0:
192,192,15877,1,0,0:0:0:0:
64,192,15877,1,0,0:0:0:0:
320,192,16027,1,0,0:0:0:0:
448,192,16177,1,0,0:0:0:0:
192,192,16177,1,0,0:0:0:0:
320,192,16477,1,0,0:0:0:0:
64,192,16477,1,0,0:0:0:0:
192,192,16777,1,0,0:0:0:0:
448,192,16777,1,0,0:0:0:0:
320,192,17077,1,0,0:0:0:0:
192,192,17077,1,0,0:0:0:0:
192,192,17227,1,0,0:0:0:0:
64,192,17377,1,0,0:0:0:0:
448,192,17377,1,0,0:0:0:0:
320,192,17677,1,0,0:0:0:0:
320,192,17827,1,0,0:0:0:0:
192,192,17977,1,0,0:0:0:0:
64,192,17977,1,0,0:0:0:0:
448,192,17977,1,0,0:0:0:0:
320,192,18277,1,0,0:0:0:0:
64,192,18277,1,0,0:0:0:0:
192,192,18427,1,0,0:0:0:0:
64,192,18577,1,0,0:0:0:0:
448,192,18577,1,0,0:0:0:0:
320,192,18877,1,0,0:0:0:0:
192,192,18877,1,0,0:0:0:0:
320,192,19177,1,0,0:0:0:0:
64,192,19177,1,0,0:0:0:0:
448,192,19327,1,0,0:0:0:0:
192,192,19477,1,0,0:0:0:0:
64,192,19477,1,0,0:0:0:0:
448,192,19627,1,0,0:0:0:0:
64,192,19627,1,0,0:0:0:0:
320,192,19777,1,0,0:0:0:0:
192,192,19777,1,0,0:0:0:0:
320,192,20077,1,0,0:0:0:0:
448,192,20077,1,0,0:0:0:0:
64,192,20377,1,0,0:0:0:0:
320,192,20377,1,0,0:0:0:0:
64,192,20677,1,0,0:0:0:0:
192,192,20677,1,0,0:0:0:0:
320,192,20827,1,0,0:0:0:0:
192,192,20977,1,0,0:0:0:0:
448,192,20977,1,0,0:0:0:0:
320,192,21277,1,0,0:0:0:0:
448,192,21277,1,0,0:0:0:0:
192,192,21577,1,0,0:0:0:0:
64,192,21577,1,0,0:0:0:0:
192,192,21877,1,0,0:0:0:0:
320,192,21877,1,0,0:0:0:0:
192,192,22027,1,0,0:0:0:0:
320,192,22177,1,0,0:0:0:0:
448,192,22177,1,0,0:0:0:0:
64,192,22477,1,0,0:0:0:0:
448,192,22477,1,0,0:0:0:0:
192,192,22777,1,0,0:0:0:0:
320,192,22777,1,0,0:0:0:0:
448,192,23077,1,0,0:0:0:0:
64,192,23077,1,0,0:0:0:0:
320,192,23227,1,0,0:0:0:0:
192,192,23377,1,0,0:0:0:0:
64,192,23377,1,0,0:0:0:0:
192,192,23677,1,0,0:0:0:0:
448,192,23677,1,0,0:0:0:0:
64,192,23977,1,0,0:0:0:0:
320,192,23977,1,0,0:0:0:0:
192,192,24127,1,0,0:0:0:0:
64,192,24277,1,0,0:0:0:0:
448,192,24277,1,0,0:0:0:0:
192,192,24427,1,0,0:0:0:0:
448,192,24427,1,0,0:0:0:0:
64,192,24577,1,0,0:0:0:0:
320,192,24577,1,0,0:0:0:0:
192,192,24877,1,0,0:0:0:0:
64,192,24877,1,0,0:0:0:0:
320,192,25027,1,0,0:0:0:0:
448,192,25177,1,0,0:0:0:0:
192,192,25177,1,0,0:0:0:0:
320,192,25477,1,0,0:0:0:0:
64,192,25477,1,0,0:0:0:0:
192,192,25627,1,0,0:0:0:0:
64,192,25777,1,0,0:0:0:0:
448,192,25777,1,0,0:0:0:0:
192,192,26077,1,0,0:0:0:0:
448,192,26077,1,0,0:0:0:0:
320,192,26377,1,0,0:0:0:0:
64,192,26377,1,0,0:0:0:0:
192,192,26677,1,0,0:0:0:0:
448,192,26677,1,0,0:0:0:0:
448,192,26977,1,0,0:0:0:0:
64,192,26977,1,0,0:0:0:0:
320,192,27277,1,0,0:0:0:0:
320,192,27427,1,0,0:0:0:0:
448,192,27577,1,0,0:0:0:0:
192,192,27577,1,0,0:0:0:0:
64,192,27577,1,0,0:0:0:0:
320,192,27877,1,0,0:0:0:0:
448,192,27877,1,0,0:0:0:0:
320,192,28027,1,0,0:0:0:0:
192,192,28177,1,0,0:0:0:0:
64,192,28177,1,0,0:0:0:0:
448,192,28477,1,0,0:0:0:0:
64,192,28477,1,0,0:0:0:0:
192,192,28777,1,0,0:0:0:0:
64,192,28777,1,0,0:0:0:0:
320,192,28927,1,0,0:0:0:0:
192,192,28927,1,0,0:0:0:0:
320,192,29077,1,0,0:0:0:0:
448,192,29077,1,0,0:0:0:0:
320,192,29227,1,0,0:0:0:0:
192,192,29227,1,0,0:0:0:0:
192,192,29377,1,0,0:0:0:0:
64,192,29377,1,0,0:0:0:0:
448,192,29677,1,0,0:0:0:0:
320,192,29677,1,0,0:0:0:0:
320,192,29827,1,0,0:0:0:0:
192,192,29827,1,0,0:0:0:0:
192,192,29977,1,0,0:0:0:0:
64,192,29977,1,0,0:0:0:0:
448,192,30277,1,0,0:0:0:0:
320,192,30277,1,0,0:0:0:0:
320,192,30427,1,0,0:0:0:0:
192,192,30427,1,0,0:0:0:0:
192,192,30577,1,0,0:0:0:0:
64,192,30577,1,0,0:0:0:0:
320,192,30877,1,0,0:0:0:0:
192,192,30877,1,0,0:0:0:0:
320,192,31177,1,0,0:0:0:0:
448,192,31177,1,0,0:0:0:0:
320,192,31477,1,0,0:0:0:0:
192,192,31477,1,0,0:0:0:0:
320,192,31627,1,0,0:0:0:0:
192,192,31777,1,0,0:0:0:0:
64,192,31777,1,0,0:0:0:0:
448,192,32077,1,0,0:0:0:0:
64,192,32077,1,0,0:0:0:0:
192,192,32377,1,0,0:0:0:0:
64,192,32377,1,0,0:0:0:0:
192,192,32677,1,0,0:0:0:0:
320,192,32677,1,0,0:0:0:0:
320,192,32977,1,0,0:0:0:0:
448,192,32977,1,0,0:0:0:0:
320,192,33277,1,0,0:0:0:0:
192,192,33277,1,0,0:0:0:0:
320,192,33577,1,0,0:0:0:0:
448,192,33577,1,0,0:0:0:0:
320,192,33727,1,0,0:0:0:0:
192,192,33727,1,0,0:0:0:0:
192,192,33877,1,0,0:0:0:0:
64,192,33877,1,0,0:0:0:0:
192,192,34027,1,0,0:0:0:0:
320,192,34027,1,0,0:0:0:0:
320,192,34177,1,0,0:0:0:0:
448,192,34177,1,0,0:0:0:0:
64,192,34477,1,0,0:0:0:0:
192,192,34477,1,0,0:0:0:0:
192,192,34627,1,0,0:0:0:0:
320,192,34627,1,0,0:0:0:0:
320,192,34777,1,0,0:0:0:0:
448,192,34777,1,0,0:0:0:0:
320,192,35077,1,0,0:0:0:0:
64,192,35077,1,0,0:0:0:0:
192,192,35227,1,0,0:0:0:0:
320,192,35227,1,0,0:0:0:0:
192,192,35377,1,0,0:0:0:0:
448,192,35377,1,0,0:0:0:0:
448,192,35677,1,0,0:0:0:0:
64,192,35677,1,0,0:0:0:0:
192,192,35977,1,0,0:0:0:0:
448,192,35977,1,0,0:0:0:0:
448,192,36127,1,0,0:0:0:0:
320,192,36277,1,0,0:0:0:0:
64,192,36277,1,0,0:0:0:0:
320,192,36427,1,0,0:0:0:0:
192,192,36577,1,0,0:0:0:0:
64,192,36577,1,0,0:0:0:0:
320,192,36652,1,0,0:0:0:0:
448,192,36727,1,0,0:0:0:0:
192,192,36802,1,0,0:0:0:0:
64,192,36877,1,0,0:0:0:0:
320,192,36952,1,0,0:0:0:0:
192,192,37027,1,0,0:0:0:0:
448,192,37102,1,0,0:0:0:0:
320,192,37177,1,0,0:0:0:0:
64,192,37177,1,0,0:0:0:0:
192,192,37177,1,0,0:0:0:0:
448,192,37327,1,0,0:0:0:0:
320,192,37477,1,0,0:0:0:0:
64,192,37477,1,0,0:0:0:0:
192,192,37627,1,0,0:0:0:0:
64,192,37777,1,0,0:0:0:0:
320,192,37777,1,0,0:0:0:0:
448,192,37777,1,0,0:0:0:0:
192,192,37927,1,0,0:0:0:0:
320,192,38077,1,0,0:0:0:0:
448,192,38077,1,0,0:0:0:0:
64,192,38227,1,0,0:0:0:0:
192,192,38377,1,0,0:0:0:0:
320,192,38377,1,0,0:0:0:0:
448,192,38377,1,0,0:0:0:0:
64,192,38527,1,0,0:0:0:0:
192,192,38677,1,0,0:0:0:0:
448,192,38677,1,0,0:0:0:0:
448,192,38827,1,0,0:0:0:0:
320,192,38977,1,0,0:0:0:0:
64,192,38977,1,0,0:0:0:0:
192,192,38977,1,0,0:0:0:0:
448,192,39127,1,0,0:0:0:0:
320,192,39277,1,0,0:0:0:0:
64,192,39277,1,0,0:0:0:0:
192,192,39427,1,0,0:0:0:0:
64,192,39577,1,0,0:0:0:0:
320,192,39577,1,0,0:0:0:0:
448,192,39577,1,0,0:0:0:0:
192,192,39727,1,0,0:0:0:0:
64,192,39877,1,0,0:0:0:0:
448,192,39877,1,0,0:0:0:0:
320,192,40027,1,0,0:0:0:0:
448,192,40177,1,0,0:0:0:0:
192,192,40177,1,0,0:0:0:0:
64,192,40177,1,0,0:0:0:0:
320,192,40327,1,0,0:0:0:0:
192,192,40477,1,0,0:0:0:0:
64,192,40477,1,0,0:0:0:0:
448,192,40627,1,0,0:0:0:0:
192,192,40777,1,0,0:0:0:0:
64,192,40777,1,0,0:0:0:0:
320,192,40777,1,0,0:0:0:0:
448,192,40927,1,0,0:0:0:0:
320,192,41077,1,0,0:0:0:0:
64,192,41077,1,0,0:0:0:0:
64,192,41227,1,0,0:0:0:0:
192,192,41377,1,0,0:0:0:0:
320,192,41377,1,0,0:0:0:0:
448,192,41377,1,0,0:0:0:0:
192,192,41527,1,0,0:0:0:0:
64,192,41677,1,0,0:0:0:0:
320,192,41677,1,0,0:0:0:0:
320,192,41827,1,0,0:0:0:0:
192,192,41977,1,0,0:0:0:0:
64,192,41977,1,0,0:0:0:0:
448,192,41977,1,0,0:0:0:0:
448,192,42127,1,0,0:0:0:0:
192,192,42277,1,0,0:0:0:0:
64,192,42277,1,0,0:0:0:0:
320,192,42277,1,0,0:0:0:0:
192,192,42427,1,0,0:0:0:0:
320,192,42577,1,0,0:0:0:0:
64,192,42577,1,0,0:0:0:0:
448,192,42577,1,0,0:0:0:0:
448,192,42727,1,0,0:0:0:0:
320,192,42877,1,0,0:0:0:0:
64,192,42877,1,0,0:0:0:0:
192,192,42877,1,0,0:0:0:0:
64,192,43027,1,0,0:0:0:0:
192,192,43177,1,0,0:0:0:0:
320,192,43177,1,0,0:0:0:0:
448,192,43177,1,0,0:0:0:0:
192,192,43327,1,0,0:0:0:0:
64,192,43477,1,0,0:0:0:0:
320,192,43477,1,0,0:0:0:0:
448,192,43477,1,0,0:0:0:0:
320,192,43627,1,0,0:0:0:0:
192,192,43777,1,0,0:0:0:0:
64,192,43777,1,0,0:0:0:0:
448,192,43777,1,0,0:0:0:0:
64,192,43927,1,0,0:0:0:0:
192,192,44077,1,0,0:0:0:0:
320,192,44077,1,0,0:0:0:0:
448,192,44077,1,0,0:0:0:0:
192,192,44227,1,0,0:0:0:0:
320,192,44377,1,0,0:0:0:0:
64,192,44377,1,0,0:0:0:0:
320,192,44527,1,0,0:0:0:0:
64,192,44527,1,0,0:0:0:0:
320,192,44827,1,0,0:0:0:0:
64,192,44827,1,0,0:0:0:0:
320,192,44977,1,0,0:0:0:0:
64,192,44977,1,0,0:0:0:0:
192,192,45277,1,0,0:0:0:0:
320,192,45277,1,0,0:0:0:0:
192,192,45577,1,0,0:0:0:0:
448,192,45577,1,0,0:0:0:0:
320,192,45877,1,0,0:0:0:0:
320,192,46027,1,0,0:0:0:0:
448,192,46177,1,0,0:0:0:0:
192,192,46177,1,0,0:0:0:0:
64,192,46177,1,0,0:0:0:0:
448,192,52177,5,0,0:0:0:0:
192,192,52177,1,0,0:0:0:0:
64,192,52177,1,0,0:0:0:0:
320,192,52477,1,0,0:0:0:0:
64,192,52477,1,0,0:0:0:0:
448,192,52777,1,0,0:0:0:0:
320,192,52777,1,0,0:0:0:0:
192,192,53077,1,0,0:0:0:0:
64,192,53077,1,0,0:0:0:0:
448,192,53377,1,0,0:0:0:0:
320,192,53377,1,0,0:0:0:0:
320,192,53527,1,0,0:0:0:0:
192,192,53527,1,0,0:0:0:0:
192,192,53677,1,0,0:0:0:0:
64,192,53677,1,0,0:0:0:0:
192,192,53827,1,0,0:0:0:0:
320,192,53827,1,0,0:0:0:0:
320,192,53977,1,0,0:0:0:0:
448,192,53977,1,0,0:0:0:0:
64,192,54277,1,0,0:0:0:0:
192,192,54277,1,0,0:0:0:0:
192,192,54427,1,0,0:0:0:0:
320,192,54427,1,0,0:0:0:0:
320,192,54577,1,0,0:0:0:0:
448,192,54577,1,0,0:0:0:0:
448,192,54877,1,0,0:0:0:0:
320,192,54877,1,0,0:0:0:0:
320,192,55027,1,0,0:0:0:0:
192,192,55027,1,0,0:0:0:0:
192,192,55177,1,0,0:0:0:0:
64,192,55177,1,0,0:0:0:0:
192,192,55477,1,0,0:0:0:0:
320,192,55477,1,0,0:0:0:0:
320,192,55777,1,0,0:0:0:0:
448,192,55777,1,0,0:0:0:0:
320,192,56077,1,0,0:0:0:0:
192,192,56077,1,0,0:0:0:0:
320,192,56227,1,0,0:0:0:0:
192,192,56377,1,0,0:0:0:0:
64,192,56377,1,0,0:0:0:0:
448,192,56677,1,0,0:0:0:0:
64,192,56677,1,0,0:0:0:0:
320,192,56977,1,0,0:0:0:0:
192,192,56977,1,0,0:0:0:0:
320,192,57277,1,0,0:0:0:0:
448,192,57277,1,0,0:0:0:0:
192,192,57577,1,0,0:0:0:0:
64,192,57577,1,0,0:0:0:0:
320,192,57877,1,0,0:0:0:0:
192,192,58177,1,0,0:0:0:0:
448,192,58177,1,0,0:0:0:0:
320,192,58327,1,0,0:0:0:0:
64,192,58477,1,0,0:0:0:0:
320,192,58627,1,0,0:0:0:0:
448,192,58777,1,0,0:0:0:0:
192,192,58777,1,0,0:0:0:0:
192,192,59077,1,0,0:0:0:0:
320,192,59227,1,0,0:0:0:0:
64,192,59377,1,0,0:0:0:0:
448,192,59377,1,0,0:0:0:0:
448,192,59677,1,0,0:0:0:0:
320,192,59827,1,0,0:0:0:0:
192,192,59977,1,0,0:0:0:0:
64,192,59977,1,0,0:0:0:0:
448,192,60277,1,0,0:0:0:0:
320,192,60577,1,0,0:0:0:0:
192,192,60577,1,0,0:0:0:0:
192,192,60877,1,0,0:0:0:0:
64,192,61177,1,0,0:0:0:0:
448,192,61177,1,0,0:0:0:0:
448,192,61777,1,0,0:0:0:0:
320,192,62377,1,0,0:0:0:0:
192,192,62977,1,0,0:0:0:0:
64,192,63577,1,0,0:0:0:0:
192,192,64177,1,0,0:0:0:0:
320,192,64777,1,0,0:0:0:0:
448,192,65377,1,0,0:0:0:0:
320,192,65977,1,0,0:0:0:0:
64,192,66577,1,0,0:0:0:0:
448,192,67177,1,0,0:0:0:0:
192,192,67777,1,0,0:0:0:0:
64,192,68377,1,0,0:0:0:0:
448,192,68977,1,0,0:0:0:0:
320,192,69577,1,0,0:0:0:0:
192,192,70177,1,0,0:0:0:0:
64,192,70777,1,0,0:0:0:0:
448,192,71377,1,0,0:0:0:0:
320,192,71377,1,0,0:0:0:0:
192,192,71677,1,0,0:0:0:0:
64,192,71977,1,0,0:0:0:0:
448,192,71977,1,0,0:0:0:0:
320,192,72277,1,0,0:0:0:0:
192,192,72577,1,0,0:0:0:0:
64,192,72577,1,0,0:0:0:0:
320,192,72877,1,0,0:0:0:0:
448,192,73177,1,0,0:0:0:0:
64,192,73177,1,0,0:0:0:0:
192,192,73477,1,0,0:0:0:0:
320,192,73777,1,0,0:0:0:0:
448,192,73777,1,0,0:0:0:0:
192,192,74077,1,0,0:0:0:0:
448,192,74377,1,0,0:0:0:0:
64,192,74377,1,0,0:0:0:0:
320,192,74677,1,0,0:0:0:0:
64,192,74977,1,0,0:0:0:0:
192,192,74977,1,0,0:0:0:0:
320,192,75277,1,0,0:0:0:0:
448,192,75577,1,0,0:0:0:0:
64,192,75577,1,0,0:0:0:0:
192,192,75877,1,0,0:0:0:0:
448,192,76177,1,0,0:0:0:0:
320,192,76177,1,0,0:0:0:0:
192,192,76477,1,0,0:0:0:0:
448,192,76777,1,0,0:0:0:0:
64,192,76777,1,0,0:0:0:0:
320,192,77077,1,0,0:0:0:0:
64,192,77377,1,0,0:0:0:0:
192,192,77377,1,0,0:0:0:0:
320,192,77677,1,0,0:0:0:0:
448,192,77977,1,0,0:0:0:0:
64,192,77977,1,0,0:0:0:0:
192,192,78277,1,0,0:0:0:0:
448,192,78577,1,0,0:0:0:0:
320,192,78577,1,0,0:0:0:0:
192,192,78877,1,0,0:0:0:0:
448,192,79177,1,0,0:0:0:0:
64,192,79177,1,0,0:0:0:0:
320,192,79477,1,0,0:0:0:0:
192,192,79777,1,0,0:0:0:0:
64,192,79777,1,0,0:0:0:0:
320,192,80077,1,0,0:0:0:0:
448,192,80377,1,0,0:0:0:0:
64,192,80377,1,0,0:0:0:0:
192,192,80677,1,0,0:0:0:0:
192,192,80977,1,0,0:0:0:0:
64,192,80977,1,0,0:0:0:0:
448,192,80977,1,0,0:0:0:0:
320,192,80977,1,0,0:0:0:0:
64,192,81052,1,0,0:0:0:0:
192,192,81127,1,0,0:0:0:0:
448,192,81202,1,0,0:0:0:0:
320,192,81277,1,0,0:0:0:0:
64,192,81277,1,0,0:0:0:0:
192,192,81352,1,0,0:0:0:0:
448,192,81427,1,0,0:0:0:0:
320,192,81502,1,0,0:0:0:0:
64,192,81577,1,0,0:0:0:0:
192,192,81577,1,0,0:0:0:0:
320,192,81577,1,0,0:0:0:0:
448,192,81577,1,0,0:0:0:0:
64,192,81652,1,0,0:0:0:0:
320,192,81727,1,0,0:0:0:0:
448,192,81802,1,0,0:0:0:0:
192,192,81877,1,0,0:0:0:0:
64,192,81877,1,0,0:0:0:0:
320,192,81952,1,0,0:0:0:0:
448,192,82027,1,0,0:0:0:0:
192,192,82102,1,0,0:0:0:0:
192,192,82177,1,0,0:0:0:0:
320,192,82177,1,0,0:0:0:0:
448,192,82177,1,0,0:0:0:0:
64,192,82177,1,0,0:0:0:0:
448,192,82252,1,0,0:0:0:0:
320,192,82327,1,0,0:0:0:0:
192,192,82327,1,0,0:0:0:0:
64,192,82402,1,0,0:0:0:0:
192,192,82477,1,0,0:0:0:0:
448,192,82477,1,0,0:0:0:0:
320,192,82552,1,0,0:0:0:0:
192,192,82627,1,0,0:0:0:0:
64,192,82627,1,0,0:0:0:0:
448,192,82702,1,0,0:0:0:0:
64,192,82777,1,0,0:0:0:0:
192,192,82777,1,0,0:0:0:0:
320,192,82777,1,0,0:0:0:0:
448,192,82777,1,0,0:0:0:0:
192,192,82852,1,0,0:0:0:0:
64,192,82927,1,0,0:0:0:0:
320,192,83002,1,0,0:0:0:0:
448,192,83077,1,0,0:0:0:0:
192,192,83077,1,0,0:0:0:0:
64,192,83152,1,0,0:0:0:0:
192,192,83227,1,0,0:0:0:0:
320,192,83227,1,0,0:0:0:0:
448,192,83302,1,0,0:0:0:0:
64,192,83377,1,0,0:0:0:0:
192,192,83377,1,0,0:0:0:0:
320,192,83377,1,0,0:0:0:0:
448,192,83377,1,0,0:0:0:0:
64,192,83452,1,0,0:0:0:0:
192,192,83527,1,0,0:0:0:0:
320,192,83602,1,0,0:0:0:0:
448,192,83677,1,0,0:0:0:0:
192,192,83677,1,0,0:0:0:0:
64,192,83752,1,0,0:0:0:0:
192,192,83827,1,0,0:0:0:0:
320,192,83827,1,0,0:0:0:0:
448,192,83902,1,0,0:0:0:0:
64,192,83977,1,0,0:0:0:0:
192,192,83977,1,0,0:0:0:0:
320,192,83977,1,0,0:0:0:0:
448,192,83977,1,0,0:0:0:0:
64,192,84052,1,0,0:0:0:0:
192,192,84127,1,0,0:0:0:0:
320,192,84202,1,0,0:0:0:0:
448,192,84277,1,0,0:0:0:0:
64,192,84277,1,0,0:0:0:0:
320,192,84352,1,0,0:0:0:0:
192,192,84427,1,0,0:0:0:0:
64,192,84502,1,0,0:0:0:0:
64,192,84577,1,0,0:0:0:0:
192,192,84577,1,0,0:0:0:0:
320,192,84577,1,0,0:0:0:0:
448,192,84577,1,0,0:0:0:0:
448,192,84652,1,0,0:0:0:0:
320,192,84727,1,0,0:0:0:0:
192,192,84802,1,0,0:0:0:0:
64,192,84877,1,0,0:0:0:0:
448,192,84877,1,0,0:0:0:0:
192,192,84952,1,0,0:0:0:0:
320,192,85027,1,0,0:0:0:0:
448,192,85102,1,0,0:0:0:0:
64,192,85177,1,0,0:0:0:0:
192,192,85177,1,0,0:0:0:0:
320,192,85177,1,0,0:0:0:0:
448,192,85177,1,0,0:0:0:0:
192,192,85252,1,0,0:0:0:0:
64,192,85327,1,0,0:0:0:0:
320,192,85402,1,0,0:0:0:0:
448,192,85477,1,0,0:0:0:0:
192,192,85477,1,0,0:0:0:0:
64,192,85552,1,0,0:0:0:0:
320,192,85627,1,0,0:0:0:0:
192,192,85702,1,0,0:0:0:0:
64,192,85777,1,0,0:0:0:0:
192,192,85777,1,0,0:0:0:0:
320,192,85777,1,0,0:0:0:0:
448,192,85777,1,0,0:0:0:0:
448,192,85852,1,0,0:0:0:0:
320,192,85927,1,0,0:0:0:0:
192,192,86002,1,0,0:0:0:0:
64,192,86077,1,0,0:0:0:0:
320,192,86077,1,0,0:0:0:0:
448,192,86152,1,0,0:0:0:0:
64,192,86227,1,0,0:0:0:0:
192,192,86302,1,0,0:0:0:0:
64,192,86377,1,0,0:0:0:0:
192,192,86377,1,0,0:0:0:0:
320,192,86377,1,0,0:0:0:0:
448,192,86377,1,0,0:0:0:0:
320,192,86452,1,0,0:0:0:0:
448,192,86527,1,0,0:0:0:0:
192,192,86602,1,0,0:0:0:0:
64,192,86677,1,0,0:0:0:0:
320,192,86677,1,0,0:0:0:0:
448,192,86752,1,0,0:0:0:0:
320,192,86827,1,0,0:0:0:0:
192,192,86902,1,0,0:0:0:0:
64,192,86977,1,0,0:0:0:0:
192,192,86977,1,0,0:0:0:0:
320,192,86977,1,0,0:0:0:0:
448,192,86977,1,0,0:0:0:0:
448,192,87052,1,0,0:0:0:0:
320,192,87127,1,0,0:0:0:0:
192,192,87127,1,0,0:0:0:0:
64,192,87202,1,0,0:0:0:0:
192,192,87277,1,0,0:0:0:0:
320,192,87277,1,0,0:0:0:0:
448,192,87352,1,0,0:0:0:0:
64,192,87427,1,0,0:0:0:0:
320,192,87427,1,0,0:0:0:0:
192,192,87502,1,0,0:0:0:0:
64,192,87577,1,0,0:0:0:0:
192,192,87577,1,0,0:0:0:0:
320,192,87577,1,0,0:0:0:0:
448,192,87577,1,0,0:0:0:0:
448,192,87652,1,0,0:0:0:0:
320,192,87727,1,0,0:0:0:0:
192,192,87802,1,0,0:0:0:0:
64,192,87877,1,0,0:0:0:0:
448,192,87877,1,0,0:0:0:0:
320,192,87952,1,0,0:0:0:0:
192,192,88027,1,0,0:0:0:0:
64,192,88027,1,0,0:0:0:0:
448,192,88102,1,0,0:0:0:0:
64,192,88177,1,0,0:0:0:0:
192,192,88177,1,0,0:0:0:0:
320,192,88177,1,0,0:0:0:0:
448,192,88177,1,0,0:0:0:0:
64,192,88252,1,0,0:0:0:0:
192,192,88327,1,0,0:0:0:0:
320,192,88402,1,0,0:0:0:0:
448,192,88477,1,0,0:0:0:0:
64,192,88477,1,0,0:0:0:0:
192,192,88552,1,0,0:0:0:0:
320,192,88627,1,0,0:0:0:0:
448,192,88627,1,0,0:0:0:0:
64,192,88702,1,0,0:0:0:0:
64,192,88777,1,0,0:0:0:0:
192,192,88777,1,0,0:0:0:0:
320,192,88777,1,0,0:0:0:0:
448,192,88777,1,0,0:0:0:0:
320,192,88852,1,0,0:0:0:0:
448,192,88927,1,0,0:0:0:0:
192,192,89002,1,0,0:0:0:0:
64,192,89077,1,0,0:0:0:0:
320,192,89077,1,0,0:0:0:0:
192,192,89152,1,0,0:0:0:0:
448,192,89227,1,0,0:0:0:0:
320,192,89302,1,0,0:0:0:0:
64,192,89377,1,0,0:0:0:0:
192,192,89377,1,0,0:0:0:0:
320,192,89377,1,0,0:0:0:0:
448,192,89377,1,0,0:0:0:0:
64,192,89452,1,0,0:0:0:0:
192,192,89527,1,0,0:0:0:0:
64,192,89602,1,0,0:0:0:0:
320,192,89677,1,0,0:0:0:0:
448,192,89677,1,0,0:0:0:0:
192,192,89752,1,0,0:0:0:0:
320,192,89827,1,0,0:0:0:0:
448,192,89902,1,0,0:0:0:0:
64,192,89977,1,0,0:0:0:0:
192,192,89977,1,0,0:0:0:0:
320,192,89977,1,0,0:0:0:0:
448,192,89977,1,0,0:0:0:0:
64,192,90052,1,0,0:0:0:0:
192,192,90127,1,0,0:0:0:0:
320,192,90202,1,0,0:0:0:0:
192,192,90277,1,0,0:0:0:0:
64,192,90277,1,0,0:0:0:0:
448,192,90352,1,0,0:0:0:0:
320,192,90427,1,0,0:0:0:0:
192,192,90502,1,0,0:0:0:0:
64,192,90577,1,0,0:0:0:0:
192,192,90577,1,0,0:0:0:0:
320,192,90577,1,0,0:0:0:0:
448,192,90577,1,0,0:0:0:0:
320,192,90652,1,0,0:0:0:0:
448,192,90727,1,0,0:0:0:0:
192,192,90802,1,0,0:0:0:0:
64,192,90877,1,0,0:0:0:0:
320,192,90877,1,0,0:0:0:0:
448,192,90952,1,0,0:0:0:0:
192,192,91027,1,0,0:0:0:0:
320,192,91102,1,0,0:0:0:0:
64,192,91177,1,0,0:0:0:0:
192,192,91177,1,0,0:0:0:0:
320,192,91177,1,0,0:0:0:0:
448,192,91177,1,0,0:0:0:0:
64,192,91252,1,0,0:0:0:0:
192,192,91327,1,0,0:0:0:0:
320,192,91402,1,0,0:0:0:0:
448,192,91477,1,0,0:0:0:0:
192,192,91477,1,0,0:0:0:0:
64,192,91552,1,0,0:0:0:0:
320,192,91627,1,0,0:0:0:0:
192,192,91702,1,0,0:0:0:0:
64,192,91777,1,0,0:0:0:0:
192,192,91777,1,0,0:0:0:0:
320,192,91777,1,0,0:0:0:0:
448,192,91777,1,0,0:0:0:0:
448,192,91852,1,0,0:0:0:0:
192,192,91927,1,0,0:0:0:0:
64,192,92002,1,0,0:0:0:0:
320,192,92077,1,0,0:0:0:0:
192,192,92077,1,0,0:0:0:0:
448,192,92152,1,0,0:0:0:0:
320,192,92227,1,0,0:0:0:0:
64,192,92302,1,0,0:0:0:0:
64,192,92377,1,0,0:0:0:0:
192,192,92377,1,0,0:0:0:0:
320,192,92377,1,0,0:0:0:0:
448,192,92377,1,0,0:0:0:0:
320,192,92452,1,0,0:0:0:0:
192,192,92527,1,0,0:0:0:0:
320,192,92602,1,0,0:0:0:0:
448,192,92677,1,0,0:0:0:0:
64,192,92677,1,0,0:0:0:0:
192,192,92752,1,0,0:0:0:0:
64,192,92827,1,0,0:0:0:0:
320,192,92902,1,0,0:0:0:0:
64,192,92977,1,0,0:0:0:0:
192,192,92977,1,0,0:0:0:0:
320,192,92977,1,0,0:0:0:0:
448,192,92977,1,0,0:0:0:0:
192,192,93052,1,0,0:0:0:0:
448,192,93127,1,0,0:0:0:0:
192,192,93202,1,0,0:0:0:0:
320,192,93277,1,0,0:0:0:0:
64,192,93277,1,0,0:0:0:0:
448,192,93352,1,0,0:0:0:0:
320,192,93427,1,0,0:0:0:0:
192,192,93502,1,0,0:0:0:0:
64,192,93577,1,0,0:0:0:0:
192,192,93577,1,0,0:0:0:0:
320,192,93577,1,0,0:0:0:0:
448,192,93577,1,0,0:0:0:0:
448,192,93652,1,0,0:0:0:0:
320,192,93727,1,0,0:0:0:0:
192,192,93802,1,0,0:0:0:0:
448,192,93877,1,0,0:0:0:0:
64,192,93877,1,0,0:0:0:0:
320,192,93952,1,0,0:0:0:0:
192,192,94027,1,0,0:0:0:0:
320,192,94102,1,0,0:0:0:0:
64,192,94177,1,0,0:0:0:0:
192,192,94177,1,0,0:0:0:0:
320,192,94177,1,0,0:0:0:0:
448,192,94177,1,0,0:0:0:0:
64,192,94252,1,0,0:0:0:0:
192,192,94327,1,0,0:0:0:0:
64,192,94402,1,0,0:0:0:0:
448,192,94477,1,0,0:0:0:0:
320,192,94477,1,0,0:0:0:0:
192,192,94552,1,0,0:0:0:0:
320,192,94627,1,0,0:0:0:0:
64,192,94702,1,0,0:0:0:0:
64,192,94777,1,0,0:0:0:0:
192,192,94777,1,0,0:0:0:0:
320,192,94777,1,0,0:0:0:0:
448,192,94777,1,0,0:0:0:0:
448,192,94852,1,0,0:0:0:0:
192,192,94927,1,0,0:0:0:0:
320,192,95002,1,0,0:0:0:0:
192,192,95077,1,0,0:0:0:0:
64,192,95077,1,0,0:0:0:0:
448,192,95152,1,0,0:0:0:0:
320,192,95227,1,0,0:0:0:0:
192,192,95302,1,0,0:0:0:0:
64,192,95377,1,0,0:0:0:0:
192,192,95377,1,0,0:0:0:0:
320,192,95377,1,0,0:0:0:0:
448,192,95377,1,0,0:0:0:0:
448,192,95452,1,0,0:0:0:0:
64,192,95527,1,0,0:0:0:0:
192,192,95602,1,0,0:0:0:0:
320,192,95677,1,0,0:0:0:0:
64,192,95677,1,0,0:0:0:0:
448,192,95752,1,0,0:0:0:0:
320,192,95827,1,0,0:0:0:0:
192,192,95902,1,0,0:0:0:0:
64,192,95977,1,0,0:0:0:0:
192,192,95977,1,0,0:0:0:0:
320,192,95977,1,0,0:0:0:0:
448,192,95977,1,0,0:0:0:0:
320,192,96052,1,0,0:0:0:0:
64,192,96127,1,0,0:0:0:0:
320,192,96202,1,0,0:0:0:0:
192,192,96277,1,0,0:0:0:0:
448,192,96277,1,0,0:0:0:0:
320,192,96352,1,0,0:0:0:0:
192,192,96427,1,0,0:0:0:0:
448,192,96502,1,0,0:0:0:0:
64,192,96577,1,0,0:0:0:0:
192,192,96577,1,0,0:0:0:0:
320,192,96577,1,0,0:0:0:0:
448,192,96577,1,0,0:0:0:0:
64,192,96652,1,0,0:0:0:0:
320,192,96727,1,0,0:0:0:0:
192,192,96802,1,0,0:0:0:0:
448,192,96877,1,0,0:0:0:0:
64,192,96877,1,0,0:0:0:0:
320,192,96952,1,0,0:0:0:0:
192,192,97027,1,0,0:0:0:0:
320,192,97102,1,0,0:0:0:0:
192,192,97177,1,0,0:0:0:0:
320,192,97177,1,0,0:0:0:0:
448,192,97177,1,0,0:0:0:0:
64,192,97177,1,0,0:0:0:0:
192,192,97252,1,0,0:0:0:0:
64,192,97327,1,0,0:0:0:0:
192,192,97402,1,0,0:0:0:0:
320,192,97477,1,0,0:0:0:0:
448,192,97477,1,0,0:0:0:0:
64,192,97552,1,0,0:0:0:0:
320,192,97627,1,0,0:0:0:0:
64,192,97702,1,0,0:0:0:0:
64,192,97777,1,0,0:0:0:0:
192,192,97777,1,0,0:0:0:0:
320,192,97777,1,0,0:0:0:0:
448,192,97777,1,0,0:0:0:0:
448,192,97852,1,0,0:0:0:0:
192,192,97927,1,0,0:0:0:0:
320,192,98002,1,0,0:0:0:0:
192,192,98077,1,0,0:0:0:0:
64,192,98077,1,0,0:0:0:0:
448,192,98152,1,0,0:0:0:0:
320,192,98227,1,0,0:0:0:0:
448,192,98302,1,0,0:0:0:0:
64,192,98377,1,0,0:0:0:0:
192,192,98377,1,0,0:0:0:0:
320,192,98377,1,0,0:0:0:0:
448,192,98377,1,0,0:0:0:0:
192,192,98452,1,0,0:0:0:0:
320,192,98527,1,0,0:0:0:0:
448,192,98602,1,0,0:0:0:0:
320,192,98677,1,0,0:0:0:0:
64,192,98677,1,0,0:0:0:0:
192,192,98752,1,0,0:0:0:0:
64,192,98827,1,0,0:0:0:0:
192,192,98902,1,0,0:0:0:0:
64,192,98977,1,0,0:0:0:0:
192,192,98977,1,0,0:0:0:0:
320,192,98977,1,0,0:0:0:0:
448,192,98977,1,0,0:0:0:0:
448,192,99052,1,0,0:0:0:0:
320,192,99127,1,0,0:0:0:0:
64,192,99202,1,0,0:0:0:0:
192,192,99277,1,0,0:0:0:0:
320,192,99277,1,0,0:0:0:0:
448,192,99352,1,0,0:0:0:0:
320,192,99427,1,0,0:0:0:0:
64,192,99502,1,0,0:0:0:0:
64,192,99577,1,0,0:0:0:0:
192,192,99577,1,0,0:0:0:0:
320,192,99577,1,0,0:0:0:0:
448,192,99577,1,0,0:0:0:0:
448,192,99652,1,0,0:0:0:0:
320,192,99727,1,0,0:0:0:0:
192,192,99802,1,0,0:0:0:0:
64,192,99877,1,0,0:0:0:0:
448,192,99877,1,0,0:0:0:0:
192,192,99952,1,0,0:0:0:0:
320,192,100027,1,0,0:0:0:0:
448,192,100102,1,0,0:0:0:0:
64,192,100177,1,0,0:0:0:0:
192,192,100177,1,0,0:0:0:0:
320,192,100477,1,0,0:0:0:0:
64,192,100477,1,0,0:0:0:0:
192,192,100777,1,0,0:0:0:0:
448,192,100777,1,0,0:0:0:0:
320,192,101077,1,0,0:0:0:0:
192,192,101077,1,0,0:0:0:0:
64,192,101377,1,0,0:0:0:0:
320,192,101377,1,0,0:0:0:0:
192,192,101527,1,0,0:0:0:0:
320,192,101677,1,0,0:0:0:0:
64,192,101677,1,0,0:0:0:0:
448,192,101827,1,0,0:0:0:0:
64,192,101827,1,0,0:0:0:0:
192,192,101977,1,0,0:0:0:0:
64,192,101977,1,0,0:0:0:0:
448,192,102277,1,0,0:0:0:0:
192,192,102277,1,0,0:0:0:0:
320,192,102427,1,0,0:0:0:0:
192,192,102577,1,0,0:0:0:0:
64,192,102577,1,0,0:0:0:0:
448,192,102877,1,0,0:0:0:0:
64,192,102877,1,0,0:0:0:0:
192,192,103027,1,0,0:0:0:0:
320,192,103177,1,0,0:0:0:0:
448,192,103177,1,0,0:0:0:0:
64,192,103477,1,0,0:0:0:0:
320,192,103477,1,0,0:0:0:0:
448,192,103777,1,0,0:0:0:0:
192,192,103777,1,0,0:0:0:0:
320,192,104077,1,0,0:0:0:0:
192,192,104077,1,0,0:0:0:0:
320,192,104227,1,0,0:0:0:0:
64,192,104377,1,0,0:0:0:0:
320,192,104377,1,0,0:0:0:0:
448,192,104677,1,0,0:0:0:0:
192,192,104677,1,0,0:0:0:0:
192,192,104977,1,0,0:0:0:0:
64,192,104977,1,0,0:0:0:0:
64,192,105277,1,0,0:0:0:0:
320,192,105277,1,0,0:0:0:0:
192,192,105577,1,0,0:0:0:0:
448,192,105577,1,0,0:0:0:0:
320,192,105877,1,0,0:0:0:0:
448,192,105877,1,0,0:0:0:0:
320,192,106177,1,0,0:0:0:0:
64,192,106177,1,0,0:0:0:0:
192,192,106327,1,0,0:0:0:0:
448,192,106477,1,0,0:0:0:0:
64,192,106477,1,0,0:0:0:0:
448,192,106627,1,0,0:0:0:0:
320,192,106777,1,0,0:0:0:0:
192,192,106777,1,0,0:0:0:0:
64,192,107077,1,0,0:0:0:0:
448,192,107077,1,0,0:0:0:0:
192,192,107227,1,0,0:0:0:0:
320,192,107377,1,0,0:0:0:0:
448,192,107377,1,0,0:0:0:0:
192,192,107677,1,0,0:0:0:0:
320,192,107677,1,0,0:0:0:0:
64,192,107827,1,0,0:0:0:0:
448,192,107977,1,0,0:0:0:0:
320,192,107977,1,0,0:0:0:0:
192,192,108277,1,0,0:0:0:0:
64,192,108277,1,0,0:0:0:0:
192,192,108577,1,0,0:0:0:0:
448,192,108577,1,0,0:0:0:0:
192,192,109177,1,0,0:0:0:0:
192,192,109477,1,0,0:0:0:0:
320,192,109777,1,0,0:0:0:0:
64,192,110827,1,0,0:0:0:0:
192,192,110902,1,0,0:0:0:0:
320,192,110977,1,0,0:0:0:0:
448,192,111052,1,0,0:0:0:0:
320,192,111127,1,0,0:0:0:0:
192,192,111202,1,0,0:0:0:0:
64,192,111277,1,0,0:0:0:0:
