osu file format v14

[General]
AudioFilename: audio.mp3
AudioLeadIn: 0
PreviewTime: 2379
Countdown: 0
SampleSet: Soft
StackLeniency: 0.5
Mode: 0
LetterboxInBreaks: 0
WidescreenStoryboard: 1

[Editor]
Bookmarks: 2379,2679,7179,16779,26379,35979,45579,50979,60579,66654,70179,79779,89379,98979
DistanceSpacing: 0.7
BeatDivisor: 4
GridSize: 4
TimelineZoom: 3.399999

[Metadata]
Title:Mopemope
TitleUnicode:もぺもぺ
Artist:LeaF
ArtistUnicode:LeaF
Creator:Daycore
Version:Huge Flower Extra
Source:BOFU2017 - LEGENDA EST A MYTH -
Tags:monthly beatmapping contest stompy_ mbc4 mbc 4 fa featured artist mappers' guild mg mpg bms of fighters ultimate video game happy upbeat glitch hardcore horror electronic instrumental breakcore
BeatmapID:4316316
BeatmapSetID:2063704

[Difficulty]
HPDrainRate:5
CircleSize:1
OverallDifficulty:8
ApproachRate:9
SliderMultiplier:1.6
SliderTickRate:0.5

[Events]
//Background and Video events
0,0,"bg.jpg",0,0
//Break Periods
//Storyboard Layer 0 (Background)
//Storyboard Layer 1 (Fail)
//Storyboard Layer 2 (Pass)
//Storyboard Layer 3 (Foreground)
//Storyboard Layer 4 (Overlay)
//Storyboard Sound Samples

[TimingPoints]
2379,300,4,2,1,70,1,0
2379,-100,4,2,1,70,0,0
7179,-100,4,2,1,75,0,0
16779,-86.9565217391304,4,2,1,80,0,0
21579,-80,4,2,1,80,0,0
25179,-40,4,2,1,80,0,0
26379,-71.4285714285714,4,2,1,85,0,0
35979,-71.4285714285714,4,2,1,84,0,0
37179,-71.4285714285714,4,2,1,83,0,0
38379,-71.4285714285714,4,2,1,82,0,0
39579,-71.4285714285714,4,2,1,81,0,0
40779,-90.9090909090909,4,2,1,80,0,0
41979,-76.9230769230769,4,2,1,80,0,0
45579,-76.9230769230769,4,2,1,70,0,0
45654,-100,4,2,1,70,0,0
45729,-100,4,2,1,5,0,0
45954,-50,4,2,1,70,0,0
46179,300,4,2,1,70,1,0
46179,-100,4,2,1,70,0,0
49779,-60.6060606060606,4,2,1,70,0,0
50979,-76.9230769230769,4,2,1,75,0,0
56379,-83.3333333333333,4,2,1,75,0,0
60579,-66.6666666666667,4,2,2,60,0,0
62979,-66.6666666666667,4,2,2,80,0,0
63279,-66.6666666666667,4,2,2,80,0,0
65379,-90.9090909090909,4,2,2,80,0,0
66579,-66.6666666666667,4,2,2,80,0,0
70179,-58.8235294117647,4,2,2,90,0,0
79779,-58.8235294117647,4,2,3,85,0,0
81804,-58.8235294117647,4,2,3,5,0,0
81879,-58.8235294117647,4,2,3,85,0,0
86604,-58.8235294117647,4,2,3,5,0,0
86679,-58.8235294117647,4,2,3,85,0,0
89379,-100,4,2,3,85,0,0
89904,-100,4,2,3,5,0,0
89979,-100,4,2,3,85,0,0
90504,-100,4,2,3,5,0,0
90579,-100,4,2,3,85,0,0
91104,-100,4,2,3,5,0,0
91179,-100,4,2,3,85,0,0
91704,-100,4,2,3,5,0,0
91779,-100,4,2,3,85,0,0
92304,-100,4,2,3,5,0,0
92379,-100,4,2,3,85,0,0
94704,-100,4,2,3,5,0,0
94779,-100,4,2,3,85,0,0
95304,-100,4,2,3,5,0,0
95379,-100,4,2,3,85,0,0
95904,-100,4,2,3,5,0,0
95979,-100,4,2,3,85,0,0
96504,-100,4,2,3,5,0,0
96579,-100,4,2,3,85,0,0
97104,-100,4,2,3,5,0,0
97179,-100,4,2,3,85,0,0
98979,-117.647058823529,4,2,1,60,0,0

[Colours]
Combo1 : 255,0,0
Combo2 : 0,128,255
Combo3 : 0,128,192
Combo4 : 0,215,0
Combo5 : 0,128,0
Combo6 : 255,128,64
Combo7 : 255,128,0
Combo8 : 255,128,128

[HitObjects]
49,97,2379,6,0,L|20:2,1,80,0|2,3:0|0:2,0:0:0:0:
87,217,2679,1,0,1:0:0:0:
87,217,2829,1,2,0:2:0:0:
200,116,2979,2,0,L|171:21,1,80,0|2,3:0|0:2,0:0:0:0:
238,236,3279,1,0,1:0:0:0:
238,236,3429,1,0,0:0:0:0:
69,361,3579,6,0,B|165:313|165:313|195:342|236:344,1,160,0|0,3:0|1:0,0:0:0:0:
367,223,4029,1,2,1:2:0:0:
367,367,4179,1,0,3:0:0:0:
238,236,4329,1,2,0:0:0:0:
372,110,4479,1,0,1:0:0:0:
485,360,4779,6,0,L|470:271,1,80,0|2,3:0|0:2,0:0:0:0:
373,373,5079,1,0,1:0:0:0:
373,373,5229,1,2,0:2:0:0:
234,228,5379,2,0,L|249:139,1,80,0|2,3:0|0:2,0:0:0:0:
360,207,5679,1,0,1:0:0:0:
360,207,5829,1,0,0:0:0:0:
461,17,5979,6,0,B|398:28|398:28|383:54|383:54|304:66,1,160,0|0,3:0|1:0,0:0:0:0:
230,8,6429,1,2,1:2:0:0:
76,109,6579,1,2,1:2:0:0:
235,201,6729,1,2,0:0:0:0:
121,11,6879,1,0,1:0:0:0:
29,369,7179,70,0,L|7:264,1,80,6|0,3:2|0:0,0:0:0:0:
135,309,7479,2,0,L|113:204,1,80,2|0,1:2|0:0,0:0:0:0:
386,333,7779,2,0,L|196:372,1,160,0|2,3:2|1:2,0:0:0:0:
328,69,8379,1,2,3:2:0:0:
238,152,8529,1,2,0:2:0:0:
362,203,8679,1,2,1:2:0:0:
272,286,8829,1,2,1:2:0:0:
386,333,8979,1,2,3:2:0:0:
50,92,9279,5,2,1:2:0:0:
74,318,9429,1,2,0:0:0:0:
152,192,9579,2,0,L|190:84,1,80,2|0,3:2|0:0,0:0:0:0:
462,92,9879,5,2,1:2:0:0:
438,318,10029,1,2,0:2:0:0:
360,192,10179,2,0,L|322:84,1,80,2|0,3:2|0:0,0:0:0:0:
150,342,10479,6,0,L|60:313,1,80,2|0,1:2|0:0,0:0:0:0:
362,342,10779,2,0,L|452:313,1,80,0|0,3:0|0:0,0:0:0:0:
256,64,11079,1,2,1:2:0:0:
256,192,11229,1,0,1:0:0:0:
256,320,11379,70,0,L|206:308,3,40,2|0|0|2,1:2|0:0|0:0|0:0,0:0:0:0:
256,192,11679,2,0,L|294:201,3,40,0|0|2|0,1:0|0:0|0:0|0:0,0:0:0:0:
155,52,11979,6,0,L|232:9,1,80,2|0,3:2|0:0,0:0:0:0:
109,156,12279,2,0,L|152:233,1,80,2|0,1:2|0:0,0:0:0:0:
413,166,12579,2,0,L|334:26,1,160,0|2,3:2|1:2,0:0:0:0:
199,367,13179,5,2,3:2:0:0:
148,225,13329,1,2,0:2:0:0:
285,167,13479,1,2,1:2:0:0:
336,309,13629,1,2,1:2:0:0:
242,267,13779,1,2,3:2:0:0:
97,50,14079,5,2,1:2:0:0:
59,260,14229,1,2,0:0:0:0:
290,152,14379,2,0,B|227:142|227:142|202:164|202:164|120:153,1,160,2|2,3:2|1:2,0:0:0:0:
50,274,14829,1,2,0:2:0:0:
218,374,14979,2,0,P|277:325|261:251,1,160,2|2,3:2|1:2,0:0:0:0:
252,56,15579,70,0,P|256:28|256:56,1,80,0|0,3:0|0:0,0:0:0:0:
405,148,15879,1,2,1:2:0:0:
256,192,16029,1,0,1:0:0:0:
112,240,16179,6,0,L|128:176,3,40,2|0|0|2,1:2|0:0|0:0|0:0,0:0:0:0:
256,328,16479,2,0,L|240:392,3,40,0|0|2|0,1:0|0:0|1:2|0:0,0:0:0:0:
441,248,16779,6,0,L|487:45,1,184.000003509522,4|2,3:2|1:2,0:0:0:0:
341,197,17229,1,2,0:2:0:0:
371,63,17379,2,0,P|333:37|289:44,1,92.0000017547608,0|0,3:0|0:0,0:0:0:0:
340,197,17679,2,0,P|295:203|258:178,1,92.0000017547608,2|0,1:2|0:0,0:0:0:0:
48,288,17979,5,2,3:2:0:0:
133,191,18129,1,2,0:2:0:0:
99,0,18279,1,2,1:2:0:0:
14,97,18429,1,2,1:2:0:0:
144,198,18579,1,2,3:2:0:0:
378,357,18879,69,2,1:2:0:0:
478,291,19029,1,2,0:2:0:0:
368,198,19179,1,2,3:2:0:0:
134,357,19479,5,2,1:2:0:0:
34,291,19629,1,2,0:2:0:0:
144,198,19779,1,2,3:2:0:0:
127,15,20079,6,0,P|168:33|185:75,1,92.0000017547608,2|0,1:2|0:0,0:0:0:0:
383,15,20379,2,0,P|342:33|326:75,1,92.0000017547608,0|0,3:0|0:0,0:0:0:0:
144,198,20679,1,2,1:2:0:0:
256,304,20829,1,2,1:2:0:0:
384,192,20979,6,0,L|304:176,3,46.0000008773804,2|0|0|2,1:2|0:0|0:0|0:2,0:0:0:0:
144,198,21279,2,0,L|189:207,3,46.0000008773804,0|0|2|0,1:0|0:0|0:2|0:0,0:0:0:0:
247,297,21579,70,0,L|283:100,1,200,2|2,3:2|1:2,0:0:0:0:
364,284,22029,1,2,0:2:0:0:
161,99,22179,2,0,L|143:197,1,100,2|0,3:2|0:0,0:0:0:0:
4,313,22479,2,0,L|22:214,1,100,2|0,1:2|0:0,0:0:0:0:
256,0,22779,5,2,3:2:0:0:
161,99,22929,1,2,0:2:0:0:
256,0,23079,1,2,1:2:0:0:
351,99,23229,1,2,1:2:0:0:
256,352,23379,2,0,L|256:144,1,200,2|2,3:2|1:2,0:0:0:0:
144,256,23829,1,2,0:2:0:0:
368,256,23979,6,0,P|464:240|480:128,1,200,2|0,3:2|1:0,0:0:0:0:
384,144,24429,1,2,0:2:0:0:
405,345,24579,2,0,P|373:297|373:233,1,100,2|0,3:2|0:0,0:0:0:0:
143,255,24879,2,0,P|136:304|107:345,1,100,2|0,1:2|0:0,0:0:0:0:
224,128,25179,6,0,P|261:269|288:128,2,400,0|0|0,3:0|1:0|1:0,0:0:0:0:
256,372,26079,1,0,1:0:0:0:
256,192,26229,1,0,1:0:0:0:
256,12,26379,70,0,L|130:39,1,111.999996582031,6|0,3:2|0:0,0:0:0:0:
371,201,26679,2,0,L|480:177,1,111.999996582031,2|2,1:2|0:0,0:0:0:0:
121,354,26979,2,0,L|156:98,1,223.999993164063,0|2,3:2|1:2,0:0:0:0:
147,24,27429,1,0,0:0:0:0:
285,254,27579,5,2,3:2:0:0:
104,228,27729,1,2,0:2:0:0:
136,29,27879,1,2,1:2:0:0:
317,55,28029,1,2,1:2:0:0:
278,375,28179,6,0,B|267:341|239:316|239:316|413:282,1,223.999993164063,2|2,3:2|1:2,0:0:0:0:
473,357,28629,1,2,0:0:0:0:
241,186,28779,2,0,P|261:264|394:283,1,223.999993164063,2|2,3:2|1:2,0:0:0:0:
481,234,29229,1,2,0:2:0:0:
270,73,29379,5,2,3:2:0:0:
338,201,29529,1,0,0:0:0:0:
247,315,29679,1,2,1:2:0:0:
102,298,29829,1,0,0:0:0:0:
66,156,29979,2,0,B|117:129|118:65|118:65|117:129|153:155|213:158,1,223.999993164063,0|2,3:0|1:2,0:0:0:0:
19,67,30429,1,0,1:0:0:0:
320,82,30579,70,0,L|331:17,3,55.9999982910157,2|0|0|2,1:2|0:0|0:0|0:0,0:0:0:0:
184,207,30879,2,0,L|173:142,3,55.9999982910157,0|0|2|0,1:0|0:0|0:0|0:0,0:0:0:0:
373,348,31179,6,0,L|417:103,1,223.999993164063,2|2,3:2|1:2,0:0:0:0:
256,376,31629,1,0,0:0:0:0:
139,348,31779,2,0,L|95:103,1,223.999993164063,0|2,3:2|1:2,0:0:0:0:
448,256,32379,5,2,3:2:0:0:
256,128,32529,1,2,0:2:0:0:
448,0,32679,1,2,1:2:0:0:
320,224,32829,1,2,1:2:0:0:
192,0,32979,1,2,3:2:0:0:
32,352,33279,5,2,1:2:0:0:
160,224,33429,1,2,0:0:0:0:
0,0,33579,2,0,L|64:256,1,223.999993164063,2|2,3:2|1:2,0:0:0:0:
256,304,34029,1,2,0:2:0:0:
457,217,34179,2,0,L|512:0,1,223.999993164063,2|2,3:2|1:2,0:0:0:0:
434,103,34629,1,0,0:0:0:0:
192,32,34779,69,0,3:0:0:0:
288,256,34929,1,0,1:0:0:0:
320,114,35079,1,2,1:2:0:0:
71,52,35229,1,0,1:0:0:0:
39,194,35379,6,0,L|120:176,3,55.9999982910157,2|0|0|2,1:2|0:0|0:0|0:0,0:0:0:0:
230,278,35679,2,0,L|284:265,3,55.9999982910157,0|0|2|0,1:0|0:0|3:2|0:0,0:0:0:0:
337,28,35979,5,4,3:2:0:0:
479,116,36129,1,2,0:0:0:0:
388,257,36279,1,0,1:0:0:0:
246,169,36429,1,2,0:0:0:0:
483,219,36579,5,0,3:0:0:0:
440,19,36729,1,2,0:0:0:0:
241,65,36879,1,0,1:0:0:0:
284,265,37029,1,2,0:0:0:0:
462,329,37179,70,0,L|485:207,1,111.999996582031,0|2,3:0|0:0,0:0:0:0:
241,65,37479,1,0,1:0:0:0:
369,148,37629,1,2,0:0:0:0:
176,296,37779,2,0,P|110:314|64:336,1,111.999996582031,0|2,3:0|0:0,0:0:0:0:
26,167,38079,2,0,P|92:149|138:127,1,111.999996582031,0|2,1:0|0:0,0:0:0:0:
297,361,38379,6,0,B|313:224|368:298|390:143,1,223.999993164063,0|0,3:0|1:0,0:0:0:0:
189,32,38829,1,2,0:0:0:0:
267,166,38979,1,0,3:0:0:0:
462,51,39129,5,2,0:0:0:0:
306,51,39279,1,0,1:0:0:0:
402,277,39429,1,2,0:0:0:0:
497,180,39579,6,0,P|429:174|345:139,1,111.999996582031,0|2,3:0|0:0,0:0:0:0:
210,285,39879,1,0,1:0:0:0:
302,99,40029,1,2,1:2:0:0:
15,204,40179,2,0,P|83:210|167:245,1,111.999996582031,0|2,3:0|1:2,0:0:0:0:
312,360,40479,1,0,1:2:0:0:
256,192,40629,1,2,1:2:0:0:
192,32,40779,70,0,P|176:80|192:128,1,88.000002685547,0|2,3:0|0:0,0:0:0:0:
360,243,41079,1,0,3:2:0:0:
179,354,41229,1,2,0:0:0:0:
320,32,41379,2,0,P|336:80|320:128,1,88.000002685547,0|2,3:0|0:0,0:0:0:0:
152,243,41679,1,0,3:2:0:0:
333,354,41829,1,2,0:0:0:0:
101,349,41979,6,0,L|-23:378,1,103.999995239258,0|2,3:0|0:0,0:0:0:0:
148,233,42279,1,0,3:2:0:0:
75,107,42429,1,2,0:0:0:0:
411,349,42579,6,0,L|535:378,1,103.999995239258,0|2,3:0|0:0,0:0:0:0:
364,233,42879,1,0,3:2:0:0:
437,107,43029,1,2,0:0:0:0:
256,368,43179,5,2,3:2:0:0:
256,256,43329,2,0,L|256:32,1,207.999990478516,2|2,3:2|3:2,0:0:0:0:
208,152,43779,70,0,L|336:152,1,103.999995239258,2|0,3:2|0:0,0:0:0:0:
256,360,44079,2,0,L|256:232,1,103.999995239258,2|0,3:2|0:0,0:0:0:0:
256,48,44379,1,2,3:2:0:0:
145,322,44679,5,0,1:0:0:0:
256,192,44829,1,0,1:0:0:0:
367,322,44979,1,4,1:2:0:0:
48,192,45579,37,2,0:3:0:0:
48,192,45654,2,0,L|60:142,1,40,2|0,0:3|0:0,0:0:0:0:
464,192,45954,6,0,L|451:142,4,40,2|2|2|2|2,0:3|0:3|0:3|0:3|0:3,0:0:0:0:
317,334,46179,6,0,L|347:83,1,240,4|0,3:3|0:0,0:0:0:0:
195,334,46779,2,0,L|166:95,1,240,4|0,0:3|0:0,0:0:0:0:
317,334,47379,6,0,L|410:99,1,240,4|0,0:3|0:0,0:0:0:0:
195,334,47979,2,0,L|101:99,1,240,4|0,0:3|0:0,0:0:0:0:
317,334,48579,70,0,L|468:131,1,240,4|0,0:3|0:0,0:0:0:0:
195,334,49179,2,0,L|43:131,1,240,4|0,0:3|0:0,0:0:0:0:
447,351,49779,6,0,B|445:346|442:341|442:341|437:342|437:342|440:338|440:338|438:334|435:329|435:329|439:325|439:325|434:327|434:327|431:323|428:318|428:318|423:320|423:320|427:316|427:316|424:312|420:308|420:308|423:304|423:304|419:306|419:306|415:301|412:298|412:298|407:300|407:300|410:296|410:296|406:292|403:289|403:289|406:284|406:284|401:287|401:287|397:283|393:280|393:280|389:282|389:282|391:278|391:278|388:275|384:272|384:272|379:269|379:269|381:274|381:274|380:275|380:275|381:271|381:271|379:270|377:268|377:268|373:272|373:272|375:267|375:267|371:264|367:261|367:261|368:256|368:256|364:260|364:260|360:257|355:255|355:255|352:258|352:258|353:253|353:253|348:251|344:249|344:249|344:243|344:243|341:247|341:247|336:245|332:244|332:244|329:248|329:248|329:242|329:242|324:241|320:239|320:239|320:234|320:234|317:238|317:238|311:237|307:236|307:236|304:240|304:240|304:235|304:235|299:234|294:233|294:233|294:228|294:228|291:232|291:232|290:232|290:232|290:227|290:227|288:231|288:231|286:236|286:236|285:231|285:231|280:230|276:230|276:230|275:225|275:225|273:229|273:229|268:229|263:229|263:229|262:234|262:234|260:229|260:229|255:229|250:229|250:229|248:224|248:224|247:229|247:229|242:229|237:230|237:230|236:235|236:235|234:230|234:230|229:231|224:231|224:231|222:227|222:227|221:232|221:232|216:233|211:234|211:234|211:239|211:239|208:234|208:234|203:235|199:237|199:237|196:232|196:232|196:238|196:238|192:239|188:240|188:240|188:245|188:245|188:242|188:242|193:244|193:244|188:245|188:245|185:241|185:241|183:242|181:243|181:243|177:238|177:238|178:244|178:244|173:246|169:248|169:248|169:253|169:253|166:249|166:249|161:251|157:253|157:253|153:250|153:250|154:255|154:255|150:257|146:260|146:260|147:265|147:265|143:261|143:261|139:264|135:267|135:267|131:264|131:264|132:269|132:269|128:272|124:275|124:275|126:280|126:280|122:277|122:277|118:280|114:283|114:283|110:280|110:280|112:285|112:285|108:289|105:292|105:292|107:296|107:296|103:294|103:294|102:295|102:295|98:293|98:293|100:297|100:297|96:295|96:295|98:299|98:299|95:303|92:307|92:307|95:311|95:311|90:309|90:309|87:313|84:317|84:317|79:316|79:316|82:320|82:320|79:324|77:328|77:328|80:332|80:332|75:331|75:331|72:335|70:339|70:339|65:338|65:338|69:342|69:342|66:347|64:352,1,792.000007553101,4|0,0:3|1:0,0:0:0:0:
308,244,50979,38,0,P|256:232|180:252,1,103.999995239258,6|0,3:2|0:0,0:0:0:0:
256,352,51279,1,2,1:2:0:0:
256,352,51429,1,2,0:0:0:0:
183,119,51579,2,0,L|155:19,1,103.999995239258,2|0,3:2|0:0,0:0:0:0:
328,119,51879,2,0,L|357:19,1,103.999995239258,2|0,1:2|0:0,0:0:0:0:
207,240,52179,5,2,3:2:0:0:
183,119,52329,1,2,0:2:0:0:
308,244,52479,1,2,1:2:0:0:
328,119,52629,1,2,1:2:0:0:
153,345,52779,2,0,L|397:345,1,207.999990478516,2|2,3:2|1:2,0:0:0:0:
468,345,53229,1,2,0:0:0:0:
256,164,53379,6,0,L|136:376,1,207.999990478516,2|2,3:2|1:2,0:0:0:0:
101,199,53829,1,2,0:2:0:0:
361,344,53979,2,0,L|237:133,1,207.999990478516,2|2,3:2|1:2,0:0:0:0:
408,193,54429,1,0,0:0:0:0:
205,49,54579,6,0,L|339:49,1,103.999995239258,0|0,3:0|0:0,0:0:0:0:
90,115,54879,1,2,1:2:0:0:
256,166,55029,1,0,1:0:0:0:
422,115,55179,70,0,L|435:56,3,51.999997619629,2|0|0|2,1:2|0:0|0:0|0:0,0:0:0:0:
465,272,55479,2,0,L|476:221,3,51.999997619629,0|0|2|0,1:0|0:0|0:0|0:0,0:0:0:0:
343,363,55779,5,0,3:0:0:0:
144,264,55929,2,0,L|181:266,4,25.9999988098145,2|2|2|2|0,0:3|0:3|0:3|0:3|1:0,0:0:0:0:
343,363,56229,1,2,0:0:0:0:
49,321,56379,70,0,L|251:349,1,191.999994140625,2|0,3:1|1:0,0:0:0:0:
463,63,56979,2,0,L|260:34,1,191.999994140625,4|2,3:0|0:0,0:0:0:0:
252,136,57429,1,2,0:0:0:0:
463,63,57579,2,0,L|260:34,1,191.999994140625,4|2,3:0|0:0,0:0:0:0:
256,240,58029,1,2,0:0:0:0:
49,63,58179,6,0,P|104:60|152:184,1,191.999994140625,4|2,3:0|0:0,0:0:0:0:
48,168,58629,1,2,0:0:0:0:
256,352,58779,2,0,B|324:332|324:332|336:300|336:300|440:268,1,191.999994140625,4|2,3:0|0:0,0:0:0:0:
64,320,59379,69,4,3:0:0:0:
256,192,59679,1,2,1:2:0:0:
448,64,59979,1,2,1:2:0:0:
456,356,62004,6,0,L|467:309,4,30.0000011444092,0|0|0|0|0,3:0|3:0|3:0|3:0|3:0,0:0:0:0:
192,352,62979,6,0,L|185:322,2,30.0000011444092,0|0|0,3:0|3:0|3:0,0:0:0:0:
320,288,63129,2,0,L|313:258,2,30.0000011444092,0|0|0,1:0|1:0|1:0,0:0:0:0:
192,160,63279,2,0,L|198:189,8,30.0000011444092,2|2|2|2|2|2|2|0|0,3:2|3:2|3:2|3:2|3:2|3:2|3:2|0:0|0:0,0:0:0:0:
256,12,63654,5,0,1:0:0:0:
256,12,63729,1,0,1:0:0:0:
256,12,63804,2,0,L|256:108,1,60.0000022888184,0|0,1:0|1:0,0:0:0:0:
352,128,63954,1,0,0:0:0:0:
84,296,64179,69,0,3:0:0:0:
84,296,64254,1,0,3:0:0:0:
84,296,64329,2,0,L|97:224,1,60.0000022888184,0|0,3:0|3:0,0:0:0:0:
206,349,64479,1,0,3:0:0:0:
206,349,64554,1,0,3:0:0:0:
206,349,64629,2,0,L|219:277,1,60.0000022888184,0|0,0:0|1:0,0:0:0:0:
353,144,64779,5,0,1:0:0:0:
396,135,64854,1,0,1:0:0:0:
438,151,64929,1,2,1:2:0:0:
464,187,65004,1,2,0:0:0:0:
468,231,65079,1,2,0:0:0:0:
426,188,65154,1,2,0:0:0:0:
410,131,65229,1,2,0:0:0:0:
423,73,65304,1,2,0:0:0:0:
485,34,65379,6,0,B|243:9|243:9|491:386,1,660.000020141602,2|0,3:2|0:0,0:0:0:0:
386,302,66579,6,0,L|295:339,1,60.0000022888184,0|0,3:0|0:0,0:0:0:0:
291,229,66729,2,0,L|346:206,1,60.0000022888184,0|0,3:0|0:0,0:0:0:0:
216,369,66879,1,0,1:0:0:0:
218,354,66954,1,0,3:0:0:0:
220,339,67029,1,0,1:0:0:0:
222,324,67104,1,0,3:0:0:0:
224,310,67179,1,0,1:0:0:0:
456,217,67329,1,0,1:0:0:0:
101,83,67479,1,2,0:0:0:0:
36,364,67779,69,0,3:0:0:0:
42,334,67854,1,0,3:0:0:0:
48,305,67929,1,0,3:0:0:0:
54,275,68004,1,0,3:0:0:0:
61,246,68079,2,0,L|46:162,3,60.0000022888184,2|2|2|2,0:2|0:2|0:2|0:2,0:0:0:0:
94,88,68379,2,0,P|74:38|-2:29,1,120.000004577637,0|0,1:0|0:0,0:0:0:0:
192,288,68679,5,0,3:0:0:0:
256,192,68791,5,0,0:0:0:0:
320,96,68904,5,0,0:0:0:0:
352,256,68979,70,0,L|441:241,1,60.0000022888184,0|0,1:0|0:0,0:0:0:0:
192,96,69129,2,0,L|103:111,1,60.0000022888184,0|0,3:0|0:0,0:0:0:0:
448,0,69279,1,0,3:0:0:0:
455,45,69354,1,0,1:0:0:0:
463,89,69429,1,0,3:0:0:0:
471,133,69504,1,0,1:0:0:0:
478,178,69579,1,2,0:0:0:0:
183,296,70179,5,4,3:2:0:0:
64,96,70329,1,0,3:0:0:0:
320,192,70479,1,0,3:0:0:0:
320,192,70554,1,0,3:0:0:0:
320,192,70629,2,0,P|276:226|225:205,1,68.0000012969971,0|0,3:0|3:0,0:0:0:0:
160,192,70779,2,0,L|64:192,2,68.0000012969971,0|0|0,1:0|1:0|1:0,0:0:0:0:
416,352,71079,5,0,3:0:0:0:
416,352,71154,1,0,0:0:0:0:
416,352,71229,2,0,L|430:274,1,68.0000012969971,0|0,1:0|1:0,0:0:0:0:
512,224,71379,5,0,3:0:0:0:
495,175,71454,1,0,3:0:0:0:
457,142,71529,1,0,3:0:0:0:
408,132,71604,1,0,3:0:0:0:
360,149,71679,1,0,3:0:0:0:
312,164,71754,1,0,3:0:0:0:
265,147,71829,1,0,3:0:0:0:
238,105,71904,1,0,3:0:0:0:
256,61,71979,2,0,L|399:31,1,136.000002593994,0|0,1:0|3:0,0:0:0:0:
256,323,72279,2,0,L|399:353,1,136.000002593994,0|0,1:0|3:0,0:0:0:0:
111,91,72579,69,0,1:0:0:0:
147,148,72654,1,0,3:0:0:0:
183,205,72729,1,0,1:0:0:0:
220,263,72804,1,0,3:0:0:0:
256,323,72879,1,0,1:0:0:0:
292,263,72954,1,0,3:0:0:0:
329,205,73029,1,0,1:0:0:0:
365,148,73104,1,0,3:0:0:0:
400,96,73179,2,0,L|400:32,4,34.0000006484985,0|0|0|0|0,3:0|3:0|3:0|3:0|3:0,0:0:0:0:
400,288,73479,1,0,1:0:0:0:
400,288,73554,2,0,L|400:352,4,34.0000006484985,0|0|0|0|0,1:0|1:0|1:0|1:0|1:0,0:0:0:0:
297,181,73779,5,0,3:0:0:0:
297,181,73854,1,0,3:0:0:0:
297,181,73929,2,0,L|297:279,1,68.0000012969971,0|0,1:0|0:0,0:0:0:0:
248,339,74079,1,0,3:0:0:0:
0,0,74379,5,0,1:0:0:0:
64,19,74454,1,0,1:0:0:0:
129,39,74529,1,0,1:0:0:0:
194,59,74604,1,0,1:0:0:0:
259,79,74679,2,0,L|120:132,1,136.000002593994,0|0,3:0|3:0,0:0:0:0:
473,13,74979,5,0,3:0:0:0:
473,13,75054,1,0,3:0:0:0:
473,13,75129,2,0,L|398:33,1,68.0000012969971,0|0,3:0|3:0,0:0:0:0:
271,91,75279,1,0,1:0:0:0:
271,91,75354,1,0,1:0:0:0:
271,91,75429,2,0,L|410:143,1,136.000002593994,0|0,0:0|3:0,0:0:0:0:
459,230,75654,1,0,3:0:0:0:
459,230,75729,2,0,L|514:254,2,34.0000006484985,0|0|0,1:0|1:0|1:0,0:0:0:0:
357,284,75879,1,0,1:0:0:0:
211,345,76029,69,0,1:0:0:0:
211,345,76104,1,0,1:0:0:0:
211,345,76179,1,0,1:0:0:0:
217,311,76254,1,0,1:0:0:0:
224,278,76329,1,0,1:0:0:0:
231,245,76404,1,0,0:0:0:0:
237,211,76479,6,0,L|154:222,3,68.0000012969971,0|0|0|0,3:0|1:0|3:0|1:0,0:0:0:0:
79,163,76779,1,0,3:0:0:0:
79,163,76854,1,0,3:0:0:0:
79,163,76929,2,0,L|-13:180,1,68.0000012969971,0|0,3:0|3:0,0:0:0:0:
77,320,77079,2,0,L|261:354,1,136.000002593994,0|0,3:0|0:0,0:0:0:0:
332,94,77379,6,0,L|351:29,1,68.0000012969971,0|0,3:0|3:0,0:0:0:0:
161,29,77529,2,0,L|179:94,1,68.0000012969971,0|0,3:0|3:0,0:0:0:0:
304,232,77679,1,0,1:0:0:0:
304,232,77754,1,0,3:0:0:0:
304,232,77829,2,0,L|340:101,1,136.000002593994,0|0,3:0|3:0,0:0:0:0:
490,109,78054,1,0,1:0:0:0:
491,153,78129,1,0,3:0:0:0:
465,189,78204,1,0,1:0:0:0:
422,203,78279,2,0,L|381:349,1,136.000002593994,0|0,1:0|1:0,0:0:0:0:
110,282,78579,5,0,3:0:0:0:
132,270,78654,1,0,3:0:0:0:
173,249,78729,69,0,3:0:0:0:
195,237,78804,1,0,3:0:0:0:
105,143,78954,5,0,3:0:0:0:
127,155,79029,1,0,3:0:0:0:
176,372,79179,5,0,3:0:0:0:
176,372,79254,2,0,L|195:237,1,136.000002593994,0|0,3:0|0:0,0:0:0:0:
327,74,79479,1,0,3:0:0:0:
327,74,79554,2,0,L|307:196,1,68.0000012969971,0|0,3:0|3:0,0:0:0:0:
507,164,79704,1,2,0:0:0:0:
451,157,79779,6,0,L|307:140,1,136.000002593994,4|0,3:2|0:0,0:0:0:0:
60,222,80079,2,0,L|196:238,1,136.000002593994,2|0,0:0|0:0,0:0:0:0:
490,13,80379,2,0,B|484:18|484:18|187:48,1,272.000005187988,0|2,3:2|0:0,0:0:0:0:
428,357,80979,69,2,3:2:0:0:
441,155,81129,1,2,0:2:0:0:
84,27,81279,1,2,0:2:0:0:
71,229,81429,1,2,0:2:0:0:
178,235,81579,2,0,B|116:209|116:209|100:154|100:154|-10:119,1,204.000003890991,2|0,3:2|0:0,0:0:0:0:
24,129,81879,5,2,0:2:0:0:
256,72,82029,1,2,0:2:0:0:
487,129,82179,1,2,3:2:0:0:
140,340,82479,5,2,0:2:0:0:
256,192,82629,1,2,0:2:0:0:
372,340,82779,2,0,L|512:296,1,136.000002593994,2|0,3:2|0:0,0:0:0:0:
140,44,83079,2,0,L|0:88,1,136.000002593994
240,324,83379,6,0,L|280:-8,2,272.000005187988,2|2|2,3:2|0:2|3:2,0:0:0:0:
291,294,84054,1,2,0:2:0:0:
343,264,84129,1,2,0:2:0:0:
300,224,84204,1,2,0:2:0:0:
256,184,84279,1,2,0:2:0:0:
212,144,84354,1,2,0:2:0:0:
168,104,84429,1,2,0:2:0:0:
219,79,84504,1,2,0:2:0:0:
273,54,84579,70,0,L|448:105,1,136.000002593994,2|0,3:2|0:0,0:0:0:0:
238,329,84879,2,0,L|64:279,1,136.000002593994,2|0,0:2|0:0,0:0:0:0:
449,0,85179,2,0,B|460:3|460:3|481:295,1,272.000005187988,0|2,3:0|0:2,0:0:0:0:
48,192,85779,5,2,3:2:0:0:
168,112,85929,1,2,0:2:0:0:
256,0,86079,1,2,0:2:0:0:
344,112,86229,1,2,0:2:0:0:
464,192,86379,2,0,B|362:168|362:168|401:291,1,204.000003890991,2|0,3:2|0:0,0:0:0:0:
391,262,86679,5,2,0:2:0:0:
256,28,86829,1,2,0:2:0:0:
120,262,86979,1,2,3:2:0:0:
256,352,87279,5,2,0:2:0:0:
256,192,87429,1,2,0:2:0:0:
256,28,87579,1,2,3:2:0:0:
104,372,87879,70,0,P|28:332|20:268,1,136.000002593994,2|0,0:2|0:0,0:0:0:0:
408,12,88179,2,0,P|484:52|492:116,1,136.000002593994,2|0,3:2|0:0,0:0:0:0:
44,92,88479,2,0,L|200:68,1,136.000002593994,2|0,0:2|0:0,0:0:0:0:
480,304,88779,2,0,L|324:328,1,136.000002593994,2|2,3:2|0:0,0:0:0:0:
345,324,89004,1,2,0:0:0:0:
345,324,89079,2,0,L|364:248,1,68.0000012969971,2|0,0:0|0:0,0:0:0:0:
256,192,89229,2,0,L|275:116,1,68.0000012969971,2|0,0:0|0:0,0:0:0:0:
37,284,89379,6,0,L|100:10,1,280,4|0,3:2|0:0,0:0:0:0:
127,345,89979,2,0,L|190:69,1,280,0|0,3:0|0:0,0:0:0:0:
240,317,90579,2,0,L|303:41,1,280,0|0,3:0|0:0,0:0:0:0:
332,370,91179,2,0,L|395:94,1,280,0|0,3:0|0:0,0:0:0:0:
426,290,91779,6,0,B|358:269|358:269|352:222|352:222|195:173,1,280,0|0,3:0|0:0,0:0:0:0:
0,306,92379,2,0,B|49:356|49:356|88:190,1,240,0|2,3:0|0:0,0:0:0:0:
89,191,92904,1,2,0:0:0:0:
89,191,92979,1,0,3:0:0:0:
349,120,93129,1,2,0:0:0:0:
220,251,93279,2,0,L|191:153,1,80,2|2,0:0|0:0,0:0:0:0:
6,0,93579,5,0,3:0:0:0:
3,51,93654,1,0,0:0:0:0:
31,93,93729,1,2,0:0:0:0:
79,111,93804,1,2,0:0:0:0:
128,98,93879,1,2,0:0:0:0:
174,76,93954,1,0,0:0:0:0:
225,80,94029,1,2,0:0:0:0:
268,109,94104,1,0,0:0:0:0:
291,155,94179,70,0,P|362:112|380:263,1,280,0|0,3:0|0:0,0:0:0:0:
221,229,94779,2,0,P|150:272|132:121,1,280,0|0,3:0|0:0,0:0:0:0:
413,93,95379,2,0,P|363:223|332:360,1,280,0|0,3:0|0:0,0:0:0:0:
98,290,95979,2,0,P|148:160|180:24,1,280,0|0,3:0|0:0,0:0:0:0:
23,117,96579,6,0,B|64:94|250:88|109:152|250:158|317:123,1,280,0|0,3:0|0:0,0:0:0:0:
489,267,97179,2,0,B|455:284|307:290|419:238|307:233|253:261,1,240,0|2,3:0|0:0,0:0:0:0:
257,259,97704,1,2,0:0:0:0:
257,259,97779,1,0,3:0:0:0:
423,171,97929,1,2,0:0:0:0:
106,292,98079,2,0,L|82:179,1,80,2|2,0:0|0:0,0:0:0:0:
406,92,98379,2,0,L|430:205,1,80,0|2,3:0|0:0,0:0:0:0:
0,4,98679,1,2,0:0:0:0:
499,367,98979,38,0,L|511:227,1,136.000002593994,2|2,3:2|1:2,0:0:0:0:
375,60,99579,2,0,L|363:195,1,136.000002593994,0|2,3:2|1:2,0:0:0:0:
200,356,100179,1,2,3:2:0:0:
364,196,100329,1,2,0:2:0:0:
312,356,100479,1,2,1:2:0:0:
148,196,100629,1,2,1:2:0:0:
256,20,100779,2,0,L|256:188,1,136.000002593994,2|2,3:2|1:2,0:0:0:0:
48,236,101229,1,2,0:0:0:0:
256,256,101379,6,0,P|340:216|356:152,1,136.000002593994,2|2,3:2|1:2,0:0:0:0:
256,16,101829,1,2,0:2:0:0:
157,180,101979,2,0,P|192:237|256:256,1,136.000002593994,2|2,3:2|1:2,0:0:0:0:
447,38,102579,6,0,L|467:118,1,68.0000012969971,0|0,3:0|0:0,0:0:0:0:
355,181,102879,1,2,1:2:0:0:
355,181,103029,1,0,1:0:0:0:
504,338,103179,2,0,L|471:206,1,136.000002593994,2|0,1:2|1:0,0:0:0:0:
8,338,103779,6,0,L|40:206,1,136.000002593994,2|2,3:2|1:2,0:0:0:0:
243,216,104379,2,0,L|210:347,1,136.000002593994,0|2,3:2|1:2,0:0:0:0:
8,338,104979,1,2,3:2:0:0:
100,287,105129,1,2,0:2:0:0:
243,216,105279,1,2,1:2:0:0:
151,165,105429,1,2,1:2:0:0:
12,84,105579,2,0,L|152:59,1,136.000002593994,2|2,3:2|1:2,0:0:0:0:
256,8,106029,1,2,0:0:0:0:
366,60,106179,70,0,L|500:84,1,136.000002593994,2|2,3:2|1:2,0:0:0:0:
412,176,106629,1,2,0:2:0:0:
412,176,106779,1,2,3:2:0:0:
256,356,107079,1,2,1:2:0:0:
100,176,107379,1,0,3:0:0:0:
256,0,107979,5,2,0:0:0:0:
256,4,108279,1,2,0:0:0:0:
256,8,108579,1,2,0:0:0:0:
256,112,109404,70,0,L|256:140,4,17.0000003242493,2|2|2|2|2,0:3|0:3|0:3|0:3|0:3,0:0:0:0:
156,192,109629,5,2,0:0:0:0:
144,264,109704,1,2,0:0:0:0:
188,320,109779,1,2,0:0:0:0:
256,344,109854,1,2,0:0:0:0:
324,320,109929,1,2,0:0:0:0:
368,264,110004,1,2,0:0:0:0:
356,192,110079,1,2,0:0:0:0:
