osu file format v14

[General]
AudioFilename: audio.mp3
AudioLeadIn: 0
PreviewTime: 91840
Countdown: 0
SampleSet: Soft
StackLeniency: 0.4
Mode: 0
LetterboxInBreaks: 0
WidescreenStoryboard: 1

[Editor]
Bookmarks: 5440,15040,24640,39040,58240,63040,67090,76390,82240,85240,91840,111040
DistanceSpacing: 0.3
BeatDivisor: 8
GridSize: 8
TimelineZoom: 2.699999

[Metadata]
Title:Monkey Business -Satire mix-
TitleUnicode:Monkey Business -Satire mix-
Artist:LeaF
ArtistUnicode:LeaF
Creator:waefwerf
Version:Insane+
Source:SOUND VOLTEX III GRAVITY WARS
Tags:electronic instrumental kors k korsk bemani konami minuspc -pc ajt striderin yokespai arbane aistre alphabet venax verychill
BeatmapID:2541431
BeatmapSetID:1221791

[Difficulty]
HPDrainRate:5
CircleSize:3.8
OverallDifficulty:8
ApproachRate:9
SliderMultiplier:1.7
SliderTickRate:1

[Events]
//Background and Video events
0,0,"monkeybusiness.jpg",0,0
//Break Periods
2,82440,83740
//Storyboard Layer 0 (Background)
//Storyboard Layer 1 (Fail)
//Storyboard Layer 2 (Pass)
//Storyboard Layer 3 (Foreground)
//Storyboard Layer 4 (Overlay)
//Storyboard Sound Samples

[TimingPoints]
640,300,4,2,1,70,1,0
4765,-100,4,2,1,5,0,0
4840,-100,4,2,1,70,0,0
15040,-83.3333333333333,4,2,1,90,0,0
19390,-71.4285714285714,4,2,1,90,0,0
19840,-83.3333333333333,4,2,1,90,0,0
23740,-125,4,2,1,90,0,0
24340,-125,4,2,1,70,0,0
24640,-100,4,2,1,90,0,0
29440,-83.3333333333333,4,2,1,90,0,0
33790,-66.6666666666667,4,2,1,90,0,0
34240,-83.3333333333333,4,2,1,90,0,0
38140,-125,4,2,1,90,0,0
38590,-83.3333333333333,4,2,1,90,0,0
40990,-66.6666666666667,4,2,1,90,0,0
41440,-83.3333333333333,4,2,1,90,0,0
45790,-66.6666666666667,4,2,1,90,0,0
46240,-83.3333333333333,4,2,1,90,0,0
47440,-66.6666666666667,4,2,1,90,0,0
48640,-83.3333333333333,4,2,1,90,0,0
57040,-66.6666666666667,4,2,1,90,0,0
58240,-83.3333333333333,4,2,1,90,0,0
59440,-100,4,2,1,90,0,0
61840,-125,4,2,1,90,0,0
62140,-83.3333333333333,4,2,1,90,0,0
62740,-66.6666666666667,4,2,1,90,0,1
62965,-90.9090909090909,4,2,1,5,0,1
63040,-83.3333333333333,4,2,1,90,0,0
64990,-55.5555555555556,4,2,1,90,0,0
65440,-83.3333333333333,4,2,1,90,0,0
66640,-83.3333333333333,4,2,1,90,0,0
67390,-66.6666666666667,4,2,1,90,0,1
67765,-83.3333333333333,4,2,1,5,0,1
67840,-83.3333333333333,4,2,1,90,0,0
69790,-55.5555555555556,4,2,1,90,0,0
70240,-83.3333333333333,4,2,1,90,0,0
71440,-83.3333333333333,4,2,1,90,0,0
72640,-83.3333333333333,4,2,1,90,0,1
72940,-83.3333333333333,4,2,1,90,0,0
76990,-83.3333333333333,4,2,1,90,0,1
77140,-66.6666666666667,4,2,1,90,0,1
77365,-83.3333333333333,4,2,1,90,0,0
81640,-66.6666666666667,4,2,1,90,0,0
82240,-83.3333333333333,4,2,1,70,0,0
84340,-50,4,2,1,70,0,0
84640,-100,4,2,1,90,0,0
85840,-83.3333333333333,4,2,1,90,0,0
86440,-83.3333333333333,4,2,1,60,0,0
87040,-83.3333333333333,4,2,1,90,0,0
90640,-100,4,2,1,90,0,0
90865,-83.3333333333333,4,2,1,90,0,0
91540,-125,4,2,1,90,0,0
91840,-76.9230769230769,4,2,1,90,0,1
108640,-66.6666666666667,4,2,1,90,0,1
111040,-86.9565217391304,4,2,1,90,0,1
111190,-86.9565217391304,4,2,1,90,0,0

[Colours]
Combo1 : 255,255,94
Combo2 : 179,208,207
Combo3 : 173,233,92
Combo4 : 131,182,243
Combo5 : 186,185,135
Combo6 : 255,0,128
Combo7 : 255,255,0

[HitObjects]
15,116,4240,6,0,B|84:59|232:98|199:240|107:212,1,297.5,4|0,1:0|0:0,0:0:0:0:
113,213,4840,2,2,P|93:170|129:139,1,85,0|0,0:0|1:0,0:2:0:0:
234,318,5140,1,0,1:0:0:0:
234,318,5440,6,0,P|314:333|399:371,1,170,0|2,1:0|0:0,0:0:0:0:
483,306,5890,1,0,3:0:0:0:
412,360,6040,1,0,3:0:0:0:
483,306,6340,1,2,1:2:0:0:
412,360,6640,6,0,P|384:314|381:177,1,170,0|2,1:0|0:0,0:0:0:0:
362,211,7090,1,0,3:0:0:0:
505,78,7240,2,2,B|467:40|467:40|451:172,1,170,2|2,3:2|1:2,0:1:0:0:
454,156,7840,6,0,B|381:145|359:200|286:183,1,170,0|2,1:0|0:0,0:0:0:0:
189,163,8290,1,0,3:0:0:0:
278,198,8440,1,4,1:3:0:0:
189,163,8740,2,0,P|159:199|171:246,1,85,2|4,1:2|0:3,0:0:0:0:
278,198,9040,2,0,P|282:138|310:43,1,127.5,0|0,1:0|0:0,0:0:0:0:
298,72,9340,1,2,0:2:0:0:
255,1,9640,54,2,P|282:99|301:280,1,255,0|0,0:1|0:0,0:1:0:0:
292,363,10240,6,0,L|119:334,1,170,0|2,1:0|0:0,0:0:0:0:
30,350,10690,1,0,3:0:0:0:
121,352,10840,2,2,L|206:339,1,85,2|0,3:0|0:0,0:2:0:0:
30,350,11140,1,2,1:2:0:0:
121,352,11440,6,2,L|206:339,1,85,0|2,1:0|0:3,0:2:0:0:
30,350,11740,2,2,L|115:363,1,85,2|0,0:0|3:0,0:2:0:0:
508,311,12040,1,2,3:1:0:0:
508,311,12340,1,0,1:0:0:0:
478,144,12640,5,0,1:0:0:0:
397,135,12790,2,0,P|354:142|320:172,1,85,8|2,0:3|0:0,0:0:0:0:
478,144,13090,1,0,3:0:0:0:
373,228,13240,2,0,P|306:214|200:158,1,170,6|2,1:3|1:2,0:0:0:0:
101,41,13840,54,2,L|188:20,1,85,0|0,1:0|0:0,0:2:0:0:
18,65,14140,1,2,1:0:0:0:
84,1,14440,6,2,L|25:264,1,255,0|0,1:0|0:0,0:1:0:0:
20,373,15040,6,0,P|87:380|126:314,1,152.999995330811,4|0,1:2|3:0,0:0:0:0:
125,313,15340,1,2,3:0:0:0:
203,373,15490,1,2,3:2:0:0:
125,313,15640,2,0,P|151:264|206:275,1,101.999996887207,0|2,3:0|0:2,0:0:0:0:
230,342,15865,1,0,3:0:0:0:
214,360,15940,2,0,P|256:387|304:376,1,101.999996887207,2|2,3:3|3:2,0:0:0:0:
451,374,16240,5,0,3:0:0:0:
477,370,16315,2,0,P|495:345|493:316,2,50.9999984436036,0|2|0,3:0|3:2|3:0,0:0:0:0:
445,272,16540,2,0,P|409:232|423:179,1,101.999996887207,2|2,3:0|3:2,0:0:0:0:
477,32,16840,1,0,3:0:0:0:
463,52,16915,2,0,P|481:117|495:209,1,152.999995330811,0|2,3:0|0:3,0:0:0:0:
445,272,17290,1,2,3:2:0:0:
367,253,17440,54,0,L|207:285,1,152.999995330811,0|0,1:0|3:0,0:0:0:0:
216,283,17740,1,2,3:0:0:0:
193,371,17890,1,2,3:2:0:0:
216,283,18040,6,0,P|184:248|166:246,1,50.9999984436036,0|0,3:0|3:0,3:0:0:0:
146,237,18190,2,0,P|104:258|98:274,1,50.9999984436036,2|0,3:2|3:0,3:0:0:0:
193,371,18340,2,0,P|133:373|93:336,1,101.999996887207,2|2,3:0|3:2,0:0:0:0:
6,156,18640,5,0,3:0:0:0:
21,173,18715,2,0,P|57:182|110:144,1,101.999996887207,0|0,3:0|3:0,0:0:0:0:
122,126,18940,1,2,3:0:0:0:
78,18,19090,2,0,L|14:27,1,50.9999984436036,2|0,3:2|3:0,0:0:0:0:
19,35,19240,1,0,3:0:0:0:
260,80,19390,6,2,B|214:72|214:72|194:60|194:60|141:52,2,118.999996368408,0|0|0,3:1|3:0|0:0,0:1:0:0:
160,134,19840,53,4,1:0:0:0:
280,4,19990,1,0,0:0:0:0:
280,4,20065,1,0,3:0:0:0:
280,4,20140,2,0,P|332:17|357:68,1,101.999996887207,2|0,3:2|3:0,0:0:0:0:
356,86,20365,1,0,3:0:0:0:
356,86,20440,1,2,3:2:0:0:
294,171,20590,2,0,P|283:142|287:121,1,50.9999984436036,0|0,0:0|3:0,0:0:0:0:
356,86,20740,2,0,P|410:102|428:141,1,101.999996887207,2|0,3:2|3:0,0:0:0:0:
512,195,21040,6,0,P|491:194|462:205,1,50.9999984436036,4|0,1:2|0:0,0:0:0:0:
413,259,21190,2,0,P|411:279|423:308,1,50.9999984436036,0|0,0:0|3:0,0:0:0:0:
411,358,21340,2,0,L|512:346,1,101.999996887207,2|0,3:2|3:2,0:0:0:0:
360,285,21640,2,0,B|283:260|294:321|211:294,1,152.999995330811,2|0,3:2|0:0,0:0:0:0:
189,262,21940,1,2,3:2:0:0:
153,384,22090,1,2,3:2:0:0:
30,362,22240,6,0,P|6:313|28:247,1,101.999996887207,4|2,1:2|0:0,0:0:0:0:
38,198,22465,1,0,3:0:0:0:
38,198,22540,2,0,P|91:190|109:196,1,50.9999984436036,2|0,3:1|0:0,0:0:0:0:
156,217,22690,2,0,P|164:270|158:288,1,50.9999984436036,2|0,3:2|3:0,0:0:0:0:
235,293,22840,6,0,P|259:244|237:178,1,101.999996887207,4|2,1:2|3:2,0:0:0:0:
236,122,23065,1,0,3:0:0:0:
236,122,23140,2,0,P|183:114|165:120,1,50.9999984436036,0|0,3:2|0:0,0:0:0:0:
118,141,23290,2,0,P|110:194|116:212,1,50.9999984436036,2|0,3:2|3:0,0:0:0:0:
97,66,23440,53,4,1:2:0:0:
428,82,23740,2,0,L|502:101,1,68,4|0,1:2|3:0,0:0:0:0:
412,0,24040,2,2,L|377:201,1,203.999993774414,0|0,0:0|0:0,0:1:0:0:
356,349,24640,6,0,L|266:335,1,85,4|0,1:0|0:0,0:0:0:0:
342,366,24940,2,0,L|432:352,1,85,0|0,1:0|0:0,0:0:0:0:
356,349,25240,2,0,L|266:335,1,85,0|0,1:0|0:0,0:0:0:0:
342,366,25540,2,0,L|432:352,1,85,0|0,1:0|0:0,0:0:0:0:
140,367,25840,6,0,L|50:353,1,85,0|0,1:0|0:0,0:0:0:0:
126,384,26140,2,0,L|216:370,1,85,0|0,1:0|0:0,0:0:0:0:
140,367,26440,2,0,L|50:353,1,85,0|0,1:0|0:0,0:0:0:0:
250,316,26740,6,2,P|247:356|209:370,1,85,2|0,0:1|0:0,0:2:0:0:
69,202,27040,54,0,L|55:119,1,85,0|0,1:0|0:0,0:0:0:0:
59,182,27340,2,0,L|45:266,1,85,0|0,1:0|0:0,0:0:0:0:
69,202,27640,2,0,L|55:119,1,85,0|0,1:0|0:0,0:0:0:0:
59,182,27940,2,0,L|45:266,1,85,0|0,1:0|0:0,0:0:0:0:
203,0,28240,6,0,P|166:51|187:128,1,127.5,0|0,1:0|0:0,0:0:0:0:
209,146,28540,2,0,L|194:59,1,85,0|0,1:0|0:0,0:0:0:0:
346,11,28840,1,0,1:0:0:0:
346,11,28915,1,0,1:0:0:0:
346,11,28990,2,0,L|338:91,1,42.5,0|0,0:3|1:0,0:0:0:0:
372,160,29140,2,2,L|357:61,1,85,2|0,0:3|0:0,0:1:0:0:
443,0,29440,5,6,1:2:0:0:
512,110,29590,2,2,P|515:137|495:150,1,50.9999984436036,2|0,0:3|0:0,0:1:0:0:
426,127,29740,2,0,P|379:164|384:215,1,101.999996887207,8|2,1:2|0:0,0:0:0:0:
393,221,29965,1,0,0:0:0:0:
393,221,30040,1,0,1:0:0:0:
501,261,30190,2,0,P|495:237|477:220,1,50.9999984436036,2|0,0:0|0:0,0:0:0:0:
393,220,30340,2,0,P|373:266|396:310,1,101.999996887207,8|2,1:2|0:0,0:0:0:0:
459,351,30640,6,0,L|335:365,1,101.999996887207,0|2,1:0|0:0,0:0:0:0:
333,368,30865,1,0,0:0:0:0:
333,368,30940,1,8,1:2:0:0:
246,257,31090,2,0,P|263:285|252:313,1,50.9999984436036,2|0,0:0|0:0,0:0:0:0:
190,384,31240,2,0,P|168:361|178:288,1,101.999996887207,0|2,1:0|0:0,0:0:0:0:
113,141,31540,1,8,1:2:0:0:
172,294,31690,1,2,1:2:0:0:
113,141,31840,53,2,1:2:0:0:
185,202,31990,2,2,P|205:178|194:99,1,101.999996887207,2|8,0:3|1:2,0:1:0:0:
89,0,32290,2,0,P|53:4|22:26,1,50.9999984436036,2|0,0:0|0:0,0:0:0:0:
28,63,32440,2,0,P|21:102|73:143,1,101.999996887207,0|2,1:0|0:0,0:0:0:0:
113,141,32665,1,0,0:0:0:0:
113,141,32740,2,0,P|152:134|193:186,1,101.999996887207,8|2,1:2|0:0,0:0:0:0:
24,353,33040,6,0,P|-7:305|20:252,1,101.999996887207,0|2,1:0|0:0,0:0:0:0:
77,209,33265,1,0,0:0:0:0:
92,227,33340,2,0,P|95:254|83:272,1,50.9999984436036,8|0,1:2|0:0,0:0:0:0:
0,162,33490,2,0,P|4:135|20:120,1,50.9999984436036,2|0,0:0|0:0,0:0:0:0:
192,50,33640,5,0,1:0:0:0:
192,50,33715,1,0,1:0:0:0:
192,50,33790,2,2,B|138:38|138:38|121:39|121:39|48:23,2,127.500004863739,2|8|2,0:3|1:2|1:3,0:1:0:0:
264,21,34240,5,2,1:2:0:0:
136,115,34390,2,2,P|122:148|128:174,1,50.9999984436036,2|0,0:3|0:0,0:1:0:0:
116,189,34540,2,0,P|141:218|210:218,1,101.999996887207,8|2,1:2|0:0,0:0:0:0:
226,221,34765,1,0,0:0:0:0:
226,221,34840,1,0,1:0:0:0:
301,136,34990,2,0,P|275:132|253:140,1,50.9999984436036,2|0,0:0|0:0,0:0:0:0:
226,221,35140,2,0,P|251:250|320:250,1,101.999996887207,8|2,1:2|0:0,0:0:0:0:
410,132,35440,54,0,P|459:119|513:197,1,152.999995330811,0|0,1:0|0:0,0:0:0:0:
510,211,35740,1,8,1:2:0:0:
330,297,35890,2,0,P|310:268|315:242,1,50.9999984436036,2|0,0:0|0:0,0:0:0:0:
354,208,36040,2,0,P|401:170|409:121,1,101.999996887207,0|2,1:0|0:0,0:0:0:0:
388,96,36265,1,0,0:0:0:0:
388,96,36340,1,8,1:2:0:0:
431,262,36490,1,2,1:2:0:0:
388,96,36640,5,0,1:0:0:0:
320,33,36790,2,2,P|274:49|256:98,1,101.999996887207,2|8,0:3|1:2,0:1:0:0:
279,201,37090,1,2,0:0:0:0:
279,201,37165,1,0,0:0:0:0:
279,201,37240,2,0,P|211:224|162:234,1,101.999996887207,0|2,1:0|0:3,0:1:0:0:
18,163,37540,2,0,P|68:173|115:192,1,101.999996887207,8|2,1:2|0:3,0:1:0:0:
396,21,37840,5,4,1:2:0:0:
396,21,38140,2,2,L|416:231,1,204,0|2,3:1|1:1,2:1:0:0:
498,285,38740,2,0,L|480:350,3,50.9999984436036,2|2|2|2,1:1|0:2|1:1|0:2,0:0:0:0:
466,369,39040,6,0,P|452:315|398:293,1,101.999996887207,4|2,1:0|0:3,0:0:0:0:
381,280,39265,1,2,0:3:0:0:
381,280,39340,2,0,P|348:286|330:298,1,50.9999984436036,8|0,1:2|0:0,0:0:0:0:
300,267,39490,2,0,P|274:288|264:308,1,50.9999984436036,2|0,0:3|0:0,0:1:0:0:
262,382,39640,2,0,P|229:376|211:364,1,50.9999984436036,0|0,1:2|0:0,0:0:0:0:
180,384,39790,2,0,P|154:362|144:342,1,50.9999984436036,2|0,0:3|0:0,0:1:0:0:
189,287,39940,2,0,L|88:301,1,101.999996887207,8|0,1:2|0:0,0:1:0:0:
0,148,40240,54,2,P|38:138|94:169,1,101.999996887207,0|2,1:0|3:2,0:1:0:0:
100,195,40465,1,0,3:0:0:0:
100,195,40540,1,8,1:2:0:0:
182,151,40690,2,0,P|181:117|157:105,1,50.9999984436036,2|0,0:1|0:0,0:0:0:0:
100,195,40840,2,0,P|101:229|125:241,1,50.9999984436036,0|0,1:0|0:0,0:1:0:0:
182,151,40990,6,2,B|238:167|238:167|264:167|264:167|322:184,2,127.500004863739,2|8|2,0:2|1:2|1:2,0:1:0:0:
369,228,41440,6,0,P|408:170|447:167,1,101.999996887207,0|2,1:0|0:3,0:0:0:0:
490,177,41665,1,2,0:3:0:0:
490,177,41740,2,0,P|483:130|469:113,1,50.9999984436036,8|0,1:2|0:0,0:0:0:0:
481,84,41890,2,0,P|436:66|415:70,1,50.9999984436036,2|0,0:3|0:0,0:1:0:0:
366,20,42040,2,0,P|359:67|345:84,1,50.9999984436036,0|0,1:2|0:0,0:0:0:0:
357,113,42190,2,0,P|312:130|291:126,1,50.9999984436036,2|0,0:3|0:0,0:1:0:0:
249,77,42340,2,0,L|124:63,1,101.999996887207,8|0,1:2|0:0,0:1:0:0:
0,183,42640,6,0,P|34:211|106:194,1,101.999996887207,2|2,1:0|3:2,0:0:0:0:
113,192,42865,1,0,3:0:0:0:
113,192,42940,1,8,1:2:0:0:
210,137,43090,2,0,P|239:157|248:181,1,50.9999984436036,2|0,0:1|0:0,0:0:0:0:
266,187,43240,2,0,P|263:222|246:241,1,50.9999984436036,0|0,1:0|0:0,0:1:0:0:
152,286,43390,1,2,0:3:0:0:
152,286,43465,1,0,0:0:0:0:
152,286,43540,2,0,P|193:303|205:319,3,50.9999984436036,8|2|2|2,1:2|0:0|1:3|0:0,0:0:0:0:
215,342,43840,54,0,P|275:309|323:334,1,101.999996887207,4|2,1:2|0:3,0:0:0:0:
317,336,44065,1,2,0:3:0:0:
317,336,44140,2,0,P|350:362|365:365,1,50.9999984436036,8|0,1:2|0:0,0:0:0:0:
407,358,44290,2,0,P|433:325|436:310,1,50.9999984436036,2|0,0:3|0:0,0:0:0:0:
403,235,44440,2,0,P|361:241|346:236,1,50.9999984436036,0|0,1:0|0:0,0:0:0:0:
314,209,44590,2,0,P|307:167|312:152,1,50.9999984436036,2|0,0:3|0:0,0:0:0:0:
368,105,44740,2,0,L|499:120,1,101.999996887207,8|0,1:2|0:0,0:0:0:0:
256,12,45040,6,2,P|209:0|177:36,1,101.999996887207,0|2,1:0|3:2,0:1:0:0:
171,58,45265,1,0,3:0:0:0:
171,58,45340,1,8,1:2:0:0:
256,144,45490,2,0,P|254:121|237:96,1,50.9999984436036,2|0,0:1|0:0,0:0:0:0:
171,58,45640,2,0,P|148:60|123:77,1,50.9999984436036,0|0,1:0|0:0,0:1:0:0:
166,167,45790,6,2,B|110:151|110:151|84:151|84:151|26:134,2,127.500004863739,2|8|2,0:2|1:2|1:2,0:1:0:0:
256,225,46240,6,0,P|216:278|162:280,1,101.999996887207,0|2,1:0|2:3,0:0:0:0:
160,274,46465,1,2,2:3:0:0:
159,274,46540,2,0,P|124:272|94:302,1,50.9999984436036,8|0,1:2|0:0,0:0:0:0:
80,290,46690,2,0,P|60:319|71:360,1,50.9999984436036,2|0,0:3|0:0,0:0:0:0:
3,191,46840,2,0,P|38:189|68:219,1,50.9999984436036,0|0,1:0|0:0,0:0:0:0:
82,207,46990,2,0,P|101:236|90:277,1,50.9999984436036,2|0,0:3|0:0,0:0:0:0:
81,291,47140,53,8,1:2:0:0:
210,142,47290,1,0,1:0:0:0:
323,258,47440,6,0,P|280:338|272:249,1,191.250007295609,4|0,1:2|1:0,0:1:0:0:
339,176,47740,2,0,P|429:173|356:224,1,191.250007295609,12|0,1:2|1:0,0:0:0:0:
203,238,48040,2,0,P|176:197|187:171,1,63.7500024318696,0|0,1:3|1:2,0:0:0:0:
210,142,48190,2,0,P|259:139|276:161,1,63.7500024318696,2|0,0:3|1:2,0:0:0:0:
291,196,48340,2,2,P|268:239|240:243,3,63.7500024318696,8|0|2|0,1:2|0:0|1:3|0:0,0:1:0:0:
203,238,48640,5,4,1:2:0:0:
268,147,48790,1,2,0:3:0:0:
268,147,48865,1,2,0:3:0:0:
268,147,48940,2,0,P|279:111|278:84,1,50.9999984436036,8|0,1:2|0:0,0:0:0:0:
256,58,49090,2,0,P|220:47|193:48,1,50.9999984436036,2|0,0:3|0:0,0:0:0:0:
158,117,49240,2,0,P|169:153|168:180,1,50.9999984436036,0|0,1:2|0:0,0:0:0:0:
146,206,49390,2,0,P|110:217|83:216,1,50.9999984436036,2|0,0:3|0:0,0:0:0:0:
39,157,49540,2,0,L|21:50,1,101.999996887207,8|0,1:2|0:0,0:1:0:0:
208,378,49840,6,2,L|226:271,1,101.999996887207,0|2,1:0|3:2,0:1:0:0:
263,259,50065,2,0,L|251:329,1,50.9999984436036,0|8,3:0|1:2,0:0:0:0:
159,119,50290,2,0,L|167:169,1,50.9999984436036,2|0,0:1|0:0,0:0:0:0:
129,151,50440,2,0,L|112:50,1,101.999996887207,0|2,1:0|0:2,0:0:0:0:
429,48,50740,53,8,1:2:0:0:
245,73,50890,1,2,1:2:0:0:
429,48,51040,1,0,1:0:0:0:
341,3,51190,5,2,0:3:0:0:
341,3,51265,1,2,0:3:0:0:
341,3,51340,2,0,P|329:36|327:55,1,50.9999984436036,8|0,1:2|0:0,0:0:0:0:
314,82,51490,2,0,P|336:108|352:120,1,50.9999984436036,2|0,0:3|0:0,0:0:0:0:
431,123,51640,2,0,P|440:146|444:171,1,50.9999984436036,0|0,1:2|0:0,0:0:0:0:
457,201,51790,2,0,P|441:221|421:237,1,50.9999984436036,2|0,0:3|0:0,0:0:0:0:
359,281,51940,2,0,L|468:303,1,101.999996887207,8|0,1:2|0:0,0:0:0:0:
226,379,52240,6,0,P|194:328|139:324,1,101.999996887207,2|2,1:0|3:2,0:0:0:0:
129,326,52465,1,0,3:0:0:0:
129,326,52540,1,8,1:2:0:0:
20,384,52690,2,0,P|52:387|84:376,1,50.9999984436036,2|0,0:1|0:0,0:0:0:0:
129,326,52840,2,0,P|132:294|121:262,1,50.9999984436036,0|0,1:0|0:0,0:0:0:0:
39,179,52990,1,2,0:1:0:0:
39,179,53065,1,0,0:3:0:0:
39,179,53140,2,0,P|36:211|47:243,3,50.9999984436036,8|0|2|0,1:2|0:0|1:3|0:0,0:1:0:0:
57,256,53440,5,4,1:2:0:0:
216,249,53590,1,2,0:3:0:0:
216,249,53665,1,2,0:3:0:0:
216,249,53740,2,0,P|221:212|209:187,1,50.9999984436036,8|0,1:2|0:0,0:0:0:0:
173,175,53890,2,0,P|168:138|180:113,1,50.9999984436036,2|0,0:3|0:0,0:0:0:0:
236,84,54040,2,0,P|295:112|347:123,1,101.999996887207,2|2,1:3|0:2,0:0:0:0:
500,0,54340,2,0,P|450:13|405:36,1,101.999996887207,8|2,1:2|0:2,0:0:0:0:
347,257,54640,53,4,1:2:0:0:
347,257,54715,1,2,0:0:0:0:
347,257,54790,2,0,P|297:243|252:220,1,101.999996887207,2|8,0:3|1:2,0:0:0:0:
176,256,55090,1,2,0:3:0:0:
397,126,55240,6,0,P|416:177|425:230,1,101.999996887207,2|2,1:3|0:2,0:0:0:0:
174,146,55540,2,0,P|233:72|242:19,1,101.999996887207,8|2,1:2|3:3,0:0:0:0:
225,37,55765,1,0,1:0:0:0:
209,7,55840,6,0,L|90:30,1,101.999996887207,0|2,1:0|0:3,0:0:0:0:
108,26,56065,1,2,0:3:0:0:
108,26,56140,1,8,1:2:0:0:
216,137,56290,6,0,L|311:155,1,50.9999984436036,2|0,0:3|1:0,0:0:0:0:
317,118,56440,2,0,L|198:141,1,101.999996887207,0|2,1:0|0:3,0:0:0:0:
73,169,56740,1,8,1:2:0:0:
216,310,56890,1,2,1:3:0:0:
127,377,57040,54,0,P|135:312|156:178,1,191.250007295609,4|0,1:2|1:0,0:1:0:0:
216,137,57340,2,0,P|294:172|238:230,1,191.250007295609,8|0,1:2|1:0,0:0:0:0:
68,172,57640,1,4,1:2:0:0:
68,172,57715,2,0,L|81:100,1,63.7500024318696,0|2,1:0|3:3,0:0:0:0:
165,86,57865,1,0,1:0:0:0:
165,86,57940,2,0,L|152:14,2,63.7500024318696,12|0|2,1:2|0:0|1:3,0:0:0:0:
0,161,58240,6,0,B|160:121|85:287|301:245,1,305.999990661621,4|0,1:2|3:0,0:0:0:0:
273,249,58765,1,0,0:0:0:0:
273,249,58840,1,0,3:2:0:0:
357,236,58990,1,0,3:0:0:0:
382,313,59140,1,2,0:2:0:0:
473,163,59440,5,0,1:0:0:0:
473,163,59590,1,0,3:0:0:0:
400,126,59740,2,0,L|307:140,1,85,2|0,3:2|3:0,0:0:0:0:
309,149,59965,1,0,0:0:0:0:
302,159,60040,2,0,L|248:148,2,42.5,0|0|0,3:2|0:0|3:0,0:0:0:0:
162,127,60340,2,0,L|13:145,1,127.5,2|0,3:2|0:0,0:0:0:0:
12,145,60640,5,0,1:2:0:0:
99,348,60865,1,0,3:0:0:0:
99,348,60940,1,0,3:0:0:0:
146,274,61090,1,2,3:2:0:0:
213,340,61240,53,0,1:2:0:0:
126,137,61465,1,0,3:0:0:0:
126,137,61540,1,0,3:0:0:0:
79,211,61690,1,2,3:2:0:0:
257,317,61840,6,0,L|331:336,1,68,0|2,1:0|3:2,0:0:0:0:
218,385,62140,2,2,L|253:184,1,203.999993774414,0|0,1:0|1:0,0:1:0:0:
116,60,62740,38,0,B|116:45|121:33|131:23|141:20|141:6|134:-7|121:-12|106:-2|105:18|105:18|95:2|76:0|67:12|68:25|75:39|86:36|98:39|109:47|113:54,1,191.250007295609,0|0,0:2|0:0,0:2:0:0:
107,48,63040,70,0,P|156:107|162:155,1,101.999996887207,4|2,1:0|0:3,0:0:0:0:
37,274,63340,2,0,P|63:202|102:172,1,101.999996887207,8|2,1:2|0:3,0:0:0:0:
269,217,63640,1,0,1:2:0:0:
269,217,63715,2,0,P|193:229|148:211,1,101.999996887207
156,202,63940,1,8,1:2:0:0:
226,377,64090,1,2,0:3:0:0:
62,326,64240,6,2,L|164:312,1,101.999996887207,0|2,1:0|0:3,0:1:0:0:
179,298,64465,2,2,L|115:306,1,50.9999984436036,0|8,3:0|1:2,0:1:0:0:
226,377,64690,1,2,0:3:0:0:
403,279,64840,2,0,P|414:310|401:345,1,50.9999984436036,0|0,1:0|0:0,0:0:0:0:
326,303,64990,54,2,B|330:247|330:247|324:230|324:230|333:215|333:215|339:154,2,152.999995330811,2|8|0,0:3|1:2|1:0,0:1:0:0:
410,87,65440,70,0,P|455:61|497:95,1,101.999996887207,8|2,1:3|0:3,0:0:0:0:
440,168,65740,2,0,L|329:153,1,101.999996887207,4|2,1:3|0:3,0:0:0:0:
160,215,66040,6,0,P|115:189|73:223,1,101.999996887207,8|2,1:3|0:3,0:0:0:0:
130,296,66340,2,0,L|241:281,1,101.999996887207,4|2,1:3|0:3,0:0:0:0:
446,360,66640,21,2,1:0:0:0:
507,298,66790,1,2,0:3:0:0:
507,298,66865,1,0,0:0:0:0:
507,298,66940,2,2,P|465:287|403:260,1,101.999996887207,8|2,1:2|0:3,0:1:0:0:
275,373,67240,1,0,1:0:0:0:
231,242,67390,2,0,L|154:234,1,63.7500024318696,2|0,0:3|0:0,0:1:0:0:
153,297,67540,6,0,B|120:245|120:245|258:260,1,191.250007295609,12|0,1:2|0:0,0:1:0:0:
264,274,67840,6,0,P|316:253|327:204,1,101.999996887207,4|2,1:0|0:3,0:0:0:0:
243,64,68140,2,0,P|235:119|272:153,1,101.999996887207,8|2,1:2|0:3,0:0:0:0:
435,150,68440,1,0,1:2:0:0:
435,150,68515,2,0,P|390:115|342:130,1,101.999996887207
338,140,68740,1,8,1:2:0:0:
243,64,68890,1,2,0:3:0:0:
156,152,69040,54,2,L|54:138,1,101.999996887207,0|2,1:0|0:3,0:1:0:0:
39,124,69265,2,2,L|103:132,1,50.9999984436036,0|8,3:0|1:2,0:1:0:0:
243,64,69490,1,2,0:3:0:0:
311,221,69640,2,0,P|337:200|335:167,1,50.9999984436036,0|0,1:0|0:0,0:0:0:0:
264,150,69790,6,2,B|258:211|258:211|249:226|249:226|255:243|255:243|251:299,2,152.999995330811,2|8|0,0:3|1:2|1:0,0:1:0:0:
94,149,70240,54,0,P|68:104|102:62,1,101.999996887207,8|2,1:3|0:3,0:0:0:0:
175,119,70540,2,0,L|160:230,1,101.999996887207,4|2,1:3|0:3,0:0:0:0:
395,249,70840,6,0,P|421:204|387:162,1,101.999996887207,8|2,1:3|0:3,0:0:0:0:
314,219,71140,2,0,L|329:330,1,101.999996887207,4|2,1:3|1:3,0:0:0:0:
150,353,71440,38,2,B|34:369|34:369|72:339,1,152.999995330811,4|0,1:2|0:0,0:1:0:0:
208,294,71740,2,2,B|322:318|322:318|276:333,1,152.999995330811,4|0,1:2|0:0,0:1:0:0:
119,276,72040,2,2,B|104:206|104:206|135:248,1,101.999996887207,4|2,1:2|0:3,0:1:0:0:
187,14,72340,5,2,0:2:0:0:
366,148,72640,54,0,L|482:173,1,101.999996887207,4|2,1:2|0:3,0:0:0:0:
466,170,72865,1,0,3:0:0:0:
465,169,72940,1,8,1:2:0:0:
386,2,73090,1,2,3:0:0:0:
386,2,73165,1,0,3:0:0:0:
386,2,73240,2,0,P|412:30|413:67,1,50.9999984436036,0|0,1:0|0:0,0:0:0:0:
355,135,73390,2,0,P|326:161|289:162,1,50.9999984436036,2|0,0:3|3:0,0:0:0:0:
267,133,73540,2,0,L|166:116,1,101.999996887207,8|2,1:2|0:3,0:0:0:0:
91,52,73840,5,0,1:0:0:0:
21,193,73990,2,0,P|24:212|53:228,1,50.9999984436036,2|0,0:3|0:0,0:0:0:0:
121,212,74140,2,0,L|136:312,1,101.999996887207,8|2,1:2|0:3,0:0:0:0:
236,334,74365,1,0,3:0:0:0:
236,334,74440,2,0,P|244:278|203:255,1,101.999996887207,0|2,1:0|0:3,0:0:0:0:
98,384,74740,1,8,1:2:0:0:
199,259,74890,1,2,1:3:0:0:
32,294,75040,1,0,1:0:0:0:
358,371,75340,6,0,P|416:352|419:303,1,101.999996887207,8|2,1:2|0:3,0:0:0:0:
348,256,75565,1,0,3:0:0:0:
348,256,75640,1,0,1:2:0:0:
440,201,75790,2,0,P|407:186|389:192,1,50.9999984436036,2|0,0:3|0:0,0:1:0:0:
348,256,75940,2,0,P|315:271|297:265,1,50.9999984436036,8|0,1:2|0:0,0:0:0:0:
251,210,76090,2,0,P|236:177|242:159,1,50.9999984436036,2|0,0:3|0:0,0:1:0:0:
313,66,76240,6,0,L|140:93,1,152.999995330811,0|0,1:0|3:0,0:0:0:0:
161,90,76540,1,8,1:2:0:0:
20,68,76690,1,2,0:3:0:0:
20,68,76765,1,0,1:0:0:0:
20,68,76840,2,0,L|12:148,1,50.9999984436036,0|0,1:0|1:0,0:0:0:0:
108,219,76990,2,0,L|100:299,1,50.9999984436036,2|0,0:3|1:0,0:0:0:0:
33,331,77140,54,0,B|71:373|71:373|86:235,1,191.250007295609,12|0,1:2|0:0,0:0:0:0:
92,197,77440,5,4,1:2:0:0:
182,340,77590,1,2,0:3:0:0:
182,340,77665,1,0,3:0:0:0:
182,340,77740,2,0,P|243:364|280:370,1,101.999996887207,8|2,1:2|3:0,0:0:0:0:
336,284,77965,1,0,3:0:0:0:
336,284,78040,2,0,P|341:318|356:345,1,50.9999984436036,0|0,1:0|0:0,0:0:0:0:
382,362,78190,2,0,P|416:357|443:342,1,50.9999984436036,2|0,0:3|0:0,0:0:0:0:
494,280,78340,2,0,L|481:171,1,101.999996887207,8|2,1:2|0:3,0:0:0:0:
326,31,78640,5,0,1:0:0:0:
326,31,78715,1,0,3:0:0:0:
326,31,78790,2,0,L|339:140,1,101.999996887207,2|8,0:3|1:2,0:0:0:0:
404,180,79090,1,2,0:3:0:0:
272,243,79240,2,0,L|263:172,1,50.9999984436036,0|0,1:0|0:0,0:0:0:0:
204,78,79390,1,2,0:3:0:0:
204,78,79465,1,0,0:0:0:0:
204,78,79540,2,0,L|191:187,1,101.999996887207,12|2,1:2|1:3,0:0:0:0:
106,17,79840,5,4,1:2:0:0:
306,104,80065,1,0,1:0:0:0:
306,104,80140,1,0,1:0:0:0:
209,153,80290,1,2,1:3:0:0:
386,224,80440,53,4,1:2:0:0:
186,311,80665,1,0,1:0:0:0:
186,311,80740,1,0,1:0:0:0:
283,360,80890,1,2,1:3:0:0:
130,236,81040,5,4,1:2:0:0:
114,361,81190,1,2,1:3:0:0:
114,361,81265,1,0,1:2:0:0:
114,361,81340,1,4,1:2:0:0:
136,158,81640,6,0,B|80:134|33:115|18:189|66:164,1,127.500004863739,4|0,1:2|3:0,0:0:0:0:
368,235,81940,2,0,B|424:259|471:278|486:204|438:229,1,127.500004863739,4|0,1:2|1:0,0:0:0:0:
339,384,82240,5,4,1:2:0:0:
256,192,84340,54,2,L|256:288,1,85,0|0,1:0|0:0,0:2:0:0:
497,161,84640,6,0,P|451:139|392:161,1,85,4|0,1:2|0:0,0:0:0:0:
389,170,84865,2,0,L|374:279,1,85,2|0,3:2|0:0,0:0:0:0:
374,284,85090,1,2,3:2:0:0:
191,187,85240,6,0,P|237:209|296:187,1,85,4|0,1:2|0:0,0:0:0:0:
299,178,85465,2,0,L|314:69,1,85,2|0,3:2|0:0,0:0:0:0:
314,64,85690,1,2,3:2:0:0:
181,52,85840,5,4,1:2:0:0:
181,52,85915,2,0,B|134:33|134:33|82:51,1,101.999996887207,0|2,0:0|3:2,0:0:0:0:
84,111,86140,2,0,B|131:130|131:130|183:112,1,101.999996887207,0|2,3:2|0:2,0:0:0:0:
266,8,86440,54,2,B|250:103|235:203|235:203|238:211|238:211|233:219|233:219|235:232|235:232|229:247|229:247|234:257|234:257|226:265|226:265|232:272|232:272|226:277|226:277|232:283|232:283|226:291|226:291|232:304|232:304|224:317|224:317|223:346,1,356.999989105225,0|0,0:0|0:1,0:1:0:0:
343,378,87040,6,0,P|358:321|336:279,1,101.999996887207,4|0,1:2|1:0,0:0:0:0:
276,232,87265,2,0,P|297:286|339:307,1,101.999996887207,0|0,0:3|0:0,0:0:0:0:
416,310,87490,2,0,P|366:278|319:286,1,101.999996887207,2|0,1:3|1:3,0:0:0:0:
256,328,87715,2,0,P|314:324|347:290,1,101.999996887207,0|0,0:3|0:0,0:0:0:0:
374,219,87940,1,2,1:3:0:0:
195,260,88090,1,0,1:0:0:0:
195,260,88165,1,0,1:0:0:0:
195,260,88240,6,0,P|159:217|153:165,1,101.999996887207,2|0,1:3|1:0,0:0:0:0:
194,53,88465,2,0,P|197:108|172:154,1,101.999996887207
73,221,88690,2,0,P|102:173|150:151,1,101.999996887207,2|0,1:3|1:0,0:0:0:0:
269,156,88915,2,0,P|216:176|165:166,1,101.999996887207
86,71,89140,1,2,1:3:0:0:
263,27,89290,1,0,1:0:0:0:
263,27,89365,1,0,1:0:0:0:
263,27,89440,6,0,L|342:43,3,50.9999984436036,4|0|0|0,1:2|0:0|1:0|1:0,0:0:0:0:
384,82,89740,2,0,L|463:98,3,50.9999984436036,2|0|0|0,1:3|0:0|1:3|1:3,0:0:0:0:
317,136,90040,2,0,L|238:152,3,50.9999984436036,4|0|0|0,1:2|0:0|1:0|1:0,0:0:0:0:
219,209,90340,2,0,P|171:173|207:136,1,101.999996887207,2|2,1:3|1:3,0:0:0:0:
325,311,90640,54,0,L|423:337,1,85,0|0,1:0|0:0,0:0:0:0:
497,353,90865,2,0,P|507:342|455:288,1,101.999996887207,0|0,1:0|0:0,0:1:0:0:
407,332,91090,2,0,B|384:313|384:313|399:230,1,101.999996887207,4|0,1:2|0:0,0:0:0:0:
464,199,91315,2,0,B|487:179|487:179|472:96,1,101.999996887207,4|0,1:2|0:0,0:0:0:0:
462,19,91540,2,2,P|422:45|447:58,1,68,0|0,1:0|0:0,0:1:0:0:
290,251,91840,6,0,P|270:191|248:68,1,165.749992412568,4|0,1:0|0:0,0:0:0:0:
310,2,92140,2,0,P|346:39|325:91,1,110.499994941712,8|2,1:2|0:0,0:0:0:0:
83,137,92440,2,0,P|71:89|112:49,1,110.499994941712,0|2,1:0|0:0,0:0:0:0:
192,42,92665,1,0,0:0:0:0:
202,69,92740,2,0,L|192:129,1,55.2499974708558,8|0,1:2|0:0,0:0:0:0:
89,183,92890,2,0,L|101:248,1,55.2499974708558,2|0,0:0|0:0,0:0:0:0:
127,306,93040,6,0,B|149:259|149:259|22:297,1,165.749992412568,0|0,1:0|0:0,0:0:0:0:
18,299,93340,1,8,1:2:0:0:
197,373,93490,1,2,0:0:0:0:
197,373,93565,1,0,0:0:0:0:
197,373,93640,2,0,P|252:353|316:338,1,110.499994941712,0|2,1:0|0:0,0:0:0:0:
391,270,93865,1,0,3:0:0:0:
404,294,93940,2,0,P|354:282|294:257,1,110.499994941712,8|2,1:2|0:3,0:0:0:0:
465,54,94240,6,0,B|501:98|501:98|485:160,1,110.499994941712,0|2,1:0|0:0,0:0:0:0:
336,195,94540,2,0,B|300:151|300:151|316:89,1,110.499994941712,8|2,1:2|0:0,0:0:0:0:
458,58,94840,2,0,B|494:102|494:102|478:164,1,110.499994941712,0|2,1:0|0:0,0:0:0:0:
329,199,95140,2,0,B|293:155|293:155|309:93,1,110.499994941712,8|2,1:2|0:0,0:0:0:0:
234,23,95440,54,0,P|187:-1|153:36,1,110.499994941712,0|2,1:0|0:0,0:0:0:0:
201,98,95665,1,0,3:0:0:0:
201,98,95740,2,0,L|81:81,1,110.499994941712,8|2,1:2|0:0,0:0:0:0:
11,247,96040,2,0,L|80:236,1,55.2499974708558,0|0,1:0|0:0,0:0:0:0:
145,207,96190,2,2,P|169:233|172:264,1,55.2499974708558,2|0,0:3|0:1,0:1:0:0:
157,339,96340,1,2,1:0:0:0:
157,339,96415,1,2,3:0:0:0:
157,339,96490,1,2,1:2:0:0:
157,339,96565,1,2,3:0:0:0:
157,339,96640,6,0,L|334:324,1,165.749992412568,4|0,1:0|0:0,0:0:0:0:
392,283,96940,2,0,P|359:236|305:241,1,110.499994941712,8|2,1:2|0:0,0:0:0:0:
101,162,97240,2,0,P|134:209|188:204,1,110.499994941712,0|2,1:0|0:0,0:0:0:0:
260,172,97465,1,0,0:0:0:0:
260,172,97540,2,0,L|271:100,1,55.2499974708558,8|0,1:2|0:0,0:0:0:0:
212,60,97690,2,0,L|223:-12,1,55.2499974708558,2|0,0:0|0:0,0:0:0:0:
401,30,97840,6,0,B|418:71|418:71|295:48,1,165.749992412568,0|0,1:0|0:0,0:0:0:0:
220,5,98140,1,8,1:2:0:0:
338,163,98290,1,2,0:0:0:0:
338,163,98365,1,0,0:0:0:0:
338,163,98440,2,0,P|405:150|466:147,1,110.499994941712,0|2,1:0|0:2,0:0:0:0:
378,283,98665,1,0,3:0:0:0:
357,265,98740,2,0,P|290:252|229:249,1,110.499994941712,8|2,1:2|0:3,0:0:0:0:
51,365,99040,6,0,B|102:385|102:385|163:364,1,110.499994941712,0|2,1:0|0:0,0:0:0:0:
134,203,99340,2,0,B|83:183|83:183|22:204,1,110.499994941712,8|2,1:2|0:0,0:0:0:0:
49,352,99640,2,0,B|100:372|100:372|161:351,1,110.499994941712,0|2,1:0|0:0,0:0:0:0:
132,190,99940,2,0,B|81:170|81:170|20:191,1,110.499994941712,8|2,1:2|0:0,0:0:0:0:
252,261,100240,54,0,P|294:219|343:250,1,110.499994941712,0|2,1:0|0:0,0:0:0:0:
316,308,100465,1,0,3:0:0:0:
316,308,100540,2,0,L|436:323,1,110.499994941712,8|2,1:2|0:0,0:0:0:0:
471,145,100840,2,0,L|399:158,1,55.2499974708558,2|0,1:0|0:0,0:1:0:0:
369,124,100990,2,0,L|297:137,1,55.2499974708558,2|0,1:2|0:0,0:1:0:0:
250,193,101140,1,2,1:0:0:0:
250,193,101215,1,2,1:3:0:0:
250,193,101290,1,2,1:2:0:0:
250,193,101365,1,2,1:3:0:0:
250,193,101440,6,2,B|215:147|215:147|231:70,1,110.499994941712,4|0,1:2|0:0,0:1:0:0:
407,31,101740,1,8,1:2:0:0:
407,31,101815,1,0,0:0:0:0:
407,31,101890,1,2,0:0:0:0:
278,32,102040,2,0,P|287:14|317:0,1,55.2499974708558,2|0,1:0|0:0,0:0:0:0:
407,31,102190,2,2,P|432:69|377:123,1,110.499994941712,2|8,0:0|1:2,0:1:0:0:
412,280,102490,1,2,0:1:0:0:
412,280,102565,1,0,0:0:0:0:
412,280,102640,6,0,P|367:239|298:252,1,110.499994941712,0|2,1:0|0:0,0:0:0:0:
247,195,102865,1,0,0:0:0:0:
247,195,102940,2,0,P|215:231|211:256,1,55.2499974708558,8|0,1:2|0:0,0:0:0:0:
189,264,103090,2,0,P|204:309|223:325,1,55.2499974708558,2|2,0:0|0:0,0:0:0:0:
264,372,103240,2,0,L|133:362,1,110.499994941712,2|2,1:0|0:0,0:0:0:0:
80,355,103465,1,0,0:0:0:0:
80,355,103540,1,8,1:2:0:0:
61,152,103690,1,2,0:2:0:0:
61,152,103765,1,2,0:0:0:0:
61,152,103840,6,2,P|116:157|149:207,1,110.499994941712,0|0,1:2|0:0,0:1:0:0:
12,279,104140,1,8,1:2:0:0:
12,279,104215,1,0,0:0:0:0:
12,279,104290,2,0,L|22:205,1,55.2499974708558,2|2,0:0|0:0,0:0:0:0:
103,0,104440,2,0,P|118:28|114:57,1,55.2499974708558,2|0,1:0|0:0,0:0:0:0:
96,98,104590,2,2,P|37:104|3:46,1,110.499994941712,2|8,0:0|1:2,0:1:0:0:
263,0,104890,2,2,P|277:30|271:53,1,55.2499974708558,2|0,0:2|0:0,0:1:0:0:
169,131,105040,54,0,P|184:88|252:80,1,110.499994941712,2|2,1:0|0:0,0:0:0:0:
340,121,105265,1,2,0:0:0:0:
356,124,105340,2,0,L|426:114,3,55.2499974708558,10|0|2|0,1:2|0:0|0:3|1:0,0:0:0:0:
252,223,105640,1,2,1:0:0:0:
237,229,105715,2,0,L|182:221,2,55.2499974708558,0|2|0,1:2|0:3|1:2,0:0:0:0:
346,310,105940,1,8,1:2:0:0:
362,288,106015,1,0,0:0:0:0:
386,274,106090,1,2,1:3:0:0:
413,269,106165,1,0,0:0:0:0:
440,275,106240,6,2,L|453:389,1,110.499994941712,4|0,1:2|0:0,0:1:0:0:
508,142,106540,2,0,P|513:96|450:61,1,110.499994941712,8|2,1:2|0:1,0:0:0:0:
315,121,106765,1,2,0:0:0:0:
315,121,106840,2,0,L|436:128,2,110.499994941712,2|2|8,1:0|0:0|1:2,0:0:0:0:
355,208,107290,1,2,0:1:0:0:
236,70,107440,5,0,1:0:0:0:
236,70,107515,2,0,P|185:93|103:108,1,110.499994941712
71,51,107740,1,10,1:2:0:0:
15,165,107890,1,2,0:1:0:0:
15,165,107965,1,0,0:0:0:0:
15,165,108040,2,2,P|-4:225|29:288,1,110.499994941712,0|0,1:0|0:0,0:1:0:0:
133,106,108340,2,2,P|152:46|119:-17,1,110.499994941712,8|0,1:2|1:0,0:1:0:0:
254,130,108640,5,6,1:0:0:0:
413,117,108790,2,0,L|277:103,2,127.500004863739,0|0|0,1:0|1:0|1:0,0:0:0:0:
263,241,109240,53,4,1:2:0:0:
103,227,109390,2,0,L|239:213,2,127.500004863739,0|0|0,1:0|1:0|1:0,0:0:0:0:
64,307,109840,5,4,1:2:0:0:
64,307,109915,1,0,1:0:0:0:
136,362,110065,1,4,1:2:0:0:
136,362,110140,1,0,1:0:0:0:
215,326,110290,1,4,1:2:0:0:
292,366,110440,1,0,1:2:0:0:
292,366,110515,1,0,1:2:0:0:
292,366,110590,1,4,1:2:0:0:
376,325,110740,1,4,1:2:0:0:
458,367,110890,1,2,1:3:0:0:
458,367,110965,1,2,1:3:0:0:
458,367,111040,6,0,P|494:307|468:261,1,97.7500018644333,4|0,1:2|0:0,0:0:0:0:
461,253,111265,1,0,3:0:0:0:
461,253,111340,1,0,3:2:0:0:
367,174,111490,2,0,P|370:209|387:227,1,48.8750009322167,0|0,3:0|3:0,0:0:0:0:
461,253,111640,2,0,P|501:212|491:159,1,97.7500018644333,0|0,3:2|3:0,0:0:0:0:
413,90,111940,2,0,P|373:49|383:-4,1,97.7500018644333,0|0,3:2|0:0,0:0:0:0:
505,0,112240,5,4,1:2:0:0:
484,153,112390,1,0,0:0:0:0:
413,89,112540,2,0,P|410:42|374:11,1,97.7500018644333,0|0,3:2|3:0,0:0:0:0:
317,68,112765,1,0,3:0:0:0:
317,68,112840,2,0,P|252:86|145:103,1,146.62500279665,0|0,3:2|0:0,0:0:0:0:
113,56,113140,2,0,P|120:10|174:10,1,97.7500018644333,0|0,3:2|3:2,0:0:0:0:
251,171,113440,53,4,1:2:0:0:
169,303,113740,2,0,P|176:349|230:349,1,97.7500018644333,0|0,3:2|3:2,0:0:0:0:
335,193,114040,5,4,1:2:0:0:
285,77,114340,2,0,P|292:31|346:31,1,97.7500018644333,0|0,3:2|3:2,0:0:0:0:
420,255,114640,6,0,L|407:285,4,24.4375004661083,0|0|0|0|0,3:0|0:0|3:2|0:0|3:0,0:0:0:0:
418,211,114865,1,0,3:0:0:0:
418,211,114940,5,4,1:2:0:0:
501,229,115240,53,4,1:2:0:0:
