osu file format v14

[General]
AudioFilename: audio.mp3
AudioLeadIn: 0
PreviewTime: 428
Countdown: 0
SampleSet: Normal
StackLeniency: 0.2
Mode: 0
LetterboxInBreaks: 0
WidescreenStoryboard: 0

[Editor]
Bookmarks: 1714,3428,32571,62678,142285
DistanceSpacing: 1
BeatDivisor: 4
GridSize: 32
TimelineZoom: 2.500001

[Metadata]
Title:MARENOL
TitleUnicode:MARENOL
Artist:LeaF
ArtistUnicode:LeaF
Creator:blixys
Version:X
Source:
Tags:
BeatmapID:1843875
BeatmapSetID:881915

[Difficulty]
HPDrainRate:5
CircleSize:4
OverallDifficulty:5
ApproachRate:9
SliderMultiplier:3
SliderTickRate:1

[Events]
//Background and Video events
0,0,"maxresdefault (5).jpg",0,0
//Break Periods
//Storyboard Layer 0 (Background)
//Storyboard Layer 1 (Fail)
//Storyboard Layer 2 (Pass)
//Storyboard Layer 3 (Foreground)
//Storyboard Sound Samples

[TimingPoints]
0,428.571428571429,4,1,0,100,1,0
1714,-50,4,1,0,100,0,0
3428,-100,4,1,0,100,0,0
8571,-1000,4,1,0,100,0,0
10285,-100,4,1,0,100,0,0
16285,-100,4,1,0,100,0,0
18321,-25,4,1,0,100,0,0
18964,-100,4,1,0,100,0,0
27428,-50,4,1,0,100,0,0
27857,-25,4,1,0,100,0,0
29142,-200,4,1,0,100,0,0
30857,-100,4,1,0,100,0,0
54750,-50,4,1,0,100,0,0
55071,-100,4,1,0,100,0,0
62142,-50,4,1,0,100,0,0
62357,-100,4,1,0,100,0,0
66642,-25,4,1,0,100,0,0
66857,-100,4,1,0,100,0,0
72857,-25,4,1,0,100,0,0

[HitObjects]
88,31,1714,6,0,B|74:338|74:338|236:358|167:27|233:11|233:11|451:121|451:340|451:340|214:343|214:343|429:-126|523:173|523:173|-72:199,1,2400
196,73,3857,6,0,P|261:122|290:62,1,150
196,73,4285,1,0,0:0:0:0:
221,193,4392,1,0,0:0:0:0:
259,298,4500,2,0,L|347:228,1,75
423,144,4714,1,0,0:0:0:0:
259,298,4928,1,0,0:0:0:0:
118,67,5142,6,0,P|90:130|162:129,1,150
149,140,5571,2,0,P|212:157|182:215,1,150
182,215,6000,2,0,P|154:278|226:277,2,150
150,141,6642,1,0,0:0:0:0:
95,211,6857,1,0,0:0:0:0:
107,307,7071,1,0,0:0:0:0:
186,292,7285,6,0,L|283:259,2,75
341,256,7607,1,0,0:0:0:0:
350,163,7714,1,0,0:0:0:0:
357,79,7821,2,0,L|440:82,1,75
431,81,8142,1,0,0:0:0:0:
282,101,8249,1,0,0:0:0:0:
133,122,8356,1,0,0:0:0:0:
56,47,8571,6,0,L|72:53,1,15
456,337,9000,2,0,L|439:330,1,15
56,337,9428,2,0,L|72:330,1,15
456,47,9857,2,0,L|439:53,1,15
256,192,10285,5,0,0:0:0:0:
271,309,10500,2,0,P|326:309|367:245,1,75
415,261,10714,1,0,0:0:0:0:
411,182,10821,1,0,0:0:0:0:
410,153,10928,1,0,0:0:0:0:
408,61,11142,2,0,L|319:66,2,75
124,150,11571,1,0,0:0:0:0:
158,246,11785,6,0,P|163:295|203:248,2,75
105,101,12214,1,0,0:0:0:0:
63,224,12428,1,0,0:0:0:0:
117,44,12535,1,0,0:0:0:0:
245,181,12642,1,0,0:0:0:0:
145,142,12857,5,0,0:0:0:0:
329,105,12964,1,0,0:0:0:0:
268,283,13071,1,0,0:0:0:0:
417,81,13285,5,0,0:0:0:0:
454,265,13392,1,0,0:0:0:0:
276,204,13499,1,0,0:0:0:0:
83,170,13714,6,0,L|255:98,1,150
221,112,14142,2,0,L|257:211,3,75
221,112,14571,2,0,L|306:73,2,75
221,112,15000,2,0,B|394:139|178:226|178:226|204:292,1,300
181,329,15535,5,0,0:0:0:0:
248,360,15642,1,0,0:0:0:0:
322,361,15749,1,0,0:0:0:0:
389,329,15856,1,0,0:0:0:0:
389,329,15963,1,0,0:0:0:0:
407,257,16070,1,0,0:0:0:0:
392,184,16177,1,0,0:0:0:0:
323,136,16285,2,0,L|317:162,30,18.75
166,139,17142,1,4,0:0:0:0:
256,192,17250,12,0,18107,0:0:0:0:
256,64,18214,5,0,0:0:0:0:
199,273,18428,2,2,P|200:225|200:273,1,150
174,134,18535,2,8,P|222:135|174:135,1,150
313,109,18642,2,2,P|312:157|312:109,1,150
338,248,18750,2,8,P|290:247|338:247,1,150
256,192,18857,1,4,0:0:0:0:
91,316,19285,6,0,L|139:255,3,75
144,104,19714,2,0,L|272:160,1,75
230,57,19928,2,0,L|162:27,1,75
368,280,20142,2,0,L|240:224,1,75
281,326,20357,2,0,L|350:357,1,75
74,245,20571,6,0,L|89:232,14,18.75
438,139,21000,2,0,L|423:152,14,18.75
126,115,21428,1,0,0:0:0:0:
125,115,21642,6,0,P|197:114|234:175,1,150
234,175,22071,1,0,0:0:0:0:
165,107,22285,2,0,L|181:91,14,18.75
166,297,22714,1,0,0:0:0:0:
410,40,22928,1,0,0:0:0:0:
103,312,23142,6,0,L|105:293,6,18.75
294,288,23357,2,0,L|292:307,6,18.75
223,102,23571,1,0,0:0:0:0:
408,131,23785,1,0,0:0:0:0:
409,312,24000,6,0,L|407:293,14,18.75
103,72,24428,2,0,L|105:91,14,18.75
211,310,24857,1,0,0:0:0:0:
279,267,24964,1,0,0:0:0:0:
308,191,25071,1,0,0:0:0:0:
284,113,25178,1,0,0:0:0:0:
409,312,25285,6,0,L|407:293,14,18.75
386,192,25714,1,0,0:0:0:0:
264,235,25821,2,0,L|190:221,2,75
190,221,26142,1,0,0:0:0:0:
132,208,26250,6,0,L|66:136,2,75
170,84,26571,1,0,0:0:0:0:
274,257,26785,1,0,0:0:0:0:
347,35,27000,1,0,0:0:0:0:
86,299,27214,1,0,0:0:0:0:
115,251,27428,6,0,P|192:132|227:185,1,150
397,133,27642,2,0,P|320:252|285:199,1,150
214,270,27857,2,0,P|163:219|224:250,1,150
133,14,27964,2,0,B|182:-18|182:-18|236:4|236:4|259:-23|259:-23|322:17|322:17|358:15|358:15|398:88,1,300
468,194,28125,2,0,B|429:142|429:142|419:92|419:92|378:156|378:156|353:94|353:94|333:132|333:132|308:138|308:138|227:282,1,450
245,137,28392,1,0,0:0:0:0:
398,322,28500,6,0,B|215:55|348:119|348:119|378:52,1,300
293,236,28714,2,0,B|371:229|369:212|369:212|462:210|462:210|427:168|427:168|431:147|431:147|563:25,1,300
51,250,28928,2,0,B|-9:135|59:106|59:106|107:144|107:144|227:32,1,300
261,305,29142,2,0,L|270:300,10,9.375
309,168,29464,1,0,0:0:0:0:
142,135,29571,6,0,L|140:160,2,18.75
273,55,29732,1,0,0:0:0:0:
183,266,29785,1,0,0:0:0:0:
67,53,29892,1,0,0:0:0:0:
261,305,30000,6,0,L|270:300,3,9.375
261,305,30107,2,0,L|270:300,4,9.375
251,79,30428,2,0,L|242:84,3,9.375
251,79,30535,2,0,L|242:84,4,9.375
96,204,30857,5,0,0:0:0:0:
178,235,30964,2,0,L|301:186,1,75
230,95,31178,1,0,0:0:0:0:
355,257,31285,1,0,0:0:0:0:
49,87,31500,1,0,0:0:0:0:
272,35,31714,1,0,0:0:0:0:
264,184,31821,1,0,0:0:0:0:
256,334,31928,1,0,0:0:0:0:
73,25,32035,5,0,0:0:0:0:
65,174,32142,1,0,0:0:0:0:
57,324,32249,1,0,0:0:0:0:
451,38,32357,5,0,0:0:0:0:
443,187,32464,1,0,0:0:0:0:
435,337,32571,1,0,0:0:0:0:
15,100,34071,6,0,L|30:89,8,18.75
207,285,34500,1,0,0:0:0:0:
90,166,34714,2,0,L|121:63,2,75
376,103,35142,2,0,L|407:0,2,75
285,256,35571,2,0,L|316:153,2,75
72,164,36000,5,0,0:0:0:0:
173,271,36214,2,0,P|152:195|240:157,1,150
212,64,36642,2,0,B|257:124|327:53,2,75
277,88,36964,1,0,0:0:0:0:
277,88,37071,1,0,0:0:0:0:
138,250,37285,1,0,0:0:0:0:
361,154,37392,1,0,0:0:0:0:
72,164,37500,5,0,0:0:0:0:
173,271,37714,2,0,P|152:195|240:157,1,150
212,64,38142,2,0,B|257:124|327:53,2,75
277,88,38464,1,0,0:0:0:0:
277,88,38571,1,0,0:0:0:0:
277,249,38785,1,0,0:0:0:0:
389,128,39000,1,0,0:0:0:0:
12,220,39428,6,0,B|121:29|121:29|77:300|77:300|197:338|197:338|419:-5|419:-5|232:28|232:28|474:146|474:146|401:360|401:360|511:316|511:316|10:90,1,2325
104,116,42857,2,0,L|117:147,15,18.75
408,268,43285,2,0,L|395:237,15,18.75
1,281,43767,1,0,0:0:0:0:
205,204,43848,1,0,0:0:0:0:
414,100,43928,1,0,0:0:0:0:
197,24,44008,1,0,0:0:0:0:
511,213,44089,1,0,0:0:0:0:
104,116,44142,2,0,L|117:147,14,18.75
330,229,44572,5,0,0:0:0:0:
115,316,45000,1,0,0:0:0:0:
465,33,45428,1,0,0:0:0:0:
38,57,45857,1,0,0:0:0:0:
437,309,46285,1,0,0:0:0:0:
256,192,47142,5,0,0:0:0:0:
256,192,47571,1,0,0:0:0:0:
256,192,48000,1,0,0:0:0:0:
256,192,48428,1,0,0:0:0:0:
256,192,48857,1,0,0:0:0:0:
256,192,49285,1,0,0:0:0:0:
256,192,49714,1,0,0:0:0:0:
256,192,50142,1,0,0:0:0:0:
256,192,50571,1,0,0:0:0:0:
256,192,51000,1,0,0:0:0:0:
256,192,51428,1,0,0:0:0:0:
256,192,51857,1,0,0:0:0:0:
256,192,52285,1,0,0:0:0:0:
256,192,52714,1,0,0:0:0:0:
256,192,52928,2,0,L|247:197,16,9.375
96,64,53571,5,0,0:0:0:0:
112,185,54000,2,0,P|54:221|65:263,2,112.5
400,199,54428,2,0,P|458:163|447:121,2,112.5
256,352,54857,2,0,L|256:0,1,300
400,199,55285,2,0,P|458:163|447:121,2,112.5
96,192,55714,2,0,L|448:192,2,300
160,320,57428,6,0,P|96:160|128:160,1,300
85,162,58071,1,0,0:0:0:0:
199,193,58285,2,0,P|285:118|349:195,1,225
480,147,58714,2,0,P|422:183|433:225,2,112.5
256,352,59142,2,0,B|128:192|128:192|224:64,1,300
96,320,60857,5,0,0:0:0:0:
112,199,61286,2,0,P|54:163|65:121,2,112.5
400,185,61714,2,0,P|458:221|447:263,2,112.5
256,32,62143,2,0,L|256:384,1,300
400,185,62571,2,0,P|458:221|447:263,2,112.5
96,192,63000,2,0,L|448:192,1,300
128,96,64285,5,0,0:0:0:0:
128,320,64500,1,0,0:0:0:0:
384,96,64714,1,0,0:0:0:0:
384,320,64928,1,0,0:0:0:0:
133,96,65142,1,0,0:0:0:0:
255,100,65571,6,2,P|189:77|192:269,1,300
192,172,66428,1,0,0:0:0:0:
191,269,66642,6,2,P|189:77|192:269,1,600
407,293,67714,6,0,L|409:312,32,18.75
131,247,69456,6,0,L|129:228,15,18.75
385,87,69911,6,0,L|387:106,14,18.75
203,90,71142,6,0,L|201:71,15,18.75
479,209,72857,2,0,B|25:168|25:168|81:362|81:362|394:315|-204:-64|222:125|222:125|168:-16|168:-16|406:17|338:337|338:337|475:34|475:34|179:304,1,2400
