osu file format v14

[General]
AudioFilename: audio.mp3
AudioLeadIn: 0
PreviewTime: 18188
Countdown: 0
SampleSet: Soft
StackLeniency: 0.3
Mode: 0
LetterboxInBreaks: 0
WidescreenStoryboard: 1

[Editor]
Bookmarks: 43688,56545
DistanceSpacing: 2.3
BeatDivisor: 4
GridSize: 32
TimelineZoom: 8

[Metadata]
Title:MARENOL
TitleUnicode:MARENOL
Artist:LeaF
ArtistUnicode:LeaF
Creator:Yugu
Version:Insane
Source:osu!
Tags:Hey lululu Flask Icekalt Kuse FA featured artists Mappers' Guild SOUND VOLTEX VIVID WAVE glitch hardcore horror electronic instrumental 除草剤 Joso zai G2R2018 sdvx BMS
BeatmapID:2439930
BeatmapSetID:1136149

[Difficulty]
HPDrainRate:6
CircleSize:4.2
OverallDifficulty:8
ApproachRate:9
SliderMultiplier:1.99999990463257
SliderTickRate:1

[Events]
//Background and Video events
0,0,"1168.png",0,0
//Break Periods
2,46469,52312
//Storyboard Layer 0 (Background)
//Storyboard Layer 1 (Fail)
//Storyboard Layer 2 (Pass)
//Storyboard Layer 3 (Foreground)
//Storyboard Layer 4 (Overlay)
//Storyboard Sound Samples

[TimingPoints]
1698,428.571428571429,4,2,3,100,1,0
1698,-66.6666666666667,4,2,3,100,0,0
3412,-100,4,2,3,60,0,0
5126,-100,4,2,3,60,0,0
10269,-83.3333333333333,4,2,3,70,0,0
16269,-83.3333333333333,4,2,3,60,0,0
17126,-117.647058823529,4,2,3,80,0,0
18840,-66.6666666666667,4,2,3,80,0,0
23983,-55.5555555555556,4,2,3,80,0,0
25269,-50,4,2,3,80,0,0
25698,-66.6666666666667,4,2,3,80,0,0
29126,-50,4,2,3,80,0,0
29769,-66.6666666666667,4,2,3,80,0,0
31698,-50,4,2,3,80,0,0
32555,-50,4,2,3,50,0,0
34055,-200,4,2,3,50,0,0
34269,-100,4,2,3,50,0,0
39412,-50,4,2,3,60,0,0
42840,-40,4,2,3,90,0,0
43269,-100,4,2,3,90,0,0
43483,-40,4,2,3,90,0,0
43698,-100,4,2,3,90,0,0
43912,-80,4,2,3,90,0,0
44126,-40,4,2,3,90,0,0
44555,-1000,4,2,3,40,0,0
46269,-100,4,2,3,40,0,0
52912,-100,4,2,3,60,0,0
53126,-100,4,2,3,80,0,0
53555,-100,4,2,3,80,0,0
57412,-66.6666666666667,4,2,3,80,0,0
58269,-100,4,2,3,80,0,0
63412,-100,4,2,3,50,0,0
66840,-100,4,2,3,70,0,0
67698,-66.6666666666667,4,2,3,80,0,0
68555,-100,4,2,3,70,0,0
69412,-66.6666666666667,4,2,3,80,0,0
70269,-200,4,2,3,70,0,0
71126,-66.6666666666667,4,2,3,80,0,0
71983,-200,4,2,3,70,0,0
72840,-400,4,2,3,80,0,0
73698,-400,4,2,3,50,0,0
75412,-100,4,2,3,85,0,0
76269,-66.6666666666667,4,2,3,85,0,0
77126,-50,4,2,3,85,0,0
77555,-100,4,2,3,85,0,0
79698,-66.6666666666667,4,2,3,85,0,0
80983,-100,4,2,3,85,0,0
83126,-66.6666666666667,4,2,3,85,0,0
84198,-100,4,2,3,85,0,0
85055,-66.6666666666667,4,2,3,85,0,0
85698,-400,4,2,3,70,0,0
86983,-400,4,2,3,40,0,0
87412,-100,4,2,3,40,0,0
99412,-71.4285714285714,4,2,3,100,0,0
101126,-71.4285714285714,4,2,3,60,0,0
101340,-100,4,2,3,60,0,0
114840,-100,4,2,3,70,0,0
128555,-133.333333333333,4,2,3,40,0,0

[Colours]
Combo1 : 255,255,255
Combo2 : 94,94,94

[HitObjects]
22,96,1698,6,2,B|50:39|112:58|112:58|82:355|82:355|111:328|116:277|116:277|137:319|129:351|129:351|161:323|157:286|157:286|188:318|180:348|180:348|207:322|201:293|201:293|229:316|223:343|223:343|247:324|249:301|249:301|269:321|263:339|263:339|285:328|288:309|288:309|303:322|307:334|307:334|323:324|321:314|321:314|339:320|341:330|341:330|354:326|352:317|352:317|367:318|366:326|366:326|377:324|382:318|382:318|394:319|398:323|398:323|419:322,1,1124.99998927116,10|0,0:1|0:0,0:1:0:0:
475,356,3412,6,0,P|481:291|388:196,1,199.999990463257,2|0,0:0|0:0,0:0:0:0:
314,69,4269,1,0,1:0:0:0:
314,69,4376,1,0,1:0:0:0:
222,98,4590,1,0,1:0:0:0:
222,98,4698,1,0,1:0:0:0:
294,164,4912,1,0,1:0:0:0:
84,0,5126,6,0,L|93:102,1,99.9999952316285,0|0,1:0|0:0,0:0:0:0:
0,190,5555,2,0,L|102:181,1,99.9999952316285,0|0,1:0|0:0,0:0:0:0:
190,274,5983,2,0,L|181:172,1,99.9999952316285,0|0,1:0|0:0,0:0:0:0:
274,84,6412,2,0,L|172:93,1,99.9999952316285,0|0,1:0|0:0,0:0:0:0:
428,384,6840,6,0,L|419:282,1,99.9999952316285,0|0,1:0|0:0,0:0:0:0:
512,194,7269,2,0,L|410:203,1,99.9999952316285,0|0,1:0|0:0,0:0:0:0:
322,110,7697,2,0,L|331:212,1,99.9999952316285,0|0,1:0|0:0,0:0:0:0:
238,300,8126,2,0,L|340:291,1,99.9999952316285,0|0,1:0|0:0,0:0:0:0:
394,49,8555,5,0,1:0:0:0:
202,78,8769,1,0,0:0:0:0:
399,58,8983,1,0,1:0:0:0:
207,87,9197,1,0,0:0:0:0:
404,67,9412,1,0,1:0:0:0:
212,96,9626,1,0,0:0:0:0:
409,76,9840,1,0,1:0:0:0:
217,105,10054,1,0,0:0:0:0:
148,383,10269,5,2,1:2:0:0:
36,325,10483,1,0,0:0:0:0:
248,189,10698,1,10,0:2:0:0:
141,256,10912,6,0,P|160:280|186:294,1,59.9999953079226,2|2,0:0|0:0,0:0:0:0:
300,306,11126,2,0,P|329:301|355:286,1,59.9999953079226,2|2,1:2|0:0,0:0:0:0:
421,193,11340,1,2,0:0:0:0:
300,306,11555,1,10,0:0:0:0:
421,193,11769,2,0,P|431:165|431:135,1,59.9999953079226,0|0,0:0|0:0,0:0:0:0:
424,339,11983,5,2,1:2:0:0:
300,306,12198,1,0,0:0:0:0:
201,384,12412,1,10,0:0:0:0:
118,222,12626,6,0,P|128:249|136:279,1,59.9999953079226,2|2,0:0|0:0,0:0:0:0:
9,94,12840,2,0,P|32:112|53:134,1,59.9999953079226,2|2,1:2|0:0,0:0:0:0:
118,222,13055,1,2,0:0:0:0:
170,109,13269,1,10,0:0:0:0:
38,314,13483,2,0,P|27:341|19:371,1,59.9999953079226,2|2,0:0|0:0,0:0:0:0:
256,256,13698,5,2,1:2:0:0:
256,130,13912,1,0,0:0:0:0:
256,4,14126,1,10,0:0:0:0:
393,222,14340,6,0,P|383:249|375:279,1,59.9999953079226,2|2,0:0|0:0,0:0:0:0:
503,94,14555,2,0,P|479:112|458:134,1,59.9999953079226,0|2,1:2|0:0,0:0:0:0:
394,222,14769,1,2,0:0:0:0:
342,109,14983,1,10,0:0:0:0:
474,314,15197,2,0,P|484:341|492:371,1,59.9999953079226,0|0,1:0|1:0,0:0:0:0:
327,221,15412,5,0,1:0:0:0:
310,246,15519,1,0,3:0:0:0:
285,263,15626,1,0,3:0:0:0:
256,268,15733,1,0,3:0:0:0:
226,263,15840,1,0,1:0:0:0:
201,246,15948,1,0,3:0:0:0:
184,221,16055,1,0,3:0:0:0:
179,192,16162,1,0,3:0:0:0:
184,162,16269,1,0,1:0:0:0:
201,137,16376,1,0,3:0:0:0:
226,120,16483,1,0,3:0:0:0:
256,115,16590,1,0,3:0:0:0:
285,120,16698,1,0,3:0:0:0:
310,137,16805,1,0,3:0:0:0:
327,162,16912,1,0,3:0:0:0:
332,192,17019,1,0,3:0:0:0:
254,255,17126,6,0,P|256:128|257:255,1,382.499989056587,4|0,3:1|0:0,0:0:0:0:
256,192,18198,5,2,0:0:0:0:
256,192,18412,1,0,0:0:0:0:
256,192,18626,1,0,0:0:0:0:
138,301,18840,6,2,P|64:310|0:347,1,149.999998569489,0|0,1:0|0:0,0:1:0:0:
178,373,19162,1,0,1:0:0:0:
165,381,19269,2,2,P|155:307|118:242,1,149.999998569489,2|0,1:3|1:3,0:1:0:0:
312,40,19698,6,0,L|420:26,1,74.9999992847443,4|0,1:3|0:0,0:0:0:0:
219,118,19912,1,2,1:3:0:0:
219,118,20019,1,0,1:0:0:0:
233,120,20126,2,2,L|125:106,1,74.9999992847443,4|0,1:3|0:0,0:1:0:0:
14,1,20340,2,2,P|35:31|48:66,1,74.9999992847443,0|0,1:3|0:0,0:1:0:0:
191,229,20555,6,2,L|17:252,1,149.999998569489,4|0,1:3|0:0,0:1:0:0:
229,332,20876,1,0,1:0:0:0:
215,323,20983,2,2,P|228:356|263:367,1,74.9999992847443,2|0,1:3|0:0,0:1:0:0:
333,259,21198,2,2,P|358:286|353:322,1,74.9999992847443,0|0,1:3|0:0,0:1:0:0:
260,66,21412,6,0,L|250:160,1,74.9999992847443,4|0,1:3|0:0,0:0:0:0:
439,195,21626,1,2,1:3:0:0:
439,195,21733,1,0,1:0:0:0:
441,180,21840,2,2,L|433:254,1,74.9999992847443,4|0,1:3|0:0,0:1:0:0:
333,2,22055,2,2,L|343:96,1,74.9999992847443,0|0,1:0|0:0,0:1:0:0:
488,371,22269,6,2,B|459:372|459:372|447:276|447:276|472:275,1,149.999998569489,2|0,1:3|0:0,0:1:0:0:
330,330,22590,1,0,1:0:0:0:
344,327,22698,2,0,L|249:315,1,74.9999992847443,0|0,1:0|0:0,0:0:0:0:
441,180,22912,2,0,L|403:91,1,74.9999992847443,0|0,1:0|0:0,0:0:0:0:
233,184,23126,6,2,B|264:160|264:160|352:227,1,149.999998569489,2|4,1:3|1:3,0:1:0:0:
189,369,23448,1,4,1:3:0:0:
202,366,23555,2,2,P|184:333|154:311,1,74.9999992847443,8|0,1:3|0:0,0:1:0:0:
35,266,23769,2,2,P|52:233|82:211,1,74.9999992847443,0|0,1:0|0:0,0:1:0:0:
205,4,23983,6,2,B|288:-18|307:54|310:64|313:75|332:147|415:125,1,269.999978885652,8|0,1:0|0:0,0:1:0:0:
203,245,24412,2,2,B|142:184|195:130|202:123|210:115|263:62|203:1,1,269.999978885652,4|0,1:3|0:0,0:1:0:0:
414,125,24840,2,2,B|391:208|319:188|308:185|298:183|225:163|203:246,1,269.999978885652,0|0,1:0|0:0,0:1:0:0:
56,228,25269,6,2,L|349:288,1,299.999985694885,12|0,1:3|0:0,0:1:0:0:
153,328,25698,6,2,P|223:303|298:302,1,149.999998569489,8|0,1:0|0:0,0:1:0:0:
400,379,26019,1,0,0:0:0:0:
406,365,26126,2,2,P|381:294|380:219,1,149.999998569489,2|2,1:3|1:3,1:0:0:0:
80,114,26555,1,0,1:0:0:0:
261,35,26769,1,2,1:3:0:0:
274,108,26876,1,2,1:3:0:0:
304,65,26983,6,2,L|288:200,1,74.9999992847443,8|0,1:3|0:0,0:1:0:0:
194,352,27198,2,2,L|185:277,1,74.9999992847443,0|0,1:0|0:0,0:1:0:0:
366,188,27412,1,0,1:0:0:0:
439,200,27519,1,2,1:3:0:0:
512,212,27626,2,0,B|516:244|516:244|484:281,1,74.9999992847443,0|0,1:0|1:0,0:0:0:0:
113,364,27840,2,2,L|104:289,1,74.9999992847443,2|0,1:3|0:0,0:1:0:0:
366,188,28055,2,2,L|357:262,1,74.9999992847443,0|0,0:0|0:0,0:1:0:0:
194,352,28269,5,2,1:1:0:0:
24,119,28483,1,2,1:1:0:0:
97,107,28590,1,2,1:1:0:0:
170,95,28698,2,2,B|197:119|197:119|171:142|171:142|205:169|205:169|160:188|160:188|124:214|124:214|151:231,1,224.999997854233,2|0,1:3|0:0,0:1:0:0:
202,282,29126,6,2,L|196:316,12,24.9999988079071,0|0|0|0|0|0|0|0|0|0|0|0|0,1:0|0:0|0:0|0:0|1:0|0:0|0:0|0:0|1:0|0:0|0:0|0:0|1:0,0:1:0:0:
299,358,29555,2,0,L|358:348,1,49.9999976158143,0|0,1:0|1:0,0:0:0:0:
343,331,29662,2,0,L|284:321,1,49.9999976158143,0|0,1:0|1:0,0:0:0:0:
307,292,29769,1,0,1:0:0:0:
334,267,29876,1,0,0:0:0:0:
318,241,29983,6,2,L|310:76,1,149.999998569489,0|0,1:0|1:0,0:1:0:0:
182,131,30305,2,2,L|152:174,1,37.4999996423721,0|0,0:0|0:0,0:1:0:0:
192,141,30412,2,2,L|27:133,1,149.999998569489,2|2,1:3|1:1,0:1:0:0:
375,30,30840,6,2,L|406:67,2,37.4999996423721,2|0|0,1:3|0:0|0:0,0:1:0:0:
192,141,31055,1,2,1:1:0:0:
153,205,31162,1,2,1:1:0:0:
196,266,31269,2,2,L|165:303,2,37.4999996423721,8|0|0,1:3|0:0|0:0,0:1:0:0:
301,342,31483,2,2,L|332:379,2,37.4999996423721,0|0|0,1:0|0:0|0:0,0:1:0:0:
236,187,31698,6,2,B|236:96|256:96|275:96|275:192|275:289|256:289|236:289|236:207,1,299.999985694885,0|0,1:0|0:0,0:1:0:0:
64,192,32126,2,2,L|32:192,16,24.9999988079071,8|0|0|0|0|0|0|0|0|0|0|0|0|0|0|0|4,1:0|0:0|0:0|0:0|0:0|0:0|0:0|0:0|0:0|0:0|0:0|0:0|0:0|0:0|0:0|0:0|0:1,0:1:0:0:
199,122,34055,6,0,L|165:110,1,24.9999988079071,0|0,0:0|0:0,0:0:0:0:
256,192,34269,12,0,39198,0:0:0:0:
238,206,39412,6,0,B|212:228|212:228|196:223,15,49.9999976158143,8|0|0|0|0|0|0|0|2|0|0|0|0|0|0|0,3:1|3:0|3:0|3:0|3:0|3:0|3:0|3:0|3:2|3:0|3:0|3:0|3:0|3:0|3:0|3:0,0:0:0:0:
242,174,40269,2,0,B|220:148|220:148|224:132,15,49.9999976158143,2|0|0|0|0|0|0|0|2|0|0|0|0|0|0|0,3:2|3:0|3:0|3:0|3:0|3:0|3:0|3:0|3:2|3:0|3:0|3:0|3:0|3:0|3:0|3:0,0:0:0:0:
274,178,41126,2,0,B|300:156|300:156|315:160,15,49.9999976158143,2|0|0|0|0|0|0|0|2|0|0|0|0|0|0|0,3:2|3:0|3:0|3:0|3:0|3:0|3:0|3:0|3:2|3:0|3:0|3:0|3:0|3:0|3:0|3:0,0:0:0:0:
270,210,41983,2,0,B|292:236|292:236|287:251,15,49.9999976158143,2|0|0|0|0|0|0|0|2|0|0|0|0|0|0|0,3:2|3:0|3:0|3:0|3:0|3:0|3:0|3:0|3:2|3:0|3:0|3:0|3:0|3:0|3:0|3:0,0:0:0:0:
305,263,42840,6,0,L|295:343,6,62.4999970197678,0|0|0|0|0|0|0,3:0|3:0|3:0|3:0|3:0|3:0|3:0,0:0:0:0:
191,224,43269,2,0,L|238:218,2,33.3333317438762,0|0|0,1:0|1:0|1:0,0:0:0:0:
194,238,43483,2,0,L|204:318,2,62.4999970197678,0|0|0,3:0|0:0|3:0,0:0:0:0:
97,193,43698,2,0,L|50:187,2,33.3333317438762,0|0|0,1:0|1:0|1:0,0:0:0:0:
94,207,43912,6,0,L|84:287,1,62.4999970197678,0|0,1:0|1:0,0:0:0:0:
166,72,44126,6,0,L|156:-8,6,62.4999970197678,0|0|0|0|0|0|0,3:0|3:0|3:0|3:0|3:0|3:0|3:0,0:0:0:0:
243,96,44555,2,0,L|242:118,3,19.9999990463257,4|2|2|2,1:1|0:0|0:0|0:0,0:0:0:0:
256,192,46269,1,8,1:1:0:0:
256,192,52912,5,2,0:0:0:0:
215,251,53126,6,0,P|255:119|297:251,1,366.666649182638,0|0,1:0|0:0,0:0:0:0:
348,304,53983,2,0,P|370:279|387:250,1,66.6666634877523,2|0,3:0|3:0,0:0:0:0:
394,170,54269,1,0,3:0:0:0:
164,304,54412,2,0,P|141:279|124:250,1,66.6666634877523,2|0,3:0|3:0,0:0:0:0:
115,170,54698,1,0,3:0:0:0:
256,384,54840,6,0,B|275:344|256:304|256:304|236:264|256:224,1,166.666658719381,0|0,1:0|0:0,0:0:0:0:
256,148,55269,2,0,L|256:52,1,66.6666634877523,2|0,3:0|3:0,0:0:0:0:
256,0,55555,1,0,3:0:0:0:
153,72,55698,2,0,B|96:74|73:30|73:30|22:18,1,133.333326975505,8|0,3:0|0:0,0:0:0:0:
359,72,56126,2,0,B|416:74|439:30|439:30|490:18,1,133.333326975505,4|0,3:0|0:0,0:0:0:0:
215,133,56555,6,0,P|255:265|297:133,1,366.666649182638,0|0,1:0|0:0,0:0:0:0:
256,192,57412,2,2,L|256:224,12,18.7499998211861,2|2|2|2|2|2|2|2|2|2|2|2|2,3:0|0:0|0:0|0:0|0:0|0:0|0:0|0:0|0:0|0:0|0:0|0:0|0:0,1:0:0:0:
172,279,57840,2,0,B|178:310|178:310|189:324|189:324|193:349,1,74.9999992847443,0|0,3:0|0:0,0:0:0:0:
340,279,58055,2,0,B|334:310|334:310|323:324|323:324|318:349,1,74.9999992847443,0|0,3:0|0:0,0:0:0:0:
497,192,58269,6,0,L|305:192,1,166.666658719381,0|0,1:0|0:0,0:0:0:0:
256,192,58698,2,0,L|164:192,1,66.6666634877523,2|0,3:0|3:0,0:0:0:0:
109,192,58983,1,0,3:0:0:0:
172,279,59126,2,0,B|126:303|126:303|111:354|164:374,1,133.333326975505,8|0,3:0|0:0,0:0:0:0:
340,279,59555,2,0,B|386:303|386:303|401:354|348:374,1,133.333326975505,4|0,3:0|0:0,0:0:0:0:
215,251,59983,6,0,P|255:119|297:251,1,366.666649182638,0|0,1:0|0:0,0:0:0:0:
348,304,60840,2,0,B|377:305|377:305|414:328,1,66.6666634877523,2|0,3:0|3:0,0:0:0:0:
463,265,61126,1,0,3:0:0:0:
164,304,61269,2,0,B|135:305|135:305|98:328,1,66.6666634877523,2|0,3:0|3:0,0:0:0:0:
49,265,61555,1,0,3:0:0:0:
256,384,61698,6,0,B|256:347|256:347|274:329|274:329|237:310|237:310|256:292|256:292|256:255,1,166.666658719381,0|0,1:0|0:0,0:0:0:0:
256,181,62126,2,0,L|256:98,1,66.6666634877523,2|0,3:0|3:0,0:0:0:0:
256,33,62412,1,0,3:0:0:0:
162,114,62555,2,0,B|128:124|128:124|167:21,1,133.333326975505,8|0,3:0|0:0,0:0:0:0:
350,114,62983,2,0,B|384:124|384:124|345:21,1,133.333326975505,4|0,3:0|0:0,0:0:0:0:
256,192,63412,5,2,1:2:0:0:
256,196,64269,1,0,0:0:0:0:
256,200,65126,1,0,0:0:0:0:
256,204,65983,1,0,0:0:0:0:
256,208,66840,6,0,B|229:203|224:229|224:229|220:256|193:251|193:251|166:247|162:273|162:273|157:300|130:295|130:295|104:290|99:317|99:317|94:344|68:339|68:339|41:334|36:361|36:361|32:388|5:383|5:383,1,349.9999833107,0|0,1:0|0:0,0:0:0:0:
88,192,67698,2,2,P|256:24|423:192,1,524.99999499321,4|0,0:3|0:0,0:1:0:0:
256,208,68555,6,0,B|282:203|287:229|287:229|291:256|318:251|318:251|345:247|349:273|349:273|354:300|381:295|381:295|407:290|412:317|412:317|417:344|443:339|443:339|470:334|475:361|475:361|479:388|506:383|506:383,1,349.9999833107,0|0,1:0|0:0,0:0:0:0:
178,197,69412,2,2,B|115:304|154:363|225:367|383:93|344:34|274:30|210:139,1,524.99999499321,8|0,0:3|0:0,0:1:0:0:
73,329,70269,6,0,B|80:369|61:384|38:377|20:272|39:258|61:265|69:307,1,174.99999165535,0|0,1:0|0:0,0:0:0:0:
192,384,71126,2,2,B|256:0|256:0|355:93,1,524.99999499321,4|0,0:3|0:0,0:1:0:0:
455,124,71983,6,0,L|298:203,1,174.99999165535,0|0,1:0|0:0,0:0:0:0:
409,258,72840,2,2,L|496:301,1,87.4999958276749,12|0,1:3|0:0,0:1:0:0:
512,384,73698,5,4,1:0:0:0:
144,174,75412,6,0,B|125:132|242:123|167:259,1,166.666658719381,0|0,1:0|0:0,0:0:0:0:
124,312,75840,2,0,L|91:304,1,33.3333317438762,2|0,3:1|0:0,0:0:0:0:
264,308,75983,2,0,L|231:300,1,33.3333317438762,2|0,3:1|0:0,0:0:0:0:
404,304,76126,2,0,L|371:296,1,33.3333317438762,2|0,3:1|0:0,0:0:0:0:
275,352,76269,6,2,L|267:308,10,24.9999997615814,8|0|0|0|0|0|0|0|0|0|0,1:3|0:0|0:0|0:0|0:0|0:0|0:0|0:0|0:0|0:0|0:0,0:1:0:0:
329,228,76698,2,2,L|337:184,9,24.9999997615814,4|0|0|0|0|0|0|0|0|0,1:3|0:0|0:0|0:0|0:0|0:0|0:0|0:0|0:0|0:0,0:1:0:0:
194,251,77126,6,2,L|152:243,10,33.3333317438762,8|0|0|0|0|0|0|0|0|0|0,1:0|0:0|0:0|0:0|0:0|0:0|0:0|0:0|0:0|0:0|0:0,0:1:0:0:
117,142,77555,2,0,L|72:150,1,24.9999988079071,0|0,1:0|1:0,0:0:0:0:
112,120,77662,2,0,L|157:128,1,24.9999988079071,0|0,1:0|1:0,0:0:0:0:
107,98,77769,2,0,L|114:38,1,49.9999976158143,0|0,3:0|3:0,0:0:0:0:
258,30,77983,6,2,L|270:139,1,99.9999952316285,0|2,1:0|1:2,0:1:0:0:
340,174,78269,2,2,L|456:192,1,99.9999952316285,0|0,0:0|0:0,0:1:0:0:
501,244,78555,2,2,L|513:353,1,99.9999952316285,0|0,0:0|0:0,0:1:0:0:
433,370,78840,6,0,L|373:360,1,33.3333317438762,2|0,1:1|0:0,0:0:0:0:
124,212,79126,2,0,L|74:170,1,33.3333317438762,2|0,1:1|0:0,0:0:0:0:
222,294,79269,2,0,L|271:335,1,33.3333317438762,2|0,3:1|0:0,0:0:0:0:
214,204,79412,2,0,L|255:154,1,33.3333317438762,2|0,3:1|0:0,0:0:0:0:
133,303,79555,2,0,L|91:352,1,33.3333317438762,2|0,3:1|0:0,0:0:0:0:
9,220,79698,6,2,L|11:192,10,24.9999997615814,8|0|0|0|0|0|0|0|0|0|0,3:0|0:0|0:0|0:0|0:0|0:0|0:0|0:0|0:0|0:0|0:0,0:1:0:0:
74,91,80126,2,2,L|72:63,10,24.9999997615814,4|0|0|0|0|0|0|0|0|0|0,3:0|0:0|0:0|0:0|0:0|0:0|0:0|0:0|0:0|0:0|0:0,0:1:0:0:
156,119,80555,1,0,1:0:0:0:
156,119,80983,6,0,L|145:164,1,24.9999988079071,2|2,1:2|0:0,0:0:0:0:
168,123,81090,2,0,L|157:168,1,24.9999988079071,2|2,0:0|0:0,0:0:0:0:
180,127,81198,2,0,L|231:118,2,33.3333317438762,2|0|0,0:0|1:0|0:0,0:0:0:0:
292,136,81412,2,0,L|343:127,2,33.3333317438762,0|0|0,1:0|0:0|3:0,0:0:0:0:
404,145,81626,2,0,L|455:136,2,33.3333317438762,0|0|0,0:0|1:0|0:0,0:0:0:0:
336,224,81840,2,0,P|327:255|326:289,2,66.6666634877523,0|0|0,3:0|3:0|3:0,0:0:0:0:
408,335,82269,5,0,1:0:0:0:
408,335,82555,1,0,1:0:0:0:
456,254,82698,2,0,L|500:248,2,33.3333317438762,0|0|0,3:0|0:0|3:0,0:0:0:0:
408,335,82912,2,0,L|364:329,2,33.3333317438762,0|0|0,0:0|3:0|0:0,0:0:0:0:
256,378,83126,6,2,L|241:247,1,74.9999992847443,8|0,3:0|0:0,0:1:0:0:
165,200,83340,2,2,L|180:69,1,74.9999992847443,4|0,3:0|0:0,0:1:0:0:
264,30,83555,2,2,L|258:-17,10,24.9999997615814,0|0|0|0|0|0|0|0|0|0|0,1:0|0:0|0:0|0:0|0:0|0:0|0:0|0:0|0:0|0:0|0:0,0:1:0:0:
346,57,83983,5,0,1:0:0:0:
61,134,84198,2,0,L|7:124,1,33.3333317438762,0|0,1:0|0:0,0:0:0:0:
165,200,84412,2,0,L|219:190,1,33.3333317438762,0|0,3:0|0:0,0:0:0:0:
152,281,84555,2,0,L|206:271,1,33.3333317438762,0|0,3:0|0:0,0:0:0:0:
139,362,84698,2,0,L|193:352,1,33.3333317438762,0|0,3:0|0:0,0:0:0:0:
278,315,84840,2,2,L|271:284,4,16.6666658719381,0|0|0|0|0,1:0|0:0|0:0|0:0|0:0,0:1:0:0:
372,274,85055,6,0,L|369:316,1,37.4999996423721,0|0,1:0|1:0,0:0:0:0:
395,281,85162,2,0,L|392:239,1,37.4999996423721,0|0,1:0|1:0,0:0:0:0:
418,274,85269,1,0,1:0:0:0:
492,304,85412,1,0,1:0:0:0:
506,225,85555,1,0,3:0:0:0:
459,159,85698,6,0,L|472:6,1,149.999992847443,0|0,1:0|0:0,0:0:0:0:
512,192,87412,6,0,B|489:147|489:147|467:192,1,99.9999952316285,2|2,1:2|1:2,0:0:0:0:
384,192,89126,6,0,B|361:236|361:236|339:192,1,99.9999952316285,2|2,1:2|1:2,0:0:0:0:
256,192,90840,6,0,B|233:147|233:147|211:192,1,99.9999952316285,2|2,1:2|1:2,0:0:0:0:
128,192,92555,6,0,B|105:236|105:236|83:192,1,99.9999952316285,2|2,1:2|1:2,0:0:0:0:
0,128,94269,6,0,B|41:116|41:116|98:144,1,99.9999952316285,2|2,1:2|1:2,0:0:0:0:
143,256,95983,6,0,B|184:268|184:268|241:240,1,99.9999952316285,2|2,1:2|1:2,0:0:0:0:
294,128,97698,6,0,B|335:116|335:116|392:144,1,99.9999952316285,0|0,1:0|1:0,0:0:0:0:
506,312,99412,6,2,B|432:242|432:242|447:284|447:284|347:273|347:273|389:257|389:257|316:188|316:188|331:230|331:230|231:219|231:219|273:203|273:203|200:134|200:134|215:176|215:176|115:165|115:165|157:149|157:149|84:80|84:80|99:122|99:122|-3:111,1,1119.99991241455,8|2,0:1|1:2,0:1:0:0:
0,111,101340,1,2,1:2:0:0:
37,247,101555,5,2,0:0:0:0:
115,249,101769,1,2,0:0:0:0:
117,244,101876,1,2,0:0:0:0:
118,239,101983,1,2,0:0:0:0:
179,294,102198,1,2,0:0:0:0:
206,368,102412,1,2,0:0:0:0:
280,82,102840,5,2,1:2:0:0:
280,82,103055,1,2,1:2:0:0:
405,12,103269,1,2,0:0:0:0:
397,91,103483,1,2,0:0:0:0:
401,90,103590,1,2,0:0:0:0:
406,89,103698,1,2,0:0:0:0:
389,170,103912,1,2,0:0:0:0:
382,249,104126,1,2,0:0:0:0:
72,96,104555,5,2,1:2:0:0:
89,174,104769,1,2,1:2:0:0:
167,157,104983,1,2,0:0:0:0:
150,79,105198,1,0,0:0:0:0:
89,174,105412,5,2,0:0:0:0:
184,235,105626,1,2,0:0:0:0:
245,140,105840,1,2,0:0:0:0:
150,79,106055,1,0,0:0:0:0:
184,235,106269,5,2,1:2:0:0:
340,201,106483,1,2,1:2:0:0:
150,79,106698,1,2,0:0:0:0:
306,45,106912,1,2,0:0:0:0:
245,140,107126,5,2,0:0:0:0:
340,201,107340,1,2,0:0:0:0:
401,106,107555,2,0,L|389:-1,1,99.9999952316285,2|2,0:0|0:0,0:0:0:0:
512,182,107983,5,2,1:2:0:0:
512,182,108198,1,2,1:2:0:0:
429,339,108412,5,2,0:0:0:0:
350,347,108626,1,2,0:0:0:0:
351,352,108733,1,2,0:0:0:0:
352,356,108840,1,2,0:0:0:0:
281,309,109055,1,2,0:0:0:0:
244,239,109269,1,2,0:0:0:0:
48,173,109698,5,2,1:2:0:0:
48,173,109912,1,2,1:2:0:0:
147,63,110126,5,2,0:0:0:0:
225,78,110340,1,2,0:0:0:0:
224,83,110448,1,2,0:0:0:0:
223,87,110555,1,2,0:0:0:0:
303,93,110769,1,2,0:0:0:0:
381,108,110983,1,2,0:0:0:0:
279,320,111412,5,2,1:2:0:0:
258,242,111626,1,2,1:2:0:0:
201,300,111840,1,2,0:0:0:0:
279,320,112055,1,0,0:0:0:0:
237,164,112269,5,2,0:0:0:0:
123,279,112483,1,2,0:0:0:0:
279,320,112698,1,2,0:0:0:0:
237,164,112912,1,0,0:0:0:0:
45,258,113126,5,2,1:2:0:0:
279,320,113340,1,2,1:2:0:0:
216,87,113555,1,2,0:0:0:0:
279,320,113769,1,2,0:0:0:0:
180,222,113983,5,2,0:0:0:0:
314,185,114198,1,2,0:0:0:0:
279,319,114412,2,0,P|236:345|187:350,1,99.9999952316285,2|2,0:0|0:0,0:0:0:0:
41,199,114840,5,2,1:2:0:0:
41,199,115055,1,0,1:0:0:0:
135,94,115269,2,0,L|248:108,1,99.9999952316285,2|2,0:0|0:0,0:0:0:0:
280,87,115590,1,2,0:0:0:0:
289,83,115698,1,2,0:0:0:0:
272,201,115912,1,2,0:0:0:0:
384,158,116126,1,2,0:0:0:0:
188,365,116555,5,2,1:2:0:0:
188,365,116769,1,0,1:0:0:0:
387,237,116983,2,0,P|398:286|386:334,1,99.9999952316285,2|2,1:2|0:0,0:0:0:0:
337,347,117305,1,2,0:0:0:0:
327,344,117412,1,2,1:2:0:0:
194,240,117626,1,2,0:0:0:0:
208,358,117840,1,2,1:2:0:0:
73,130,118269,5,2,1:2:0:0:
73,130,118483,1,2,1:2:0:0:
17,314,118698,2,0,B|29:350|29:350|94:311,1,99.9999952316285,2|2,0:0|0:0,0:0:0:0:
109,75,119126,2,0,B|71:67|71:67|73:143,1,99.9999952316285,2|2,0:0|0:0,0:0:0:0:
269,274,119555,2,0,B|294:245|294:245|227:208,1,99.9999952316285,2|2,0:0|0:0,0:0:0:0:
0,251,119983,5,2,1:2:0:0:
22,377,120198,1,2,0:2:0:0:
81,248,120412,5,2,1:2:0:0:
99,350,120627,1,2,0:2:0:0:
163,246,120840,5,2,1:2:0:0:
177,324,121055,1,2,0:2:0:0:
245,244,121269,5,2,1:2:0:0:
255,299,121483,1,2,0:2:0:0:
327,256,121698,5,2,1:2:0:0:
327,256,121912,1,0,1:0:0:0:
267,135,122126,2,0,P|274:85|297:41,1,99.9999952316285,2|2,0:0|0:0,0:0:0:0:
347,35,122448,1,2,0:0:0:0:
356,33,122555,1,2,0:0:0:0:
449,172,122769,1,2,0:0:0:0:
438,52,122983,1,2,0:0:0:0:
169,209,123412,5,2,1:2:0:0:
169,209,123626,1,0,0:0:0:0:
41,102,123840,2,0,B|37:74|37:74|146:102,1,99.9999952316285,2|2,1:2|0:0,0:0:0:0:
155,79,124162,1,2,0:0:0:0:
164,76,124269,1,2,1:2:0:0:
268,162,124483,1,2,0:0:0:0:
263,29,124698,1,2,1:2:0:0:
235,252,125126,5,2,1:2:0:0:
235,252,125340,1,2,1:2:0:0:
79,243,125555,2,0,P|99:286|147:292,1,99.9999952316285,2|2,0:0|0:0,0:0:0:0:
270,375,125984,2,0,P|317:378|346:340,1,99.9999952316285,2|2,0:0|0:0,0:0:0:0:
479,275,126412,2,0,P|506:235|487:191,1,99.9999952316285,2|2,0:0|0:0,0:0:0:0:
340,39,126840,5,2,1:2:0:0:
306,162,127055,1,2,0:2:0:0:
309,50,127269,5,2,1:2:0:0:
336,149,127484,1,2,0:2:0:0:
295,72,127698,5,2,1:2:0:0:
350,127,127913,1,2,0:2:0:0:
303,95,128126,5,2,1:2:0:0:
342,105,128341,1,2,0:2:0:0:
248,183,128555,6,0,B|187:150|179:264|117:204|84:231|39:238|39:238|-9:249,1,262.499997496605,2|0,0:0|0:0,0:0:0:0:
37,319,129412,1,2,0:0:0:0:
37,319,129626,1,2,0:0:0:0:
37,319,129840,1,2,0:0:0:0:
357,263,130269,6,0,B|394:241|368:165|320:210|305:119,2,149.999998569489,2|0|2,0:0|0:0|0:0,0:0:0:0:
316,340,131340,1,2,0:0:0:0:
316,340,131555,1,2,0:0:0:0:
199,23,131983,6,0,B|177:87|227:107|169:196|226:225|169:305|204:347,1,299.999997138977,2|2,0:0|0:0,0:0:0:0:
93,269,133055,1,0,0:0:0:0:
7,357,133269,2,0,B|31:348|68:375|107:350,1,74.9999992847443,0|0,0:0|0:0,0:0:0:0:
177,276,133698,6,0,B|103:283|132:233|92:193|38:210,1,149.999998569489,2|0,0:0|0:0,0:0:0:0:
279,122,134555,2,0,B|353:129|324:79|364:39|418:56,1,149.999998569489,2|0,0:0|0:0,0:0:0:0:
368,340,135412,6,0,B|340:283|290:321|256:233|187:215|168:165|168:165,1,262.499997496605,0|0,0:0|0:0,0:0:0:0:
202,100,136269,1,2,0:0:0:0:
202,100,136483,1,2,0:0:0:0:
202,100,136698,1,2,0:0:0:0:
460,168,137126,6,0,B|433:219|462:263|424:329,2,149.999998569489,2|0|2,0:0|0:0|0:0,0:0:0:0:
410,91,138198,1,2,0:0:0:0:
410,91,138412,1,2,0:0:0:0:
256,192,138840,5,2,0:0:0:0:
256,192,139055,1,0,0:0:0:0:
325,261,139698,1,2,0:0:0:0:
256,289,139912,1,2,0:0:0:0:
186,261,140126,1,2,0:0:0:0:
158,191,140340,1,2,0:0:0:0:
186,122,140555,5,2,0:0:0:0:
256,94,140983,5,2,0:0:0:0:
325,122,141412,5,2,0:0:0:0:
353,192,141840,5,2,0:0:0:0:
256,192,142269,5,4,0:1:0:0:
