osu file format v14

[General]
AudioFilename: audio.mp3
AudioLeadIn: 0
PreviewTime: 18188
Countdown: 0
SampleSet: Soft
StackLeniency: 0.2
Mode: 0
LetterboxInBreaks: 0
WidescreenStoryboard: 1

[Editor]
Bookmarks: 42830
DistanceSpacing: 0.9
BeatDivisor: 16
GridSize: 32
TimelineZoom: 3.499998

[Metadata]
Title:MARENOL
TitleUnicode:MARENOL
Artist:LeaF
ArtistUnicode:LeaF
Creator:Yugu
Version:Extra
Source:osu!
Tags:Hey lululu Flask Icekalt Kuse FA featured artists Mappers' Guild SOUND VOLTEX VIVID WAVE glitch hardcore horror electronic instrumental 除草剤 Joso zai G2R2018 sdvx BMS
BeatmapID:2404722
BeatmapSetID:1136149

[Difficulty]
HPDrainRate:5
CircleSize:4.5
OverallDifficulty:8
ApproachRate:9.5
SliderMultiplier:3.59999990463257
SliderTickRate:1

[Events]
//Background and Video events
0,0,"1168.png",0,0
//Break Periods
2,46469,52387
//Storyboard Layer 0 (Background)
//Storyboard Layer 1 (Fail)
//Storyboard Layer 2 (Pass)
//Storyboard Layer 3 (Foreground)
//Storyboard Layer 4 (Overlay)
//Storyboard Sound Samples

[TimingPoints]
1698,428.571428571429,4,2,3,100,1,0
1698,-28.4090909090909,4,2,3,100,0,0
3305,-28.5714285714286,4,2,3,5,0,0
3412,-200,4,2,3,60,0,0
10269,-133.333333333333,4,2,3,70,0,0
16269,-200,4,2,3,60,0,0
17126,-1000,4,2,3,80,0,0
18090,-1000,4,2,3,5,0,0
18198,-217.391304347826,4,2,3,50,0,0
18840,-100,4,2,3,80,0,0
19269,-66.6666666666667,4,2,3,80,0,0
19430,-66.6666666666667,4,2,3,5,0,0
19483,-66.6666666666667,4,2,3,80,0,0
19644,-66.6666666666667,4,2,3,5,0,0
19697,-66.6666666666667,4,2,3,80,0,0
19912,-50,4,2,3,80,0,0
20073,-50,4,2,3,5,0,0
20126,-66.6666666666667,4,2,3,80,0,0
20287,-66.6666666666667,4,2,3,5,0,0
20340,-100,4,2,3,80,0,0
20501,-100,4,2,3,5,0,0
20555,-133.333333333333,4,2,3,80,0,0
20823,-133.333333333333,4,2,3,5,0,0
20876,-133.333333333333,4,2,3,80,0,0
21144,-133.333333333333,4,2,3,5,0,0
21198,-133.333333333333,4,2,3,80,0,0
21358,-133.333333333333,4,2,3,5,0,0
21412,-133.333333333333,4,2,3,80,0,0
21626,-66.6666666666667,4,2,3,80,0,0
21787,-66.6666666666667,4,2,3,5,0,0
21840,-66.6666666666667,4,2,3,80,0,0
22001,-66.6666666666667,4,2,3,5,0,0
22055,-66.6666666666667,4,2,3,80,0,0
22215,-66.6666666666667,4,2,3,5,0,0
22269,-66.6666666666667,4,2,3,80,0,0
22644,-66.6666666666667,4,2,3,5,0,0
22698,-66.6666666666667,4,2,3,80,0,0
23126,-40,4,2,3,80,0,0
23555,-100,4,2,3,80,0,0
23983,-80,4,2,3,80,0,0
25269,-40,4,2,3,80,0,0
25698,-100,4,2,3,80,0,0
26126,-66.6666666666667,4,2,3,80,0,0
26287,-66.6666666666667,4,2,3,5,0,0
26340,-66.6666666666667,4,2,3,80,0,0
26501,-66.6666666666667,4,2,3,5,0,0
26555,-66.6666666666667,4,2,3,80,0,0
26823,-66.6666666666667,4,2,3,5,0,0
26876,-66.6666666666667,4,2,3,80,0,0
26930,-66.6666666666667,4,2,3,5,0,0
26983,-66.6666666666667,4,2,3,80,0,0
27144,-66.6666666666667,4,2,3,5,0,0
27198,-133.333333333333,4,2,3,80,0,0
27358,-133.333333333333,4,2,3,5,0,0
27412,-133.333333333333,4,2,3,80,0,0
27465,-133.333333333333,4,2,3,5,0,0
27519,-66.6666666666667,4,2,3,80,0,0
27840,-57.1428571428571,4,2,3,80,0,0
28269,-100,4,2,3,80,0,0
28698,-66.6666666666667,4,2,3,80,0,0
29126,-40,4,2,3,80,0,0
29983,-100,4,2,3,80,0,0
30412,-50,4,2,3,80,0,0
30840,-25,4,2,3,80,0,0
32073,-25,4,2,3,5,0,0
32126,-1000,4,2,3,80,0,0
32501,-1000,4,2,3,5,0,0
32555,-1000,4,2,3,50,0,0
39412,-50,4,2,3,60,0,0
39519,-49.5049504950495,4,2,3,60,0,0
39626,-49.0196078431373,4,2,3,60,0,0
39733,-48.5436893203883,4,2,3,60,0,0
39840,-48.0769230769231,4,2,3,60,0,0
39948,-47.6190476190476,4,2,3,60,0,0
40055,-47.1698113207547,4,2,3,60,0,0
40162,-46.7289719626168,4,2,3,60,0,0
40269,-46.2962962962963,4,2,3,60,0,0
40376,-45.8715596330275,4,2,3,60,0,0
40483,-45.4545454545455,4,2,3,60,0,0
40590,-45.045045045045,4,2,3,60,0,0
40698,-44.6428571428571,4,2,3,60,0,0
40805,-44.2477876106195,4,2,3,60,0,0
40912,-43.859649122807,4,2,3,60,0,0
41019,-43.4782608695652,4,2,3,60,0,0
41126,-43.1034482758621,4,2,3,60,0,0
41233,-42.7350427350427,4,2,3,60,0,0
41340,-42.3728813559322,4,2,3,60,0,0
41448,-42.0168067226891,4,2,3,60,0,0
41555,-41.6666666666667,4,2,3,60,0,0
41662,-41.3223140495868,4,2,3,60,0,0
41769,-40.983606557377,4,2,3,60,0,0
41876,-40.650406504065,4,2,3,60,0,0
41983,-40.3225806451613,4,2,3,60,0,0
42090,-40,4,2,3,60,0,0
42198,-39.6825396825397,4,2,3,60,0,0
42305,-39.3700787401575,4,2,3,60,0,0
42412,-39.0625,4,2,3,60,0,0
42519,-38.7596899224806,4,2,3,60,0,0
42626,-38.4615384615385,4,2,3,60,0,0
42733,-38.1679389312977,4,2,3,60,0,0
42840,-66.6666666666667,4,2,3,90,0,0
44555,-1000,4,2,3,40,0,0
52912,-1000,4,2,3,60,0,0
53073,-1000,4,2,3,5,0,0
53126,-200,4,2,3,80,0,0
53912,-200,4,2,3,5,0,0
53983,-100,4,2,3,80,0,0
56555,-200,4,2,3,80,0,0
57340,-200,4,2,3,5,0,0
57412,-33.3333333333333,4,2,3,80,0,0
57840,-100,4,2,3,80,0,0
59483,-100,4,2,3,5,0,0
59555,-100,4,2,3,80,0,0
59912,-100,4,2,3,5,0,0
59983,-200,4,2,3,80,0,0
60769,-200,4,2,3,5,0,0
60840,-100,4,2,3,80,0,0
62912,-100,4,2,3,5,0,0
62983,-100,4,2,3,80,0,0
63340,-100,4,2,3,5,0,0
63412,-1000,4,2,3,50,0,0
66840,-200,4,2,3,70,0,0
67590,-200,4,2,3,5,0,0
67698,-61.9788001843808,4,2,3,80,0,0
68448,-61.9788001843808,4,2,3,5,0,0
68555,-500,4,2,3,70,0,0
69305,-500,4,2,3,5,0,0
69412,-142.857142857143,4,2,3,80,0,0
69733,-166.666666666667,4,2,3,5,0,0
69840,-166.666666666667,4,2,3,70,0,0
70269,-250,4,2,3,70,0,0
71019,-250,4,2,3,5,0,0
71126,-58.8235294117647,4,2,3,80,0,0
71876,-58.8235294117647,4,2,3,5,0,0
71983,-333.333333333333,4,2,3,70,0,0
72733,-333.333333333333,4,2,3,5,0,0
72840,-100,4,2,3,80,0,0
73590,-100,4,2,3,5,0,0
73698,-100,4,2,3,50,0,0
75412,-133.333333333333,4,2,3,85,0,0
75769,-133.333333333333,4,2,3,5,0,0
75840,-66.6666666666667,4,2,3,85,0,0
76626,-66.6666666666667,4,2,3,5,0,0
76698,-66.6666666666667,4,2,3,85,0,0
77055,-66.6666666666667,4,2,3,5,0,0
77126,-50,4,2,3,85,0,0
77483,-50,4,2,3,5,0,0
77555,-50,4,2,3,85,0,0
77983,-100,4,2,3,85,0,0
78198,-66.6666666666667,4,2,3,85,0,0
78412,-50,4,2,3,85,0,0
78733,-50,4,2,3,5,0,0
78840,-66.6666666666667,4,2,3,85,0,0
80055,-66.6666666666667,4,2,3,5,0,0
80126,-66.6666666666667,4,2,3,85,0,0
80483,-66.6666666666667,4,2,3,5,0,0
80555,-66.6666666666667,4,2,3,85,0,0
80983,-100,4,2,3,85,0,0
81269,-66.6666666666667,4,2,3,85,0,0
81840,-66.6666666666667,4,2,3,85,0,0
83912,-66.6666666666667,4,2,3,5,0,0
83983,-66.6666666666667,4,2,3,85,0,0
84840,-50,4,2,3,85,0,0
84983,-50,4,2,3,5,0,0
85055,-50,4,2,3,85,0,0
85751,-50,4,2,3,40,0,0
97912,-1000,4,2,3,40,0,0
99305,-1000,4,2,3,5,0,0
99412,-25,4,2,3,100,0,0
101073,-25,4,2,3,5,0,0
101126,-50,4,2,3,60,0,0
104983,-200,4,2,3,60,0,0
114840,-200,4,2,3,70,0,0
128555,-333.333333333333,4,2,3,40,0,0

[Colours]
Combo1 : 217,217,217
Combo2 : 95,95,95

[HitObjects]
192,374,1698,6,2,B|201:364|201:364|194:357|194:357|207:351|207:351|193:342|193:342|214:336|214:336|193:330|193:330|218:315|218:315|188:317|188:317|219:292|219:292|182:303|182:303|222:276|222:276|175:291|175:291|223:258|223:258|167:280|167:280|221:238|221:238|158:271|158:271|219:218|219:218|149:261|149:261|215:197|215:197|137:250|137:250|207:178|207:178|125:242|125:242|200:159|200:159|114:236|114:236|190:141|190:141|101:230|101:230|180:124|180:124|90:226|90:226|167:108|167:108|77:221|77:221|152:102|152:102|64:217|64:217|140:100|140:100|52:209|52:209|127:101|127:101|39:196|39:196|115:103|115:103|30:176|30:176|104:102|104:102|23:155|23:155|91:99|91:99|20:132|20:132|85:92|85:92|19:106|19:106|82:85|82:85|24:77|24:77|81:76|81:76|33:46|33:46|83:67|83:67|59:23|59:23|90:60|90:60|94:8|94:8|99:58|99:58|125:5|125:5|108:56|108:56|143:13|143:13|115:58|115:58|154:25|154:25|122:62|122:62|162:36|162:36|128:66|128:66|165:46|165:46|133:69|133:69|166:62,1,4752.00001913452,10|0,0:1|0:0,0:1:0:0:
157,75,3412,6,0,P|76:74|-4:4,1,179.999995231629,2|0,0:0|0:0,0:0:0:0:
77,249,4055,1,2,0:0:0:0:
68,246,4162,1,2,0:0:0:0:
59,243,4269,2,0,L|123:231,1,44.9999988079071,0|0,1:0|1:0,0:0:0:0:
237,93,4590,2,0,L|215:154,1,44.9999988079071,0|0,1:0|1:0,0:0:0:0:
277,322,4912,1,0,1:0:0:0:
471,228,5126,5,0,1:0:0:0:
474,236,5340,1,0,0:0:0:0:
393,223,5555,5,0,1:0:0:0:
396,231,5769,1,0,0:0:0:0:
315,218,5984,5,0,1:0:0:0:
318,226,6198,1,0,0:0:0:0:
237,213,6412,5,0,1:0:0:0:
240,221,6626,1,0,0:0:0:0:
28,125,6840,5,0,1:0:0:0:
31,133,7055,1,0,0:0:0:0:
105,117,7269,5,0,1:0:0:0:
108,125,7483,1,0,0:0:0:0:
182,109,7698,5,0,1:0:0:0:
185,117,7912,1,0,0:0:0:0:
259,101,8126,5,0,1:0:0:0:
262,109,8340,1,0,0:0:0:0:
226,302,8555,5,0,1:0:0:0:
229,310,8769,1,0,0:0:0:0:
304,307,8983,5,0,1:0:0:0:
307,315,9197,1,0,0:0:0:0:
382,312,9412,5,0,1:0:0:0:
385,320,9626,1,0,0:0:0:0:
460,317,9841,5,0,1:0:0:0:
463,325,10055,1,0,0:0:0:0:
452,24,10269,5,2,1:2:0:0:
398,218,10483,1,0,0:0:0:0:
336,147,10698,1,10,0:2:0:0:
490,188,10912,5,2,0:0:0:0:
451,160,11019,1,2,0:0:0:0:
425,121,11126,1,2,1:2:0:0:
382,141,11233,1,2,0:0:0:0:
336,147,11340,1,2,0:0:0:0:
398,218,11555,1,10,0:0:0:0:
345,276,11769,5,0,0:0:0:0:
371,315,11876,1,0,0:0:0:0:
414,295,11983,5,2,1:2:0:0:
114,218,12198,1,0,0:0:0:0:
176,147,12412,1,10,0:0:0:0:
22,188,12627,5,2,0:0:0:0:
61,160,12734,1,2,0:0:0:0:
87,121,12841,1,2,1:2:0:0:
130,141,12948,1,2,0:0:0:0:
176,147,13055,1,2,0:0:0:0:
114,218,13270,1,10,0:0:0:0:
167,276,13484,5,2,0:0:0:0:
141,315,13591,1,2,0:0:0:0:
98,295,13698,5,2,1:2:0:0:
256,192,13912,1,0,0:0:0:0:
256,384,14126,1,10,0:0:0:0:
287,295,14340,5,2,0:0:0:0:
264,337,14447,1,2,0:0:0:0:
256,384,14555,1,0,1:2:0:0:
248,337,14662,1,2,0:0:0:0:
225,295,14769,1,2,0:0:0:0:
38,219,14983,1,10,0:0:0:0:
28,97,15198,5,0,1:0:0:0:
13,95,15305,1,0,1:0:0:0:
0,93,15412,6,0,L|42:105,1,33.7500003933907,0|0,1:0|3:0,0:0:0:0:
72,81,15519,2,0,L|111:100,1,33.7500003933907,0|0,3:0|3:0,0:0:0:0:
145,68,15626,2,0,L|180:93,1,33.7500003933907,0|0,3:0|3:0,0:0:0:0:
218,56,15733,2,0,L|248:87,1,33.7500003933907,0|0,3:0|3:0,0:0:0:0:
291,44,15840,2,0,L|315:80,1,33.7500003933907,0|0,1:0|3:0,0:0:0:0:
364,32,15948,2,0,L|381:71,1,33.7500003933907,0|0,3:0|3:0,0:0:0:0:
437,20,16055,2,0,L|447:62,1,33.7500003933907,0|0,3:0|3:0,0:0:0:0:
510,8,16162,2,0,L|513:51,1,33.7500003933907,0|0,3:0|3:0,0:0:0:0:
506,140,16269,6,0,L|479:113,1,22.4999994039536,0|0,1:0|3:0,0:0:0:0:
494,145,16376,2,0,L|494:108,1,22.4999994039536,0|0,3:0|3:0,0:0:0:0:
481,140,16483,2,0,L|507:113,1,22.4999994039536,0|0,3:0|3:0,0:0:0:0:
477,128,16590,2,0,L|514:128,1,22.4999994039536,0|0,3:0|3:0,0:0:0:0:
481,115,16698,2,0,L|507:141,1,22.4999994039536,0|0,3:0|3:0,0:0:0:0:
494,111,16805,2,0,L|494:148,1,22.4999994039536,0|0,3:0|3:0,0:0:0:0:
506,115,16912,2,0,L|479:141,1,22.4999994039536,0|0,3:0|3:0,0:0:0:0:
511,127,17019,2,0,L|474:127,1,22.4999994039536,0|0,3:0|3:0,0:0:0:0:
492,221,17126,6,0,L|486:306,1,80.9999978542328,4|0,3:1|0:0,0:0:0:0:
486,301,18198,6,0,B|496:261|496:261|492:221,2,82.7999950270083,2|0|0,0:0|0:0|0:0,0:0:0:0:
271,364,18840,2,2,B|206:349|206:349|258:325|258:325|143:300|143:300|169:289,1,269.999992847443,2|0,1:1|1:0,0:1:0:0:
403,239,19269,6,2,B|440:291|440:291|367:310|367:310|373:248,1,202.500002360344,2|0,1:3|0:0,0:1:0:0:
340,182,19483,2,2,B|302:130|302:130|374:111|374:111|368:174,1,202.500002360344,0|0,1:3|0:0,0:1:0:0:
494,222,19698,1,4,1:3:0:0:
56,24,19912,6,2,B|72:-1|72:-1|99:57|99:57|135:23|135:23|151:44|151:44|246:35|246:35|247:51|247:51|288:51,1,269.999992847443,2|0,1:3|0:0,0:1:0:0:
206,127,20126,2,2,B|152:116|152:116|139:190|139:190|123:155|123:155|71:164,1,202.500002360344,4|0,1:3|0:0,0:1:0:0:
68,270,20340,2,2,B|79:237|79:237|119:297|119:297|170:263,1,134.999996423721,0|0,1:3|0:0,0:1:0:0:
343,245,20555,6,2,B|338:243|338:243|337:246|337:246|332:243|332:243|332:246|332:246|327:243|327:243|326:246|326:246|324:243|324:243|324:245|324:245|322:240|322:240|322:243|322:243|320:240|320:240|319:242|319:242|316:239|316:239|315:241|315:241|312:238|312:238|313:241|313:241|309:237|309:237|309:240|309:240|306:236|306:236|305:239|305:239|303:235|303:235|302:237|302:237|201:222,1,168.750001966953,4|0,1:3|0:0,0:1:0:0:
217,299,20876,1,0,1:0:0:0:
410,192,20983,2,2,P|426:239|415:288,1,101.250001180172,2|0,1:3|0:0,0:1:0:0:
347,329,21198,2,2,B|324:309|324:304|322:293|322:291|322:289|323:271|323:271|327:264|333:252|343:240|343:245,1,101.250001180172,0|0,1:3|0:0,0:1:0:0:
510,269,21412,1,4,1:3:0:0:
255,11,21626,6,2,B|270:45|270:45|238:138|238:138|261:123|261:123|274:191,1,202.500002360344,2|0,1:3|0:0,0:1:0:0:
144,323,21840,2,2,B|131:288|131:288|177:247|177:247|160:191|160:191|169:132,1,202.500002360344,4|0,1:3|0:0,0:1:0:0:
96,16,22055,2,2,B|127:55|127:55|55:84|55:84|87:148|87:148|80:183,1,202.500002360344,0|0,1:0|0:0,0:1:0:0:
45,326,22269,6,2,B|16:264|16:264|116:290|116:290|201:217|201:217|298:250|298:250|231:323,1,472.50000550747,2|0,1:3|0:0,0:1:0:0:
200,384,22698,1,0,1:0:0:0:
200,384,22912,1,0,1:0:0:0:
298,169,23126,6,2,B|296:151|296:151|309:127|309:127|302:110|302:110|316:89|316:89|321:129,3,112.499997019768,2|0|0|0,1:3|0:0|0:0|0:0,0:1:0:0:
232,95,23341,5,4,1:3:0:0:
229,123,23448,1,4,1:3:0:0:
384,255,23555,2,2,B|401:236|401:236|365:219|365:219|346:242,1,89.9999976158143,8|0,1:3|0:0,0:1:0:0:
204,346,23769,2,2,B|187:365|187:365|223:382|223:382|242:359,1,89.9999976158143,0|0,1:0|0:0,0:1:0:0:
512,384,23983,6,2,B|456:270|456:270|400:282|400:282|347:323|347:323|265:294,1,337.499991059303,8|0,1:0|0:0,0:1:0:0:
512,384,24412,2,2,B|499:299|499:299|413:326|413:326|315:278|315:278|265:294,1,337.499991059303,4|0,1:3|0:0,0:1:0:0:
512,384,24840,2,2,B|471:338|471:338|382:280|382:280|321:348|321:348|265:294,1,337.499991059303,0|0,1:0|0:0,0:1:0:0:
512,384,25269,6,2,B|511:289|380:382|380:382|323:229|267:293|267:293|204:364|171:173|171:173|23:286|22:201,1,674.999982118607,12|0,1:3|0:0,0:1:0:0:
0,336,25698,6,2,B|36:357|36:357|112:304|112:304|173:343|173:343|199:255,1,269.999992847443,8|0,1:0|0:0,0:1:0:0:
333,107,26126,6,2,B|349:45|349:45|276:26|276:26|259:87,1,202.500002360344,2|0,1:3|0:0,0:1:0:0:
208,142,26340,2,2,B|191:203|191:203|264:222|264:222|281:161,1,202.500002360344,2|0,1:3|0:0,0:1:0:0:
413,106,26555,1,0,1:0:0:0:
103,216,26769,2,0,B|90:195|90:195|106:177|106:177|95:156,1,67.5000007867814,2|0,1:3|0:0,0:0:0:0:
133,95,26876,2,0,B|120:74|120:74|136:56|136:56|125:35,1,67.5000007867814,2|0,1:3|0:0,0:0:0:0:
120,232,26983,2,2,B|113:143|113:143|102:126|102:126|92:2,1,202.500002360344,8|0,1:3|0:0,0:1:0:0:
14,47,27198,6,2,B|14:38|14:38|18:34|18:34|14:32|14:32|17:30|17:30|11:28|11:28|16:25|16:25|14:24|14:24|21:22|21:22|14:21|14:21|20:18|20:18|14:16|14:16|23:13|23:13|12:11|12:11|21:5|21:5|19:-13,1,101.250001180172,0|0,1:0|0:0,0:1:0:0:
0,123,27412,2,0,L|62:114,1,33.7500003933907,0|0,1:0|0:0,0:0:0:0:
190,153,27519,2,2,B|252:174|263:122|263:122|319:120|225:71,1,135.000001573563,2|0,1:3|1:0,0:1:0:0:
198,20,27733,1,0,1:0:0:0:
1,238,27840,2,2,B|12:257|12:257|6:277|6:277|18:288|18:288|14:306|14:306|30:312|30:312|25:324|25:324|37:341|37:341|51:329|51:329|60:336|60:336|80:327|80:327|87:332|87:332|100:318|100:318|105:323|105:323|122:313|122:313|129:319|129:319|139:306|139:306|153:312|153:312|160:298|160:298|168:304|168:304|197:294,1,314.999994659424,2|0,1:3|0:0,0:1:0:0:
476,18,28269,6,2,B|451:24|451:24|444:49|444:49|428:64|428:64|435:92,1,89.9999976158143,0|0,1:0|0:0,0:1:0:0:
499,156,28483,1,2,1:1:0:0:
494,143,28590,1,2,1:1:0:0:
437,297,28698,2,2,P|346:301|445:232,1,270.000003147125,2|0,1:3|0:0,0:1:0:0:
512,258,29019,1,0,0:0:0:0:
288,128,29126,6,2,B|276:123|276:123|275:152|275:152|302:142|302:142|282:78,6,112.499997019768,0|0|0|0|0|0|0,1:0|0:0|1:0|0:0|1:0|0:0|1:0,0:1:0:0:
150,156,29555,2,0,B|179:152|179:152|123:152|123:152|164:147,1,112.499997019768,0|0,1:0|1:0,0:0:0:0:
154,174,29662,2,0,B|180:162|180:162|126:177|126:177|165:161,1,112.499997019768,0|0,1:0|1:0,0:0:0:0:
207,231,29769,1,0,1:0:0:0:
203,249,29876,1,0,0:0:0:0:
142,317,29983,6,2,B|137:314|137:314|137:315|137:315|132:312|132:312|131:316|131:316|127:309|127:309|125:311|125:311|119:306|119:306|117:308|117:308|114:303|114:303|111:306|111:306|107:300|107:300|105:303|105:303|102:298|102:298|99:300|99:300|93:296|70:286,1,89.9999976158143,0|0,1:0|0:0,0:1:0:0:
174,37,30198,2,2,B|179:40|179:40|179:39|179:39|184:42|184:42|185:38|185:38|189:45|189:45|191:43|191:43|197:48|197:48|199:46|199:46|202:51|202:51|205:48|205:48|209:54|209:54|211:51|211:51|214:56|214:56|217:54|217:54|223:58|246:68,1,89.9999976158143,0|0,1:0|0:0,0:1:0:0:
18,161,30412,2,2,B|21:156|21:156|20:156|20:156|23:151|23:151|19:150|19:150|26:146|26:146|24:144|24:144|29:138|29:138|27:136|27:136|32:133|32:133|29:130|29:130|35:126|35:126|32:124|32:124|37:121|37:121|35:118|35:118|39:112|49:89,2,89.9999976158143,2|0|0,1:3|0:0|0:0,0:1:0:0:
298,193,30626,1,2,1:1:0:0:
298,193,30840,6,2,B|277:189|277:189|312:183|312:183|279:181|279:181|306:176|306:176|281:172|281:172|300:168|300:168|288:160|288:160|282:125,3,179.999995231629,2|0|0|0,1:3|0:0|0:0|0:0,0:1:0:0:
362,237,31055,1,2,1:1:0:0:
360,248,31162,1,2,1:1:0:0:
454,217,31269,2,2,B|433:221|433:221|468:227|468:227|435:229|435:229|462:234|462:234|437:238|437:238|456:242|456:242|444:250|444:250|438:285,3,179.999995231629,8|0|0|0,1:3|0:0|0:0|0:0,0:1:0:0:
390,151,31483,2,2,B|411:147|411:147|376:141|376:141|409:139|409:139|382:134|382:134|407:130|407:130|388:126|388:126|400:118|400:118|406:83,3,179.999995231629,0|0|0|0,1:0|0:0|0:0|0:0,0:1:0:0:
240,284,31698,6,2,B|265:285|265:285|219:297|219:297|274:291|274:291|213:307|213:307|284:296|284:296|207:317|207:317|294:302|294:302|202:326|202:326|303:307|303:307|196:336|196:336|313:313|313:313|191:346|191:346|323:319|323:319|185:355,1,1259.9999666214,0|0,1:0|0:0,0:1:0:0:
111,309,32126,6,2,L|79:303,1,31.499999165535,8|0,1:0|0:0,0:1:0:0:
125,312,32555,5,4,0:1:0:0:
109,232,32983,5,2,0:0:0:0:
189,216,33412,5,0,0:0:0:0:
205,296,33840,5,2,0:0:0:0:
387,312,34269,5,2,0:0:0:0:
403,232,34697,5,2,0:0:0:0:
323,216,35126,5,0,0:0:0:0:
307,296,35554,5,2,0:0:0:0:
256,160,35983,5,2,0:0:0:0:
256,152,36412,5,2,0:0:0:0:
256,144,36840,5,0,0:0:0:0:
256,136,37269,5,2,0:0:0:0:
256,107,37698,5,2,0:0:0:0:
256,99,38127,5,2,0:0:0:0:
256,91,38555,5,0,0:0:0:0:
256,83,38984,5,2,0:0:0:0:
256,54,39412,6,0,L|267:3,3,44.9999988079071,8|0|0|0,3:1|3:0|3:0|3:0,0:0:0:0:
260,54,39519,6,0,L|271:3,3,45.4499978944207,0|0|0|0,3:0|3:0|3:0|3:0,0:0:0:0:
264,54,39626,6,0,L|275:3,3,45.8999990642166,0|0|0|0,3:0|3:0|3:0|3:0,0:0:0:0:
268,54,39733,6,0,L|279:3,3,46.3499983831597,0|0|0|0,3:0|3:0|3:0|3:0,0:0:0:0:
272,54,39840,6,0,L|283:3,3,46.7999984745789,2|0|0|0,3:2|3:0|3:0|3:0,0:0:0:0:
276,54,39948,6,0,L|287:3,3,47.249997306347,0|0|0|0,3:0|3:0|3:0|3:0,0:0:0:0:
280,54,40055,6,0,L|291:3,3,47.699998809166,0|0|0|0,3:0|3:0|3:0|3:0,0:0:0:0:
284,54,40162,6,0,L|295:3,3,48.1499972550393,0|0|0|0,3:0|3:0|3:0|3:0,0:0:0:0:
288,54,40269,6,0,L|299:3,3,48.5999998990631,2|0|0|0,3:2|3:0|3:0|3:0,0:0:0:0:
292,54,40376,6,0,L|303:3,3,49.0499992245293,0|0|0|0,3:0|3:0|3:0|3:0,0:0:0:0:
296,54,40483,6,0,L|307:3,3,49.500000199318,0|0|0|0,3:0|3:0|3:0|3:0,0:0:0:0:
300,54,40590,6,0,L|311:3,3,49.9499998962593,0|0|0|0,3:0|3:0|3:0|3:0,0:0:0:0:
304,54,40698,6,0,L|315:3,3,50.3999992800903,2|0|0|0,3:2|3:0|3:0|3:0,0:0:0:0:
308,54,40805,6,0,L|319:3,3,50.8499988081169,0|0|0|0,3:0|3:0|3:0|3:0,0:0:0:0:
312,54,40912,6,0,L|323:3,3,51.2999980147934,0|0|0|0,3:0|3:0|3:0|3:0,0:0:0:0:
316,54,41019,6,0,L|327:3,3,51.7499996161461,0|0|0|0,3:0|3:0|3:0|3:0,0:0:0:0:
340,54,41126,6,0,L|351:3,3,52.2000002101898,2|0|0|0,3:2|3:0|3:0|3:0,0:0:0:0:
344,54,41233,6,0,L|355:3,3,52.6499988060951,0|0|0|0,3:0|3:0|3:0|3:0,0:0:0:0:
348,54,41340,6,0,L|359:3,3,53.0999967297746,0|0|0|0,3:0|3:0|3:0|3:0,0:0:0:0:
352,54,41448,6,0,L|363:3,3,53.0999967297746,0|0|0|0,3:0|3:0|3:0|3:0,3:0:0:0:
356,54,41555,6,0,L|367:1,3,53.5499975191689,2|0|0|0,3:2|3:0|3:0|3:0,0:0:0:0:
360,54,41662,6,0,L|371:1,3,54.4499970205117,0|0|0|0,3:0|3:0|3:0|3:0,0:0:0:0:
364,54,41769,6,0,L|375:0,3,54.8999962838365,0|0|0|0,3:0|3:0|3:0|3:0,0:0:0:0:
368,54,41876,6,0,L|379:0,3,55.3499993782997,0|0|0|0,3:0|3:0|3:0|3:0,0:0:0:0:
372,54,41983,6,0,L|383:0,3,55.7999963080599,2|0|0|0,3:2|3:0|3:0|3:0,0:0:0:0:
376,54,42090,6,0,L|388:-2,3,56.2499985098839,0|0|0|0,3:0|3:0|3:0|3:0,0:0:0:0:
380,54,42198,6,0,L|392:-2,3,56.2499985098839,0|0|0|0,3:0|3:0|3:0|3:0,0:0:0:0:
384,54,42305,6,0,L|396:-2,3,57.1499980500222,0|0|0|0,3:0|3:0|3:0|3:0,0:0:0:0:
388,54,42412,6,0,L|400:-2,3,57.5999984741211,2|0|0|0,3:2|3:0|3:0|3:0,0:0:0:0:
392,54,42519,6,0,L|404:-2,3,58.0499993479729,0|0|0|0,3:0|3:0|3:0|3:0,0:0:0:0:
396,54,42626,6,0,L|408:-2,3,58.499995772362,0|0|0|0,3:0|3:0|3:0|3:0,0:0:0:0:
400,54,42733,6,0,L|415:-16,2,58.9499995177651,0|0|0,3:0|3:0|3:0,0:0:0:0:
474,79,42840,6,0,L|521:129,1,67.5000007867814,0|0,3:0|3:0,0:0:0:0:
430,144,42948,2,0,L|445:210,1,67.5000007867814,0|0,3:0|3:0,0:0:0:0:
359,178,43055,2,0,L|339:243,1,67.5000007867814,0|0,3:0|3:0,0:0:0:0:
280,171,43162,2,0,L|230:218,1,67.5000007867814,0|0,3:0|3:0,0:0:0:0:
215,125,43269,5,0,1:0:0:0:
213,116,43340,1,0,1:0:0:0:
211,107,43412,1,0,1:0:0:0:
209,98,43483,6,0,L|159:50,1,67.5000007867814,0|0,3:0|3:0,0:0:0:0:
143,141,43590,2,0,L|76:125,1,67.5000007867814,0|0,3:0|3:0,0:0:0:0:
109,213,43698,2,0,L|21:238,2,90.0000010490418,0|0|0,1:0|1:0|1:0,0:0:0:0:
135,331,43912,5,0,1:0:0:0:
258,246,44019,1,0,1:0:0:0:
214,313,44126,6,0,L|302:343,1,67.5000007867814,0|0,3:0|3:0,0:0:0:0:
270,257,44233,2,0,L|331:326,1,67.5000007867814,0|0,3:0|3:0,0:0:0:0:
349,242,44340,2,0,L|367:332,1,67.5000007867814,0|0,3:0|3:0,0:0:0:0:
423,272,44448,2,0,L|393:359,1,67.5000007867814,0|0,3:0|3:0,0:0:0:0:
468,338,44555,6,0,L|433:346,3,35.9999990463257,4|2|2|2,1:1|0:0|0:0|0:0,0:0:0:0:
18,363,46269,1,8,1:1:0:0:
201,142,52912,6,2,L|214:138,1,13.4999996423721,2|0,0:0|0:0,0:1:0:0:
347,79,53126,2,0,B|370:40|370:40|264:15|264:15|272:60|272:60|268:49|268:49|297:184,1,329.999991257986,0|0,1:0|0:0,0:0:0:0:
253,287,53983,6,0,P|270:311|296:325,1,59.9999984105428,2|0,3:0|0:0,0:0:0:0:
389,292,54126,2,0,P|401:264|400:235,1,59.9999984105428,0|0,3:0|0:0,0:0:0:0:
325,170,54269,2,0,P|295:172|270:188,1,59.9999984105428,0|0,3:0|0:0,0:0:0:0:
266,304,54412,6,0,P|288:322|317:329,1,59.9999984105428,2|0,3:0|0:0,0:0:0:0:
398,273,54555,2,0,P|402:243|394:215,1,59.9999984105428,0|0,3:0|0:0,0:0:0:0:
305,172,54698,2,0,P|277:182|256:204,1,59.9999984105428,0|0,3:0|0:0,0:0:0:0:
250,365,54840,6,0,L|226:64,1,299.999992052714,0|0,1:0|0:0,0:0:0:0:
138,39,55269,2,0,P|121:63|112:92,1,59.9999984105428,2|0,3:0|0:0,0:0:0:0:
231,126,55412,2,0,L|236:200,1,59.9999984105428,0|0,3:0|0:0,0:0:0:0:
308,24,55555,2,0,P|328:45|341:72,1,59.9999984105428,0|0,3:0|0:0,0:0:0:0:
86,197,55698,6,0,L|387:173,1,299.999992052714,8|0,3:0|0:0,0:0:0:0:
512,345,56126,2,0,L|212:368,1,299.999992052714,4|0,3:0|0:0,0:0:0:0:
69,120,56555,6,0,B|190:110|190:110|177:117|177:117|397:98,1,329.999991257986,0|0,1:0|0:0,0:0:0:0:
478,115,57412,2,2,L|492:25,14,67.5000007867814,2|2|2|2|2|2|2|2|2|2|2|2|2|2|2,3:0|0:0|0:0|0:0|0:0|0:0|0:0|0:0|0:0|0:0|0:0|0:0|0:0|0:0|0:0,0:1:0:0:
389,88,57840,6,0,L|329:92,1,59.9999984105428,0|0,3:0|0:0,0:0:0:0:
149,106,58055,2,0,L|209:102,1,59.9999984105428,0|0,3:0|0:0,0:0:0:0:
504,248,58269,6,0,B|379:237|379:237|346:198|346:198|221:187,1,299.999992052714,0|0,1:0|0:0,0:0:0:0:
251,314,58698,2,0,P|221:308|192:314,1,59.9999984105428,2|0,3:0|0:0,0:0:0:0:
135,224,58840,2,0,P|115:246|106:275,1,59.9999984105428,0|0,3:0|0:0,0:0:0:0:
0,279,58983,2,0,P|10:306|30:329,1,59.9999984105428,0|0,3:0|0:0,0:0:0:0:
191,345,59126,6,0,L|526:307,1,299.999992052714,8|0,3:0|0:0,0:0:0:0:
300,125,59555,2,0,L|1:158,1,299.999992052714,4|0,3:0|0:0,0:0:0:0:
364,20,59983,6,0,B|418:47|418:47|410:132|410:132|419:120|419:120|404:308,1,329.999991257986,0|0,1:0|0:0,0:0:0:0:
240,384,60840,6,0,P|210:381|185:365,1,59.9999984105428,2|0,3:0|0:0,0:0:0:0:
167,268,60983,2,0,P|185:243|210:229,1,59.9999984105428,0|0,3:0|0:0,0:0:0:0:
305,263,61126,2,0,P|318:289|316:319,1,59.9999984105428,0|0,3:0|0:0,0:0:0:0:
218,381,61269,6,0,P|191:370|170:349,1,59.9999984105428,2|0,3:0|0:0,0:0:0:0:
179,251,61412,2,0,P|202:232|231:225,1,59.9999984105428,0|0,3:0|0:0,0:0:0:0:
313,281,61555,2,0,P|318:310|309:339,1,59.9999984105428,0|0,3:0|0:0,0:0:0:0:
246,175,61698,6,0,B|276:115|276:115|-2:157,1,299.999992052714,0|0,1:0|0:0,0:0:0:0:
0,74,62126,2,0,P|20:51|46:37,1,59.9999984105428,2|0,3:0|0:0,0:0:0:0:
46,149,62269,2,0,B|107:140,1,59.9999984105428,0|0,3:0|0:0,0:0:0:0:
23,234,62412,2,0,P|48:249|77:255,1,59.9999984105428,0|0,3:0|0:0,0:0:0:0:
140,57,62555,6,0,L|466:83,1,299.999992052714,8|0,3:0|0:0,0:0:0:0:
512,287,62983,2,0,L|212:263,1,299.999992052714,4|0,3:0|0:0,0:0:0:0:
298,170,63412,6,0,B|441:181|441:181|445:179|445:179|444:183|444:183|447:180|447:180|447:183|447:183|449:181|449:181|449:184|449:184|452:180|452:180|453:184|453:184|455:180|455:180|457:184|457:184|458:180|458:180|459:185|459:185|461:181|461:181|462:185|462:185|463:182|463:182|475:184|475:184|502:186|502:186|496:192|496:192|520:188,1,275.999992688497,2|0,1:2|0:0,0:0:0:0:
353,341,66840,6,0,P|306:251|350:342,1,314.99999165535,0|0,1:0|0:0,0:0:0:0:
347,343,67698,6,2,B|343:344|339:344|339:344|338:351|338:351|337:337|337:337|336:344|336:344|332:344|328:344|328:344|326:350|326:350|328:337|328:337|325:343|325:343|321:342|318:341|318:341|314:347|314:347|319:334|319:334|315:340|315:340|311:338|308:336|308:336|303:341|303:341|311:330|311:330|305:334|305:334|302:332|299:329|299:329|293:333|293:333|303:323|303:323|297:327|297:327|295:324|292:321|292:321|286:323|286:323|298:316|298:316|291:318|291:318|290:317|287:311|287:311|280:312|280:312|294:307|294:307|286:308|286:308|285:304|285:300|285:300|278:300|278:300|291:298|291:298|284:297|284:297|284:293|284:289|284:289|277:287|277:287|291:289|291:289|285:286|285:286|285:284|286:279|286:279|280:275|280:275|293:279|293:279|287:276|287:276|288:272|290:269|290:269|285:264|285:264|297:271|297:271|292:266|292:266|294:263|297:259|297:259|292:254|292:254|303:263|303:263|299:257|299:257|300:256|305:252|305:252|302:245|302:245|310:257|310:257|307:250|307:250|310:248|314:246|314:246|313:239|313:239|318:252|318:252|317:245|317:245|321:244|324:243|324:243|325:236|325:236|327:250|327:250|327:242|327:242|329:242|335:242|335:242|337:235|337:235|337:249|337:249|338:242|338:242|342:242|346:243|346:243|349:237|349:237|346:250|346:250|349:244|349:244|351:244|357:246|357:246|361:241|361:241|355:253|355:253|359:248|359:248|363:250|366:252|366:252|372:247|372:247|363:258|363:258|368:254|368:254|371:256|374:259|374:259|380:256|380:256|370:265|370:265|376:262|376:262|377:263|380:269|380:269|387:267|387:267|375:273|375:273|382:271|382:271|383:273|384:279|384:279|392:278|392:278|378:282|378:282|385:282|385:282|386:285|386:289|386:289|393:291|393:291|379:291|379:291|387:292|387:292|387:296|386:300|386:300|393:303|393:303|379:301|379:301|385:303|385:303|385:307|383:311|383:311|389:315|389:315|376:310|376:310|382:314|382:314|380:317|378:321|378:321|383:326|383:326|372:318|372:318|377:323|377:323|376:325|371:329|371:329|375:335|375:335|366:325|366:325|369:331|369:331|366:334|363:336|363:336|365:343|365:343|358:331|358:331|360:338|360:338|357:340|353:341,1,1016.47657172535,4|0,0:3|0:0,0:1:0:0:
490,148,68555,6,0,L|478:273,1,125.99999666214,0|0,1:0|0:0,0:0:0:0:
470,288,69412,6,2,B|474:278|474:278|472:268|472:268|477:260|477:260|474:253|474:253|479:247|479:247|475:240|475:240|480:233|480:233|476:226|476:226|481:223|481:223|476:216|476:216|483:212|483:212|478:203|478:203|483:201|483:201|480:191|480:191|486:185|486:185|481:177|481:177|488:173|488:173|483:162|483:162|489:155|489:155|483:152|483:152|487:121,1,188.999989225388,8|0,0:3|0:0,0:1:0:0:
503,97,69840,2,2,L|477:94,7,26.9999984607697,2|2|2|2|2|2|2|2,0:0|0:0|0:0|0:0|0:0|0:0|0:0|0:0,0:1:0:0:
359,27,70269,6,0,B|317:-2|288:39|288:39|265:72|231:49|231:49|206:31|189:56|189:56|177:73|161:61|152:56|147:64|147:64|144:68|140:65,1,251.99999332428,0|0,1:0|0:0,0:0:0:0:
78,174,71126,6,2,B|-1:156|-44:30|50:-20|109:-34|170:-7|210:54|184:122|184:122|215:169|207:220|174:315|117:310|34:266|15:244|-1:207|0:88|101:89|101:89|282:91,1,1070.99999205589,4|0,0:3|0:0,0:1:0:0:
357,116,71983,6,0,P|391:151|420:294,1,188.999989225388,0|0,1:0|0:0,0:0:0:0:
456,361,72840,6,2,B|490:356|490:356|403:330|403:330|439:327|439:327|359:301|359:301|392:300|392:300|313:273|313:273|346:270|346:270|264:244|264:244|300:239|300:239|221:211|221:211|249:207,1,629.9999833107,12|0,1:3|0:0,0:1:0:0:
256,320,73698,1,4,1:0:0:0:
256,320,75412,6,0,P|196:355|130:244,1,225.000002622605,0|0,1:0|0:0,0:0:0:0:
62,122,75840,2,0,B|56:115|56:115|62:107|62:107|54:102|54:102|57:95|57:95|52:87|52:87|57:79|57:79|47:66|47:66|51:60|51:60|46:38,1,90.0000010490418,2|0,3:1|0:0,0:0:0:0:
109,227,75983,2,0,B|103:234|103:234|109:242|109:242|101:247|101:247|104:254|104:254|99:262|99:262|104:270|104:270|94:283|94:283|98:289|98:289|93:311,1,90.0000010490418,2|0,3:1|0:0,0:0:0:0:
188,157,76126,2,0,B|182:150|182:150|188:142|188:142|180:137|180:137|183:130|183:130|178:122|178:122|183:114|183:114|173:101|173:101|177:95|177:95|172:73,1,90.0000010490418,2|0,3:1|0:0,0:0:0:0:
288,184,76269,6,2,B|308:178|308:178|287:188|287:188|314:180|314:180|282:194|282:194|324:182|324:182|275:201|275:201|332:185|332:185|269:207|269:207|340:188|340:188|267:211,1,450.000005245209,8|0,1:3|0:0,0:1:0:0:
252,60,76698,2,2,B|242:-6|242:-6|254:53|254:53|246:-5|246:-5|258:53|258:53|250:-3|250:-3|260:49|260:49|253:0|253:0|262:44|262:44|258:16,1,450.000005245209,4|0,1:3|0:0,0:1:0:0:
446,50,77126,6,2,B|465:48|489:52|503:67|502:86|502:86|501:68|488:59|472:54|448:54|448:54|470:58|484:60|492:75|494:88|494:88|488:76|480:69|464:65|448:63|448:63|465:72|477:74|485:82|484:91|484:91|473:82|467:78|453:76|450:75|450:75|461:82|472:87|475:94|475:94|460:88|448:84|448:84|454:90|470:95|470:95|457:93|449:92|449:92|457:96|463:99|463:99|450:98|450:98|459:102|459:102|450:104|450:104|455:105|455:105|449:109|449:109|439:133|439:133|444:161|444:161|430:211,1,599.999984105428,8|0,1:0|0:0,0:1:0:0:
484,286,77555,5,0,1:0:0:0:
479,279,77609,1,0,1:0:0:0:
470,282,77662,1,0,1:0:0:0:
470,291,77716,1,0,1:0:0:0:
479,294,77769,5,0,3:0:0:0:
361,349,77876,1,0,3:0:0:0:
288,277,77983,2,2,L|283:174,1,89.9999976158143,0|0,1:0|0:0,0:1:0:0:
183,335,78198,2,2,B|158:325|158:325|216:312,3,67.5000007867814,2|2|2|2,1:2|1:2|1:2|1:2,0:1:0:0:
90,247,78412,2,2,B|36:234|36:234|89:250|89:250|36:238|36:238|89:254|89:254|36:241|36:241|89:257|89:257|36:245|36:245|89:261|89:261|36:248|36:248|89:265|89:265|36:252,1,539.999985694885,0|0,1:0|0:0,0:1:0:0:
157,117,78840,6,0,B|164:111|164:111|172:117|172:117|177:109|177:109|184:112|184:112|192:107|192:107|200:112|200:112|213:102|213:102|219:106|219:106|241:101,1,90.0000010490418,2|0,1:1|0:0,0:0:0:0:
157,117,79126,2,0,B|164:111|164:111|172:117|172:117|177:109|177:109|184:112|184:112|192:107|192:107|200:112|200:112|213:102|213:102|219:106|219:106|241:101,1,90.0000010490418,2|0,1:1|0:0,0:0:0:0:
68,60,79269,2,0,B|59:56|59:56|60:47|60:47|51:46|51:46|50:39|50:39|41:34|41:34|42:25|42:25|27:19|27:19|27:11|27:11|12:-4,1,90.0000010490418,2|0,3:1|0:0,0:0:0:0:
64,166,79412,2,0,B|65:175|65:175|56:178|56:178|60:187|60:187|54:191|54:191|55:201|55:201|46:205|46:205|48:221|48:221|42:225|42:225|35:246,1,90.0000010490418,2|0,3:1|0:0,0:0:0:0:
157,117,79555,2,0,B|164:111|164:111|172:117|172:117|177:109|177:109|184:112|184:112|192:107|192:107|200:112|200:112|213:102|213:102|219:106|219:106|241:101,1,90.0000010490418,2|0,3:1|0:0,0:0:0:0:
283,266,79698,6,2,B|295:272|295:272|299:312|299:312|301:271|301:271|285:261|285:261|307:270|307:270|304:310|304:310|313:269|313:269|287:256|287:256|320:268|320:268|309:309|309:309|326:267|326:267|289:252|289:252|333:263,1,450.000005245209,8|0,3:0|0:0,0:1:0:0:
413,327,80126,2,2,B|464:319|464:319|417:330|417:330|464:323|464:323|421:334|421:334|464:327|464:327|425:337|425:337|464:330|464:330|428:338|428:338|464:333|464:333|432:340|432:340|465:337,1,450.000005245209,4|0,3:0|0:0,0:1:0:0:
400,183,80555,5,0,1:0:0:0:
400,183,80983,2,0,L|406:244,4,44.9999988079071,2|2|2|2|2,1:2|0:0|0:0|0:0|0:0,0:0:0:0:
291,191,81269,5,0,1:0:0:0:
282,189,81340,1,0,0:0:0:0:
273,186,81412,2,0,L|262:296,2,90.0000010490418,0|0|0,1:0|0:0|3:0,0:0:0:0:
142,276,81626,1,0,0:0:0:0:
133,279,81698,2,0,L|122:169,1,90.0000010490418,0|0,1:0|0:0,0:0:0:0:
19,272,81840,5,0,3:0:0:0:
124,282,81983,1,0,3:0:0:0:
210,344,82126,1,0,3:0:0:0:
264,275,82269,5,0,1:0:0:0:
264,275,82555,1,0,1:0:0:0:
166,95,82698,6,0,P|164:62|157:93,1,90.0000010490418,0|0,3:0|0:0,0:0:0:0:
263,52,82840,2,0,P|277:23|255:46,1,90.0000010490418,0|0,3:0|0:0,0:0:0:0:
369,63,82984,2,0,P|395:44|365:54,1,90.0000010490418,0|0,3:0|0:0,0:0:0:0:
512,159,83126,6,2,B|499:150|499:150|488:158|488:158|480:147|480:147|470:151|470:151|457:143|457:143|446:151|446:151|426:136|426:136|416:142|416:142|384:133,1,135.000001573563,8|0,3:0|0:0,0:1:0:0:
319,266,83340,2,2,B|306:257|306:257|295:265|295:265|287:254|287:254|277:258|277:258|264:250|264:250|253:258|253:258|233:243|233:243|223:249|223:249|191:240,1,135.000001573563,4|0,3:0|0:0,0:1:0:0:
483,378,83555,2,2,B|466:366|466:366|497:362|497:362|452:363|452:363|508:357|508:357|487:337|487:337|486:351|486:351|442:355|442:355|479:347|479:347|484:325|484:325|512:347|512:347|481:313|481:313|390:346,1,450.000005245209,0|0,1:0|0:0,0:1:0:0:
347,359,83983,5,0,1:0:0:0:
143,330,84198,2,0,P|113:312|136:340,1,90.0000010490418,0|0,1:0|0:0,0:0:0:0:
247,164,84412,2,0,P|277:146|254:174,1,90.0000010490418,0|0,3:0|0:0,0:0:0:0:
174,97,84555,2,0,P|144:79|167:107,1,90.0000010490418,0|0,3:0|0:0,0:0:0:0:
247,30,84698,2,0,P|277:12|254:40,1,90.0000010490418,0|0,3:0|0:0,0:0:0:0:
381,90,84840,6,2,B|431:77|431:77|387:93|387:93|429:86|429:86|394:101|394:101|428:97|428:97|402:109,1,239.999993642171,0|0,1:0|0:0,0:1:0:0:
447,176,85055,5,0,1:0:0:0:
452,183,85108,1,0,1:0:0:0:
461,180,85162,1,0,1:0:0:0:
461,171,85215,1,0,1:0:0:0:
452,168,85269,5,0,1:0:0:0:
400,260,85412,1,0,1:0:0:0:
297,239,85555,1,0,3:0:0:0:
286,135,85698,1,0,1:0:0:0:
256,192,85751,12,2,87412,1:2:0:0:
256,192,87626,5,2,1:2:0:0:
256,186,89126,5,2,1:2:0:0:
256,192,89340,1,2,1:2:0:0:
256,192,90840,5,2,1:2:0:0:
256,186,91054,1,2,1:2:0:0:
256,186,92555,5,2,1:2:0:0:
256,192,92769,1,2,1:2:0:0:
256,192,94269,5,2,1:2:0:0:
256,186,94483,1,2,1:2:0:0:
256,186,95983,5,2,1:2:0:0:
256,192,96197,1,2,1:2:0:0:
256,192,97698,5,0,1:0:0:0:
256,186,97912,2,0,L|264:63,1,116.999996900559,0|0,1:0|0:0,0:0:0:0:
272,192,99412,6,2,B|283:370|283:370|275:192|275:192|287:370|287:370|279:192|279:192|291:370|291:370|283:192|283:192|295:370|295:370|287:192|287:192|299:370|299:370|291:192|291:192|303:370|303:370|295:192|295:192|307:370|307:370|299:192|299:192|311:370|311:370|303:192|303:192|315:370|315:370|307:192|307:192|319:370|319:370|311:192|311:192|323:370|323:370|315:192|315:192|327:370|327:370|319:192|319:192|331:370|331:370|323:192|323:192|335:370|335:370|327:192|327:192|339:370|339:370|331:192|331:192|343:370,1,5519.99985376994,8|0,0:1|0:0,0:1:0:0:
343,184,101126,5,2,1:2:0:0:
351,186,101340,1,2,1:2:0:0:
168,5,101555,5,2,0:0:0:0:
197,99,101769,1,2,0:0:0:0:
197,99,101876,1,2,0:0:0:0:
197,99,101983,1,2,0:0:0:0:
291,120,102198,1,2,0:0:0:0:
129,169,102413,1,2,0:0:0:0:
381,36,102840,5,2,1:2:0:0:
389,38,103054,1,2,1:2:0:0:
388,348,103269,5,2,0:0:0:0:
417,254,103483,1,2,0:0:0:0:
417,254,103590,1,2,0:0:0:0:
417,254,103697,1,2,0:0:0:0:
511,233,103912,1,2,0:0:0:0:
349,184,104127,1,2,0:0:0:0:
246,281,104555,5,2,1:2:0:0:
254,283,104769,1,2,1:2:0:0:
165,384,104983,2,0,P|148:342|158:299,1,89.9999976158143,2|0,0:0|0:0,0:0:0:0:
296,210,105412,1,2,0:0:0:0:
329,327,105626,1,2,0:0:0:0:
119,230,105840,2,0,L|2:215,1,89.9999976158143,2|0,0:0|0:0,0:0:0:0:
209,134,106269,5,2,1:2:0:0:
217,136,106483,1,2,1:2:0:0:
33,73,106698,5,2,0:0:0:0:
157,53,106912,1,2,0:0:0:0:
161,65,107126,1,2,0:0:0:0:
37,85,107340,1,2,0:0:0:0:
41,97,107555,1,2,0:0:0:0:
165,77,107769,1,2,0:0:0:0:
280,222,107983,5,2,1:2:0:0:
288,224,108197,1,2,1:2:0:0:
465,12,108412,5,2,0:0:0:0:
436,106,108626,1,2,0:0:0:0:
436,106,108733,1,2,0:0:0:0:
436,106,108840,1,2,0:0:0:0:
342,127,109055,1,2,0:0:0:0:
504,176,109269,1,2,0:0:0:0:
211,145,109698,5,2,1:2:0:0:
219,147,109912,1,2,1:2:0:0:
123,361,110126,5,2,0:0:0:0:
94,267,110340,1,2,0:0:0:0:
94,267,110447,1,2,0:0:0:0:
94,267,110555,1,2,0:0:0:0:
0,246,110769,1,2,0:0:0:0:
162,197,110983,1,2,0:0:0:0:
17,77,111412,5,2,1:2:0:0:
25,79,111626,1,2,1:2:0:0:
126,0,111840,2,0,P|133:43|117:85,1,89.9999976158143,2|0,0:0|0:0,0:0:0:0:
248,158,112269,1,2,0:0:0:0:
117,85,112483,1,2,0:0:0:0:
329,119,112698,2,0,P|345:77|337:33,1,89.9999976158143,2|0,0:0|0:0,0:0:0:0:
485,85,113126,5,2,1:2:0:0:
493,87,113340,1,2,1:2:0:0:
429,277,113555,5,2,0:0:0:0:
417,155,113769,1,2,0:0:0:0:
409,159,113983,1,2,0:0:0:0:
421,281,114197,1,2,0:0:0:0:
413,285,114412,1,2,0:0:0:0:
401,163,114626,1,2,0:0:0:0:
283,320,114840,5,2,1:2:0:0:
291,322,115055,1,0,1:0:0:0:
275,244,115189,6,0,P|231:240|190:261,1,89.9999976158143,0|0,1:0|0:0,0:0:0:0:
116,300,115519,2,0,P|70:304|30:286,1,89.9999976158143,0|0,1:0|0:0,0:0:0:0:
22,142,115858,2,0,P|58:167|101:171,1,89.9999976158143,0|0,1:0|0:0,0:0:0:0:
170,114,116206,2,0,P|205:87|249:83,1,89.9999976158143,0|0,1:0|0:0,0:0:0:0:
311,131,116555,5,2,1:2:0:0:
319,133,116769,1,0,1:0:0:0:
425,23,116983,6,0,P|440:66|429:109,1,89.9999976158143,0|0,1:0|0:0,0:0:0:0:
351,206,117305,1,0,0:0:0:0:
338,210,117412,2,0,P|323:252|334:295,1,89.9999976158143,0|0,1:0|0:0,0:0:0:0:
437,359,117733,1,0,0:0:0:0:
450,355,117840,2,0,P|464:312|453:269,1,89.9999976158143,0|0,1:0|0:0,0:0:0:0:
284,352,118269,5,2,1:2:0:0:
292,354,118484,1,0,1:0:0:0:
283,274,118617,6,0,B|208:269|208:269|153:317,3,146.249996125698,0|0|0|0,1:0|1:0|1:0|1:0,0:0:0:0:
24,127,119983,5,2,1:2:0:0:
32,129,120198,1,0,1:0:0:0:
138,38,120412,6,0,L|121:162,1,89.9999976158143,0|0,1:0|0:0,0:0:0:0:
204,144,120733,1,0,0:0:0:0:
216,140,120840,2,0,L|199:264,1,89.9999976158143,0|0,1:0|0:0,0:0:0:0:
282,246,121162,1,0,0:0:0:0:
294,242,121269,2,0,L|277:366,1,89.9999976158143,0|0,1:0|0:0,0:0:0:0:
34,280,121698,5,2,1:2:0:0:
42,282,121913,1,0,1:0:0:0:
69,194,122046,6,0,P|64:149|84:108,1,89.9999976158143,0|0,1:0|0:0,0:0:0:0:
151,213,122376,2,0,P|170:172|205:146,1,89.9999976158143,0|0,1:0|0:0,0:0:0:0:
213,271,122715,2,0,P|249:245|292:241,1,89.9999976158143,0|0,1:0|0:0,0:0:0:0:
238,353,123064,2,0,P|282:348|322:366,1,89.9999976158143,0|0,1:0|0:0,0:0:0:0:
394,310,123412,5,2,1:2:0:0:
402,312,123627,1,0,1:0:0:0:
445,43,123840,6,0,B|421:81|421:81|445:118,1,89.9999976158143,0|0,1:0|0:0,0:0:0:0:
467,197,124162,1,0,0:0:0:0:
477,207,124269,2,0,B|502:245|502:245|477:282,1,89.9999976158143,0|0,1:0|0:0,0:0:0:0:
402,312,124590,1,0,0:0:0:0:
392,302,124697,2,0,B|368:265|368:265|392:228,1,89.9999976158143,0|0,1:0|0:0,0:0:0:0:
219,135,125126,5,2,1:2:0:0:
227,137,125340,1,0,1:0:0:0:
291,233,125474,6,0,P|216:238|161:190,3,146.249996125698,0|0|0|0,1:0|1:0|1:0|1:0,0:0:0:0:
389,94,126840,5,2,1:2:0:0:
397,96,127055,1,0,1:0:0:0:
429,251,127269,6,0,P|388:268|343:263,1,89.9999976158143,0|0,1:0|0:0,0:0:0:0:
286,214,127590,1,0,0:0:0:0:
280,200,127698,2,0,P|285:155|311:119,1,89.9999976158143,0|0,1:0|0:0,0:0:0:0:
382,94,128018,1,0,0:0:0:0:
397,96,128126,2,0,P|432:122|450:163,1,89.9999976158143,0|0,1:0|0:0,0:0:0:0:
298,342,128555,6,0,B|247:362|213:319|213:319|179:276|129:296,1,188.999989225388,2|0,0:0|0:0,0:0:0:0:
115,319,129412,2,0,P|105:277|92:253,2,53.9999969215394,2|2|2,0:0|0:0|0:0,0:0:0:0:
34,118,130269,6,0,P|86:130|127:164,1,107.999993843079,2|0,0:0|0:0,0:0:0:0:
208,22,131126,2,0,P|211:61|201:83,2,53.9999969215394,2|2|2,0:0|0:0|0:0,0:0:0:0:
304,253,131983,6,0,B|354:273|388:230|388:230|422:187|472:207,1,188.999989225388,2|0,0:0|0:0,0:0:0:0:
486,230,132840,2,0,P|474:178|491:127,1,107.999993843079,2|0,0:0|0:0,0:0:0:0:
318,209,133698,2,0,P|368:224|404:264,1,107.999993843079,2|0,0:0|0:0,0:0:0:0:
420,74,134555,2,0,P|380:110|328:120,1,107.999993843079,2|0,0:0|0:0,0:0:0:0:
292,317,135412,6,0,P|279:224|223:149,1,188.999989225388,0|0,0:0|0:0,0:0:0:0:
216,123,136269,2,0,P|196:150|191:187,2,53.9999969215394,2|2|2,0:0|0:0|0:0,0:0:0:0:
50,148,137126,6,0,P|53:95|75:46,1,107.999993843079,2|0,0:0|0:0,0:0:0:0:
116,251,137983,2,0,L|123:180,2,53.9999969215394,2|2|2,0:0|0:0|0:0,0:0:0:0:
256,301,138840,5,2,0:0:0:0:
256,301,139698,5,2,0:0:0:0:
326,275,139912,1,2,0:0:0:0:
364,210,140125,1,2,0:0:0:0:
351,136,140340,1,2,0:0:0:0:
293,87,140555,5,2,0:0:0:0:
218,87,140983,5,2,0:0:0:0:
160,136,141412,5,2,0:0:0:0:
146,210,141840,5,2,0:0:0:0:
184,275,142269,5,4,0:1:0:0:
