osu file format v14

[General]
AudioFilename: audio.mp3
AudioLeadIn: 0
PreviewTime: 87404
Countdown: 0
SampleSet: Normal
StackLeniency: 0.7
Mode: 3
LetterboxInBreaks: 0
SpecialStyle: 0
WidescreenStoryboard: 0

[Editor]
DistanceSpacing: 0.8
BeatDivisor: 4
GridSize: 8
TimelineZoom: 2.6

[Metadata]
Title:MARENOL
TitleUnicode:MARENOL
Artist:LeaF
ArtistUnicode:LeaF
Creator:SaltedFISSH
Version:Anguished
Source:
Tags:
BeatmapID:2071498
BeatmapSetID:990314

[Difficulty]
HPDrainRate:9.5
CircleSize:4
OverallDifficulty:7
ApproachRate:5
SliderMultiplier:1.4
SliderTickRate:1

[Events]
//Background and Video events
0,0,"bg1.png",0,0
Video,0,"LeaF - MARENOL.mp4"
//Break Periods
//Storyboard Layer 0 (Background)
//Storyboard Layer 1 (Fail)
//Storyboard Layer 2 (Pass)
//Storyboard Layer 3 (Foreground)
//Storyboard Sound Samples

[TimingPoints]
1679,428.571428571429,4,1,0,50,1,0
1679,-90.9090909090909,4,1,0,50,0,0
3393,-117.647058823529,4,1,0,50,0,0
3607,-114.942528735632,4,1,0,50,0,0
3821,-112.359550561798,4,1,0,50,0,0
4036,-109.89010989011,4,1,0,50,0,0
4250,-107.52688172043,4,1,0,50,0,0
4464,-105.263157894737,4,1,0,50,0,0
4679,-103.092783505155,4,1,0,50,0,0
4893,-101.010101010101,4,1,0,50,0,0
5107,428.571428571429,4,1,0,50,1,0
5107,-100,4,1,0,50,0,0
5535,428.571428571429,4,1,0,50,1,0
5963,428.571428571429,4,1,0,50,1,0
6391,428.571428571429,4,1,0,50,1,0
6819,428.571429,4,1,0,50,1,0
7247,428.571429,4,1,0,50,1,0
7675,428.571429,4,1,0,50,1,0
8103,428.571429,4,1,0,50,1,0
8531,428.571429,4,1,0,50,1,0
8959,428.571429,4,1,0,50,1,0
9387,428.571429,4,1,0,50,1,0
9815,428.571428571429,4,1,0,50,1,0
10268,428.571429,4,1,0,50,1,0
10696,428.571429,4,1,0,50,1,0
11124,428.571429,4,1,0,50,1,0
11552,428.571429,4,1,0,50,1,0
11980,428.571429,4,1,0,50,1,0
12408,428.571429,4,1,0,50,1,0
12836,428.571429,4,1,0,50,1,0
13264,428.571429,4,1,0,50,1,0
13692,428.571429,4,1,0,50,1,0
14120,428.571429,4,1,0,50,1,0
14548,428.571429,4,1,0,50,1,0
14976,428.571429,4,1,0,50,1,0
15404,428.571429,4,1,0,50,1,0
17975,-111.111111,4,1,0,50,0,0
18189,-200,4,1,0,50,0,0
18296,-76.923077,4,1,0,50,0,0
18404,-111.111111,4,1,0,50,0,0
18618,-200,4,1,0,50,0,0
18725,-76.923077,4,1,0,50,0,0
18832,-100,4,1,0,50,0,1
32546,-125,4,1,0,50,0,0
33404,-123.45679,4,1,0,50,0,0
34261,-121.95122,4,1,0,50,0,0
34689,-120.481928,4,1,0,50,0,0
35118,-119.047619,4,1,0,50,0,0
35546,-117.647059,4,1,0,50,0,0
35975,-116.27907,4,1,0,50,0,0
36404,-114.942529,4,1,0,50,0,0
36832,-113.636364,4,1,0,50,0,0
37261,-112.359551,4,1,0,50,0,0
37689,-111.111111,4,1,0,50,0,0
38118,-109.89011,4,1,0,50,0,0
38546,-166.666666666667,4,1,0,50,0,0
39189,-86.9565217391304,4,1,0,50,0,0
39404,-100,4,1,0,50,0,0
44546,-200,4,1,0,50,0,0
44761,-90.9090909090909,4,1,0,50,0,0
44975,-200,4,1,0,50,0,0
45189,-90.9090909090909,4,1,0,50,0,0
45404,-200,4,1,0,50,0,0
45618,-90.9090909090909,4,1,0,50,0,0
45832,-200,4,1,0,50,0,0
46046,-83.3333333333333,4,1,0,50,0,0
46261,-125,4,1,0,50,0,0
53118,-111.111111,4,1,0,50,0,0
63418,-125,4,1,0,50,0,0
65118,-131.578947,4,1,0,50,0,0
65332,-128.205128,4,1,0,50,0,0
65546,-125,4,1,0,50,0,0
65761,-121.95122,4,1,0,50,0,0
65975,-119.047619,4,1,0,50,0,0
66189,-116.27907,4,1,0,50,0,0
66404,-200,4,1,0,50,0,0
66511,-80,4,1,0,50,0,0
66618,-111.111111,4,1,0,50,0,0
66832,-200,4,1,0,50,0,0
66939,-192.307692,4,1,0,50,0,0
67046,-185.185185,4,1,0,50,0,0
67154,-178.571429,4,1,0,50,0,0
67261,-172.413793,4,1,0,50,0,0
67475,-90.909091,4,1,0,50,0,0
67689,-90.909091,4,1,0,50,0,1
68546,-200,4,1,0,50,0,1
68654,-192.307692,4,1,0,50,0,1
68761,-185.185185,4,1,0,50,0,1
68868,-178.571429,4,1,0,50,0,1
68975,-172.413793,4,1,0,50,0,1
69189,-90.909091,4,1,0,50,0,1
69404,-100,4,1,0,50,0,1
70261,-200,4,1,0,50,0,1
70368,-192.307692,4,1,0,50,0,0
70475,-185.185185,4,1,0,50,0,0
70582,-178.571429,4,1,0,50,0,0
70689,-172.413793,4,1,0,50,0,0
70904,-90.909091,4,1,0,50,0,0
71118,-100,4,1,0,50,0,1
71975,-100,4,1,0,50,0,1
73689,-100,4,1,0,50,0,0
75404,-100,4,1,0,50,0,1
76261,-95.238095,4,1,0,50,0,1
77118,-100,4,1,0,50,0,1
79689,-95.238095,4,1,0,50,0,1
80546,-100,4,1,0,50,0,1
85689,-111.111111,4,1,0,50,0,0
86975,-120.481927710843,4,1,0,50,0,0
98118,-119.047619,4,1,0,50,0,0
98332,-120.481928,4,1,0,50,0,0
98546,-121.95122,4,1,0,50,0,0
98775,-123.45679,4,1,0,50,0,0
98975,-125,4,1,0,50,0,0
99404,-90.909091,4,1,0,50,0,0
101118,428.571429,4,1,0,50,1,0
101118,-100,4,1,0,50,0,0
101332,428.571429,4,1,0,50,1,0
101546,428.571429,4,1,0,50,1,0
101760,428.571429,4,1,0,50,1,0
101974,428.571429,4,1,0,50,1,0
102188,428.571429,4,1,0,50,1,0
102402,428.571429,4,1,0,50,1,0
102616,428.571429,4,1,0,50,1,0
102830,428.571429,4,1,0,50,1,0
103044,428.571429,4,1,0,50,1,0
103258,428.571429,4,1,0,50,1,0
103472,428.571429,4,1,0,50,1,0
103686,428.571429,4,1,0,50,1,0
103900,428.571429,4,1,0,50,1,0
104114,428.571429,4,1,0,50,1,0
104328,428.571429,4,1,0,50,1,0
104544,428.571429,4,1,0,50,1,0
104758,428.571429,4,1,0,50,1,0
104972,428.571429,4,1,0,50,1,0
105186,428.571429,4,1,0,50,1,0
105400,428.571429,4,1,0,50,1,0
105614,428.571429,4,1,0,50,1,0
105828,428.571429,4,1,0,50,1,0
106042,428.571429,4,1,0,50,1,0
106256,428.571429,4,1,0,50,1,0
106473,428.571429,4,1,0,50,1,0
106687,428.571429,4,1,0,50,1,0
106901,428.571429,4,1,0,50,1,0
107115,428.571429,4,1,0,50,1,0
107329,428.571429,4,1,0,50,1,0
107543,428.571429,4,1,0,50,1,0
107757,428.571429,4,1,0,50,1,0
107971,428.571429,4,1,0,50,1,0
108187,428.571429,4,1,0,50,1,0
108401,428.571429,4,1,0,50,1,0
108615,428.571429,4,1,0,50,1,0
108829,428.571429,4,1,0,50,1,0
109043,428.571429,4,1,0,50,1,0
109257,428.571429,4,1,0,50,1,0
109471,428.571429,4,1,0,50,1,0
109685,428.571429,4,1,0,50,1,0
109899,428.571429,4,1,0,50,1,0
110113,428.571429,4,1,0,50,1,0
110327,428.571429,4,1,0,50,1,0
110541,428.571429,4,1,0,50,1,0
110755,428.571429,4,1,0,50,1,0
110969,428.571429,4,1,0,50,1,0
111183,428.571429,4,1,0,50,1,0
111397,428.571429,4,1,0,50,1,0
111613,428.571429,4,1,0,50,1,0
111827,428.571429,4,1,0,50,1,0
112041,428.571429,4,1,0,50,1,0
112255,428.571429,4,1,0,50,1,0
112469,428.571429,4,1,0,50,1,0
112683,428.571429,4,1,0,50,1,0
112897,428.571429,4,1,0,50,1,0
113111,428.571429,4,1,0,50,1,0
113325,428.571429,4,1,0,50,1,0
113542,428.571429,4,1,0,50,1,0
113756,428.571429,4,1,0,50,1,0
113970,428.571429,4,1,0,50,1,0
114184,428.571429,4,1,0,50,1,0
114398,428.571429,4,1,0,50,1,0
114612,428.571429,4,1,0,50,1,0
114851,428.571429,4,1,0,50,1,0
115040,428.571429,4,1,0,50,1,0
115254,428.571429,4,1,0,50,1,0
115468,428.571429,4,1,0,50,1,0
115682,428.571429,4,1,0,50,1,0
115896,428.571429,4,1,0,50,1,0
116110,428.571429,4,1,0,50,1,0
116324,428.571429,4,1,0,50,1,0
116538,428.571429,4,1,0,50,1,0
116752,428.571429,4,1,0,50,1,0
116966,428.571429,4,1,0,50,1,0
117180,428.571429,4,1,0,50,1,0
117394,428.571429,4,1,0,50,1,0
117608,428.571429,4,1,0,50,1,0
117822,428.571429,4,1,0,50,1,0
118036,428.571429,4,1,0,50,1,0
118250,428.571429,4,1,0,50,1,0
118464,428.571429,4,1,0,50,1,0
118680,428.571429,4,1,0,50,1,0
118894,428.571429,4,1,0,50,1,0
119108,428.571429,4,1,0,50,1,0
119322,428.571429,4,1,0,50,1,0
119536,428.571429,4,1,0,50,1,0
119750,428.571429,4,1,0,50,1,0
119964,428.571429,4,1,0,50,1,0
120178,428.571429,4,1,0,50,1,0
120392,428.571429,4,1,0,50,1,0
120609,428.571429,4,1,0,50,1,0
120823,428.571429,4,1,0,50,1,0
121037,428.571429,4,1,0,50,1,0
121251,428.571429,4,1,0,50,1,0
121465,428.571429,4,1,0,50,1,0
121679,428.571429,4,1,0,50,1,0
121893,428.571429,4,1,0,50,1,0
122107,428.571429,4,1,0,50,1,0
122321,428.571429,4,1,0,50,1,0
122535,428.571429,4,1,0,50,1,0
122749,428.571429,4,1,0,50,1,0
122963,428.571429,4,1,0,50,1,0
123177,428.571429,4,1,0,50,1,0
123391,428.571429,4,1,0,50,1,0
123605,428.571429,4,1,0,50,1,0
123819,428.571429,4,1,0,50,1,0
124033,428.571429,4,1,0,50,1,0
124247,428.571429,4,1,0,50,1,0
124461,428.571429,4,1,0,50,1,0
124675,428.571429,4,1,0,50,1,0
124889,428.571429,4,1,0,50,1,0
125103,428.571429,4,1,0,50,1,0
125317,428.571429,4,1,0,50,1,0
125531,428.571429,4,1,0,50,1,0
125747,428.571429,4,1,0,50,1,0
125961,428.571429,4,1,0,50,1,0
126175,428.571429,4,1,0,50,1,0
126389,428.571429,4,1,0,50,1,0
126603,428.571429,4,1,0,50,1,0
126817,428.571429,4,1,0,50,1,0
127031,428.571429,4,1,0,50,1,0
127245,428.571429,4,1,0,50,1,0
127459,428.571429,4,1,0,50,1,0
127676,428.571429,4,1,0,50,1,0
127890,428.571429,4,1,0,50,1,0
128104,428.571429,4,1,0,50,1,0
128318,428.571429,4,1,0,50,1,0
128562,428.571429,4,1,0,50,1,0
128562,-111.111111111111,4,1,0,50,0,0
135419,-116.279069767442,4,1,0,50,0,0
139062,-125,4,1,0,50,0,0
142276,-333.333333333333,4,1,0,50,0,0

[HitObjects]
192,192,1679,5,0,0:0:0:0:
64,192,1705,1,0,0:0:0:0:
320,192,1732,1,0,0:0:0:0:
448,192,1759,1,0,0:0:0:0:
192,192,1786,1,0,0:0:0:0:
64,192,1821,1,0,0:0:0:0:
320,192,1857,1,0,0:0:0:0:
448,192,1893,1,0,0:0:0:0:
192,192,1920,1,0,0:0:0:0:
64,192,1946,1,0,0:0:0:0:
320,192,1973,1,0,0:0:0:0:
448,192,2000,1,0,0:0:0:0:
192,192,2036,1,0,0:0:0:0:
64,192,2071,1,0,0:0:0:0:
448,192,2107,1,0,0:0:0:0:
320,192,2143,1,0,0:0:0:0:
64,192,2179,1,0,0:0:0:0:
192,192,2214,1,0,0:0:0:0:
448,192,2241,1,0,0:0:0:0:
320,192,2268,1,0,0:0:0:0:
64,192,2286,1,0,0:0:0:0:
192,192,2321,1,0,0:0:0:0:
448,192,2357,1,0,0:0:0:0:
320,192,2393,1,0,0:0:0:0:
64,192,2429,1,0,0:0:0:0:
192,192,2455,1,0,0:0:0:0:
448,192,2482,1,0,0:0:0:0:
320,192,2500,1,0,0:0:0:0:
192,192,2536,5,0,0:0:0:0:
64,192,2562,1,0,0:0:0:0:
320,192,2589,1,0,0:0:0:0:
448,192,2616,1,0,0:0:0:0:
192,192,2643,1,0,0:0:0:0:
64,192,2679,1,0,0:0:0:0:
320,192,2714,1,0,0:0:0:0:
448,192,2750,1,0,0:0:0:0:
192,192,2777,1,0,0:0:0:0:
64,192,2804,1,0,0:0:0:0:
320,192,2830,1,0,0:0:0:0:
448,192,2857,1,0,0:0:0:0:
192,192,2893,1,0,0:0:0:0:
64,192,2929,1,0,0:0:0:0:
448,192,2964,1,0,0:0:0:0:
320,192,3000,1,0,0:0:0:0:
64,192,3036,1,0,0:0:0:0:
192,192,3071,1,0,0:0:0:0:
448,192,3098,1,0,0:0:0:0:
320,192,3125,1,0,0:0:0:0:
64,192,3143,1,0,0:0:0:0:
192,192,3179,1,0,0:0:0:0:
448,192,3214,1,0,0:0:0:0:
320,192,3250,1,0,0:0:0:0:
64,192,3286,1,0,0:0:0:0:
192,192,3312,1,0,0:0:0:0:
448,192,3321,1,0,0:0:0:0:
320,192,3357,1,0,0:0:0:0:
192,192,3393,1,0,0:0:0:0:
64,192,3393,1,0,0:0:0:0:
320,192,3821,1,0,0:0:0:0:
448,192,3821,1,0,0:0:0:0:
64,192,4036,1,0,0:0:0:0:
192,192,4143,1,0,0:0:0:0:
320,192,4250,1,0,0:0:0:0:
448,192,4250,1,0,0:0:0:0:
448,192,4357,1,0,0:0:0:0:
192,192,4571,1,0,0:0:0:0:
192,192,4679,1,0,0:0:0:0:
64,192,4679,1,0,0:0:0:0:
448,192,4679,1,0,0:0:0:0:
320,192,4893,1,0,0:0:0:0:
64,192,5107,1,0,0:0:0:0:
192,192,5107,1,0,0:0:0:0:
448,192,5107,1,0,0:0:0:0:
320,192,5321,1,0,0:0:0:0:
64,192,5535,1,0,0:0:0:0:
448,192,5535,1,0,0:0:0:0:
192,192,5749,1,0,0:0:0:0:
320,192,5856,1,0,0:0:0:0:
64,192,5963,1,0,0:0:0:0:
448,192,5963,1,0,0:0:0:0:
320,192,6177,1,0,0:0:0:0:
64,192,6391,1,0,0:0:0:0:
192,192,6391,1,0,0:0:0:0:
320,192,6605,1,0,0:0:0:0:
64,192,6819,1,0,0:0:0:0:
448,192,6819,1,0,0:0:0:0:
192,192,7033,1,0,0:0:0:0:
64,192,7247,1,0,0:0:0:0:
320,192,7247,1,0,0:0:0:0:
448,192,7461,1,0,0:0:0:0:
320,192,7568,1,0,0:0:0:0:
64,192,7675,1,0,0:0:0:0:
192,192,7675,1,0,0:0:0:0:
320,192,7889,1,0,0:0:0:0:
64,192,8103,1,0,0:0:0:0:
448,192,8103,1,0,0:0:0:0:
192,192,8317,1,0,0:0:0:0:
64,192,8531,1,0,0:0:0:0:
320,192,8531,1,0,0:0:0:0:
448,192,8531,1,0,0:0:0:0:
192,192,8745,1,0,0:0:0:0:
448,192,8959,1,0,0:0:0:0:
64,192,8959,1,0,0:0:0:0:
320,192,9173,1,0,0:0:0:0:
192,192,9280,1,0,0:0:0:0:
448,192,9387,1,0,0:0:0:0:
64,192,9387,1,0,0:0:0:0:
192,192,9601,1,0,0:0:0:0:
448,192,9815,1,0,0:0:0:0:
320,192,9815,1,0,0:0:0:0:
64,192,10029,1,0,0:0:0:0:
64,192,10268,128,0,10696:0:0:0:0:
448,192,10268,1,0,0:0:0:0:
192,192,10268,1,0,0:0:0:0:
320,192,10482,1,0,0:0:0:0:
192,192,10696,128,0,11124:0:0:0:0:
448,192,10696,1,0,0:0:0:0:
320,192,10696,1,0,0:0:0:0:
448,192,10910,1,0,0:0:0:0:
320,192,11017,1,0,0:0:0:0:
448,192,11124,128,0,11552:0:0:0:0:
64,192,11124,1,0,0:0:0:0:
192,192,11231,1,0,0:0:0:0:
320,192,11338,1,0,0:0:0:0:
64,192,11552,128,0,11980:0:0:0:0:
192,192,11552,1,0,0:0:0:0:
320,192,11552,1,0,0:0:0:0:
448,192,11766,1,0,0:0:0:0:
320,192,11873,1,0,0:0:0:0:
448,192,11980,128,0,12408:0:0:0:0:
192,192,11980,1,0,0:0:0:0:
192,192,12194,1,0,0:0:0:0:
64,192,12408,1,0,0:0:0:0:
320,192,12408,128,0,12836:0:0:0:0:
192,192,12408,1,0,0:0:0:0:
64,192,12622,1,0,0:0:0:0:
192,192,12729,1,0,0:0:0:0:
64,192,12836,128,0,13264:0:0:0:0:
448,192,12836,1,0,0:0:0:0:
320,192,12943,1,0,0:0:0:0:
192,192,13050,1,0,0:0:0:0:
320,192,13264,1,0,0:0:0:0:
448,192,13264,1,0,0:0:0:0:
192,192,13478,1,0,0:0:0:0:
320,192,13585,1,0,0:0:0:0:
64,192,13692,1,0,0:0:0:0:
448,192,13692,1,0,0:0:0:0:
192,192,13692,128,0,14120:0:0:0:0:
320,192,13906,1,0,0:0:0:0:
320,192,14120,128,0,14548:0:0:0:0:
64,192,14120,1,0,0:0:0:0:
448,192,14120,1,0,0:0:0:0:
64,192,14334,1,0,0:0:0:0:
192,192,14441,1,0,0:0:0:0:
64,192,14548,128,0,14976:0:0:0:0:
448,192,14548,1,0,0:0:0:0:
320,192,14655,1,0,0:0:0:0:
192,192,14762,1,0,0:0:0:0:
320,192,14976,1,0,0:0:0:0:
448,192,14976,1,0,0:0:0:0:
192,192,15190,1,0,0:0:0:0:
64,192,15190,1,0,0:0:0:0:
320,192,15297,1,0,0:0:0:0:
64,192,15404,1,0,0:0:0:0:
448,192,15404,1,0,0:0:0:0:
192,192,15457,1,0,0:0:0:0:
320,192,15511,1,0,0:0:0:0:
64,192,15564,1,0,0:0:0:0:
192,192,15618,1,0,0:0:0:0:
448,192,15671,1,0,0:0:0:0:
64,192,15725,1,0,0:0:0:0:
320,192,15779,1,0,0:0:0:0:
448,192,15832,1,0,0:0:0:0:
192,192,15886,1,0,0:0:0:0:
320,192,15939,1,0,0:0:0:0:
64,192,15993,1,0,0:0:0:0:
448,192,16046,1,0,0:0:0:0:
192,192,16100,1,0,0:0:0:0:
64,192,16154,1,0,0:0:0:0:
320,192,16207,1,0,0:0:0:0:
192,192,16261,1,0,0:0:0:0:
448,192,16314,1,0,0:0:0:0:
320,192,16368,1,0,0:0:0:0:
64,192,16421,1,0,0:0:0:0:
448,192,16475,1,0,0:0:0:0:
192,192,16529,1,0,0:0:0:0:
64,192,16582,1,0,0:0:0:0:
320,192,16636,1,0,0:0:0:0:
192,192,16689,1,0,0:0:0:0:
448,192,16743,1,0,0:0:0:0:
64,192,16796,1,0,0:0:0:0:
320,192,16850,1,0,0:0:0:0:
192,192,16904,1,0,0:0:0:0:
448,192,16957,1,0,0:0:0:0:
64,192,17011,1,0,0:0:0:0:
192,192,17064,1,0,0:0:0:0:
320,192,17118,1,0,0:0:0:0:
448,192,17118,1,0,0:0:0:0:
64,192,17225,1,0,0:0:0:0:
192,192,17261,1,0,0:0:0:0:
320,192,17332,1,0,0:0:0:0:
448,192,17412,1,0,0:0:0:0:
64,192,17439,1,0,0:0:0:0:
192,192,17475,1,0,0:0:0:0:
64,192,17546,1,0,0:0:0:0:
320,192,17546,1,0,0:0:0:0:
192,192,17627,1,0,0:0:0:0:
448,192,17654,1,0,0:0:0:0:
320,192,17689,1,0,0:0:0:0:
448,192,17761,1,0,0:0:0:0:
64,192,17761,1,0,0:0:0:0:
192,192,17841,1,0,0:0:0:0:
64,192,17868,1,0,0:0:0:0:
320,192,17904,1,0,0:0:0:0:
192,192,17975,1,0,0:0:0:0:
448,192,17975,1,0,0:0:0:0:
64,192,18189,1,0,0:0:0:0:
448,192,18404,128,0,18511:0:0:0:0:
192,192,18404,1,0,0:0:0:0:
320,192,18404,128,0,18511:0:0:0:0:
320,192,18618,1,0,0:0:0:0:
64,192,18832,1,0,0:0:0:0:
192,192,18868,1,0,0:0:0:0:
320,192,18912,1,0,0:0:0:0:
448,192,18939,1,0,0:0:0:0:
64,192,18975,1,0,0:0:0:0:
192,192,18993,1,0,0:0:0:0:
320,192,19020,1,0,0:0:0:0:
448,192,19046,1,0,0:0:0:0:
64,192,19082,1,0,0:0:0:0:
192,192,19100,1,0,0:0:0:0:
320,192,19127,1,0,0:0:0:0:
448,192,19154,1,0,0:0:0:0:
64,192,19189,1,0,0:0:0:0:
192,192,19234,1,0,0:0:0:0:
448,192,19261,1,0,0:0:0:0:
320,192,19296,1,0,0:0:0:0:
192,192,19314,1,0,0:0:0:0:
64,192,19341,1,0,0:0:0:0:
448,192,19368,1,0,0:0:0:0:
320,192,19404,1,0,0:0:0:0:
192,192,19421,1,0,0:0:0:0:
64,192,19448,1,0,0:0:0:0:
448,192,19475,1,0,0:0:0:0:
320,192,19511,1,0,0:0:0:0:
192,192,19555,1,0,0:0:0:0:
64,192,19582,1,0,0:0:0:0:
448,192,19618,1,0,0:0:0:0:
320,192,19636,1,0,0:0:0:0:
192,192,19662,1,0,0:0:0:0:
64,192,19689,1,0,0:0:0:0:
192,192,19904,1,0,0:0:0:0:
448,192,20011,1,0,0:0:0:0:
192,192,20118,1,0,0:0:0:0:
64,192,20118,1,0,0:0:0:0:
448,192,20118,1,0,0:0:0:0:
320,192,20118,1,0,0:0:0:0:
192,192,20332,1,0,0:0:0:0:
320,192,20332,1,0,0:0:0:0:
192,192,20546,1,0,0:0:0:0:
448,192,20546,1,0,0:0:0:0:
64,192,20600,1,0,0:0:0:0:
320,192,20654,1,0,0:0:0:0:
192,192,20707,1,0,0:0:0:0:
448,192,20761,1,0,0:0:0:0:
64,192,20814,1,0,0:0:0:0:
320,192,20868,1,0,0:0:0:0:
448,192,20921,1,0,0:0:0:0:
64,192,20975,1,0,0:0:0:0:
192,192,20975,1,0,0:0:0:0:
448,192,21189,1,0,0:0:0:0:
320,192,21225,1,0,0:0:0:0:
192,192,21270,1,0,0:0:0:0:
64,192,21296,1,0,0:0:0:0:
448,192,21332,1,0,0:0:0:0:
320,192,21377,1,0,0:0:0:0:
192,192,21404,1,0,0:0:0:0:
64,192,21404,1,0,0:0:0:0:
64,192,21618,128,0,21725:0:0:0:0:
192,192,21654,128,0,21761:0:0:0:0:
320,192,21671,128,0,21779:0:0:0:0:
448,192,21698,128,0,21805:0:0:0:0:
64,192,21832,1,0,0:0:0:0:
192,192,21886,1,0,0:0:0:0:
320,192,21939,1,0,0:0:0:0:
448,192,21993,1,0,0:0:0:0:
64,192,22046,1,0,0:0:0:0:
320,192,22100,1,0,0:0:0:0:
64,192,22154,1,0,0:0:0:0:
448,192,22207,1,0,0:0:0:0:
320,192,22261,1,0,0:0:0:0:
192,192,22296,1,0,0:0:0:0:
64,192,22341,1,0,0:0:0:0:
448,192,22368,1,0,0:0:0:0:
320,192,22404,1,0,0:0:0:0:
192,192,22421,1,0,0:0:0:0:
64,192,22448,1,0,0:0:0:0:
448,192,22475,1,0,0:0:0:0:
320,192,22511,1,0,0:0:0:0:
192,192,22529,1,0,0:0:0:0:
64,192,22555,1,0,0:0:0:0:
448,192,22582,1,0,0:0:0:0:
320,192,22618,1,0,0:0:0:0:
192,192,22662,1,0,0:0:0:0:
64,192,22689,1,0,0:0:0:0:
320,192,22904,1,0,0:0:0:0:
448,192,22904,1,0,0:0:0:0:
64,192,23118,128,0,23225:0:0:0:0:
192,192,23154,128,0,23261:0:0:0:0:
320,192,23198,128,0,23305:0:0:0:0:
448,192,23225,128,0,23332:0:0:0:0:
64,192,23332,1,0,0:0:0:0:
320,192,23368,1,0,0:0:0:0:
192,192,23412,1,0,0:0:0:0:
448,192,23439,1,0,0:0:0:0:
320,192,23475,1,0,0:0:0:0:
192,192,23520,1,0,0:0:0:0:
64,192,23546,1,0,0:0:0:0:
320,192,23761,1,0,0:0:0:0:
192,192,23761,1,0,0:0:0:0:
448,192,23761,1,0,0:0:0:0:
64,192,23975,1,0,0:0:0:0:
192,192,24011,1,0,0:0:0:0:
320,192,24055,1,0,0:0:0:0:
448,192,24082,1,0,0:0:0:0:
64,192,24118,1,0,0:0:0:0:
192,192,24162,1,0,0:0:0:0:
320,192,24189,1,0,0:0:0:0:
64,192,24270,1,0,0:0:0:0:
320,192,24332,1,0,0:0:0:0:
192,192,24404,1,0,0:0:0:0:
64,192,24439,1,0,0:0:0:0:
448,192,24484,1,0,0:0:0:0:
320,192,24511,1,0,0:0:0:0:
192,192,24546,1,0,0:0:0:0:
64,192,24591,1,0,0:0:0:0:
448,192,24618,1,0,0:0:0:0:
192,192,24698,1,0,0:0:0:0:
448,192,24761,1,0,0:0:0:0:
64,192,24832,1,0,0:0:0:0:
192,192,24868,1,0,0:0:0:0:
320,192,24912,1,0,0:0:0:0:
448,192,24939,1,0,0:0:0:0:
64,192,24975,1,0,0:0:0:0:
192,192,25020,1,0,0:0:0:0:
320,192,25046,1,0,0:0:0:0:
64,192,25127,1,0,0:0:0:0:
192,192,25189,1,0,0:0:0:0:
448,192,25261,128,0,25582:0:0:0:0:
320,192,25314,128,0,25618:0:0:0:0:
192,192,25368,128,0,25636:0:0:0:0:
64,192,25421,128,0,25662:0:0:0:0:
448,192,25689,1,0,0:0:0:0:
320,192,25725,1,0,0:0:0:0:
192,192,25770,1,0,0:0:0:0:
64,192,25796,1,0,0:0:0:0:
448,192,25832,1,0,0:0:0:0:
320,192,25850,1,0,0:0:0:0:
192,192,25877,1,0,0:0:0:0:
64,192,25904,1,0,0:0:0:0:
448,192,25939,1,0,0:0:0:0:
320,192,25957,1,0,0:0:0:0:
192,192,25984,1,0,0:0:0:0:
64,192,26011,1,0,0:0:0:0:
448,192,26046,1,0,0:0:0:0:
320,192,26091,1,0,0:0:0:0:
64,192,26118,1,0,0:0:0:0:
192,192,26154,1,0,0:0:0:0:
320,192,26171,1,0,0:0:0:0:
448,192,26198,1,0,0:0:0:0:
64,192,26225,1,0,0:0:0:0:
192,192,26261,1,0,0:0:0:0:
320,192,26279,1,0,0:0:0:0:
448,192,26305,1,0,0:0:0:0:
64,192,26332,1,0,0:0:0:0:
192,192,26368,1,0,0:0:0:0:
320,192,26412,1,0,0:0:0:0:
448,192,26439,1,0,0:0:0:0:
64,192,26475,1,0,0:0:0:0:
192,192,26493,1,0,0:0:0:0:
320,192,26520,1,0,0:0:0:0:
448,192,26546,1,0,0:0:0:0:
64,192,26761,1,0,0:0:0:0:
320,192,26868,1,0,0:0:0:0:
448,192,26975,1,0,0:0:0:0:
320,192,26975,1,0,0:0:0:0:
192,192,26975,1,0,0:0:0:0:
64,192,26975,1,0,0:0:0:0:
448,192,27189,1,0,0:0:0:0:
320,192,27243,1,0,0:0:0:0:
192,192,27296,1,0,0:0:0:0:
64,192,27350,1,0,0:0:0:0:
448,192,27404,128,0,27546:0:0:0:0:
320,192,27457,128,0,27564:0:0:0:0:
192,192,27511,128,0,27591:0:0:0:0:
64,192,27546,128,0,27591:0:0:0:0:
448,192,27618,1,0,0:0:0:0:
320,192,27654,1,0,0:0:0:0:
192,192,27698,1,0,0:0:0:0:
64,192,27725,1,0,0:0:0:0:
448,192,27725,1,0,0:0:0:0:
320,192,27761,1,0,0:0:0:0:
64,192,27868,128,0,28154:0:0:0:0:
192,192,27912,128,0,28127:0:0:0:0:
320,192,27939,128,0,28082:0:0:0:0:
448,192,27975,128,0,28046:0:0:0:0:
448,192,28127,1,0,0:0:0:0:
320,192,28154,1,0,0:0:0:0:
192,192,28189,1,0,0:0:0:0:
64,192,28234,1,0,0:0:0:0:
320,192,28261,1,0,0:0:0:0:
448,192,28261,1,0,0:0:0:0:
192,192,28368,1,0,0:0:0:0:
448,192,28475,1,0,0:0:0:0:
192,192,28555,1,0,0:0:0:0:
320,192,28618,1,0,0:0:0:0:
64,192,28689,128,0,28796:0:0:0:0:
192,192,28716,128,0,28823:0:0:0:0:
320,192,28770,1,0,0:0:0:0:
448,192,28796,1,0,0:0:0:0:
64,192,28850,1,0,0:0:0:0:
192,192,28877,1,0,0:0:0:0:
320,192,28904,128,0,29011:0:0:0:0:
448,192,28930,128,0,29037:0:0:0:0:
64,192,28957,1,0,0:0:0:0:
192,192,28984,1,0,0:0:0:0:
448,192,29118,128,0,29475:0:0:0:0:
320,192,29154,128,0,29439:0:0:0:0:
192,192,29198,128,0,29412:0:0:0:0:
64,192,29225,128,0,29368:0:0:0:0:
64,192,29439,1,0,0:0:0:0:
192,192,29475,1,0,0:0:0:0:
320,192,29520,1,0,0:0:0:0:
448,192,29546,1,0,0:0:0:0:
192,192,29627,1,0,0:0:0:0:
320,192,29689,1,0,0:0:0:0:
64,192,29761,1,0,0:0:0:0:
64,192,29868,1,0,0:0:0:0:
320,192,29975,1,0,0:0:0:0:
192,192,30029,1,0,0:0:0:0:
448,192,30082,1,0,0:0:0:0:
64,192,30136,1,0,0:0:0:0:
192,192,30189,1,0,0:0:0:0:
320,192,30243,1,0,0:0:0:0:
64,192,30296,1,0,0:0:0:0:
448,192,30350,1,0,0:0:0:0:
192,192,30404,1,0,0:0:0:0:
64,192,30439,1,0,0:0:0:0:
320,192,30484,1,0,0:0:0:0:
192,192,30511,1,0,0:0:0:0:
448,192,30546,1,0,0:0:0:0:
320,192,30591,1,0,0:0:0:0:
64,192,30618,1,0,0:0:0:0:
192,192,30618,1,0,0:0:0:0:
448,192,30832,128,0,30912:0:0:0:0:
64,192,30832,128,0,30993:0:0:0:0:
192,192,30832,128,0,30975:0:0:0:0:
320,192,30832,128,0,30939:0:0:0:0:
448,192,31046,1,0,0:0:0:0:
320,192,31154,1,0,0:0:0:0:
64,192,31154,1,0,0:0:0:0:
320,192,31261,1,0,0:0:0:0:
192,192,31261,1,0,0:0:0:0:
64,192,31261,1,0,0:0:0:0:
448,192,31261,1,0,0:0:0:0:
320,192,31475,1,0,0:0:0:0:
192,192,31475,1,0,0:0:0:0:
64,192,31689,1,0,0:0:0:0:
192,192,31725,1,0,0:0:0:0:
320,192,31770,1,0,0:0:0:0:
64,192,31796,1,0,0:0:0:0:
192,192,31832,1,0,0:0:0:0:
448,192,31877,1,0,0:0:0:0:
64,192,31904,1,0,0:0:0:0:
320,192,31939,1,0,0:0:0:0:
448,192,31984,1,0,0:0:0:0:
192,192,32011,1,0,0:0:0:0:
320,192,32046,1,0,0:0:0:0:
448,192,32091,1,0,0:0:0:0:
192,192,32118,1,0,0:0:0:0:
64,192,32118,1,0,0:0:0:0:
64,192,32546,1,0,0:0:0:0:
448,192,32546,1,0,0:0:0:0:
192,192,32975,1,0,0:0:0:0:
448,192,33404,1,0,0:0:0:0:
320,192,33832,1,0,0:0:0:0:
64,192,34046,128,0,34261:0:0:0:0:
192,192,34046,128,0,34261:0:0:0:0:
448,192,34261,128,0,35975:0:0:0:0:
320,192,34261,1,0,0:0:0:0:
64,192,34689,1,0,0:0:0:0:
192,192,35118,1,0,0:0:0:0:
320,192,35546,1,0,0:0:0:0:
64,192,35975,128,0,37689:0:0:0:0:
192,192,35975,1,0,0:0:0:0:
320,192,36404,1,0,0:0:0:0:
448,192,36832,1,0,0:0:0:0:
192,192,37261,1,0,0:0:0:0:
320,192,37689,128,0,39404:0:0:0:0:
448,192,37689,1,0,0:0:0:0:
192,192,38118,1,0,0:0:0:0:
64,192,38546,1,0,0:0:0:0:
448,192,39404,1,0,0:0:0:0:
64,192,39404,1,0,0:0:0:0:
192,192,39457,1,0,0:0:0:0:
320,192,39511,1,0,0:0:0:0:
64,192,39564,1,0,0:0:0:0:
192,192,39618,1,0,0:0:0:0:
448,192,39671,1,0,0:0:0:0:
64,192,39725,1,0,0:0:0:0:
320,192,39779,1,0,0:0:0:0:
192,192,39832,1,0,0:0:0:0:
448,192,39886,1,0,0:0:0:0:
320,192,39939,1,0,0:0:0:0:
64,192,39993,1,0,0:0:0:0:
448,192,40046,1,0,0:0:0:0:
192,192,40100,1,0,0:0:0:0:
320,192,40154,1,0,0:0:0:0:
64,192,40207,1,0,0:0:0:0:
192,192,40261,1,0,0:0:0:0:
448,192,40314,1,0,0:0:0:0:
320,192,40368,1,0,0:0:0:0:
64,192,40421,1,0,0:0:0:0:
448,192,40475,1,0,0:0:0:0:
192,192,40529,1,0,0:0:0:0:
64,192,40582,1,0,0:0:0:0:
320,192,40636,1,0,0:0:0:0:
192,192,40689,1,0,0:0:0:0:
448,192,40743,1,0,0:0:0:0:
320,192,40796,1,0,0:0:0:0:
64,192,40850,1,0,0:0:0:0:
448,192,40904,1,0,0:0:0:0:
192,192,40957,1,0,0:0:0:0:
320,192,41011,1,0,0:0:0:0:
64,192,41064,1,0,0:0:0:0:
192,192,41118,1,0,0:0:0:0:
448,192,41171,1,0,0:0:0:0:
320,192,41225,1,0,0:0:0:0:
64,192,41279,1,0,0:0:0:0:
448,192,41332,1,0,0:0:0:0:
192,192,41386,1,0,0:0:0:0:
320,192,41439,1,0,0:0:0:0:
64,192,41493,1,0,0:0:0:0:
192,192,41546,1,0,0:0:0:0:
448,192,41600,1,0,0:0:0:0:
64,192,41654,1,0,0:0:0:0:
320,192,41707,1,0,0:0:0:0:
192,192,41761,1,0,0:0:0:0:
448,192,41814,1,0,0:0:0:0:
320,192,41868,1,0,0:0:0:0:
64,192,41921,1,0,0:0:0:0:
448,192,41975,1,0,0:0:0:0:
192,192,42029,1,0,0:0:0:0:
320,192,42082,1,0,0:0:0:0:
64,192,42136,1,0,0:0:0:0:
192,192,42189,1,0,0:0:0:0:
448,192,42243,1,0,0:0:0:0:
64,192,42296,1,0,0:0:0:0:
320,192,42350,1,0,0:0:0:0:
192,192,42404,1,0,0:0:0:0:
448,192,42457,1,0,0:0:0:0:
320,192,42511,1,0,0:0:0:0:
64,192,42564,1,0,0:0:0:0:
448,192,42618,1,0,0:0:0:0:
192,192,42671,1,0,0:0:0:0:
320,192,42725,1,0,0:0:0:0:
192,192,42832,1,0,0:0:0:0:
64,192,42832,1,0,0:0:0:0:
320,192,42886,1,0,0:0:0:0:
448,192,42886,1,0,0:0:0:0:
192,192,42939,1,0,0:0:0:0:
64,192,42939,1,0,0:0:0:0:
320,192,42993,1,0,0:0:0:0:
448,192,42993,1,0,0:0:0:0:
64,192,43046,1,0,0:0:0:0:
192,192,43046,1,0,0:0:0:0:
320,192,43100,1,0,0:0:0:0:
448,192,43100,1,0,0:0:0:0:
192,192,43154,1,0,0:0:0:0:
64,192,43154,1,0,0:0:0:0:
320,192,43207,1,0,0:0:0:0:
448,192,43207,1,0,0:0:0:0:
64,192,43261,1,0,0:0:0:0:
192,192,43261,1,0,0:0:0:0:
320,192,43341,1,0,0:0:0:0:
448,192,43341,1,0,0:0:0:0:
192,192,43404,1,0,0:0:0:0:
64,192,43404,1,0,0:0:0:0:
320,192,43475,1,0,0:0:0:0:
448,192,43475,1,0,0:0:0:0:
64,192,43582,1,0,0:0:0:0:
192,192,43582,1,0,0:0:0:0:
320,192,43636,1,0,0:0:0:0:
448,192,43636,1,0,0:0:0:0:
192,192,43689,1,0,0:0:0:0:
64,192,43689,1,0,0:0:0:0:
320,192,43770,1,0,0:0:0:0:
448,192,43770,1,0,0:0:0:0:
192,192,43832,1,0,0:0:0:0:
64,192,43832,1,0,0:0:0:0:
320,192,43904,1,0,0:0:0:0:
448,192,43904,1,0,0:0:0:0:
192,192,44011,1,0,0:0:0:0:
64,192,44011,1,0,0:0:0:0:
320,192,44118,1,0,0:0:0:0:
448,192,44118,1,0,0:0:0:0:
192,192,44171,1,0,0:0:0:0:
64,192,44171,1,0,0:0:0:0:
320,192,44225,1,0,0:0:0:0:
448,192,44225,1,0,0:0:0:0:
192,192,44279,1,0,0:0:0:0:
64,192,44279,1,0,0:0:0:0:
320,192,44332,1,0,0:0:0:0:
448,192,44332,1,0,0:0:0:0:
192,192,44386,1,0,0:0:0:0:
64,192,44386,1,0,0:0:0:0:
320,192,44439,1,0,0:0:0:0:
448,192,44439,1,0,0:0:0:0:
192,192,44493,1,0,0:0:0:0:
64,192,44493,1,0,0:0:0:0:
320,192,44546,1,0,0:0:0:0:
448,192,44546,1,0,0:0:0:0:
448,192,44975,1,0,0:0:0:0:
320,192,45404,1,0,0:0:0:0:
192,192,45832,1,0,0:0:0:0:
64,192,46261,1,0,0:0:0:0:
448,192,46261,1,0,0:0:0:0:
192,192,46904,1,0,0:0:0:0:
64,192,47118,1,0,0:0:0:0:
448,192,47118,1,0,0:0:0:0:
192,192,47332,1,0,0:0:0:0:
320,192,47546,1,0,0:0:0:0:
448,192,47761,1,0,0:0:0:0:
320,192,47975,1,0,0:0:0:0:
64,192,47975,1,0,0:0:0:0:
192,192,48189,1,0,0:0:0:0:
448,192,48404,1,0,0:0:0:0:
320,192,48618,1,0,0:0:0:0:
64,192,48832,1,0,0:0:0:0:
448,192,48832,1,0,0:0:0:0:
192,192,49046,1,0,0:0:0:0:
320,192,49261,1,0,0:0:0:0:
448,192,49475,1,0,0:0:0:0:
64,192,49689,1,0,0:0:0:0:
448,192,49689,1,0,0:0:0:0:
192,192,49904,1,0,0:0:0:0:
320,192,50118,1,0,0:0:0:0:
192,192,50332,1,0,0:0:0:0:
64,192,50546,1,0,0:0:0:0:
448,192,50546,1,0,0:0:0:0:
192,192,50761,1,0,0:0:0:0:
320,192,50975,1,0,0:0:0:0:
448,192,51189,1,0,0:0:0:0:
64,192,51404,1,0,0:0:0:0:
448,192,51404,1,0,0:0:0:0:
192,192,51618,1,0,0:0:0:0:
448,192,51832,1,0,0:0:0:0:
320,192,52046,1,0,0:0:0:0:
64,192,52261,1,0,0:0:0:0:
448,192,52261,1,0,0:0:0:0:
192,192,52475,1,0,0:0:0:0:
320,192,52689,1,0,0:0:0:0:
448,192,52904,1,0,0:0:0:0:
320,192,52904,1,0,0:0:0:0:
192,192,52939,1,0,0:0:0:0:
64,192,52957,1,0,0:0:0:0:
320,192,52984,1,0,0:0:0:0:
448,192,53011,1,0,0:0:0:0:
64,192,53046,1,0,0:0:0:0:
192,192,53046,1,0,0:0:0:0:
448,192,53064,1,0,0:0:0:0:
320,192,53091,1,0,0:0:0:0:
192,192,53118,1,0,0:0:0:0:
64,192,53118,1,0,0:0:0:0:
448,192,53332,1,0,0:0:0:0:
320,192,53546,128,0,53975:0:0:0:0:
192,192,53546,1,0,0:0:0:0:
64,192,53761,1,0,0:0:0:0:
448,192,53975,1,0,0:0:0:0:
64,192,53975,128,0,54189:0:0:0:0:
192,192,53975,1,0,0:0:0:0:
448,192,54118,1,0,0:0:0:0:
192,192,54189,128,0,54404:0:0:0:0:
448,192,54270,1,0,0:0:0:0:
448,192,54404,1,0,0:0:0:0:
64,192,54404,128,0,54832:0:0:0:0:
448,192,54546,1,0,0:0:0:0:
448,192,54698,1,0,0:0:0:0:
192,192,54832,1,0,0:0:0:0:
448,192,54832,128,0,55046:0:0:0:0:
320,192,54832,128,0,54912:0:0:0:0:
192,192,54975,1,0,0:0:0:0:
192,192,55127,1,0,0:0:0:0:
64,192,55261,1,0,0:0:0:0:
320,192,55261,128,0,55475:0:0:0:0:
64,192,55404,1,0,0:0:0:0:
64,192,55555,1,0,0:0:0:0:
192,192,55689,128,0,55904:0:0:0:0:
320,192,55689,1,0,0:0:0:0:
448,192,55689,128,0,55770:0:0:0:0:
64,192,55689,128,0,55904:0:0:0:0:
320,192,55904,128,0,56118:0:0:0:0:
448,192,56118,128,0,56546:0:0:0:0:
64,192,56118,128,0,56332:0:0:0:0:
192,192,56118,128,0,56198:0:0:0:0:
64,192,56546,1,0,0:0:0:0:
320,192,56546,1,0,0:0:0:0:
192,192,56546,128,0,57189:0:0:0:0:
448,192,57189,1,0,0:0:0:0:
320,192,57243,1,0,0:0:0:0:
64,192,57296,1,0,0:0:0:0:
192,192,57350,1,0,0:0:0:0:
320,192,57404,128,0,57832:0:0:0:0:
448,192,57404,128,0,57832:0:0:0:0:
64,192,57832,128,0,58261:0:0:0:0:
192,192,57832,128,0,57912:0:0:0:0:
320,192,58046,128,0,58127:0:0:0:0:
192,192,58261,1,0,0:0:0:0:
448,192,58261,128,0,58689:0:0:0:0:
320,192,58261,128,0,58341:0:0:0:0:
320,192,58689,128,0,59118:0:0:0:0:
64,192,58689,1,0,0:0:0:0:
64,192,58832,1,0,0:0:0:0:
64,192,58984,1,0,0:0:0:0:
192,192,59118,128,0,59546:0:0:0:0:
448,192,59118,1,0,0:0:0:0:
64,192,59118,128,0,59198:0:0:0:0:
448,192,59261,1,0,0:0:0:0:
448,192,59412,1,0,0:0:0:0:
64,192,59546,128,0,59975:0:0:0:0:
448,192,59546,1,0,0:0:0:0:
320,192,59546,128,0,59761:0:0:0:0:
192,192,59975,1,0,0:0:0:0:
448,192,59975,1,0,0:0:0:0:
320,192,59975,128,0,60618:0:0:0:0:
64,192,60618,1,0,0:0:0:0:
192,192,60671,1,0,0:0:0:0:
448,192,60725,1,0,0:0:0:0:
320,192,60779,1,0,0:0:0:0:
192,192,60832,1,0,0:0:0:0:
64,192,60832,128,0,61046:0:0:0:0:
448,192,60975,1,0,0:0:0:0:
192,192,61046,128,0,61261:0:0:0:0:
448,192,61127,1,0,0:0:0:0:
320,192,61261,128,0,61689:0:0:0:0:
64,192,61261,1,0,0:0:0:0:
64,192,61404,1,0,0:0:0:0:
64,192,61555,1,0,0:0:0:0:
192,192,61689,1,0,0:0:0:0:
64,192,61689,128,0,61904:0:0:0:0:
448,192,61689,128,0,61770:0:0:0:0:
320,192,62118,1,0,0:0:0:0:
192,192,62118,128,0,62546:0:0:0:0:
320,192,62261,1,0,0:0:0:0:
320,192,62412,1,0,0:0:0:0:
64,192,62546,128,0,62761:0:0:0:0:
320,192,62546,128,0,62627:0:0:0:0:
448,192,62546,128,0,62761:0:0:0:0:
192,192,62761,128,0,62975:0:0:0:0:
320,192,62975,128,0,63404:0:0:0:0:
64,192,62975,128,0,63189:0:0:0:0:
64,192,63404,1,0,0:0:0:0:
448,192,63404,1,0,0:0:0:0:
64,192,64261,1,0,0:0:0:0:
192,192,64475,1,0,0:0:0:0:
320,192,64689,1,0,0:0:0:0:
64,192,64904,1,0,0:0:0:0:
448,192,65118,128,0,65546:0:0:0:0:
320,192,65546,128,0,65975:0:0:0:0:
192,192,65975,128,0,66404:0:0:0:0:
64,192,66404,128,0,66725:0:0:0:0:
192,192,66618,128,0,66725:0:0:0:0:
320,192,66618,128,0,66725:0:0:0:0:
448,192,66618,128,0,66725:0:0:0:0:
192,192,66832,1,0,0:0:0:0:
64,192,66832,1,0,0:0:0:0:
320,192,66832,1,0,0:0:0:0:
448,192,66832,1,0,0:0:0:0:
192,192,67689,1,0,0:0:0:0:
64,192,67689,1,0,0:0:0:0:
320,192,67716,1,0,0:0:0:0:
448,192,67743,1,0,0:0:0:0:
192,192,67770,1,0,0:0:0:0:
64,192,67796,1,0,0:0:0:0:
448,192,67823,1,0,0:0:0:0:
320,192,67850,1,0,0:0:0:0:
64,192,67877,1,0,0:0:0:0:
192,192,67904,1,0,0:0:0:0:
320,192,67930,1,0,0:0:0:0:
448,192,67930,1,0,0:0:0:0:
64,192,67983,1,0,0:0:0:0:
192,192,68010,1,0,0:0:0:0:
448,192,68037,1,0,0:0:0:0:
320,192,68063,1,0,0:0:0:0:
192,192,68090,1,0,0:0:0:0:
64,192,68117,1,0,0:0:0:0:
320,192,68144,1,0,0:0:0:0:
448,192,68171,1,0,0:0:0:0:
64,192,68197,1,0,0:0:0:0:
192,192,68198,1,0,0:0:0:0:
320,192,68251,1,0,0:0:0:0:
448,192,68279,1,0,0:0:0:0:
192,192,68305,1,0,0:0:0:0:
64,192,68331,1,0,0:0:0:0:
448,192,68359,1,0,0:0:0:0:
320,192,68386,1,0,0:0:0:0:
64,192,68412,1,0,0:0:0:0:
192,192,68412,1,0,0:0:0:0:
320,192,68466,1,0,0:0:0:0:
448,192,68493,1,0,0:0:0:0:
192,192,68520,1,0,0:0:0:0:
64,192,68520,1,0,0:0:0:0:
320,192,69404,1,0,0:0:0:0:
448,192,69404,1,0,0:0:0:0:
192,192,69439,1,0,0:0:0:0:
64,192,69457,1,0,0:0:0:0:
320,192,69484,1,0,0:0:0:0:
448,192,69511,1,0,0:0:0:0:
64,192,69546,1,0,0:0:0:0:
192,192,69564,1,0,0:0:0:0:
320,192,69591,1,0,0:0:0:0:
448,192,69591,1,0,0:0:0:0:
192,192,69671,1,0,0:0:0:0:
448,192,69725,1,0,0:0:0:0:
192,192,69779,1,0,0:0:0:0:
448,192,69832,1,0,0:0:0:0:
192,192,69886,1,0,0:0:0:0:
448,192,69939,1,0,0:0:0:0:
192,192,69993,1,0,0:0:0:0:
448,192,70046,1,0,0:0:0:0:
192,192,70100,1,0,0:0:0:0:
448,192,70154,1,0,0:0:0:0:
192,192,70207,1,0,0:0:0:0:
448,192,70261,1,0,0:0:0:0:
64,192,70261,1,0,0:0:0:0:
320,192,70261,1,0,0:0:0:0:
320,192,71118,1,0,0:0:0:0:
448,192,71118,1,0,0:0:0:0:
192,192,71145,1,0,0:0:0:0:
64,192,71171,1,0,0:0:0:0:
448,192,71198,1,0,0:0:0:0:
320,192,71225,1,0,0:0:0:0:
64,192,71252,1,0,0:0:0:0:
192,192,71279,1,0,0:0:0:0:
448,192,71305,1,0,0:0:0:0:
320,192,71332,1,0,0:0:0:0:
192,192,71359,1,0,0:0:0:0:
64,192,71359,1,0,0:0:0:0:
320,192,71412,1,0,0:0:0:0:
448,192,71439,1,0,0:0:0:0:
192,192,71466,1,0,0:0:0:0:
64,192,71493,1,0,0:0:0:0:
448,192,71520,1,0,0:0:0:0:
320,192,71546,1,0,0:0:0:0:
64,192,71573,1,0,0:0:0:0:
192,192,71600,1,0,0:0:0:0:
448,192,71627,1,0,0:0:0:0:
320,192,71627,1,0,0:0:0:0:
192,192,71680,1,0,0:0:0:0:
64,192,71707,1,0,0:0:0:0:
320,192,71734,1,0,0:0:0:0:
448,192,71761,1,0,0:0:0:0:
64,192,71787,1,0,0:0:0:0:
192,192,71814,1,0,0:0:0:0:
448,192,71841,1,0,0:0:0:0:
320,192,71841,1,0,0:0:0:0:
192,192,71895,1,0,0:0:0:0:
64,192,71921,1,0,0:0:0:0:
320,192,71948,1,0,0:0:0:0:
448,192,71948,1,0,0:0:0:0:
448,192,72832,128,0,73100:0:0:0:0:
320,192,72832,128,0,73046:0:0:0:0:
64,192,72832,128,0,72939:0:0:0:0:
192,192,72832,128,0,72993:0:0:0:0:
64,192,73046,128,0,73154:0:0:0:0:
192,192,73100,128,0,73207:0:0:0:0:
320,192,73154,128,0,73261:0:0:0:0:
448,192,73207,128,0,73314:0:0:0:0:
64,192,73261,128,0,73582:0:0:0:0:
192,192,73314,128,0,73529:0:0:0:0:
320,192,73368,128,0,73475:0:0:0:0:
448,192,73421,128,0,73689:0:0:0:0:
320,192,73582,128,0,73689:0:0:0:0:
192,192,73636,128,0,73689:0:0:0:0:
64,192,73689,1,0,0:0:0:0:
320,192,75404,1,0,0:0:0:0:
64,192,75404,1,0,0:0:0:0:
192,192,75404,1,0,0:0:0:0:
448,192,75404,1,0,0:0:0:0:
320,192,75618,1,0,0:0:0:0:
192,192,75825,1,0,0:0:0:0:
64,192,75832,1,0,0:0:0:0:
448,192,75832,1,0,0:0:0:0:
320,192,75912,1,0,0:0:0:0:
64,192,75973,1,0,0:0:0:0:
192,192,75979,1,0,0:0:0:0:
448,192,76046,1,0,0:0:0:0:
192,192,76147,1,0,0:0:0:0:
64,192,76154,1,0,0:0:0:0:
320,192,76154,1,0,0:0:0:0:
448,192,76261,1,0,0:0:0:0:
320,192,76296,1,0,0:0:0:0:
192,192,76341,1,0,0:0:0:0:
64,192,76368,1,0,0:0:0:0:
448,192,76404,1,0,0:0:0:0:
320,192,76421,1,0,0:0:0:0:
192,192,76448,1,0,0:0:0:0:
64,192,76475,1,0,0:0:0:0:
448,192,76511,1,0,0:0:0:0:
320,192,76529,1,0,0:0:0:0:
192,192,76555,1,0,0:0:0:0:
64,192,76582,1,0,0:0:0:0:
448,192,76618,1,0,0:0:0:0:
320,192,76662,1,0,0:0:0:0:
64,192,76689,1,0,0:0:0:0:
192,192,76725,1,0,0:0:0:0:
320,192,76743,1,0,0:0:0:0:
448,192,76770,1,0,0:0:0:0:
64,192,76796,1,0,0:0:0:0:
192,192,76832,1,0,0:0:0:0:
320,192,76850,1,0,0:0:0:0:
448,192,76877,1,0,0:0:0:0:
64,192,76904,1,0,0:0:0:0:
192,192,76939,1,0,0:0:0:0:
320,192,76984,1,0,0:0:0:0:
448,192,77011,1,0,0:0:0:0:
64,192,77046,1,0,0:0:0:0:
192,192,77064,1,0,0:0:0:0:
320,192,77091,128,0,77546:0:0:0:0:
448,192,77118,128,0,77546:0:0:0:0:
192,192,77546,1,0,0:0:0:0:
448,192,77600,1,0,0:0:0:0:
64,192,77654,1,0,0:0:0:0:
320,192,77707,1,0,0:0:0:0:
192,192,77761,1,0,0:0:0:0:
448,192,77761,1,0,0:0:0:0:
64,192,77868,1,0,0:0:0:0:
320,192,77868,1,0,0:0:0:0:
448,192,77975,1,0,0:0:0:0:
64,192,77975,1,0,0:0:0:0:
320,192,77975,1,0,0:0:0:0:
192,192,77975,1,0,0:0:0:0:
192,192,78189,1,0,0:0:0:0:
448,192,78243,1,0,0:0:0:0:
64,192,78290,1,0,0:0:0:0:
192,192,78296,1,0,0:0:0:0:
448,192,78350,1,0,0:0:0:0:
64,192,78404,1,0,0:0:0:0:
320,192,78457,1,0,0:0:0:0:
192,192,78511,1,0,0:0:0:0:
448,192,78558,1,0,0:0:0:0:
64,192,78564,1,0,0:0:0:0:
320,192,78618,1,0,0:0:0:0:
64,192,78671,1,0,0:0:0:0:
192,192,78725,1,0,0:0:0:0:
448,192,78779,1,0,0:0:0:0:
64,192,78832,1,0,0:0:0:0:
320,192,78832,1,0,0:0:0:0:
192,192,79120,1,0,0:0:0:0:
64,192,79127,1,0,0:0:0:0:
320,192,79127,1,0,0:0:0:0:
448,192,79254,1,0,0:0:0:0:
64,192,79254,1,0,0:0:0:0:
320,192,79261,1,0,0:0:0:0:
192,192,79341,1,0,0:0:0:0:
320,192,79404,1,0,0:0:0:0:
448,192,79408,1,0,0:0:0:0:
64,192,79475,1,0,0:0:0:0:
448,192,79555,1,0,0:0:0:0:
192,192,79555,1,0,0:0:0:0:
320,192,79562,1,0,0:0:0:0:
64,192,79689,1,0,0:0:0:0:
192,192,79725,1,0,0:0:0:0:
320,192,79770,1,0,0:0:0:0:
448,192,79796,1,0,0:0:0:0:
64,192,79832,1,0,0:0:0:0:
192,192,79850,1,0,0:0:0:0:
320,192,79877,1,0,0:0:0:0:
448,192,79904,1,0,0:0:0:0:
64,192,79939,1,0,0:0:0:0:
192,192,79957,1,0,0:0:0:0:
320,192,79984,1,0,0:0:0:0:
448,192,80011,1,0,0:0:0:0:
64,192,80046,1,0,0:0:0:0:
192,192,80091,1,0,0:0:0:0:
448,192,80118,1,0,0:0:0:0:
320,192,80154,1,0,0:0:0:0:
192,192,80171,1,0,0:0:0:0:
64,192,80198,1,0,0:0:0:0:
448,192,80225,1,0,0:0:0:0:
320,192,80261,1,0,0:0:0:0:
192,192,80279,1,0,0:0:0:0:
64,192,80305,1,0,0:0:0:0:
448,192,80332,1,0,0:0:0:0:
320,192,80368,1,0,0:0:0:0:
192,192,80412,1,0,0:0:0:0:
64,192,80439,1,0,0:0:0:0:
448,192,80475,1,0,0:0:0:0:
320,192,80493,1,0,0:0:0:0:
192,192,80520,1,0,0:0:0:0:
64,192,80546,1,0,0:0:0:0:
448,192,80975,1,0,0:0:0:0:
192,192,81029,1,0,0:0:0:0:
320,192,81082,1,0,0:0:0:0:
64,192,81136,1,0,0:0:0:0:
448,192,81183,1,0,0:0:0:0:
192,192,81189,1,0,0:0:0:0:
320,192,81243,1,0,0:0:0:0:
64,192,81296,1,0,0:0:0:0:
192,192,81350,1,0,0:0:0:0:
320,192,81397,1,0,0:0:0:0:
448,192,81404,1,0,0:0:0:0:
64,192,81439,1,0,0:0:0:0:
192,192,81457,1,0,0:0:0:0:
448,192,81484,1,0,0:0:0:0:
320,192,81511,1,0,0:0:0:0:
192,192,81537,1,0,0:0:0:0:
64,192,81544,1,0,0:0:0:0:
320,192,81564,1,0,0:0:0:0:
448,192,81591,1,0,0:0:0:0:
192,192,81618,1,0,0:0:0:0:
64,192,81671,1,0,0:0:0:0:
320,192,81725,1,0,0:0:0:0:
192,192,81779,1,0,0:0:0:0:
64,192,81832,1,0,0:0:0:0:
448,192,81839,1,0,0:0:0:0:
320,192,81966,1,0,0:0:0:0:
448,192,81973,1,0,0:0:0:0:
448,192,82120,1,0,0:0:0:0:
320,192,82127,1,0,0:0:0:0:
448,192,82261,1,0,0:0:0:0:
64,192,82261,1,0,0:0:0:0:
192,192,82267,1,0,0:0:0:0:
192,192,82549,1,0,0:0:0:0:
320,192,82555,1,0,0:0:0:0:
64,192,82689,1,0,0:0:0:0:
192,192,82696,1,0,0:0:0:0:
320,192,82770,1,0,0:0:0:0:
192,192,82830,1,0,0:0:0:0:
64,192,82837,1,0,0:0:0:0:
448,192,82904,1,0,0:0:0:0:
192,192,82977,1,0,0:0:0:0:
64,192,82984,1,0,0:0:0:0:
64,192,83111,1,0,0:0:0:0:
320,192,83111,1,0,0:0:0:0:
192,192,83118,1,0,0:0:0:0:
448,192,83124,1,0,0:0:0:0:
320,192,83312,1,0,0:0:0:0:
64,192,83319,1,0,0:0:0:0:
448,192,83319,1,0,0:0:0:0:
192,192,83332,1,0,0:0:0:0:
448,192,83546,1,0,0:0:0:0:
320,192,83582,1,0,0:0:0:0:
64,192,83600,1,0,0:0:0:0:
192,192,83627,1,0,0:0:0:0:
448,192,83654,1,0,0:0:0:0:
320,192,83689,1,0,0:0:0:0:
64,192,83720,1,0,0:0:0:0:
192,192,83734,1,0,0:0:0:0:
448,192,83761,1,0,0:0:0:0:
320,192,83796,1,0,0:0:0:0:
64,192,83814,1,0,0:0:0:0:
192,192,83841,1,0,0:0:0:0:
448,192,83868,1,0,0:0:0:0:
320,192,83904,1,0,0:0:0:0:
64,192,83921,1,0,0:0:0:0:
192,192,83948,1,0,0:0:0:0:
448,192,83962,1,0,0:0:0:0:
320,192,83975,1,0,0:0:0:0:
192,192,84136,1,0,0:0:0:0:
320,192,84189,1,0,0:0:0:0:
64,192,84404,1,0,0:0:0:0:
320,192,84457,1,0,0:0:0:0:
192,192,84511,1,0,0:0:0:0:
448,192,84564,1,0,0:0:0:0:
320,192,84618,1,0,0:0:0:0:
64,192,84671,1,0,0:0:0:0:
448,192,84725,1,0,0:0:0:0:
320,192,84779,1,0,0:0:0:0:
192,192,84825,1,0,0:0:0:0:
64,192,84832,1,0,0:0:0:0:
320,192,84868,1,0,0:0:0:0:
448,192,84886,1,0,0:0:0:0:
192,192,84912,1,0,0:0:0:0:
64,192,84933,1,0,0:0:0:0:
320,192,84975,1,0,0:0:0:0:
448,192,84979,1,0,0:0:0:0:
64,192,84999,1,0,0:0:0:0:
192,192,85020,1,0,0:0:0:0:
320,192,85127,1,0,0:0:0:0:
64,192,85189,1,0,0:0:0:0:
192,192,85254,1,0,0:0:0:0:
448,192,85261,1,0,0:0:0:0:
64,192,85408,1,0,0:0:0:0:
192,192,85421,1,0,0:0:0:0:
192,192,85549,1,0,0:0:0:0:
64,192,85555,1,0,0:0:0:0:
64,192,85689,1,0,0:0:0:0:
448,192,85689,1,0,0:0:0:0:
192,192,85904,1,0,0:0:0:0:
448,192,86118,1,0,0:0:0:0:
320,192,86332,1,0,0:0:0:0:
192,192,86439,1,0,0:0:0:0:
64,192,86546,128,0,86975:0:0:0:0:
448,192,87189,1,0,0:0:0:0:
320,192,87189,1,0,0:0:0:0:
64,192,87225,1,0,0:0:0:0:
192,192,87243,1,0,0:0:0:0:
320,192,87270,1,0,0:0:0:0:
448,192,87296,1,0,0:0:0:0:
192,192,87332,1,0,0:0:0:0:
64,192,87332,1,0,0:0:0:0:
448,192,87350,1,0,0:0:0:0:
320,192,87377,1,0,0:0:0:0:
192,192,87404,1,0,0:0:0:0:
64,192,87404,1,0,0:0:0:0:
64,192,87618,1,0,0:0:0:0:
448,192,87832,1,0,0:0:0:0:
320,192,88046,1,0,0:0:0:0:
192,192,88154,1,0,0:0:0:0:
64,192,88261,1,0,0:0:0:0:
192,192,88475,1,0,0:0:0:0:
320,192,88689,1,0,0:0:0:0:
64,192,89118,1,0,0:0:0:0:
448,192,89118,1,0,0:0:0:0:
64,192,89332,1,0,0:0:0:0:
448,192,89546,1,0,0:0:0:0:
320,192,89761,1,0,0:0:0:0:
192,192,89868,1,0,0:0:0:0:
64,192,89975,1,0,0:0:0:0:
320,192,90189,1,0,0:0:0:0:
448,192,90404,1,0,0:0:0:0:
64,192,90832,1,0,0:0:0:0:
448,192,90832,1,0,0:0:0:0:
64,192,91046,1,0,0:0:0:0:
320,192,91046,1,0,0:0:0:0:
448,192,91261,1,0,0:0:0:0:
64,192,91475,1,0,0:0:0:0:
192,192,91689,1,0,0:0:0:0:
320,192,91904,1,0,0:0:0:0:
448,192,92118,1,0,0:0:0:0:
192,192,92332,1,0,0:0:0:0:
64,192,92546,1,0,0:0:0:0:
448,192,92546,1,0,0:0:0:0:
64,192,92761,1,0,0:0:0:0:
448,192,92761,1,0,0:0:0:0:
320,192,92975,1,0,0:0:0:0:
320,192,93189,1,0,0:0:0:0:
192,192,93404,1,0,0:0:0:0:
192,192,93618,1,0,0:0:0:0:
64,192,93832,1,0,0:0:0:0:
64,192,94261,1,0,0:0:0:0:
448,192,94261,1,0,0:0:0:0:
64,192,94475,1,0,0:0:0:0:
448,192,94689,1,0,0:0:0:0:
192,192,94904,1,0,0:0:0:0:
320,192,95011,1,0,0:0:0:0:
448,192,95118,1,0,0:0:0:0:
192,192,95332,1,0,0:0:0:0:
320,192,95546,1,0,0:0:0:0:
64,192,95975,1,0,0:0:0:0:
448,192,95975,1,0,0:0:0:0:
64,192,96189,1,0,0:0:0:0:
448,192,96404,1,0,0:0:0:0:
64,192,96618,1,0,0:0:0:0:
192,192,96725,1,0,0:0:0:0:
320,192,96832,1,0,0:0:0:0:
192,192,97046,1,0,0:0:0:0:
448,192,97261,1,0,0:0:0:0:
64,192,97689,1,0,0:0:0:0:
448,192,97689,128,0,97904:0:0:0:0:
64,192,97904,1,0,0:0:0:0:
320,192,97904,128,0,98118:0:0:0:0:
192,192,98118,128,0,98332:0:0:0:0:
64,192,98332,128,0,98546:0:0:0:0:
192,192,98546,128,0,98761:0:0:0:0:
320,192,98761,128,0,98975:0:0:0:0:
64,192,98975,128,0,99189:0:0:0:0:
448,192,99189,128,0,99350:0:0:0:0:
192,192,99404,5,0,0:0:0:0:
64,192,99439,1,0,0:0:0:0:
320,192,99457,1,0,0:0:0:0:
448,192,99484,1,0,0:0:0:0:
192,192,99511,1,0,0:0:0:0:
64,192,99546,1,0,0:0:0:0:
320,192,99591,1,0,0:0:0:0:
448,192,99618,1,0,0:0:0:0:
192,192,99654,1,0,0:0:0:0:
64,192,99671,1,0,0:0:0:0:
320,192,99698,1,0,0:0:0:0:
448,192,99725,1,0,0:0:0:0:
192,192,99761,1,0,0:0:0:0:
64,192,99805,1,0,0:0:0:0:
448,192,99832,1,0,0:0:0:0:
320,192,99868,1,0,0:0:0:0:
64,192,99912,1,0,0:0:0:0:
192,192,99939,1,0,0:0:0:0:
448,192,99975,1,0,0:0:0:0:
320,192,99993,1,0,0:0:0:0:
64,192,100020,1,0,0:0:0:0:
192,192,100046,1,0,0:0:0:0:
448,192,100082,1,0,0:0:0:0:
320,192,100127,1,0,0:0:0:0:
64,192,100154,1,0,0:0:0:0:
192,192,100189,1,0,0:0:0:0:
448,192,100207,1,0,0:0:0:0:
320,192,100234,1,0,0:0:0:0:
192,192,100261,5,0,0:0:0:0:
64,192,100296,1,0,0:0:0:0:
320,192,100314,1,0,0:0:0:0:
448,192,100341,1,0,0:0:0:0:
192,192,100368,1,0,0:0:0:0:
64,192,100404,1,0,0:0:0:0:
320,192,100448,1,0,0:0:0:0:
448,192,100475,1,0,0:0:0:0:
192,192,100511,1,0,0:0:0:0:
64,192,100529,1,0,0:0:0:0:
320,192,100555,1,0,0:0:0:0:
448,192,100582,1,0,0:0:0:0:
192,192,100618,1,0,0:0:0:0:
64,192,100662,1,0,0:0:0:0:
448,192,100689,1,0,0:0:0:0:
320,192,100725,1,0,0:0:0:0:
64,192,100770,1,0,0:0:0:0:
192,192,100796,1,0,0:0:0:0:
448,192,100832,1,0,0:0:0:0:
320,192,100850,1,0,0:0:0:0:
64,192,100877,1,0,0:0:0:0:
192,192,100904,1,0,0:0:0:0:
448,192,100939,1,0,0:0:0:0:
320,192,100984,1,0,0:0:0:0:
64,192,101011,1,0,0:0:0:0:
192,192,101046,1,0,0:0:0:0:
448,192,101046,1,0,0:0:0:0:
320,192,101091,1,0,0:0:0:0:
192,192,101118,1,0,0:0:0:0:
64,192,101118,1,0,0:0:0:0:
320,192,101225,1,0,0:0:0:0:
448,192,101332,1,0,0:0:0:0:
192,192,101439,1,0,0:0:0:0:
64,192,101546,1,0,0:0:0:0:
448,192,101546,1,0,0:0:0:0:
320,192,101653,1,0,0:0:0:0:
64,192,101760,1,0,0:0:0:0:
192,192,101760,1,0,0:0:0:0:
320,192,101867,1,0,0:0:0:0:
448,192,101867,1,0,0:0:0:0:
192,192,101974,1,0,0:0:0:0:
64,192,101974,1,0,0:0:0:0:
320,192,102081,1,0,0:0:0:0:
448,192,102188,1,0,0:0:0:0:
64,192,102188,1,0,0:0:0:0:
192,192,102295,1,0,0:0:0:0:
320,192,102402,1,0,0:0:0:0:
448,192,102402,1,0,0:0:0:0:
192,192,102509,1,0,0:0:0:0:
64,192,102616,1,0,0:0:0:0:
320,192,102723,1,0,0:0:0:0:
192,192,102830,1,0,0:0:0:0:
64,192,102830,1,0,0:0:0:0:
448,192,102830,1,0,0:0:0:0:
320,192,102937,1,0,0:0:0:0:
192,192,103044,1,0,0:0:0:0:
64,192,103151,1,0,0:0:0:0:
448,192,103258,1,0,0:0:0:0:
192,192,103258,1,0,0:0:0:0:
320,192,103365,1,0,0:0:0:0:
192,192,103472,1,0,0:0:0:0:
64,192,103472,1,0,0:0:0:0:
320,192,103579,1,0,0:0:0:0:
448,192,103579,1,0,0:0:0:0:
192,192,103686,1,0,0:0:0:0:
64,192,103686,1,0,0:0:0:0:
320,192,103793,1,0,0:0:0:0:
448,192,103900,1,0,0:0:0:0:
64,192,103900,1,0,0:0:0:0:
192,192,104007,1,0,0:0:0:0:
320,192,104114,1,0,0:0:0:0:
448,192,104114,1,0,0:0:0:0:
192,192,104221,1,0,0:0:0:0:
64,192,104328,1,0,0:0:0:0:
448,192,104435,1,0,0:0:0:0:
320,192,104544,1,0,0:0:0:0:
192,192,104544,1,0,0:0:0:0:
64,192,104544,1,0,0:0:0:0:
448,192,104651,1,0,0:0:0:0:
64,192,104758,1,0,0:0:0:0:
192,192,104758,1,0,0:0:0:0:
320,192,104865,1,0,0:0:0:0:
64,192,104972,1,0,0:0:0:0:
448,192,104972,1,0,0:0:0:0:
192,192,105079,1,0,0:0:0:0:
448,192,105186,1,0,0:0:0:0:
320,192,105186,1,0,0:0:0:0:
64,192,105293,1,0,0:0:0:0:
192,192,105400,1,0,0:0:0:0:
448,192,105400,1,0,0:0:0:0:
320,192,105507,1,0,0:0:0:0:
192,192,105614,1,0,0:0:0:0:
64,192,105614,1,0,0:0:0:0:
320,192,105721,1,0,0:0:0:0:
448,192,105828,1,0,0:0:0:0:
64,192,105828,1,0,0:0:0:0:
192,192,105935,1,0,0:0:0:0:
320,192,106042,1,0,0:0:0:0:
448,192,106042,1,0,0:0:0:0:
192,192,106149,1,0,0:0:0:0:
448,192,106256,1,0,0:0:0:0:
64,192,106256,1,0,0:0:0:0:
320,192,106256,1,0,0:0:0:0:
192,192,106363,1,0,0:0:0:0:
320,192,106473,1,0,0:0:0:0:
448,192,106473,1,0,0:0:0:0:
192,192,106580,1,0,0:0:0:0:
64,192,106687,1,0,0:0:0:0:
448,192,106687,1,0,0:0:0:0:
320,192,106794,1,0,0:0:0:0:
64,192,106901,1,0,0:0:0:0:
192,192,106901,1,0,0:0:0:0:
320,192,107008,1,0,0:0:0:0:
448,192,107115,1,0,0:0:0:0:
64,192,107115,1,0,0:0:0:0:
192,192,107222,1,0,0:0:0:0:
320,192,107329,1,0,0:0:0:0:
448,192,107329,1,0,0:0:0:0:
192,192,107436,1,0,0:0:0:0:
64,192,107543,1,0,0:0:0:0:
448,192,107543,1,0,0:0:0:0:
320,192,107650,1,0,0:0:0:0:
192,192,107757,1,0,0:0:0:0:
320,192,107864,1,0,0:0:0:0:
192,192,107971,1,0,0:0:0:0:
64,192,107971,1,0,0:0:0:0:
448,192,107971,1,0,0:0:0:0:
320,192,108078,1,0,0:0:0:0:
64,192,108187,1,0,0:0:0:0:
192,192,108294,1,0,0:0:0:0:
320,192,108401,1,0,0:0:0:0:
448,192,108401,1,0,0:0:0:0:
192,192,108508,1,0,0:0:0:0:
64,192,108615,1,0,0:0:0:0:
448,192,108615,1,0,0:0:0:0:
192,192,108722,1,0,0:0:0:0:
320,192,108722,1,0,0:0:0:0:
64,192,108829,1,0,0:0:0:0:
448,192,108829,1,0,0:0:0:0:
320,192,108936,1,0,0:0:0:0:
64,192,109043,1,0,0:0:0:0:
192,192,109043,1,0,0:0:0:0:
320,192,109150,1,0,0:0:0:0:
448,192,109257,1,0,0:0:0:0:
64,192,109257,1,0,0:0:0:0:
192,192,109364,1,0,0:0:0:0:
320,192,109471,1,0,0:0:0:0:
448,192,109471,1,0,0:0:0:0:
64,192,109578,1,0,0:0:0:0:
320,192,109685,1,0,0:0:0:0:
448,192,109685,1,0,0:0:0:0:
192,192,109685,1,0,0:0:0:0:
64,192,109792,1,0,0:0:0:0:
448,192,109899,1,0,0:0:0:0:
320,192,110006,1,0,0:0:0:0:
64,192,110113,1,0,0:0:0:0:
192,192,110113,1,0,0:0:0:0:
320,192,110220,1,0,0:0:0:0:
448,192,110327,1,0,0:0:0:0:
64,192,110327,1,0,0:0:0:0:
192,192,110434,1,0,0:0:0:0:
320,192,110434,1,0,0:0:0:0:
64,192,110541,1,0,0:0:0:0:
448,192,110541,1,0,0:0:0:0:
320,192,110648,1,0,0:0:0:0:
192,192,110755,1,0,0:0:0:0:
64,192,110755,1,0,0:0:0:0:
320,192,110862,1,0,0:0:0:0:
448,192,110969,1,0,0:0:0:0:
64,192,110969,1,0,0:0:0:0:
192,192,111076,1,0,0:0:0:0:
448,192,111183,1,0,0:0:0:0:
64,192,111183,1,0,0:0:0:0:
320,192,111290,1,0,0:0:0:0:
64,192,111397,1,0,0:0:0:0:
448,192,111397,1,0,0:0:0:0:
192,192,111397,1,0,0:0:0:0:
320,192,111504,1,0,0:0:0:0:
64,192,111613,1,0,0:0:0:0:
192,192,111613,1,0,0:0:0:0:
320,192,111720,1,0,0:0:0:0:
448,192,111827,1,0,0:0:0:0:
64,192,111827,1,0,0:0:0:0:
192,192,111934,1,0,0:0:0:0:
320,192,112041,1,0,0:0:0:0:
448,192,112041,1,0,0:0:0:0:
192,192,112148,1,0,0:0:0:0:
64,192,112255,1,0,0:0:0:0:
320,192,112255,1,0,0:0:0:0:
448,192,112362,1,0,0:0:0:0:
64,192,112469,1,0,0:0:0:0:
192,192,112469,1,0,0:0:0:0:
320,192,112576,1,0,0:0:0:0:
448,192,112683,1,0,0:0:0:0:
64,192,112683,1,0,0:0:0:0:
192,192,112790,1,0,0:0:0:0:
320,192,112897,1,0,0:0:0:0:
448,192,112897,1,0,0:0:0:0:
192,192,113004,1,0,0:0:0:0:
64,192,113111,1,0,0:0:0:0:
448,192,113111,1,0,0:0:0:0:
320,192,113111,1,0,0:0:0:0:
192,192,113218,1,0,0:0:0:0:
320,192,113325,1,0,0:0:0:0:
448,192,113325,1,0,0:0:0:0:
192,192,113432,1,0,0:0:0:0:
64,192,113542,1,0,0:0:0:0:
448,192,113542,1,0,0:0:0:0:
320,192,113649,1,0,0:0:0:0:
192,192,113756,1,0,0:0:0:0:
64,192,113756,1,0,0:0:0:0:
320,192,113863,1,0,0:0:0:0:
64,192,113970,1,0,0:0:0:0:
448,192,113970,1,0,0:0:0:0:
192,192,114077,1,0,0:0:0:0:
320,192,114184,1,0,0:0:0:0:
448,192,114184,1,0,0:0:0:0:
192,192,114291,1,0,0:0:0:0:
64,192,114398,1,0,0:0:0:0:
448,192,114398,1,0,0:0:0:0:
320,192,114505,1,0,0:0:0:0:
192,192,114612,1,0,0:0:0:0:
320,192,114719,1,0,0:0:0:0:
64,192,114826,1,0,0:0:0:0:
192,192,114826,1,0,0:0:0:0:
448,192,114826,1,0,0:0:0:0:
320,192,114933,1,0,0:0:0:0:
64,192,115040,1,0,0:0:0:0:
192,192,115182,1,0,0:0:0:0:
320,192,115182,1,0,0:0:0:0:
448,192,115182,1,0,0:0:0:0:
64,192,115254,1,0,0:0:0:0:
448,192,115361,1,0,0:0:0:0:
64,192,115521,1,0,0:0:0:0:
192,192,115521,1,0,0:0:0:0:
320,192,115521,1,0,0:0:0:0:
448,192,115575,1,0,0:0:0:0:
192,192,115682,1,0,0:0:0:0:
448,192,115842,1,0,0:0:0:0:
320,192,115842,1,0,0:0:0:0:
64,192,115842,1,0,0:0:0:0:
192,192,116003,1,0,0:0:0:0:
448,192,116110,1,0,0:0:0:0:
320,192,116217,1,0,0:0:0:0:
192,192,116217,1,0,0:0:0:0:
64,192,116217,1,0,0:0:0:0:
448,192,116324,1,0,0:0:0:0:
192,192,116431,1,0,0:0:0:0:
64,192,116538,1,0,0:0:0:0:
448,192,116538,1,0,0:0:0:0:
320,192,116538,1,0,0:0:0:0:
192,192,116645,1,0,0:0:0:0:
448,192,116752,1,0,0:0:0:0:
64,192,116859,1,0,0:0:0:0:
192,192,116966,1,0,0:0:0:0:
320,192,116966,1,0,0:0:0:0:
448,192,116966,1,0,0:0:0:0:
64,192,117073,1,0,0:0:0:0:
192,192,117180,1,0,0:0:0:0:
448,192,117287,1,0,0:0:0:0:
320,192,117394,1,0,0:0:0:0:
192,192,117394,1,0,0:0:0:0:
64,192,117394,1,0,0:0:0:0:
448,192,117501,1,0,0:0:0:0:
320,192,117608,1,0,0:0:0:0:
192,192,117715,1,0,0:0:0:0:
64,192,117822,1,0,0:0:0:0:
320,192,117822,1,0,0:0:0:0:
448,192,117822,1,0,0:0:0:0:
192,192,117929,1,0,0:0:0:0:
64,192,118036,1,0,0:0:0:0:
320,192,118143,1,0,0:0:0:0:
448,192,118250,1,0,0:0:0:0:
192,192,118250,1,0,0:0:0:0:
64,192,118250,1,0,0:0:0:0:
320,192,118357,1,0,0:0:0:0:
64,192,118464,1,0,0:0:0:0:
192,192,118606,1,0,0:0:0:0:
320,192,118606,1,0,0:0:0:0:
448,192,118606,1,0,0:0:0:0:
64,192,118680,1,0,0:0:0:0:
192,192,118787,1,0,0:0:0:0:
448,192,118894,1,0,0:0:0:0:
320,192,118947,1,0,0:0:0:0:
192,192,118947,1,0,0:0:0:0:
64,192,118947,1,0,0:0:0:0:
448,192,119108,1,0,0:0:0:0:
192,192,119215,1,0,0:0:0:0:
320,192,119295,1,0,0:0:0:0:
64,192,119295,1,0,0:0:0:0:
448,192,119295,1,0,0:0:0:0:
192,192,119429,1,0,0:0:0:0:
320,192,119536,1,0,0:0:0:0:
448,192,119643,1,0,0:0:0:0:
192,192,119643,1,0,0:0:0:0:
64,192,119643,1,0,0:0:0:0:
320,192,119750,1,0,0:0:0:0:
64,192,119857,1,0,0:0:0:0:
192,192,119964,1,0,0:0:0:0:
320,192,119964,1,0,0:0:0:0:
448,192,119964,1,0,0:0:0:0:
64,192,120071,1,0,0:0:0:0:
320,192,120178,1,0,0:0:0:0:
448,192,120285,1,0,0:0:0:0:
192,192,120392,1,0,0:0:0:0:
64,192,120392,1,0,0:0:0:0:
320,192,120392,1,0,0:0:0:0:
448,192,120499,1,0,0:0:0:0:
64,192,120609,1,0,0:0:0:0:
192,192,120716,1,0,0:0:0:0:
64,192,120823,1,0,0:0:0:0:
320,192,120823,1,0,0:0:0:0:
448,192,120823,1,0,0:0:0:0:
192,192,120930,1,0,0:0:0:0:
448,192,121037,1,0,0:0:0:0:
320,192,121144,1,0,0:0:0:0:
192,192,121251,1,0,0:0:0:0:
64,192,121251,1,0,0:0:0:0:
448,192,121251,1,0,0:0:0:0:
320,192,121358,1,0,0:0:0:0:
192,192,121465,1,0,0:0:0:0:
64,192,121572,1,0,0:0:0:0:
448,192,121679,1,0,0:0:0:0:
320,192,121679,1,0,0:0:0:0:
192,192,121679,1,0,0:0:0:0:
64,192,121786,1,0,0:0:0:0:
448,192,121893,1,0,0:0:0:0:
320,192,122035,1,0,0:0:0:0:
192,192,122035,1,0,0:0:0:0:
64,192,122035,1,0,0:0:0:0:
448,192,122107,1,0,0:0:0:0:
64,192,122214,1,0,0:0:0:0:
448,192,122374,1,0,0:0:0:0:
320,192,122374,1,0,0:0:0:0:
192,192,122374,1,0,0:0:0:0:
64,192,122428,1,0,0:0:0:0:
320,192,122535,1,0,0:0:0:0:
64,192,122695,1,0,0:0:0:0:
192,192,122695,1,0,0:0:0:0:
448,192,122695,1,0,0:0:0:0:
320,192,122856,1,0,0:0:0:0:
64,192,122963,1,0,0:0:0:0:
192,192,123070,1,0,0:0:0:0:
320,192,123070,1,0,0:0:0:0:
448,192,123070,1,0,0:0:0:0:
64,192,123177,1,0,0:0:0:0:
320,192,123284,1,0,0:0:0:0:
448,192,123391,1,0,0:0:0:0:
64,192,123391,1,0,0:0:0:0:
192,192,123391,1,0,0:0:0:0:
320,192,123498,1,0,0:0:0:0:
64,192,123605,1,0,0:0:0:0:
448,192,123712,1,0,0:0:0:0:
320,192,123819,1,0,0:0:0:0:
192,192,123819,1,0,0:0:0:0:
64,192,123819,1,0,0:0:0:0:
448,192,123926,1,0,0:0:0:0:
320,192,124033,1,0,0:0:0:0:
64,192,124140,1,0,0:0:0:0:
192,192,124247,1,0,0:0:0:0:
320,192,124247,1,0,0:0:0:0:
448,192,124247,1,0,0:0:0:0:
64,192,124354,1,0,0:0:0:0:
448,192,124461,1,0,0:0:0:0:
320,192,124568,1,0,0:0:0:0:
448,192,124675,1,0,0:0:0:0:
192,192,124675,1,0,0:0:0:0:
64,192,124675,1,0,0:0:0:0:
320,192,124782,1,0,0:0:0:0:
64,192,124889,1,0,0:0:0:0:
192,192,124996,1,0,0:0:0:0:
64,192,125103,1,0,0:0:0:0:
320,192,125103,1,0,0:0:0:0:
448,192,125103,1,0,0:0:0:0:
192,192,125210,1,0,0:0:0:0:
448,192,125317,1,0,0:0:0:0:
320,192,125459,1,0,0:0:0:0:
192,192,125459,1,0,0:0:0:0:
64,192,125459,1,0,0:0:0:0:
448,192,125531,1,0,0:0:0:0:
320,192,125638,1,0,0:0:0:0:
64,192,125747,1,0,0:0:0:0:
192,192,125800,1,0,0:0:0:0:
320,192,125800,1,0,0:0:0:0:
448,192,125800,1,0,0:0:0:0:
64,192,125961,1,0,0:0:0:0:
320,192,126068,1,0,0:0:0:0:
192,192,126148,1,0,0:0:0:0:
448,192,126148,1,0,0:0:0:0:
64,192,126148,1,0,0:0:0:0:
320,192,126282,1,0,0:0:0:0:
192,192,126389,1,0,0:0:0:0:
64,192,126496,1,0,0:0:0:0:
320,192,126496,1,0,0:0:0:0:
448,192,126496,1,0,0:0:0:0:
192,192,126603,1,0,0:0:0:0:
448,192,126710,1,0,0:0:0:0:
320,192,126817,1,0,0:0:0:0:
192,192,126817,1,0,0:0:0:0:
64,192,126817,1,0,0:0:0:0:
448,192,126924,1,0,0:0:0:0:
192,192,127031,1,0,0:0:0:0:
64,192,127138,1,0,0:0:0:0:
320,192,127245,1,0,0:0:0:0:
448,192,127245,1,0,0:0:0:0:
192,192,127245,1,0,0:0:0:0:
64,192,127352,1,0,0:0:0:0:
448,192,127459,1,0,0:0:0:0:
320,192,127566,1,0,0:0:0:0:
448,192,127676,1,0,0:0:0:0:
192,192,127676,1,0,0:0:0:0:
64,192,127676,1,0,0:0:0:0:
320,192,127783,1,0,0:0:0:0:
64,192,127890,1,0,0:0:0:0:
192,192,127997,1,0,0:0:0:0:
320,192,128104,1,0,0:0:0:0:
448,192,128104,1,0,0:0:0:0:
64,192,128104,1,0,0:0:0:0:
192,192,128211,1,0,0:0:0:0:
320,192,128318,1,0,0:0:0:0:
448,192,128425,1,0,0:0:0:0:
320,192,128562,128,0,129419:0:0:0:0:
64,192,128562,1,0,0:0:0:0:
64,192,128990,1,0,0:0:0:0:
192,192,129204,1,0,0:0:0:0:
64,192,129312,1,0,0:0:0:0:
192,192,129419,128,0,129633:0:0:0:0:
448,192,129419,1,0,0:0:0:0:
320,192,129633,128,0,129847:0:0:0:0:
64,192,129633,1,0,0:0:0:0:
448,192,129847,128,0,130276:0:0:0:0:
192,192,129847,1,0,0:0:0:0:
320,192,130062,1,0,0:0:0:0:
64,192,130276,128,0,130919:0:0:0:0:
192,192,130276,1,0,0:0:0:0:
320,192,130704,1,0,0:0:0:0:
192,192,130919,128,0,131133:0:0:0:0:
448,192,130919,1,0,0:0:0:0:
320,192,131026,1,0,0:0:0:0:
448,192,131133,128,0,131347:0:0:0:0:
64,192,131133,1,0,0:0:0:0:
64,192,131347,1,0,0:0:0:0:
320,192,131347,128,0,131562:0:0:0:0:
448,192,131562,1,0,0:0:0:0:
192,192,131562,128,0,131990:0:0:0:0:
64,192,131990,1,0,0:0:0:0:
448,192,131990,128,0,132847:0:0:0:0:
192,192,132204,1,0,0:0:0:0:
320,192,132419,1,0,0:0:0:0:
64,192,132633,1,0,0:0:0:0:
192,192,132847,1,0,0:0:0:0:
64,192,133062,128,0,133276:0:0:0:0:
320,192,133062,1,0,0:0:0:0:
192,192,133276,128,0,133704:0:0:0:0:
448,192,133276,1,0,0:0:0:0:
320,192,133490,1,0,0:0:0:0:
448,192,133704,128,0,134133:0:0:0:0:
64,192,133919,1,0,0:0:0:0:
320,192,134133,128,0,134562:0:0:0:0:
64,192,134347,1,0,0:0:0:0:
192,192,134562,128,0,134990:0:0:0:0:
448,192,134776,1,0,0:0:0:0:
64,192,134990,128,0,135419:0:0:0:0:
448,192,135204,1,0,0:0:0:0:
320,192,135419,128,0,136276:0:0:0:0:
192,192,135419,1,0,0:0:0:0:
448,192,135847,1,0,0:0:0:0:
192,192,136062,1,0,0:0:0:0:
64,192,136169,1,0,0:0:0:0:
192,192,136276,128,0,136490:0:0:0:0:
448,192,136276,1,0,0:0:0:0:
320,192,136490,128,0,136704:0:0:0:0:
64,192,136490,1,0,0:0:0:0:
448,192,136704,128,0,137133:0:0:0:0:
192,192,136704,1,0,0:0:0:0:
320,192,136919,1,0,0:0:0:0:
64,192,137133,128,0,137776:0:0:0:0:
192,192,137133,1,0,0:0:0:0:
320,192,137347,1,0,0:0:0:0:
448,192,137562,1,0,0:0:0:0:
192,192,137776,128,0,137990:0:0:0:0:
320,192,137776,1,0,0:0:0:0:
448,192,137883,1,0,0:0:0:0:
320,192,137990,128,0,138204:0:0:0:0:
64,192,137990,1,0,0:0:0:0:
448,192,138204,128,0,138419:0:0:0:0:
192,192,138204,1,0,0:0:0:0:
64,192,138419,128,0,138847:0:0:0:0:
320,192,138419,1,0,0:0:0:0:
448,192,138633,1,0,0:0:0:0:
192,192,138847,1,0,0:0:0:0:
320,192,138954,1,0,0:0:0:0:
448,192,139062,1,0,0:0:0:0:
64,192,139704,1,0,0:0:0:0:
192,192,139919,1,0,0:0:0:0:
320,192,140133,1,0,0:0:0:0:
448,192,140347,1,0,0:0:0:0:
320,192,140562,128,0,140990:0:0:0:0:
192,192,140990,128,0,141419:0:0:0:0:
64,192,141419,128,0,141847:0:0:0:0:
448,192,141847,128,0,142276:0:0:0:0:
64,192,142276,128,0,147419:0:0:0:0:
