osu file format v14

[General]
AudioFilename: audio.mp3
AudioLeadIn: 0
PreviewTime: 46324
Countdown: 0
SampleSet: Normal
StackLeniency: 0.7
Mode: 1
LetterboxInBreaks: 0
WidescreenStoryboard: 1

[Editor]
DistanceSpacing: 1
BeatDivisor: 4
GridSize: 32
TimelineZoom: 1.300004

[Metadata]
Title:MARENOL
TitleUnicode:MARENOL
Artist:LeaF
ArtistUnicode:LeaF
Creator:Raytoly
Version:INNER ONI
Source:
Tags:Rhytoly 除草剤 joso zai THE BMS OF FIGHTERS G2R2018 CLIMAX GO BACK 2 YOUR ROOTS 2018 CLIMAX sdvx sound voltex vivid wave PHANTASMA glitch hardcore horror video game electronic instrumental Featured Artist FA osu!
BeatmapID:2336329
BeatmapSetID:966590

[Difficulty]
HPDrainRate:4.8
CircleSize:7
OverallDifficulty:6
ApproachRate:10
SliderMultiplier:1.4
SliderTickRate:1

[Events]
//Background and Video events
0,0,"look sad.jpg",0,50
//Break Periods
//Storyboard Layer 0 (Background)
//Storyboard Layer 1 (Fail)
//Storyboard Layer 2 (Pass)
//Storyboard Layer 3 (Foreground)
//Storyboard Layer 4 (Overlay)
//Storyboard Sound Samples

[TimingPoints]
1755,428.571428571429,4,1,0,100,1,0
1755,-83.3333333333333,4,1,0,100,0,1
3469,-83.3333333333333,4,1,0,60,0,0
4219,-100,4,1,0,60,0,0
5183,428.571428571429,4,1,0,60,1,0
10325,428.571428571429,4,1,0,100,1,0
10325,-83.3333333333333,4,1,0,100,0,0
17182,-100,4,1,0,100,0,0
18896,428.571428571429,4,1,0,100,1,1
18896,-66.6666666666667,4,1,0,100,0,1
32610,-66.6666666666667,4,1,0,40,0,0
33038,-83.3333333333333,4,1,0,40,0,0
33467,-95.2380952380952,4,1,0,40,0,0
33896,-111.111111111111,4,1,0,40,0,0
34110,-100,4,1,0,60,0,0
39467,-80,4,1,0,60,0,0
42896,-66.6666666666667,4,1,0,100,0,1
44610,-66.6666666666667,4,1,0,40,0,0
45038,-76.9230769230769,4,1,0,40,0,0
45467,-86.9565217391304,4,1,0,40,0,0
45896,-100,4,1,0,40,0,0
46324,-117.647058823529,4,1,0,40,0,0
52967,-100,4,1,0,100,0,0
64324,-100,4,1,0,60,0,0
65181,-100,4,1,0,60,0,0
65288,-98.2558602251435,4,1,0,60,0,0
65396,-96.5714247085716,4,1,0,60,0,0
65610,-93.3701585238552,4,1,0,60,0,0
65824,-90.3743214018142,4,1,0,60,0,0
65931,-88.9473965097042,4,1,0,60,0,0
66038,-87.5647541356833,4,1,0,60,0,0
66253,-84.924608179089,4,1,0,60,0,0
66360,-83.6633853886917,4,1,0,60,0,0
66467,-82.4390075003009,4,1,0,60,0,0
66574,-81.2500152343779,4,1,0,60,0,0
66681,-80.094768129651,4,1,0,60,0,0
66896,-76.9230769230769,4,1,0,100,0,0
67753,-90.9090909090909,4,1,0,100,0,0
73753,-90.9090909090909,4,1,0,60,0,0
74181,-111.111111111111,4,1,0,60,0,0
75467,-66.6666666666667,4,1,0,100,0,1
85753,-66.6666666666667,4,1,0,60,0,0
86181,-100,4,1,0,60,0,0
87253,-90.9090909090909,4,1,0,40,0,0
87896,-125,4,1,0,40,0,0
99467,-83.3333333333333,4,1,0,100,0,1
101181,-83.3333333333333,4,1,0,80,0,0
101610,-100,4,1,0,80,0,0
128610,-100,4,1,0,40,0,0
129038,-111.111111111111,4,1,0,40,0,0
138892,-111.111111111111,4,1,0,20,0,0
139753,-125,4,1,0,20,0,0

[HitObjects]
239,159,1755,5,8,0:0:0:0:
245,181,1862,1,8,0:0:0:0:
245,181,1969,1,8,0:0:0:0:
245,181,2076,1,8,0:0:0:0:
245,181,2183,1,8,0:0:0:0:
245,181,2290,1,8,0:0:0:0:
245,181,2397,1,8,0:0:0:0:
245,181,2505,1,8,0:0:0:0:
245,181,2612,1,8,0:0:0:0:
245,181,2719,1,8,0:0:0:0:
245,181,2826,1,8,0:0:0:0:
245,181,2933,1,8,0:0:0:0:
245,181,3040,1,8,0:0:0:0:
245,181,3147,1,8,0:0:0:0:
245,181,3255,1,8,0:0:0:0:
245,181,3362,1,8,0:0:0:0:
238,177,3469,1,0,0:0:0:0:
256,192,4326,1,0,0:0:0:0:
256,192,4433,1,0,0:0:0:0:
256,192,4647,1,8,0:0:0:0:
256,192,4755,1,0,0:0:0:0:
256,192,4969,1,8,0:0:0:0:
256,192,5183,1,4,0:0:0:0:
241,178,5611,1,8,0:0:0:0:
243,179,5825,1,0,0:0:0:0:
243,179,6040,1,0,0:0:0:0:
259,189,6254,1,0,0:0:0:0:
259,189,6468,1,8,0:0:0:0:
259,189,6683,1,8,0:0:0:0:
259,189,6897,1,0,0:0:0:0:
259,189,7325,1,8,0:0:0:0:
259,189,7540,1,8,0:0:0:0:
259,189,7754,1,0,0:0:0:0:
259,189,7968,1,0,0:0:0:0:
259,189,8183,1,8,0:0:0:0:
259,189,8397,1,8,0:0:0:0:
259,189,8611,1,0,0:0:0:0:
259,189,9040,1,8,0:0:0:0:
259,189,9254,1,8,0:0:0:0:
259,189,9468,1,8,0:0:0:0:
259,189,9683,1,0,0:0:0:0:
259,189,9897,1,8,0:0:0:0:
259,189,10111,1,8,0:0:0:0:
259,189,10325,1,4,0:0:0:0:
259,189,10753,1,8,0:0:0:0:
253,190,10967,1,0,0:0:0:0:
252,199,11075,1,8,0:0:0:0:
234,168,11182,1,0,0:0:0:0:
253,190,11396,1,0,0:0:0:0:
253,190,11610,1,8,0:0:0:0:
253,190,11825,1,8,0:0:0:0:
253,190,12039,1,0,0:0:0:0:
253,190,12467,1,8,0:0:0:0:
253,190,12682,1,0,0:0:0:0:
217,132,12789,1,0,0:0:0:0:
253,190,12896,1,8,0:0:0:0:
253,190,13110,1,0,0:0:0:0:
253,190,13325,1,8,0:0:0:0:
253,190,13539,1,8,0:0:0:0:
253,190,13753,1,0,0:0:0:0:
253,190,14182,1,8,0:0:0:0:
253,190,14396,1,0,0:0:0:0:
260,151,14503,1,0,0:0:0:0:
253,190,14610,1,8,0:0:0:0:
253,190,14825,1,0,0:0:0:0:
253,190,15039,1,8,0:0:0:0:
253,190,15253,1,0,0:0:0:0:
253,190,15467,1,8,0:0:0:0:
237,191,15575,1,8,0:0:0:0:
237,191,15682,1,8,0:0:0:0:
237,191,15789,1,8,0:0:0:0:
237,191,15896,1,0,0:0:0:0:
237,191,16003,1,0,0:0:0:0:
237,191,16110,1,0,0:0:0:0:
237,191,16217,1,0,0:0:0:0:
256,192,16325,12,0,16967,0:0:0:0:
260,216,17182,5,4,0:0:0:0:
256,210,18467,1,8,0:0:0:0:
265,143,18896,1,0,0:0:0:0:
265,143,18949,1,0,0:0:0:0:
265,153,19003,1,0,0:0:0:0:
265,154,19110,1,0,0:0:0:0:
265,154,19217,1,0,0:0:0:0:
240,170,19324,1,8,0:0:0:0:
273,160,19538,1,0,0:0:0:0:
273,160,19646,1,8,0:0:0:0:
273,160,19753,1,0,0:0:0:0:
195,161,19967,1,8,0:0:0:0:
195,161,20074,1,0,0:0:0:0:
195,161,20181,1,0,0:0:0:0:
256,148,20235,1,0,0:0:0:0:
195,161,20288,1,0,0:0:0:0:
235,105,20396,1,8,0:0:0:0:
217,140,20610,1,8,0:0:0:0:
217,140,20663,1,8,0:0:0:0:
217,140,20717,1,8,0:0:0:0:
261,187,20824,1,0,0:0:0:0:
261,187,20931,1,0,0:0:0:0:
261,187,21038,1,8,0:0:0:0:
274,163,21253,1,8,0:0:0:0:
274,163,21360,1,8,0:0:0:0:
274,163,21467,1,0,0:0:0:0:
156,173,21681,1,8,0:0:0:0:
160,174,21735,1,8,0:0:0:0:
186,182,21788,1,8,0:0:0:0:
208,181,21896,1,0,0:0:0:0:
208,181,22003,1,0,0:0:0:0:
208,181,22110,1,8,0:0:0:0:
253,208,22324,1,0,0:0:0:0:
253,208,22378,1,0,0:0:0:0:
253,208,22431,1,0,0:0:0:0:
253,208,22538,1,8,0:0:0:0:
253,208,22646,1,8,0:0:0:0:
253,208,22753,1,0,0:0:0:0:
218,197,22967,1,0,0:0:0:0:
218,197,23181,1,8,0:0:0:0:
213,184,23288,1,0,0:0:0:0:
213,184,23396,1,8,0:0:0:0:
213,184,23449,1,8,0:0:0:0:
213,184,23503,1,8,0:0:0:0:
213,184,23610,1,0,0:0:0:0:
213,184,23717,1,0,0:0:0:0:
213,183,23824,1,8,0:0:0:0:
232,183,24038,1,8,0:0:0:0:
270,185,24253,1,0,0:0:0:0:
270,185,24360,1,0,0:0:0:0:
270,185,24467,1,8,0:0:0:0:
270,185,24681,1,0,0:0:0:0:
270,185,24788,1,0,0:0:0:0:
270,185,24896,1,8,0:0:0:0:
270,185,25110,1,0,0:0:0:0:
270,185,25217,1,0,0:0:0:0:
270,185,25324,1,8,0:0:0:0:
270,185,25378,1,8,0:0:0:0:
270,185,25431,1,8,0:0:0:0:
270,185,25538,1,8,0:0:0:0:
270,185,25753,1,0,0:0:0:0:
228,167,25806,1,0,0:0:0:0:
228,167,25860,1,0,0:0:0:0:
274,172,25967,1,0,0:0:0:0:
275,167,26074,5,0,0:0:0:0:
298,191,26181,1,8,0:0:0:0:
271,157,26396,1,0,0:0:0:0:
271,157,26503,1,8,0:0:0:0:
271,157,26610,1,0,0:0:0:0:
232,167,26824,1,8,0:0:0:0:
232,167,26931,1,0,0:0:0:0:
269,163,27038,1,8,0:0:0:0:
269,163,27092,1,8,0:0:0:0:
269,163,27146,1,8,0:0:0:0:
169,160,27253,1,0,0:0:0:0:
226,167,27467,1,8,0:0:0:0:
226,167,27574,1,8,0:0:0:0:
266,158,27681,1,0,0:0:0:0:
242,165,27896,1,0,0:0:0:0:
242,165,27949,1,0,0:0:0:0:
242,165,28003,1,0,0:0:0:0:
242,165,28110,1,8,0:0:0:0:
237,131,28324,1,0,0:0:0:0:
246,132,28431,1,8,0:0:0:0:
246,132,28538,1,0,0:0:0:0:
246,132,28646,1,0,0:0:0:0:
246,132,28753,1,8,0:0:0:0:
250,137,28806,1,8,0:0:0:0:
250,137,28860,1,8,0:0:0:0:
250,137,28967,1,0,0:0:0:0:
244,148,29181,1,8,0:0:0:0:
244,148,29235,1,8,0:0:0:0:
244,148,29288,1,8,0:0:0:0:
244,148,29396,1,0,0:0:0:0:
218,144,29503,1,8,0:0:0:0:
228,144,29610,1,0,0:0:0:0:
207,131,29717,1,0,0:0:0:0:
234,138,29824,1,8,0:0:0:0:
234,138,29931,1,0,0:0:0:0:
234,138,30038,1,8,0:0:0:0:
270,158,30253,1,0,0:0:0:0:
270,158,30360,1,8,0:0:0:0:
288,196,30467,1,0,0:0:0:0:
262,192,30521,1,0,0:0:0:0:
249,183,30574,1,0,0:0:0:0:
249,183,30681,1,8,0:0:0:0:
203,159,30896,1,0,0:0:0:0:
239,152,31110,1,8,0:0:0:0:
257,153,31217,1,0,0:0:0:0:
257,153,31324,1,0,0:0:0:0:
264,129,31378,1,0,0:0:0:0:
264,129,31431,1,0,0:0:0:0:
264,129,31538,1,8,0:0:0:0:
241,189,31646,1,8,0:0:0:0:
187,141,31753,1,0,0:0:0:0:
192,143,31967,1,0,0:0:0:0:
192,143,32074,1,0,0:0:0:0:
192,143,32181,1,8,0:0:0:0:
192,143,32288,1,8,0:0:0:0:
192,143,32396,1,8,0:0:0:0:
192,143,32503,1,8,0:0:0:0:
192,143,32610,1,0,0:0:0:0:
248,196,33038,1,0,0:0:0:0:
248,196,33467,1,8,0:0:0:0:
248,196,33896,1,0,0:0:0:0:
247,202,34110,1,8,0:0:0:0:
247,202,34181,1,8,0:0:0:0:
247,202,34253,1,8,0:0:0:0:
247,201,34324,1,0,0:0:0:0:
257,193,34538,1,0,0:0:0:0:
257,193,34753,1,8,0:0:0:0:
257,193,35181,1,0,0:0:0:0:
257,193,35396,1,8,0:0:0:0:
257,193,35610,1,0,0:0:0:0:
243,194,36038,1,0,0:0:0:0:
253,199,36253,1,0,0:0:0:0:
253,199,36467,1,8,0:0:0:0:
253,199,36896,1,8,0:0:0:0:
253,199,37110,1,0,0:0:0:0:
253,199,37324,1,8,0:0:0:0:
253,199,37753,1,0,0:0:0:0:
253,199,37967,1,0,0:0:0:0:
253,199,38181,1,8,0:0:0:0:
253,199,38610,1,8,0:0:0:0:
253,199,38824,1,8,0:0:0:0:
253,199,39038,1,0,0:0:0:0:
253,199,39467,1,4,0:0:0:0:
256,192,39681,12,0,40753,0:0:0:0:
253,191,41181,5,0,0:0:0:0:
256,192,41396,12,0,42467,0:0:0:0:
249,183,42896,5,8,0:0:0:0:
217,161,42949,1,8,0:0:0:0:
217,161,43003,1,8,0:0:0:0:
249,183,43110,1,0,0:0:0:0:
217,161,43217,1,8,0:0:0:0:
217,161,43324,1,0,0:0:0:0:
253,112,43431,1,0,0:0:0:0:
269,118,43538,1,8,0:0:0:0:
250,177,43753,1,0,0:0:0:0:
250,177,43860,1,8,0:0:0:0:
250,177,43967,1,0,0:0:0:0:
250,177,44074,1,0,0:0:0:0:
250,177,44181,1,8,0:0:0:0:
250,177,44235,1,8,0:0:0:0:
250,177,44288,1,8,0:0:0:0:
250,177,44396,1,8,0:0:0:0:
250,177,44503,1,8,0:0:0:0:
250,177,44610,1,0,0:0:0:0:
250,187,45038,1,8,0:0:0:0:
250,187,45467,1,8,0:0:0:0:
250,187,45896,1,0,0:0:0:0:
274,181,46324,1,4,0:0:0:0:
218,178,46967,1,8,0:0:0:0:
218,178,47181,1,0,0:0:0:0:
218,178,47396,1,0,0:0:0:0:
218,178,47610,1,8,0:0:0:0:
221,178,48038,1,0,0:0:0:0:
222,179,48253,1,8,0:0:0:0:
221,178,48681,1,0,0:0:0:0:
221,178,48896,1,0,0:0:0:0:
222,179,49110,1,0,0:0:0:0:
221,178,49324,1,8,0:0:0:0:
221,178,49538,1,8,0:0:0:0:
105,151,49753,1,0,0:0:0:0:
132,163,50610,1,0,0:0:0:0:
226,168,51038,1,0,0:0:0:0:
226,168,51253,1,8,0:0:0:0:
226,168,51681,1,0,0:0:0:0:
226,168,51896,1,8,0:0:0:0:
226,168,52110,1,8,0:0:0:0:
226,168,52538,1,0,0:0:0:0:
226,168,52753,1,8,0:0:0:0:
222,162,52967,1,8,0:0:0:0:
306,178,53038,1,8,0:0:0:0:
297,178,53110,1,8,0:0:0:0:
226,168,53181,1,0,0:0:0:0:
221,175,53610,1,0,0:0:0:0:
221,175,54038,1,8,0:0:0:0:
221,175,54181,1,0,0:0:0:0:
259,170,54324,1,0,0:0:0:0:
221,175,54467,1,8,0:0:0:0:
188,155,54610,1,0,0:0:0:0:
201,157,54753,1,0,0:0:0:0:
223,160,54896,1,8,0:0:0:0:
187,62,55003,1,8,0:0:0:0:
187,62,55110,1,8,0:0:0:0:
187,62,55217,1,8,0:0:0:0:
267,183,55324,1,0,0:0:0:0:
267,183,55467,1,0,0:0:0:0:
267,183,55610,1,0,0:0:0:0:
267,183,55753,1,8,0:0:0:0:
103,124,55860,1,8,0:0:0:0:
103,124,55967,1,8,0:0:0:0:
267,183,56181,1,8,0:0:0:0:
107,123,56288,1,8,0:0:0:0:
107,123,56396,1,8,0:0:0:0:
107,123,56503,1,8,0:0:0:0:
267,183,56610,1,0,0:0:0:0:
291,186,57467,1,8,0:0:0:0:
291,186,57574,1,8,0:0:0:0:
291,186,57681,1,8,0:0:0:0:
291,186,57788,1,8,0:0:0:0:
291,186,57896,1,0,0:0:0:0:
273,187,58110,1,0,0:0:0:0:
273,187,58324,1,8,0:0:0:0:
160,101,58431,1,8,0:0:0:0:
160,101,58538,1,8,0:0:0:0:
160,101,58646,1,8,0:0:0:0:
246,161,58753,1,0,0:0:0:0:
246,161,58896,1,0,0:0:0:0:
246,161,59038,1,0,0:0:0:0:
246,161,59181,1,8,0:0:0:0:
206,86,59288,1,8,0:0:0:0:
206,86,59396,1,8,0:0:0:0:
246,161,59610,1,8,0:0:0:0:
206,86,59717,1,8,0:0:0:0:
206,86,59824,1,8,0:0:0:0:
206,86,59931,1,8,0:0:0:0:
246,161,60038,1,0,0:0:0:0:
256,163,60896,1,8,0:0:0:0:
256,163,61038,1,0,0:0:0:0:
256,163,61181,1,0,0:0:0:0:
256,163,61324,1,8,0:0:0:0:
256,163,61467,1,0,0:0:0:0:
256,163,61610,1,0,0:0:0:0:
256,163,61753,1,8,0:0:0:0:
174,106,61860,1,8,0:0:0:0:
174,106,61967,1,8,0:0:0:0:
174,106,62074,1,8,0:0:0:0:
240,157,62181,1,0,0:0:0:0:
227,151,62324,1,0,0:0:0:0:
207,151,62467,1,0,0:0:0:0:
207,151,62610,1,8,0:0:0:0:
185,108,62717,1,8,0:0:0:0:
185,108,62824,1,8,0:0:0:0:
227,142,63038,1,8,0:0:0:0:
185,108,63146,1,8,0:0:0:0:
185,108,63253,1,8,0:0:0:0:
185,108,63360,1,8,0:0:0:0:
223,145,63467,1,0,0:0:0:0:
233,164,64324,1,0,0:0:0:0:
233,164,64538,1,0,0:0:0:0:
233,164,64753,1,0,0:0:0:0:
233,164,64967,1,8,0:0:0:0:
239,150,65181,1,8,0:0:0:0:
233,130,65288,1,8,0:0:0:0:
233,130,65396,1,8,0:0:0:0:
233,130,65610,1,0,0:0:0:0:
281,126,65824,1,0,0:0:0:0:
100,166,65931,5,0,0:0:0:0:
281,126,66038,1,8,0:0:0:0:
281,126,66253,1,8,0:0:0:0:
281,126,66360,1,8,0:0:0:0:
281,126,66467,1,0,0:0:0:0:
281,126,66574,1,0,0:0:0:0:
281,126,66681,1,8,0:0:0:0:
281,126,66896,1,4,0:0:0:0:
242,168,67753,1,8,0:0:0:0:
242,168,67860,1,8,0:0:0:0:
242,168,67967,1,8,0:0:0:0:
242,168,68074,1,8,0:0:0:0:
242,168,68181,1,8,0:0:0:0:
242,168,68288,1,8,0:0:0:0:
242,168,68396,1,8,0:0:0:0:
242,168,68503,1,8,0:0:0:0:
242,168,68610,1,0,0:0:0:0:
203,187,69467,1,0,0:0:0:0:
203,187,69574,1,0,0:0:0:0:
203,187,69681,1,0,0:0:0:0:
203,187,69788,1,0,0:0:0:0:
203,187,69896,1,8,0:0:0:0:
203,187,70003,1,8,0:0:0:0:
203,187,70110,1,8,0:0:0:0:
203,187,70217,1,8,0:0:0:0:
203,187,70324,1,0,0:0:0:0:
233,197,71181,1,8,0:0:0:0:
233,197,71288,1,8,0:0:0:0:
233,197,71396,1,8,0:0:0:0:
233,197,71503,1,8,0:0:0:0:
233,197,71610,1,0,0:0:0:0:
233,197,71717,1,0,0:0:0:0:
233,197,71824,1,0,0:0:0:0:
233,197,71931,1,0,0:0:0:0:
233,197,72038,1,8,0:0:0:0:
208,153,72896,1,0,0:0:0:0:
208,153,73003,1,0,0:0:0:0:
208,153,73110,1,0,0:0:0:0:
208,153,73217,1,0,0:0:0:0:
208,153,73324,1,0,0:0:0:0:
208,153,73431,1,0,0:0:0:0:
208,153,73538,1,0,0:0:0:0:
208,153,73646,1,0,0:0:0:0:
208,153,73753,1,0,0:0:0:0:
208,153,74181,1,8,0:0:0:0:
208,153,74610,1,0,0:0:0:0:
226,82,74824,5,8,0:0:0:0:
226,82,75038,1,0,0:0:0:0:
184,108,75467,1,4,0:0:0:0:
217,177,75896,1,8,0:0:0:0:
217,177,76038,1,0,0:0:0:0:
217,177,76181,1,0,0:0:0:0:
217,177,76324,1,8,0:0:0:0:
292,213,76538,1,8,0:0:0:0:
292,213,76646,1,0,0:0:0:0:
292,213,76753,1,8,0:0:0:0:
292,213,76806,1,8,0:0:0:0:
127,159,76860,1,8,0:0:0:0:
202,144,76967,1,0,0:0:0:0:
255,209,77074,1,0,0:0:0:0:
256,137,77181,5,8,0:0:0:0:
279,196,77610,1,0,0:0:0:0:
279,196,77663,1,0,0:0:0:0:
279,196,77717,1,0,0:0:0:0:
279,196,77824,1,0,0:0:0:0:
279,196,77931,1,0,0:0:0:0:
279,196,78038,1,8,0:0:0:0:
256,177,78253,1,8,0:0:0:0:
239,154,78360,1,0,0:0:0:0:
239,154,78467,1,8,0:0:0:0:
239,154,78521,1,8,0:0:0:0:
239,154,78574,1,8,0:0:0:0:
239,154,78681,1,0,0:0:0:0:
239,154,78788,1,0,0:0:0:0:
239,154,78896,1,8,0:0:0:0:
236,151,79181,1,0,0:0:0:0:
236,152,79324,1,8,0:0:0:0:
239,154,79467,1,8,0:0:0:0:
239,154,79610,1,0,0:0:0:0:
256,184,79753,1,8,0:0:0:0:
256,184,79806,1,8,0:0:0:0:
256,184,79860,1,8,0:0:0:0:
256,184,79967,1,0,0:0:0:0:
256,184,80074,1,8,0:0:0:0:
256,184,80181,1,0,0:0:0:0:
256,184,80235,1,0,0:0:0:0:
256,184,80288,1,0,0:0:0:0:
256,184,80396,1,8,0:0:0:0:
256,184,80503,1,8,0:0:0:0:
256,184,80610,1,0,0:0:0:0:
170,184,81038,1,0,0:0:0:0:
170,184,81253,1,0,0:0:0:0:
270,173,81360,1,8,0:0:0:0:
221,157,81467,1,0,0:0:0:0:
156,151,81521,1,0,0:0:0:0:
156,151,81574,1,0,0:0:0:0:
251,150,81681,1,8,0:0:0:0:
251,150,81788,1,0,0:0:0:0:
244,138,81896,1,8,0:0:0:0:
281,141,81949,1,8,0:0:0:0:
281,141,82003,1,8,0:0:0:0:
281,141,82110,1,8,0:0:0:0:
281,141,82217,1,8,0:0:0:0:
281,141,82324,1,0,0:0:0:0:
223,190,82753,1,0,0:0:0:0:
223,190,82967,1,0,0:0:0:0:
223,190,83074,1,0,0:0:0:0:
251,127,83181,1,8,0:0:0:0:
148,139,83235,1,8,0:0:0:0:
140,139,83288,1,8,0:0:0:0:
251,127,83396,1,8,0:0:0:0:
251,127,83503,1,8,0:0:0:0:
251,127,83610,1,0,0:0:0:0:
251,127,83663,1,0,0:0:0:0:
251,127,83717,1,0,0:0:0:0:
251,127,83824,1,8,0:0:0:0:
251,127,83931,1,8,0:0:0:0:
251,127,84038,1,0,0:0:0:0:
250,175,84467,1,0,0:0:0:0:
250,175,84681,1,0,0:0:0:0:
370,142,84788,1,0,0:0:0:0:
270,161,84896,1,8,0:0:0:0:
267,144,84949,1,8,0:0:0:0:
270,161,85003,1,8,0:0:0:0:
201,147,85110,1,0,0:0:0:0:
201,147,85217,1,8,0:0:0:0:
204,144,85324,1,0,0:0:0:0:
204,144,85378,1,0,0:0:0:0:
204,144,85431,1,0,0:0:0:0:
204,144,85538,1,0,0:0:0:0:
204,144,85646,1,0,0:0:0:0:
204,144,85753,1,8,0:0:0:0:
255,203,86181,1,8,0:0:0:0:
231,176,86396,1,8,0:0:0:0:
231,176,86610,1,0,0:0:0:0:
236,173,87253,1,8,0:0:0:0:
236,173,87324,1,8,0:0:0:0:
236,173,87396,1,8,0:0:0:0:
236,173,87467,1,0,0:0:0:0:
234,212,87896,1,8,0:0:0:0:
234,212,88110,1,0,0:0:0:0:
234,212,88324,1,0,0:0:0:0:
234,212,88753,1,8,0:0:0:0:
243,193,89181,1,0,0:0:0:0:
243,193,89610,1,8,0:0:0:0:
243,193,89824,1,8,0:0:0:0:
243,193,90038,1,0,0:0:0:0:
243,193,90467,1,8,0:0:0:0:
243,193,90896,1,0,0:0:0:0:
243,193,91110,1,0,0:0:0:0:
243,193,91324,1,8,0:0:0:0:
243,193,91753,1,0,0:0:0:0:
243,193,91967,1,0,0:0:0:0:
243,193,92181,1,8,0:0:0:0:
243,193,92610,1,0,0:0:0:0:
243,193,92824,1,0,0:0:0:0:
243,193,93038,1,8,0:0:0:0:
243,193,93253,1,8,0:0:0:0:
243,193,93467,1,0,0:0:0:0:
243,193,93896,1,8,0:0:0:0:
243,193,94324,1,0,0:0:0:0:
238,175,94753,1,8,0:0:0:0:
238,175,94967,1,0,0:0:0:0:
238,175,95181,1,0,0:0:0:0:
238,175,95610,1,8,0:0:0:0:
238,175,96038,1,0,0:0:0:0:
238,175,96467,1,8,0:0:0:0:
238,175,96681,1,8,0:0:0:0:
238,175,96896,1,0,0:0:0:0:
238,175,97324,1,8,0:0:0:0:
238,175,97753,1,0,0:0:0:0:
247,159,98181,1,0,0:0:0:0:
238,175,98610,1,8,0:0:0:0:
238,175,99038,1,8,0:0:0:0:
231,189,99467,1,8,0:0:0:0:
233,187,99574,1,8,0:0:0:0:
234,186,99681,1,8,0:0:0:0:
234,186,99788,1,8,0:0:0:0:
234,186,99896,1,8,0:0:0:0:
234,186,100003,1,8,0:0:0:0:
237,185,100110,1,8,0:0:0:0:
238,184,100217,1,8,0:0:0:0:
238,184,100324,1,8,0:0:0:0:
238,184,100431,1,8,0:0:0:0:
238,184,100538,1,8,0:0:0:0:
238,184,100646,1,8,0:0:0:0:
238,184,100753,1,8,0:0:0:0:
238,184,100860,1,8,0:0:0:0:
238,184,100967,1,8,0:0:0:0:
237,185,101074,1,8,0:0:0:0:
238,184,101181,1,0,0:0:0:0:
246,171,101610,1,8,0:0:0:0:
242,176,101824,1,0,0:0:0:0:
242,176,102038,1,0,0:0:0:0:
242,176,102253,1,0,0:0:0:0:
242,176,102467,1,8,0:0:0:0:
239,169,102896,5,0,0:0:0:0:
239,169,103324,1,8,0:0:0:0:
239,169,103538,1,8,0:0:0:0:
239,169,103753,1,0,0:0:0:0:
239,169,103967,1,0,0:0:0:0:
239,169,104181,1,8,0:0:0:0:
239,169,104610,1,0,0:0:0:0:
277,162,104824,1,0,0:0:0:0:
269,164,105038,1,8,0:0:0:0:
269,164,105253,1,8,0:0:0:0:
269,164,105467,1,0,0:0:0:0:
283,154,105681,1,0,0:0:0:0:
283,154,105896,1,8,0:0:0:0:
283,154,106324,1,0,0:0:0:0:
283,154,106538,1,0,0:0:0:0:
283,154,106753,1,8,0:0:0:0:
278,156,106967,1,0,0:0:0:0:
278,156,107181,1,8,0:0:0:0:
278,156,107396,1,8,0:0:0:0:
278,156,107610,1,0,0:0:0:0:
278,156,108038,1,0,0:0:0:0:
278,156,108467,1,8,0:0:0:0:
278,156,108681,1,0,0:0:0:0:
278,156,108896,1,0,0:0:0:0:
278,156,109110,1,0,0:0:0:0:
278,156,109324,1,8,0:0:0:0:
271,152,109753,1,0,0:0:0:0:
232,169,110181,1,8,0:0:0:0:
236,167,110396,1,8,0:0:0:0:
242,169,110610,1,0,0:0:0:0:
244,170,110824,1,0,0:0:0:0:
244,170,111038,1,8,0:0:0:0:
242,169,111467,1,0,0:0:0:0:
244,170,111681,1,0,0:0:0:0:
244,170,111896,1,8,0:0:0:0:
242,169,112110,1,0,0:0:0:0:
242,169,112324,1,0,0:0:0:0:
244,170,112538,1,8,0:0:0:0:
244,170,112753,1,8,0:0:0:0:
242,169,113181,1,0,0:0:0:0:
244,170,113396,1,0,0:0:0:0:
244,170,113610,1,8,0:0:0:0:
242,169,113824,1,0,0:0:0:0:
242,169,114038,1,8,0:0:0:0:
244,170,114253,1,8,0:0:0:0:
244,170,114467,1,0,0:0:0:0:
209,190,114896,1,0,0:0:0:0:
267,174,115324,1,8,0:0:0:0:
158,175,115538,1,0,0:0:0:0:
263,177,115753,1,8,0:0:0:0:
345,249,115967,1,0,0:0:0:0:
292,234,116181,1,8,0:0:0:0:
184,144,116396,1,8,0:0:0:0:
273,203,116610,1,0,0:0:0:0:
270,163,117038,1,0,0:0:0:0:
206,135,117253,1,0,0:0:0:0:
226,172,117467,1,8,0:0:0:0:
226,172,117681,1,0,0:0:0:0:
226,172,117896,1,8,0:0:0:0:
226,172,118110,1,8,0:0:0:0:
226,172,118324,1,0,0:0:0:0:
226,172,118753,1,0,0:0:0:0:
145,123,118967,1,0,0:0:0:0:
226,172,119181,1,8,0:0:0:0:
226,172,119396,1,0,0:0:0:0:
226,172,119610,1,8,0:0:0:0:
226,172,120038,1,8,0:0:0:0:
175,99,120253,1,0,0:0:0:0:
257,161,120467,1,8,0:0:0:0:
257,161,120681,1,8,0:0:0:0:
257,161,120896,1,0,0:0:0:0:
257,161,121110,1,8,0:0:0:0:
257,161,121324,1,0,0:0:0:0:
145,123,121538,1,0,0:0:0:0:
257,161,121753,1,0,0:0:0:0:
226,162,122181,1,0,0:0:0:0:
163,121,122396,1,8,0:0:0:0:
226,162,122610,1,0,0:0:0:0:
226,162,122824,1,0,0:0:0:0:
229,163,123038,1,8,0:0:0:0:
229,163,123253,1,8,0:0:0:0:
229,163,123467,1,0,0:0:0:0:
229,163,123896,1,0,0:0:0:0:
229,163,124110,1,0,0:0:0:0:
229,163,124324,1,8,0:0:0:0:
229,163,124538,1,0,0:0:0:0:
229,163,124753,1,8,0:0:0:0:
229,163,124967,1,8,0:0:0:0:
229,163,125181,1,0,0:0:0:0:
229,163,125610,1,0,0:0:0:0:
198,199,125824,1,0,0:0:0:0:
198,199,126038,1,8,0:0:0:0:
198,199,126253,1,0,0:0:0:0:
198,199,126467,1,0,0:0:0:0:
294,150,126681,1,8,0:0:0:0:
288,174,126896,1,8,0:0:0:0:
160,125,127110,1,0,0:0:0:0:
304,185,127324,1,8,0:0:0:0:
304,185,127538,1,0,0:0:0:0:
304,185,127753,1,8,0:0:0:0:
304,185,127967,1,8,0:0:0:0:
304,185,128181,1,0,0:0:0:0:
161,157,128396,1,8,0:0:0:0:
304,185,128610,1,0,0:0:0:0:
242,169,129467,5,0,0:0:0:0:
242,169,129896,1,8,0:0:0:0:
242,169,130324,1,0,0:0:0:0:
242,169,130967,1,0,0:0:0:0:
242,169,131181,1,8,0:0:0:0:
242,169,131610,1,8,0:0:0:0:
242,169,132038,1,0,0:0:0:0:
242,169,132896,1,0,0:0:0:0:
242,169,133324,1,8,0:0:0:0:
242,169,133753,1,0,0:0:0:0:
242,169,134181,1,0,0:0:0:0:
242,169,134610,1,8,0:0:0:0:
242,169,135038,1,8,0:0:0:0:
242,169,135467,1,0,0:0:0:0:
242,169,136324,1,0,0:0:0:0:
242,169,136753,1,8,0:0:0:0:
242,169,137181,1,0,0:0:0:0:
242,169,137824,1,0,0:0:0:0:
242,169,138038,1,8,0:0:0:0:
242,169,138467,1,8,0:0:0:0:
242,169,138896,1,0,0:0:0:0:
242,169,139753,1,0,0:0:0:0:
242,169,140181,1,0,0:0:0:0:
242,169,140610,1,8,0:0:0:0:
242,169,141467,1,0,0:0:0:0:
242,169,142324,1,4,0:0:0:0:
