osu file format v14

[General]
AudioFilename: audio.mp3
AudioLeadIn: 0
PreviewTime: 46324
Countdown: 0
SampleSet: Normal
StackLeniency: 0.7
Mode: 1
LetterboxInBreaks: 0
WidescreenStoryboard: 1

[Editor]
DistanceSpacing: 1
BeatDivisor: 6
GridSize: 32
TimelineZoom: 2.200005

[Metadata]
Title:MARENOL
TitleUnicode:MARENOL
Artist:LeaF
ArtistUnicode:LeaF
Creator:Raytoly
Version:HELL ONI
Source:
Tags:Rhytoly 除草剤 joso zai THE BMS OF FIGHTERS G2R2018 CLIMAX GO BACK 2 YOUR ROOTS 2018 CLIMAX sdvx sound voltex vivid wave PHANTASMA glitch hardcore horror video game electronic instrumental Featured Artist FA osu!
BeatmapID:2336328
BeatmapSetID:966590

[Difficulty]
HPDrainRate:4.4
CircleSize:7
OverallDifficulty:7
ApproachRate:10
SliderMultiplier:1.4
SliderTickRate:1

[Events]
//Background and Video events
0,0,"look sad.jpg",0,50
//Break Periods
//Storyboard Layer 0 (Background)
//Storyboard Layer 1 (Fail)
//Storyboard Layer 2 (Pass)
//Storyboard Layer 3 (Foreground)
//Storyboard Layer 4 (Overlay)
//Storyboard Sound Samples

[TimingPoints]
1755,428.571428571429,4,1,0,100,1,0
1755,-66.6666666666667,4,1,0,100,0,1
3469,-66.6666666666667,4,1,0,60,0,0
3897,-100,4,1,0,60,0,0
5183,428.571428571429,4,1,0,60,1,0
5183,-83.3333333333333,4,1,0,60,0,0
10325,428.571428571429,4,1,0,100,1,0
10325,-71.4285714285714,4,1,0,100,0,0
17182,-83.3333333333333,4,1,0,100,0,0
18896,428.571428571429,4,1,0,100,1,1
18896,-58.8235294117647,4,1,0,100,0,1
25753,-55.5555555555556,4,1,0,100,0,1
32610,-55.5555555555556,4,1,0,40,0,0
33038,-71.4285714285714,4,1,0,40,0,0
33467,-80,4,1,0,40,0,0
33896,-90.9090909090909,4,1,0,40,0,0
34110,-76.9230769230769,4,1,0,60,0,0
39467,-66.6666666666667,4,1,0,60,0,0
42896,-55.5555555555556,4,1,0,100,0,1
44610,-55.5555555555556,4,1,0,40,0,0
45038,-66.6666666666667,4,1,0,40,0,0
45467,-76.9230769230769,4,1,0,40,0,0
45896,-90.9090909090909,4,1,0,40,0,0
46324,-111.111111111111,4,1,0,40,0,0
52967,-62.5,4,1,0,100,0,0
64324,-76.9230769230769,4,1,0,60,0,0
65181,-74.0740740740741,4,1,0,60,0,0
65288,-72.7351016691251,4,1,0,60,0,0
65396,-71.4436766630659,4,1,0,60,0,0
65610,-68.9936856978849,4,1,0,60,0,0
65824,-66.7061567114398,4,1,0,60,0,0
65931,-65.6183479399776,4,1,0,60,0,0
66038,-64.5654070170976,4,1,0,60,0,0
66253,-62.5578268912326,4,1,0,60,0,0
66324,-61.9160925496985,4,1,0,60,0,0
66396,-61.287390670956,4,1,0,60,0,0
66467,-60.6713282470536,4,1,0,60,0,0
66538,-60.0675279148819,4,1,0,60,0,0
66610,-59.4756271853576,4,1,0,60,0,0
66681,-58.8952777177373,4,1,0,60,0,0
66896,-55.5555555555556,4,1,0,100,0,0
67753,-58.8235294117647,4,1,0,100,0,0
73753,-58.8235294117647,4,1,0,60,0,0
74181,-66.6666666666667,4,1,0,60,0,0
75467,-55.5555555555556,4,1,0,100,0,1
85753,-55.5555555555556,4,1,0,60,0,0
85967,-58.8235294117647,4,1,0,60,0,0
86181,-62.5,4,1,0,60,0,0
86396,-66.6666666666667,4,1,0,60,0,0
86503,-71.4285714285714,4,1,0,60,0,0
86610,-76.9230769230769,4,1,0,60,0,0
87253,-71.4285714285714,4,1,0,40,0,0
87896,-100,4,1,0,40,0,0
99467,-66.6666666666667,4,1,0,100,0,1
101181,-66.6666666666667,4,1,0,80,0,0
101396,-76.9230769230769,4,1,0,80,0,0
101610,-83.3333333333333,4,1,0,80,0,0
128610,-83.3333333333333,4,1,0,40,0,0
129038,-100,4,1,0,40,0,0
138892,-100,4,1,0,20,0,0
139753,-142.857142857143,4,1,0,20,0,0

[HitObjects]
212,194,1755,5,8,0:0:0:0:
220,191,1826,1,8,0:0:0:0:
212,194,1897,1,8,0:0:0:0:
212,194,1969,1,8,0:0:0:0:
220,191,2040,1,8,0:0:0:0:
212,194,2112,1,8,0:0:0:0:
204,162,2183,1,8,0:0:0:0:
216,174,2255,1,8,0:0:0:0:
216,174,2326,1,8,0:0:0:0:
216,174,2397,1,8,0:0:0:0:
216,174,2469,1,8,0:0:0:0:
220,177,2540,1,8,0:0:0:0:
223,178,2612,1,8,0:0:0:0:
242,186,2683,1,8,0:0:0:0:
246,187,2755,1,8,0:0:0:0:
246,187,2826,1,8,0:0:0:0:
246,187,2897,1,8,0:0:0:0:
246,187,2969,1,8,0:0:0:0:
246,187,3040,1,8,0:0:0:0:
246,187,3112,1,8,0:0:0:0:
246,187,3183,1,8,0:0:0:0:
246,187,3255,1,8,0:0:0:0:
246,187,3326,1,8,0:0:0:0:
246,187,3397,1,8,0:0:0:0:
246,187,3469,1,0,0:0:0:0:
248,193,3897,1,8,0:0:0:0:
248,193,4326,1,0,0:0:0:0:
248,193,4433,1,0,0:0:0:0:
248,193,4647,1,8,0:0:0:0:
248,193,4755,1,0,0:0:0:0:
248,193,4969,1,8,0:0:0:0:
248,193,5183,1,4,0:0:0:0:
233,190,5611,1,8,0:0:0:0:
234,150,5825,1,0,0:0:0:0:
178,91,5933,1,0,0:0:0:0:
178,91,6040,1,8,0:0:0:0:
238,157,6254,1,0,0:0:0:0:
238,157,6468,1,8,0:0:0:0:
251,168,6683,1,0,0:0:0:0:
251,168,6897,1,0,0:0:0:0:
224,146,7325,1,8,0:0:0:0:
224,146,7540,1,0,0:0:0:0:
224,146,7647,1,8,0:0:0:0:
224,146,7754,1,0,0:0:0:0:
224,146,7968,1,8,0:0:0:0:
220,148,8183,1,8,0:0:0:0:
220,148,8397,1,0,0:0:0:0:
219,148,8611,1,0,0:0:0:0:
205,156,9040,1,8,0:0:0:0:
206,152,9254,1,0,0:0:0:0:
206,152,9361,1,0,0:0:0:0:
206,152,9468,1,8,0:0:0:0:
206,152,9683,1,0,0:0:0:0:
206,152,9897,1,8,0:0:0:0:
206,152,10111,1,8,0:0:0:0:
206,152,10325,1,4,0:0:0:0:
196,153,10753,1,8,0:0:0:0:
195,145,10967,1,0,0:0:0:0:
195,145,11075,1,8,0:0:0:0:
195,145,11182,1,0,0:0:0:0:
195,145,11289,1,8,0:0:0:0:
195,145,11396,1,0,0:0:0:0:
195,145,11610,1,8,0:0:0:0:
195,145,11825,1,0,0:0:0:0:
195,145,11932,1,8,0:0:0:0:
195,145,12039,1,0,0:0:0:0:
215,147,12467,1,8,0:0:0:0:
215,147,12682,1,0,0:0:0:0:
215,147,12789,1,0,0:0:0:0:
215,147,12896,1,8,0:0:0:0:
215,147,13003,1,0,0:0:0:0:
215,147,13110,1,0,0:0:0:0:
215,147,13325,1,8,0:0:0:0:
215,147,13539,1,0,0:0:0:0:
215,147,13646,1,0,0:0:0:0:
215,147,13753,1,8,0:0:0:0:
215,147,14182,1,8,0:0:0:0:
215,147,14396,1,0,0:0:0:0:
215,147,14503,1,0,0:0:0:0:
215,147,14610,1,8,0:0:0:0:
215,147,14717,1,8,0:0:0:0:
215,147,14825,1,0,0:0:0:0:
215,147,15039,1,8,0:0:0:0:
215,147,15253,1,0,0:0:0:0:
215,147,15360,1,0,0:0:0:0:
215,147,15467,1,8,0:0:0:0:
215,147,15539,1,8,0:0:0:0:
215,147,15610,1,8,0:0:0:0:
215,147,15682,1,8,0:0:0:0:
215,147,15753,1,8,0:0:0:0:
373,151,15825,1,8,0:0:0:0:
378,151,15896,1,0,0:0:0:0:
215,147,15967,1,0,0:0:0:0:
215,147,16039,1,0,0:0:0:0:
215,147,16110,1,0,0:0:0:0:
283,155,16182,1,0,0:0:0:0:
283,155,16253,1,0,0:0:0:0:
256,192,16325,12,0,16967,0:0:0:0:
201,177,17182,5,4,0:0:0:0:
232,157,18253,1,0,0:0:0:0:
232,157,18467,1,8,0:0:0:0:
232,157,18896,1,0,0:0:0:0:
240,151,18949,1,0,0:0:0:0:
240,151,19003,1,0,0:0:0:0:
240,151,19056,1,0,0:0:0:0:
240,151,19110,1,8,0:0:0:0:
240,151,19217,1,0,0:0:0:0:
236,135,19324,1,8,0:0:0:0:
237,137,19378,1,8,0:0:0:0:
237,140,19431,1,8,0:0:0:0:
238,140,19485,1,8,0:0:0:0:
238,140,19538,1,8,0:0:0:0:
238,140,19646,1,8,0:0:0:0:
238,140,19753,1,0,0:0:0:0:
217,129,19967,1,8,0:0:0:0:
217,129,20021,1,8,0:0:0:0:
219,132,20074,1,8,0:0:0:0:
219,132,20181,1,0,0:0:0:0:
269,163,20235,1,0,0:0:0:0:
269,163,20288,1,0,0:0:0:0:
269,163,20396,1,8,0:0:0:0:
241,152,20610,1,8,0:0:0:0:
240,148,20717,1,0,0:0:0:0:
241,152,20771,1,0,0:0:0:0:
241,152,20824,1,8,0:0:0:0:
241,152,20931,1,0,0:0:0:0:
241,152,20985,1,0,0:0:0:0:
241,152,21038,1,8,0:0:0:0:
241,152,21146,1,8,0:0:0:0:
199,177,21253,1,0,0:0:0:0:
199,177,21306,1,0,0:0:0:0:
199,177,21360,1,0,0:0:0:0:
199,177,21413,1,0,0:0:0:0:
165,176,21467,1,0,0:0:0:0:
250,192,21681,1,8,0:0:0:0:
250,192,21735,1,8,0:0:0:0:
250,192,21788,1,8,0:0:0:0:
250,192,21896,1,0,0:0:0:0:
250,192,21949,1,0,0:0:0:0:
250,192,22003,1,0,0:0:0:0:
250,192,22110,1,8,0:0:0:0:
255,157,22324,1,8,0:0:0:0:
255,157,22378,1,8,0:0:0:0:
255,157,22431,1,8,0:0:0:0:
255,157,22485,1,8,0:0:0:0:
255,157,22538,1,8,0:0:0:0:
255,157,22646,1,8,0:0:0:0:
232,171,22753,1,0,0:0:0:0:
232,171,22967,1,0,0:0:0:0:
246,169,23181,1,8,0:0:0:0:
246,169,23235,1,8,0:0:0:0:
246,169,23288,1,8,0:0:0:0:
243,160,23396,1,0,0:0:0:0:
243,160,23503,1,8,0:0:0:0:
243,160,23556,1,0,0:0:0:0:
243,160,23610,1,8,0:0:0:0:
297,178,23717,1,0,0:0:0:0:
297,178,23824,1,8,0:0:0:0:
226,187,24038,1,8,0:0:0:0:
231,188,24092,1,8,0:0:0:0:
233,189,24146,1,8,0:0:0:0:
233,189,24199,1,8,0:0:0:0:
233,189,24253,1,8,0:0:0:0:
233,189,24360,1,0,0:0:0:0:
233,189,24467,1,8,0:0:0:0:
233,189,24521,1,8,0:0:0:0:
233,189,24574,1,8,0:0:0:0:
233,189,24628,1,8,0:0:0:0:
233,189,24681,1,0,0:0:0:0:
233,189,24788,1,0,0:0:0:0:
233,189,24896,1,8,0:0:0:0:
231,188,24949,1,8,0:0:0:0:
233,189,25003,1,0,0:0:0:0:
233,189,25056,1,0,0:0:0:0:
233,189,25110,1,0,0:0:0:0:
233,189,25217,1,0,0:0:0:0:
310,157,25324,1,8,0:0:0:0:
310,157,25378,1,8,0:0:0:0:
302,253,25431,1,8,0:0:0:0:
302,253,25485,1,8,0:0:0:0:
299,215,25538,1,8,0:0:0:0:
254,173,25753,1,0,0:0:0:0:
203,133,25806,1,0,0:0:0:0:
215,144,25860,1,0,0:0:0:0:
217,146,25913,1,0,0:0:0:0:
219,147,25967,1,8,0:0:0:0:
220,147,26074,1,0,0:0:0:0:
236,158,26181,1,8,0:0:0:0:
236,158,26235,1,8,0:0:0:0:
240,160,26288,1,8,0:0:0:0:
241,161,26342,1,8,0:0:0:0:
241,161,26396,1,8,0:0:0:0:
241,161,26503,1,8,0:0:0:0:
241,161,26610,1,0,0:0:0:0:
268,199,26824,1,0,0:0:0:0:
219,166,26931,1,0,0:0:0:0:
219,166,27038,1,8,0:0:0:0:
252,205,27253,1,0,0:0:0:0:
249,134,27306,1,0,0:0:0:0:
253,146,27360,1,0,0:0:0:0:
255,151,27413,1,0,0:0:0:0:
255,151,27467,1,8,0:0:0:0:
255,161,27574,1,8,0:0:0:0:
250,161,27681,1,0,0:0:0:0:
188,125,27788,1,0,0:0:0:0:
260,190,27896,1,8,0:0:0:0:
260,190,27949,1,0,0:0:0:0:
260,190,28003,1,0,0:0:0:0:
260,190,28056,1,0,0:0:0:0:
260,190,28110,1,8,0:0:0:0:
221,174,28324,1,0,0:0:0:0:
221,174,28431,1,0,0:0:0:0:
221,174,28485,1,0,0:0:0:0:
221,174,28538,1,0,0:0:0:0:
221,174,28646,1,0,0:0:0:0:
221,174,28753,1,8,0:0:0:0:
221,174,28806,1,8,0:0:0:0:
221,174,28860,1,8,0:0:0:0:
221,174,28913,1,8,0:0:0:0:
221,174,28967,1,0,0:0:0:0:
238,203,29181,1,8,0:0:0:0:
250,131,29235,1,8,0:0:0:0:
250,131,29288,1,8,0:0:0:0:
250,131,29342,1,8,0:0:0:0:
250,131,29396,1,8,0:0:0:0:
250,141,29503,1,8,0:0:0:0:
247,145,29610,1,0,0:0:0:0:
228,169,29663,1,0,0:0:0:0:
228,169,29717,1,0,0:0:0:0:
228,169,29771,1,0,0:0:0:0:
228,169,29824,1,0,0:0:0:0:
228,169,29931,1,0,0:0:0:0:
228,169,30038,1,8,0:0:0:0:
243,127,30253,1,0,0:0:0:0:
243,127,30360,1,8,0:0:0:0:
243,127,30467,1,0,0:0:0:0:
246,159,30521,1,0,0:0:0:0:
246,159,30574,1,0,0:0:0:0:
246,159,30681,1,8,0:0:0:0:
206,163,30896,1,0,0:0:0:0:
266,154,31003,5,0,0:0:0:0:
226,181,31110,1,8,0:0:0:0:
226,181,31217,1,0,0:0:0:0:
225,176,31324,1,0,0:0:0:0:
290,192,31378,1,0,0:0:0:0:
290,192,31431,1,0,0:0:0:0:
290,192,31485,1,0,0:0:0:0:
247,98,31538,1,8,0:0:0:0:
292,212,31646,1,8,0:0:0:0:
251,176,31753,1,0,0:0:0:0:
251,176,31806,1,0,0:0:0:0:
251,176,31860,1,0,0:0:0:0:
251,176,31913,1,0,0:0:0:0:
251,176,31967,1,0,0:0:0:0:
251,176,32021,1,0,0:0:0:0:
251,176,32074,1,0,0:0:0:0:
251,176,32128,1,0,0:0:0:0:
256,192,32181,12,0,32503,0:0:0:0:
219,170,32610,5,0,0:0:0:0:
246,167,33038,1,0,0:0:0:0:
246,167,33467,1,8,0:0:0:0:
246,167,33896,1,0,0:0:0:0:
236,179,34110,1,8,0:0:0:0:
236,179,34181,1,8,0:0:0:0:
236,179,34253,1,8,0:0:0:0:
246,128,34324,1,0,0:0:0:0:
193,157,34538,1,0,0:0:0:0:
193,157,34753,1,8,0:0:0:0:
197,154,34967,1,0,0:0:0:0:
197,154,35074,1,8,0:0:0:0:
197,154,35181,1,0,0:0:0:0:
197,154,35396,1,8,0:0:0:0:
197,154,35610,1,0,0:0:0:0:
274,129,36038,1,0,0:0:0:0:
274,129,36253,1,0,0:0:0:0:
275,134,36467,1,8,0:0:0:0:
275,135,36681,1,0,0:0:0:0:
275,135,36788,1,0,0:0:0:0:
275,135,36896,1,8,0:0:0:0:
275,135,37110,1,0,0:0:0:0:
275,134,37324,1,8,0:0:0:0:
275,135,37753,1,0,0:0:0:0:
275,135,37967,1,0,0:0:0:0:
275,134,38181,1,8,0:0:0:0:
275,135,38396,1,0,0:0:0:0:
275,135,38503,1,0,0:0:0:0:
275,135,38610,1,8,0:0:0:0:
275,135,38824,1,8,0:0:0:0:
275,134,39038,1,0,0:0:0:0:
258,157,39467,1,4,0:0:0:0:
256,192,39681,12,0,40967,0:0:0:0:
247,201,41181,5,0,0:0:0:0:
256,192,41396,12,0,42681,0:0:0:0:
257,205,42896,5,8,0:0:0:0:
257,205,42949,1,8,0:0:0:0:
249,213,43003,1,8,0:0:0:0:
249,213,43056,1,8,0:0:0:0:
249,213,43110,1,8,0:0:0:0:
249,213,43217,1,8,0:0:0:0:
249,213,43324,1,0,0:0:0:0:
270,132,43538,1,8,0:0:0:0:
255,142,43592,1,8,0:0:0:0:
270,132,43646,1,8,0:0:0:0:
270,132,43753,1,0,0:0:0:0:
255,142,43967,1,0,0:0:0:0:
255,142,44074,1,0,0:0:0:0:
248,188,44181,1,8,0:0:0:0:
248,188,44235,1,8,0:0:0:0:
248,188,44288,1,0,0:0:0:0:
248,188,44342,1,0,0:0:0:0:
248,188,44396,1,8,0:0:0:0:
248,188,44503,1,8,0:0:0:0:
248,188,44610,1,0,0:0:0:0:
269,187,45038,1,8,0:0:0:0:
269,187,45467,1,8,0:0:0:0:
269,187,45896,1,0,0:0:0:0:
269,187,46324,1,4,0:0:0:0:
247,192,46967,1,8,0:0:0:0:
247,192,47181,1,0,0:0:0:0:
247,195,47396,1,0,0:0:0:0:
247,195,47610,1,8,0:0:0:0:
247,195,48038,1,0,0:0:0:0:
247,195,48253,1,8,0:0:0:0:
247,195,48681,1,0,0:0:0:0:
247,195,48896,1,0,0:0:0:0:
247,195,49110,1,0,0:0:0:0:
247,195,49324,1,8,0:0:0:0:
247,195,49538,1,8,0:0:0:0:
247,195,49753,1,0,0:0:0:0:
263,194,50610,5,0,0:0:0:0:
263,194,51038,1,0,0:0:0:0:
263,194,51253,1,8,0:0:0:0:
263,194,51467,1,0,0:0:0:0:
272,197,51681,1,8,0:0:0:0:
272,197,51896,1,8,0:0:0:0:
272,197,52110,1,8,0:0:0:0:
272,197,52324,1,0,0:0:0:0:
272,197,52538,1,0,0:0:0:0:
272,197,52753,1,8,0:0:0:0:
384,194,52967,1,8,0:0:0:0:
384,194,53038,1,8,0:0:0:0:
384,194,53110,1,8,0:0:0:0:
384,194,53181,1,0,0:0:0:0:
245,209,53610,1,0,0:0:0:0:
243,218,54038,1,8,0:0:0:0:
243,218,54181,1,0,0:0:0:0:
246,220,54324,1,0,0:0:0:0:
247,220,54467,1,8,0:0:0:0:
247,220,54610,1,0,0:0:0:0:
247,220,54753,1,0,0:0:0:0:
247,220,54896,1,8,0:0:0:0:
251,167,54967,1,8,0:0:0:0:
251,167,55038,1,8,0:0:0:0:
251,167,55110,1,8,0:0:0:0:
251,167,55181,1,8,0:0:0:0:
251,167,55324,1,0,0:0:0:0:
215,157,55467,1,0,0:0:0:0:
215,157,55610,1,0,0:0:0:0:
271,178,55753,1,8,0:0:0:0:
264,159,55824,1,8,0:0:0:0:
271,178,55896,1,8,0:0:0:0:
264,159,55967,1,8,0:0:0:0:
271,178,56038,1,0,0:0:0:0:
264,159,56181,1,8,0:0:0:0:
264,159,56253,1,8,0:0:0:0:
264,159,56324,1,8,0:0:0:0:
264,159,56396,1,8,0:0:0:0:
290,169,56467,1,8,0:0:0:0:
290,169,56538,1,8,0:0:0:0:
290,169,56610,1,0,0:0:0:0:
291,185,57467,1,0,0:0:0:0:
242,184,57538,1,8,0:0:0:0:
291,185,57610,1,8,0:0:0:0:
291,185,57681,1,8,0:0:0:0:
291,185,57753,1,8,0:0:0:0:
291,185,57824,1,8,0:0:0:0:
291,185,57896,1,0,0:0:0:0:
290,218,58110,1,0,0:0:0:0:
290,218,58324,1,8,0:0:0:0:
250,178,58396,1,8,0:0:0:0:
250,178,58467,1,8,0:0:0:0:
250,178,58538,1,8,0:0:0:0:
250,178,58610,1,8,0:0:0:0:
250,178,58753,1,0,0:0:0:0:
250,178,58896,1,0,0:0:0:0:
250,178,59038,1,0,0:0:0:0:
250,178,59181,1,8,0:0:0:0:
250,178,59253,1,8,0:0:0:0:
250,178,59324,1,8,0:0:0:0:
250,178,59396,1,8,0:0:0:0:
250,178,59467,1,0,0:0:0:0:
250,178,59610,1,8,0:0:0:0:
250,178,59681,1,8,0:0:0:0:
250,178,59753,1,8,0:0:0:0:
250,178,59824,1,8,0:0:0:0:
250,178,59896,1,8,0:0:0:0:
250,178,59967,1,8,0:0:0:0:
250,178,60038,1,0,0:0:0:0:
263,197,60896,1,8,0:0:0:0:
263,197,61038,1,0,0:0:0:0:
237,121,61181,1,0,0:0:0:0:
263,197,61324,1,8,0:0:0:0:
263,197,61467,1,0,0:0:0:0:
263,197,61610,1,0,0:0:0:0:
302,204,61753,1,8,0:0:0:0:
201,166,61824,1,8,0:0:0:0:
211,168,61896,1,8,0:0:0:0:
211,168,61967,1,8,0:0:0:0:
211,168,62038,1,8,0:0:0:0:
211,168,62181,1,0,0:0:0:0:
211,168,62324,1,0,0:0:0:0:
211,168,62467,1,0,0:0:0:0:
211,168,62610,1,8,0:0:0:0:
264,191,62681,1,8,0:0:0:0:
245,197,62753,1,8,0:0:0:0:
255,188,62824,1,8,0:0:0:0:
243,188,62896,1,0,0:0:0:0:
241,182,63038,1,8,0:0:0:0:
241,182,63110,1,8,0:0:0:0:
241,182,63181,1,8,0:0:0:0:
241,182,63253,1,8,0:0:0:0:
241,182,63324,1,8,0:0:0:0:
241,182,63396,1,8,0:0:0:0:
241,182,63467,1,0,0:0:0:0:
248,207,64324,1,0,0:0:0:0:
248,207,64538,1,0,0:0:0:0:
248,207,64753,1,0,0:0:0:0:
252,209,64967,1,8,0:0:0:0:
253,210,65181,1,8,0:0:0:0:
246,143,65288,1,8,0:0:0:0:
246,143,65396,1,0,0:0:0:0:
246,143,65610,1,0,0:0:0:0:
297,167,65824,1,0,0:0:0:0:
297,167,65931,1,0,0:0:0:0:
297,167,66038,1,8,0:0:0:0:
254,197,66253,1,0,0:0:0:0:
254,197,66324,1,0,0:0:0:0:
254,197,66396,1,0,0:0:0:0:
254,197,66467,1,0,0:0:0:0:
254,197,66538,1,0,0:0:0:0:
254,197,66610,1,0,0:0:0:0:
254,197,66681,1,8,0:0:0:0:
250,172,66896,1,4,0:0:0:0:
237,195,67753,1,8,0:0:0:0:
237,195,67824,1,8,0:0:0:0:
237,195,67896,1,8,0:0:0:0:
237,195,67967,1,8,0:0:0:0:
252,198,68038,1,0,0:0:0:0:
256,194,68110,1,0,0:0:0:0:
256,194,68181,1,8,0:0:0:0:
256,194,68253,1,8,0:0:0:0:
256,194,68324,1,8,0:0:0:0:
256,194,68396,1,8,0:0:0:0:
256,194,68467,1,8,0:0:0:0:
256,194,68538,1,8,0:0:0:0:
256,194,68610,1,0,0:0:0:0:
246,209,69467,1,0,0:0:0:0:
246,209,69538,1,0,0:0:0:0:
246,209,69610,1,8,0:0:0:0:
254,211,69681,1,8,0:0:0:0:
254,211,69753,1,0,0:0:0:0:
254,211,69824,1,0,0:0:0:0:
254,211,69896,1,8,0:0:0:0:
254,211,69967,1,8,0:0:0:0:
254,211,70038,1,8,0:0:0:0:
254,211,70110,1,8,0:0:0:0:
254,211,70181,1,8,0:0:0:0:
254,211,70253,1,8,0:0:0:0:
254,211,70324,1,0,0:0:0:0:
249,204,71181,1,8,0:0:0:0:
246,203,71253,1,8,0:0:0:0:
246,203,71324,1,8,0:0:0:0:
249,204,71396,1,8,0:0:0:0:
249,204,71467,1,0,0:0:0:0:
249,204,71538,1,0,0:0:0:0:
249,204,71610,1,8,0:0:0:0:
249,204,71681,1,8,0:0:0:0:
249,204,71753,1,0,0:0:0:0:
249,204,71824,1,0,0:0:0:0:
249,204,71896,1,0,0:0:0:0:
249,204,71967,1,0,0:0:0:0:
249,204,72038,1,8,0:0:0:0:
232,179,72896,1,0,0:0:0:0:
232,179,72967,1,0,0:0:0:0:
232,179,73038,1,0,0:0:0:0:
232,179,73110,1,0,0:0:0:0:
232,179,73181,1,0,0:0:0:0:
232,179,73253,1,0,0:0:0:0:
232,179,73324,1,8,0:0:0:0:
232,179,73396,1,8,0:0:0:0:
232,179,73467,1,8,0:0:0:0:
232,179,73538,1,8,0:0:0:0:
232,179,73610,1,8,0:0:0:0:
232,179,73681,1,8,0:0:0:0:
224,185,73753,1,0,0:0:0:0:
235,202,74181,1,8,0:0:0:0:
235,202,74396,1,0,0:0:0:0:
235,202,74503,1,0,0:0:0:0:
235,202,74610,1,0,0:0:0:0:
256,177,74824,1,8,0:0:0:0:
256,177,75038,1,0,0:0:0:0:
232,187,75467,1,4,0:0:0:0:
249,167,75896,1,8,0:0:0:0:
253,167,76038,1,0,0:0:0:0:
253,167,76181,1,0,0:0:0:0:
301,196,76324,1,8,0:0:0:0:
301,196,76378,1,8,0:0:0:0:
301,196,76431,1,0,0:0:0:0:
301,196,76485,1,0,0:0:0:0:
301,196,76538,1,8,0:0:0:0:
301,196,76646,1,8,0:0:0:0:
301,196,76753,1,0,0:0:0:0:
301,196,76806,1,0,0:0:0:0:
301,196,76860,1,0,0:0:0:0:
301,196,76913,1,0,0:0:0:0:
301,196,76967,1,0,0:0:0:0:
301,196,77074,1,0,0:0:0:0:
301,196,77181,1,8,0:0:0:0:
225,151,77610,1,0,0:0:0:0:
230,154,77663,1,0,0:0:0:0:
230,154,77717,1,0,0:0:0:0:
230,154,77771,1,0,0:0:0:0:
230,154,77824,1,0,0:0:0:0:
230,154,77931,1,0,0:0:0:0:
229,155,78038,1,8,0:0:0:0:
229,147,78146,1,0,0:0:0:0:
229,147,78199,1,0,0:0:0:0:
229,147,78253,1,8,0:0:0:0:
229,147,78360,1,0,0:0:0:0:
229,147,78467,1,8,0:0:0:0:
224,147,78521,1,8,0:0:0:0:
225,147,78574,1,8,0:0:0:0:
246,152,78628,1,8,0:0:0:0:
246,152,78681,1,0,0:0:0:0:
246,152,78788,1,0,0:0:0:0:
246,152,78896,1,8,0:0:0:0:
252,205,79181,1,0,0:0:0:0:
252,195,79324,1,8,0:0:0:0:
251,191,79467,1,8,0:0:0:0:
251,191,79610,1,0,0:0:0:0:
281,192,79753,1,8,0:0:0:0:
281,192,79806,1,8,0:0:0:0:
281,192,79860,1,0,0:0:0:0:
256,201,79913,1,0,0:0:0:0:
256,201,79967,1,8,0:0:0:0:
256,201,80074,1,0,0:0:0:0:
255,185,80181,1,8,0:0:0:0:
255,185,80235,1,8,0:0:0:0:
255,185,80288,1,8,0:0:0:0:
255,185,80342,1,8,0:0:0:0:
255,185,80396,1,8,0:0:0:0:
255,185,80503,1,8,0:0:0:0:
255,185,80610,1,0,0:0:0:0:
244,196,81038,1,0,0:0:0:0:
244,196,81092,1,0,0:0:0:0:
244,196,81146,1,0,0:0:0:0:
244,196,81199,1,0,0:0:0:0:
244,196,81253,1,0,0:0:0:0:
244,196,81360,1,0,0:0:0:0:
239,216,81467,5,0,0:0:0:0:
239,216,81521,1,0,0:0:0:0:
239,216,81574,1,0,0:0:0:0:
271,175,81628,1,0,0:0:0:0:
271,175,81681,1,8,0:0:0:0:
271,175,81788,1,0,0:0:0:0:
271,175,81896,1,8,0:0:0:0:
280,186,81949,1,8,0:0:0:0:
281,186,82003,1,8,0:0:0:0:
281,186,82056,1,8,0:0:0:0:
281,186,82110,1,8,0:0:0:0:
281,186,82163,1,8,0:0:0:0:
281,186,82217,1,8,0:0:0:0:
281,186,82271,1,8,0:0:0:0:
281,186,82324,1,0,0:0:0:0:
255,203,82610,1,0,0:0:0:0:
259,199,82753,1,0,0:0:0:0:
259,199,82824,1,0,0:0:0:0:
259,199,82896,1,0,0:0:0:0:
266,201,82967,1,0,0:0:0:0:
267,189,83038,1,0,0:0:0:0:
281,179,83110,1,0,0:0:0:0:
223,210,83181,1,8,0:0:0:0:
245,211,83235,1,8,0:0:0:0:
245,211,83288,1,0,0:0:0:0:
250,208,83396,1,8,0:0:0:0:
250,208,83449,1,8,0:0:0:0:
250,208,83503,1,0,0:0:0:0:
249,203,83610,1,8,0:0:0:0:
249,203,83663,1,8,0:0:0:0:
249,203,83717,1,8,0:0:0:0:
249,203,83771,1,8,0:0:0:0:
249,203,83824,1,8,0:0:0:0:
249,203,83878,1,8,0:0:0:0:
249,203,83931,1,8,0:0:0:0:
249,203,83985,1,8,0:0:0:0:
249,203,84038,1,0,0:0:0:0:
261,196,84253,1,0,0:0:0:0:
246,194,84324,1,0,0:0:0:0:
275,185,84467,1,0,0:0:0:0:
276,186,84538,1,0,0:0:0:0:
276,186,84610,1,0,0:0:0:0:
276,186,84681,1,0,0:0:0:0:
359,170,84753,1,0,0:0:0:0:
255,206,84824,1,0,0:0:0:0:
335,150,84896,1,8,0:0:0:0:
309,165,84949,1,8,0:0:0:0:
306,169,85003,1,8,0:0:0:0:
211,166,85110,1,0,0:0:0:0:
211,182,85217,1,8,0:0:0:0:
248,181,85324,1,0,0:0:0:0:
248,181,85378,1,0,0:0:0:0:
248,181,85431,1,0,0:0:0:0:
248,181,85485,1,0,0:0:0:0:
248,181,85538,1,0,0:0:0:0:
248,181,85592,1,0,0:0:0:0:
248,181,85646,1,0,0:0:0:0:
248,181,85699,1,0,0:0:0:0:
248,181,85753,1,8,0:0:0:0:
273,179,85967,1,0,0:0:0:0:
273,179,86181,1,8,0:0:0:0:
268,215,86396,1,8,0:0:0:0:
268,215,86503,1,8,0:0:0:0:
268,215,86610,1,0,0:0:0:0:
291,204,87253,1,8,0:0:0:0:
295,221,87324,1,8,0:0:0:0:
255,214,87396,1,8,0:0:0:0:
255,214,87467,1,0,0:0:0:0:
268,196,87896,1,8,0:0:0:0:
278,200,88110,1,0,0:0:0:0:
278,200,88217,1,0,0:0:0:0:
278,200,88324,1,0,0:0:0:0:
278,200,88538,1,0,0:0:0:0:
278,200,88753,1,8,0:0:0:0:
267,190,89181,1,0,0:0:0:0:
267,190,89610,1,8,0:0:0:0:
267,190,89824,1,0,0:0:0:0:
267,190,89931,1,8,0:0:0:0:
267,190,90038,1,0,0:0:0:0:
267,190,90253,1,0,0:0:0:0:
267,190,90467,1,8,0:0:0:0:
267,190,90896,1,0,0:0:0:0:
267,190,91110,1,0,0:0:0:0:
267,190,91324,1,8,0:0:0:0:
267,190,91538,1,0,0:0:0:0:
267,190,91753,1,0,0:0:0:0:
267,190,91967,1,0,0:0:0:0:
267,190,92181,1,8,0:0:0:0:
267,190,92396,1,8,0:0:0:0:
267,190,92610,1,8,0:0:0:0:
267,190,92824,1,8,0:0:0:0:
267,190,93038,1,8,0:0:0:0:
267,190,93253,1,8,0:0:0:0:
267,190,93467,1,0,0:0:0:0:
267,190,93681,1,0,0:0:0:0:
267,190,93896,1,0,0:0:0:0:
267,190,94110,1,8,0:0:0:0:
267,190,94324,1,0,0:0:0:0:
267,190,94753,1,8,0:0:0:0:
267,190,94967,1,0,0:0:0:0:
267,190,95074,1,0,0:0:0:0:
267,190,95181,1,0,0:0:0:0:
267,190,95396,1,0,0:0:0:0:
267,190,95610,1,8,0:0:0:0:
267,190,96038,1,0,0:0:0:0:
267,190,96467,1,8,0:0:0:0:
267,190,96681,1,0,0:0:0:0:
267,190,96788,1,8,0:0:0:0:
267,190,96896,1,0,0:0:0:0:
267,190,97110,1,0,0:0:0:0:
267,190,97324,1,8,0:0:0:0:
267,190,97753,1,0,0:0:0:0:
267,190,97967,1,0,0:0:0:0:
267,190,98181,1,8,0:0:0:0:
267,190,98396,1,0,0:0:0:0:
267,190,98610,1,0,0:0:0:0:
267,190,98824,1,0,0:0:0:0:
267,190,99038,1,8,0:0:0:0:
267,190,99253,1,8,0:0:0:0:
249,197,99467,1,0,0:0:0:0:
249,197,99538,1,0,0:0:0:0:
249,197,99610,1,0,0:0:0:0:
249,197,99681,1,0,0:0:0:0:
249,197,99753,1,0,0:0:0:0:
249,197,99824,1,0,0:0:0:0:
249,197,99896,1,0,0:0:0:0:
249,197,99967,1,0,0:0:0:0:
249,197,100038,1,0,0:0:0:0:
249,197,100110,1,0,0:0:0:0:
249,197,100181,1,0,0:0:0:0:
249,197,100253,1,0,0:0:0:0:
249,197,100324,1,8,0:0:0:0:
249,197,100396,1,8,0:0:0:0:
249,197,100467,1,8,0:0:0:0:
249,197,100538,1,8,0:0:0:0:
249,197,100610,1,8,0:0:0:0:
249,197,100681,1,8,0:0:0:0:
249,197,100753,1,8,0:0:0:0:
249,197,100824,1,8,0:0:0:0:
249,197,100896,1,8,0:0:0:0:
249,197,100967,1,8,0:0:0:0:
249,197,101038,1,8,0:0:0:0:
249,197,101110,1,8,0:0:0:0:
249,197,101181,1,0,0:0:0:0:
279,205,101396,1,0,0:0:0:0:
257,208,101610,1,8,0:0:0:0:
279,205,101824,1,0,0:0:0:0:
279,205,101931,1,0,0:0:0:0:
279,205,102038,1,0,0:0:0:0:
279,205,102253,1,0,0:0:0:0:
279,205,102467,1,8,0:0:0:0:
279,205,102896,1,0,0:0:0:0:
279,205,103110,1,0,0:0:0:0:
279,205,103324,1,8,0:0:0:0:
279,205,103538,1,0,0:0:0:0:
279,205,103646,1,8,0:0:0:0:
279,205,103753,1,0,0:0:0:0:
279,205,103967,1,0,0:0:0:0:
279,205,104181,1,8,0:0:0:0:
279,205,104610,1,0,0:0:0:0:
279,205,104824,1,0,0:0:0:0:
279,205,105038,1,8,0:0:0:0:
279,205,105253,1,0,0:0:0:0:
279,205,105360,1,0,0:0:0:0:
279,205,105467,1,0,0:0:0:0:
279,205,105681,1,0,0:0:0:0:
279,205,105896,1,8,0:0:0:0:
279,205,106003,1,0,0:0:0:0:
279,205,106110,1,8,0:0:0:0:
269,205,106324,1,8,0:0:0:0:
269,205,106538,1,8,0:0:0:0:
269,205,106753,1,8,0:0:0:0:
269,205,106967,1,8,0:0:0:0:
269,205,107181,1,0,0:0:0:0:
269,205,107396,1,0,0:0:0:0:
269,205,107610,1,8,0:0:0:0:
269,205,107824,1,8,0:0:0:0:
214,156,107931,1,8,0:0:0:0:
269,205,108038,1,0,0:0:0:0:
261,184,108253,1,0,0:0:0:0:
261,184,108467,1,8,0:0:0:0:
261,184,108681,1,0,0:0:0:0:
261,184,108788,1,0,0:0:0:0:
261,184,108896,1,0,0:0:0:0:
245,177,109110,1,0,0:0:0:0:
245,177,109324,1,8,0:0:0:0:
245,177,109753,1,0,0:0:0:0:
245,177,109967,1,0,0:0:0:0:
245,177,110181,1,8,0:0:0:0:
245,177,110396,1,0,0:0:0:0:
245,177,110503,1,8,0:0:0:0:
245,177,110610,1,0,0:0:0:0:
245,177,110824,1,0,0:0:0:0:
245,177,111038,1,8,0:0:0:0:
221,173,111467,1,0,0:0:0:0:
221,173,111681,1,0,0:0:0:0:
221,173,111896,1,8,0:0:0:0:
230,174,112110,1,0,0:0:0:0:
230,174,112217,1,8,0:0:0:0:
230,174,112324,1,0,0:0:0:0:
230,174,112538,1,0,0:0:0:0:
210,158,112753,1,0,0:0:0:0:
210,158,112860,1,0,0:0:0:0:
201,157,112967,1,8,0:0:0:0:
250,197,113181,1,8,0:0:0:0:
250,197,113396,1,8,0:0:0:0:
250,197,113610,1,8,0:0:0:0:
250,197,113824,1,8,0:0:0:0:
250,197,114038,1,0,0:0:0:0:
250,197,114253,1,0,0:0:0:0:
250,197,114467,1,8,0:0:0:0:
250,197,114681,1,8,0:0:0:0:
243,156,114788,1,8,0:0:0:0:
200,239,114896,1,0,0:0:0:0:
160,142,115324,1,0,0:0:0:0:
252,188,115538,1,8,0:0:0:0:
183,153,115646,1,8,0:0:0:0:
183,153,115753,1,0,0:0:0:0:
252,188,115967,1,8,0:0:0:0:
215,162,116181,1,0,0:0:0:0:
216,162,116288,1,0,0:0:0:0:
216,162,116396,1,0,0:0:0:0:
252,188,116610,1,8,0:0:0:0:
269,148,117038,1,8,0:0:0:0:
269,148,117253,1,8,0:0:0:0:
265,143,117360,1,0,0:0:0:0:
246,138,117467,1,8,0:0:0:0:
252,188,117681,1,0,0:0:0:0:
252,188,117896,1,8,0:0:0:0:
252,188,118003,1,8,0:0:0:0:
252,188,118110,1,8,0:0:0:0:
252,188,118217,1,8,0:0:0:0:
270,107,118324,1,0,0:0:0:0:
248,147,118753,1,0,0:0:0:0:
252,188,118967,1,8,0:0:0:0:
260,164,119181,1,0,0:0:0:0:
252,188,119288,1,0,0:0:0:0:
235,171,119396,1,8,0:0:0:0:
241,171,119503,1,0,0:0:0:0:
252,188,119610,1,8,0:0:0:0:
226,158,119824,1,0,0:0:0:0:
252,188,120038,1,8,0:0:0:0:
225,172,120253,1,0,0:0:0:0:
252,188,120467,1,8,0:0:0:0:
185,103,120681,1,0,0:0:0:0:
185,103,120788,1,0,0:0:0:0:
252,188,120896,1,8,0:0:0:0:
225,172,121110,1,8,0:0:0:0:
252,188,121324,1,0,0:0:0:0:
225,172,121538,1,8,0:0:0:0:
247,180,121646,1,8,0:0:0:0:
252,188,121753,1,0,0:0:0:0:
278,192,122181,1,8,0:0:0:0:
277,192,122396,1,0,0:0:0:0:
276,193,122610,1,0,0:0:0:0:
276,193,122717,1,0,0:0:0:0:
276,193,122824,1,8,0:0:0:0:
276,193,122931,1,0,0:0:0:0:
276,193,123038,1,8,0:0:0:0:
277,192,123253,1,8,0:0:0:0:
276,193,123467,1,0,0:0:0:0:
244,181,123896,1,8,0:0:0:0:
244,181,124110,1,0,0:0:0:0:
244,181,124324,1,8,0:0:0:0:
244,181,124431,1,8,0:0:0:0:
244,181,124538,1,0,0:0:0:0:
244,181,124646,1,0,0:0:0:0:
244,181,124753,1,8,0:0:0:0:
244,181,124967,1,8,0:0:0:0:
244,181,125181,1,0,0:0:0:0:
228,198,125610,1,0,0:0:0:0:
228,198,125824,1,8,0:0:0:0:
228,198,126038,1,0,0:0:0:0:
228,198,126146,1,0,0:0:0:0:
228,198,126253,1,8,0:0:0:0:
228,198,126360,1,0,0:0:0:0:
228,198,126467,1,8,0:0:0:0:
228,198,126574,1,8,0:0:0:0:
228,198,126681,1,0,0:0:0:0:
228,198,126896,1,8,0:0:0:0:
114,151,127110,1,0,0:0:0:0:
256,188,127324,1,8,0:0:0:0:
171,153,127538,1,0,0:0:0:0:
173,114,127646,1,0,0:0:0:0:
256,188,127753,1,8,0:0:0:0:
256,188,127967,1,0,0:0:0:0:
256,188,128181,5,8,0:0:0:0:
173,114,128288,1,8,0:0:0:0:
173,114,128396,1,8,0:0:0:0:
198,90,128503,1,8,0:0:0:0:
245,166,128610,5,0,0:0:0:0:
245,166,129038,1,8,0:0:0:0:
245,166,129253,1,0,0:0:0:0:
245,166,129467,1,0,0:0:0:0:
245,166,129681,1,0,0:0:0:0:
245,166,129896,1,8,0:0:0:0:
245,166,130324,1,0,0:0:0:0:
245,166,130753,1,8,0:0:0:0:
245,166,130967,1,8,0:0:0:0:
245,166,131181,1,0,0:0:0:0:
245,166,131396,1,0,0:0:0:0:
245,166,131610,1,8,0:0:0:0:
245,166,132038,1,0,0:0:0:0:
245,166,132467,1,8,0:0:0:0:
245,166,132681,1,0,0:0:0:0:
245,166,132896,1,0,0:0:0:0:
245,166,133110,1,0,0:0:0:0:
245,166,133324,1,8,0:0:0:0:
245,166,133538,1,8,0:0:0:0:
245,166,133753,1,0,0:0:0:0:
245,166,134181,1,8,0:0:0:0:
245,166,134396,1,8,0:0:0:0:
245,166,134610,1,0,0:0:0:0:
245,166,135038,1,8,0:0:0:0:
245,166,135253,1,8,0:0:0:0:
245,166,135467,1,0,0:0:0:0:
245,166,135896,1,8,0:0:0:0:
245,166,136110,1,0,0:0:0:0:
245,166,136324,1,0,0:0:0:0:
245,166,136538,1,0,0:0:0:0:
241,162,136753,1,8,0:0:0:0:
241,162,137181,1,0,0:0:0:0:
241,162,137610,1,8,0:0:0:0:
241,162,137824,1,8,0:0:0:0:
241,162,138038,1,0,0:0:0:0:
241,162,138253,1,0,0:0:0:0:
241,162,138467,1,8,0:0:0:0:
241,162,138896,1,0,0:0:0:0:
241,162,139753,1,0,0:0:0:0:
241,162,139967,1,0,0:0:0:0:
241,162,140181,1,0,0:0:0:0:
241,162,140396,1,8,0:0:0:0:
241,162,140610,1,8,0:0:0:0:
241,162,141038,1,8,0:0:0:0:
241,162,141467,1,0,0:0:0:0:
241,162,141896,1,0,0:0:0:0:
241,162,142324,1,4,0:0:0:0:
