osu file format v14

[General]
AudioFilename: audio.mp3
AudioLeadIn: 0
PreviewTime: 46324
Countdown: 0
SampleSet: Normal
StackLeniency: 0.7
Mode: 1
LetterboxInBreaks: 0
WidescreenStoryboard: 1

[Editor]
DistanceSpacing: 1
BeatDivisor: 4
GridSize: 32
TimelineZoom: 0.4000038

[Metadata]
Title:MARENOL
TitleUnicode:MARENOL
Artist:LeaF
ArtistUnicode:LeaF
Creator:Raytoly
Version:FUTSUU
Source:
Tags:Rhytoly 除草剤 joso zai THE BMS OF FIGHTERS G2R2018 CLIMAX GO BACK 2 YOUR ROOTS 2018 CLIMAX sdvx sound voltex vivid wave PHANTASMA glitch hardcore horror video game electronic instrumental Featured Artist FA osu!
BeatmapID:2335543
BeatmapSetID:966590

[Difficulty]
HPDrainRate:6.4
CircleSize:7
OverallDifficulty:3.5
ApproachRate:10
SliderMultiplier:1.4
SliderTickRate:1

[Events]
//Background and Video events
0,0,"look sad.jpg",0,50
//Break Periods
//Storyboard Layer 0 (Background)
//Storyboard Layer 1 (Fail)
//Storyboard Layer 2 (Pass)
//Storyboard Layer 3 (Foreground)
//Storyboard Layer 4 (Overlay)
//Storyboard Sound Samples

[TimingPoints]
1755,428.571428571429,4,1,0,100,1,0
1755,-100,4,1,0,100,0,1
3469,-100,4,1,0,60,0,0
5183,428.571428571429,4,1,0,60,1,0
10325,428.571428571429,4,1,0,100,1,0
18896,428.571428571429,4,1,0,100,1,1
32610,-100,4,1,0,40,0,0
34324,-100,4,1,0,60,0,0
42896,-100,4,1,0,100,0,1
44610,-100,4,1,0,40,0,0
53181,-100,4,1,0,100,0,0
64324,-100,4,1,0,60,0,0
66896,-100,4,1,0,100,0,0
73753,-100,4,1,0,60,0,0
75467,-100,4,1,0,100,0,1
85753,-100,4,1,0,60,0,0
87467,-100,4,1,0,40,0,0
99467,-100,4,1,0,100,0,1
101181,-100,4,1,0,80,0,0
128610,-100,4,1,0,40,0,0
138892,-100,4,1,0,20,0,0

[HitObjects]
260,185,1755,5,12,0:0:0:0:
249,211,3469,1,0,0:0:0:0:
256,197,4326,1,0,0:0:0:0:
256,197,4755,1,8,0:0:0:0:
256,197,5183,1,4,0:0:0:0:
256,197,6040,1,0,0:0:0:0:
256,197,6468,1,0,0:0:0:0:
256,197,6897,1,0,0:0:0:0:
256,197,7754,1,8,0:0:0:0:
256,197,8183,1,0,0:0:0:0:
256,197,8611,1,0,0:0:0:0:
256,197,9468,1,8,0:0:0:0:
256,197,9897,1,8,0:0:0:0:
256,197,10325,1,4,0:0:0:0:
255,191,11182,1,8,0:0:0:0:
255,191,11610,1,0,0:0:0:0:
255,191,12039,1,0,0:0:0:0:
255,191,12467,1,8,0:0:0:0:
255,191,12896,1,0,0:0:0:0:
255,191,13753,1,8,0:0:0:0:
255,191,14182,1,0,0:0:0:0:
255,191,14610,1,8,0:0:0:0:
255,191,15039,1,8,0:0:0:0:
261,191,15467,1,4,0:0:0:0:
256,192,15682,12,0,16753,0:0:0:0:
256,191,17182,5,4,0:0:0:0:
194,172,18467,1,8,0:0:0:0:
194,172,18896,1,4,0:0:0:0:
206,178,19324,1,8,0:0:0:0:
206,178,19753,1,0,0:0:0:0:
206,178,19967,1,8,0:0:0:0:
206,178,20181,1,8,0:0:0:0:
206,178,20396,1,8,0:0:0:0:
233,202,20610,1,0,0:0:0:0:
232,194,21038,1,8,0:0:0:0:
232,194,21467,1,0,0:0:0:0:
232,194,21681,1,8,0:0:0:0:
232,194,21896,1,0,0:0:0:0:
232,194,22110,1,0,0:0:0:0:
232,194,22324,1,8,0:0:0:0:
248,178,22753,1,0,0:0:0:0:
248,178,22967,1,0,0:0:0:0:
248,178,23181,1,8,0:0:0:0:
241,163,24038,1,8,0:0:0:0:
241,163,24467,1,8,0:0:0:0:
241,163,24896,1,0,0:0:0:0:
241,163,25324,1,8,0:0:0:0:
241,163,25753,1,4,0:0:0:0:
255,182,26181,5,8,0:0:0:0:
255,182,26610,1,0,0:0:0:0:
255,182,26824,1,0,0:0:0:0:
255,182,27038,1,8,0:0:0:0:
283,182,27467,1,0,0:0:0:0:
283,182,27681,1,0,0:0:0:0:
283,182,27896,1,8,0:0:0:0:
283,182,28110,1,8,0:0:0:0:
291,193,28324,1,0,0:0:0:0:
291,193,28753,1,8,0:0:0:0:
291,193,29181,1,0,0:0:0:0:
267,190,29610,1,0,0:0:0:0:
267,190,29824,1,0,0:0:0:0:
267,190,30038,1,8,0:0:0:0:
251,188,30253,1,0,0:0:0:0:
251,188,30467,1,8,0:0:0:0:
251,188,30896,1,0,0:0:0:0:
261,190,31110,1,0,0:0:0:0:
261,190,31324,1,8,0:0:0:0:
261,190,31538,1,8,0:0:0:0:
261,190,31753,1,0,0:0:0:0:
261,190,32181,1,8,0:0:0:0:
261,190,32610,1,0,0:0:0:0:
253,177,34324,1,0,0:0:0:0:
246,182,34753,1,0,0:0:0:0:
201,113,35181,1,8,0:0:0:0:
246,182,36038,1,0,0:0:0:0:
246,182,36467,1,8,0:0:0:0:
246,182,36896,1,8,0:0:0:0:
257,190,37753,1,0,0:0:0:0:
257,190,38181,1,0,0:0:0:0:
257,190,38610,1,8,0:0:0:0:
257,190,39467,1,4,0:0:0:0:
239,178,41181,1,0,0:0:0:0:
241,190,42896,1,8,0:0:0:0:
188,110,43324,1,0,0:0:0:0:
241,190,43538,1,8,0:0:0:0:
194,87,43753,1,0,0:0:0:0:
241,190,44181,1,8,0:0:0:0:
247,189,44610,1,0,0:0:0:0:
280,163,46324,1,4,0:0:0:0:
271,160,47181,1,0,0:0:0:0:
280,172,47610,1,8,0:0:0:0:
271,160,48038,1,0,0:0:0:0:
271,160,48896,1,0,0:0:0:0:
252,174,49324,1,8,0:0:0:0:
271,160,49753,1,0,0:0:0:0:
271,160,50610,1,0,0:0:0:0:
263,185,51038,1,0,0:0:0:0:
271,160,51467,1,8,0:0:0:0:
236,147,51896,1,8,0:0:0:0:
271,160,52324,1,0,0:0:0:0:
271,160,53181,1,4,0:0:0:0:
273,169,54038,1,0,0:0:0:0:
276,171,54896,1,8,0:0:0:0:
276,171,55753,1,8,0:0:0:0:
276,171,56181,1,8,0:0:0:0:
276,171,56610,1,0,0:0:0:0:
256,171,57467,1,12,0:0:0:0:
256,171,58324,1,8,0:0:0:0:
247,178,59181,1,8,0:0:0:0:
247,178,59610,1,8,0:0:0:0:
247,178,60038,1,0,0:0:0:0:
241,182,60896,1,0,0:0:0:0:
178,188,61753,1,8,0:0:0:0:
214,182,62610,1,8,0:0:0:0:
214,182,63038,1,8,0:0:0:0:
214,182,63467,1,0,0:0:0:0:
247,176,65181,1,8,0:0:0:0:
247,176,65610,1,8,0:0:0:0:
247,176,66038,1,0,0:0:0:0:
247,176,66467,1,0,0:0:0:0:
247,176,66896,1,4,0:0:0:0:
276,174,67753,1,12,0:0:0:0:
276,174,68610,1,0,0:0:0:0:
266,165,69467,1,8,0:0:0:0:
241,177,70324,1,0,0:0:0:0:
241,177,71181,1,12,0:0:0:0:
241,177,72038,1,0,0:0:0:0:
241,177,72896,1,8,0:0:0:0:
262,174,73753,1,0,0:0:0:0:
252,181,75467,1,4,0:0:0:0:
252,181,75896,1,8,0:0:0:0:
252,181,76324,1,0,0:0:0:0:
269,165,76538,1,8,0:0:0:0:
269,165,76753,1,0,0:0:0:0:
278,175,77181,1,8,0:0:0:0:
257,168,77610,1,0,0:0:0:0:
257,168,77824,1,0,0:0:0:0:
257,168,78038,1,8,0:0:0:0:
257,168,78253,1,8,0:0:0:0:
257,168,78467,1,0,0:0:0:0:
257,168,78896,1,0,0:0:0:0:
228,178,79324,1,0,0:0:0:0:
257,184,79538,1,0,0:0:0:0:
239,185,79753,5,8,0:0:0:0:
239,185,80181,1,8,0:0:0:0:
239,185,80610,1,0,0:0:0:0:
272,179,81467,1,0,0:0:0:0:
272,179,81681,1,8,0:0:0:0:
272,179,81896,1,8,0:0:0:0:
272,179,82324,1,0,0:0:0:0:
272,179,83181,1,0,0:0:0:0:
272,179,83396,1,0,0:0:0:0:
272,179,83610,1,8,0:0:0:0:
272,179,84038,1,0,0:0:0:0:
272,179,84896,1,8,0:0:0:0:
272,179,85110,1,8,0:0:0:0:
272,179,85324,1,0,0:0:0:0:
272,179,85753,1,0,0:0:0:0:
256,192,87467,1,8,0:0:0:0:
256,192,89181,1,0,0:0:0:0:
256,192,90896,1,0,0:0:0:0:
256,192,92610,1,8,0:0:0:0:
256,192,93467,1,0,0:0:0:0:
256,192,94324,1,8,0:0:0:0:
256,192,96038,1,0,0:0:0:0:
256,192,97753,1,0,0:0:0:0:
256,192,99467,1,12,0:0:0:0:
256,192,101181,1,0,0:0:0:0:
256,187,102038,1,8,0:0:0:0:
256,187,102896,1,0,0:0:0:0:
256,187,103753,1,0,0:0:0:0:
256,187,104610,1,8,0:0:0:0:
248,172,105467,1,0,0:0:0:0:
248,172,106324,1,8,0:0:0:0:
248,172,107181,1,8,0:0:0:0:
248,172,108038,1,0,0:0:0:0:
256,187,108896,1,8,0:0:0:0:
256,187,109753,1,0,0:0:0:0:
256,187,110610,1,0,0:0:0:0:
256,187,111467,1,8,0:0:0:0:
248,172,112324,1,0,0:0:0:0:
248,172,113181,1,8,0:0:0:0:
248,172,114038,1,8,0:0:0:0:
248,172,114896,1,0,0:0:0:0:
235,194,115753,1,0,0:0:0:0:
235,194,116181,1,8,0:0:0:0:
235,194,116610,1,0,0:0:0:0:
235,194,117467,1,0,0:0:0:0:
235,194,117896,1,8,0:0:0:0:
235,194,118324,1,0,0:0:0:0:
235,194,119181,1,0,0:0:0:0:
235,194,119610,1,8,0:0:0:0:
235,194,120038,1,0,0:0:0:0:
235,194,120467,1,0,0:0:0:0:
235,194,120896,1,8,0:0:0:0:
235,194,121324,1,8,0:0:0:0:
235,194,121753,1,0,0:0:0:0:
235,194,122610,1,0,0:0:0:0:
235,194,123038,1,8,0:0:0:0:
235,194,123467,1,0,0:0:0:0:
235,194,124324,1,0,0:0:0:0:
235,194,124753,1,8,0:0:0:0:
235,194,125181,1,0,0:0:0:0:
235,194,126038,1,0,0:0:0:0:
235,194,126467,1,0,0:0:0:0:
235,194,126896,1,8,0:0:0:0:
235,194,127324,1,0,0:0:0:0:
235,194,127753,1,8,0:0:0:0:
235,194,128181,1,8,0:0:0:0:
235,194,128610,1,0,0:0:0:0:
254,190,130324,5,0,0:0:0:0:
254,190,132038,1,0,0:0:0:0:
254,190,133753,1,0,0:0:0:0:
254,190,134610,1,8,0:0:0:0:
254,190,135467,1,0,0:0:0:0:
254,190,137181,1,0,0:0:0:0:
254,190,138896,1,0,0:0:0:0:
254,190,142324,1,4,0:0:0:0:
