osu file format v14

[General]
AudioFilename: audio.mp3
AudioLeadIn: 0
PreviewTime: 5192
Countdown: 0
SampleSet: Soft
StackLeniency: 0.3
Mode: 0
LetterboxInBreaks: 0
EpilepsyWarning: 1
WidescreenStoryboard: 1

[Editor]
Bookmarks: 3478,10335,17192,32621,39478,46335,53192,66907,73764,87478,99478,101192,114907,128621
DistanceSpacing: 0.8
BeatDivisor: 4
GridSize: 4
TimelineZoom: 1.5

[Metadata]
Title:MARENOL
TitleUnicode:MARENOL
Artist:LeaF
ArtistUnicode:LeaF
Creator:Plaudible
Version:NOVICE
Source:SOUND VOLTEX VIVID WAVE
Tags:lokidoki glitch hardcore horror electronic instrumental 除草剤 Joso zai G2R2018 sdvx BMS
BeatmapID:2241479
BeatmapSetID:1070820

[Difficulty]
HPDrainRate:3
CircleSize:3.5
OverallDifficulty:3
ApproachRate:5
SliderMultiplier:1.2
SliderTickRate:1

[Events]
//Background and Video events
0,0,"bg.jpg",0,0
//Break Periods
2,46335,51992
//Storyboard Layer 0 (Background)
Sprite,Background,Centre,"sb\blood-2.png",321,319 C,0,142335,,174,0,0 F,2,142335,142635,1,0 S,2,142335,142635,0.5 P,0,142335,142635,A
Sprite,Background,Centre,"sb\glow.png",0,0 C,0,101621,,143,143,143 M,0,101621,101674,137,290,130.4432,303.4525 F,2,101621,102249,1,0 S,2,101621,102249,0.3 P,0,101621,102249,A M,0,101674,101728,130.4432,303.4525,125.5463,317.5701 M,0,101728,101781,125.5463,317.5701,122.6831,332.2433 M,0,101781,101835,122.6831,332.2433,121.9126,347.1842 M,0,101835,101888,121.9126,347.1842,123.2539,362.0992 M,0,101888,101942,123.2539,362.0992,127.0407,376.576 M,0,101942,101996,127.0407,376.576,132.5797,390.4516 M,0,101996,102049,132.5797,390.4516,140.0182,403.4145
Sprite,Background,Centre,"sb\glow.png",186,416 C,0,102264,,143,143,143 F,2,102264,102464,1,0 S,2,102264,102464,0.3 P,0,102264,102464,A
Sprite,Background,Centre,"sb\glow.png",0,0 C,0,102478,,143,143,143 M,0,102478,102531,232,427,246.7431,424.2357 F,2,102478,102892,1,0 S,2,102478,102892,0.3 P,0,102478,102892,A M,0,102531,102585,246.7431,424.2357,261.4861,421.4713 M,0,102585,102638,261.4861,421.4713,276.2292,418.707 M,0,102638,102692,276.2292,418.707,290.9724,415.9427
Sprite,Background,Centre,"sb\glow.png",0,0 C,0,102907,,143,143,143 M,0,102907,102960,332,391,346.9234,392.514 F,2,102907,103535,1,0 S,2,102907,103535,0.3 P,0,102907,103535,A M,0,102960,103014,346.9234,392.514,361.8468,394.0279 M,0,103014,103067,361.8468,394.0279,376.7702,395.5419 M,0,103067,103121,376.7702,395.5419,391.6936,397.0559 M,0,103121,103174,391.6936,397.0559,376.7702,395.5419 M,0,103174,103228,376.7702,395.5419,361.8468,394.0279 M,0,103228,103282,361.8468,394.0279,346.9234,392.514 M,0,103282,103335,346.9234,392.514,332,391
Sprite,Background,Centre,"sb\glow.png",0,0 C,0,103764,,143,143,143 M,0,103764,103817,274,313,269.413,298.7524 F,2,103764,104392,1,0 S,2,103764,104392,0.3 P,0,103764,104392,A M,0,103817,103871,269.413,298.7524,266.5101,284.0905 M,0,103871,103924,266.5101,284.0905,265.6317,269.1637 M,0,103924,103978,265.6317,269.1637,266.7962,254.2471 M,0,103978,104031,266.7962,254.2471,269.9854,239.6164 M,0,104031,104085,269.9854,239.6164,275.4494,225.6834 M,0,104085,104139,275.4494,225.6834,282.551,212.5348 M,0,104139,104192,282.551,212.5348,291.38,200.4732
Sprite,Background,Centre,"sb\glow.png",0,0 C,0,104621,,110,110,110 M,0,104621,104674,383,169,385.466,154.2041 F,2,104621,105249,1,0 S,2,104621,105249,0.3 P,0,104621,105249,A M,0,104674,104728,385.466,154.2041,387.932,139.4082 M,0,104728,104781,387.932,139.4082,390.3979,124.6123 M,0,104781,104835,390.3979,124.6123,392.864,109.8164 M,0,104835,104888,392.864,109.8164,390.3979,124.6123 M,0,104888,104942,390.3979,124.6123,387.932,139.4082 M,0,104942,104996,387.932,139.4082,385.466,154.2041 M,0,104996,105049,385.466,154.2041,383,169
Sprite,Background,Centre,"sb\glow.png",0,0 C,0,105478,,110,110,110 M,0,105478,105531,472,204,474.5066,218.7891 F,2,105478,106106,1,0 S,2,105478,106106,0.3 P,0,105478,106106,A M,0,105531,105585,474.5066,218.7891,477.0132,233.5782 M,0,105585,105638,477.0132,233.5782,479.5199,248.3672 M,0,105638,105692,479.5199,248.3672,482,263 M,0,105692,105745,482,263,479.5199,248.3672 M,0,105745,105799,479.5199,248.3672,477.0132,233.5782 M,0,105799,105853,477.0132,233.5782,474.5066,218.7891 M,0,105853,105906,474.5066,218.7891,472,204
Sprite,Background,Centre,"sb\glow.png",426,186 C,0,106121,,110,110,110 F,2,106121,106321,1,0 S,2,106121,106321,0.3 P,0,106121,106321,A
Sprite,Background,Centre,"sb\glow.png",0,0 C,0,106335,,110,110,110 M,0,106335,106388,383,169,369.071,163.4911 F,2,106335,106963,1,0 S,2,106335,106963,0.3 P,0,106335,106963,A M,0,106388,106442,369.071,163.4911,354.6949,159.336 M,0,106442,106495,354.6949,159.336,339.9418,156.8108 M,0,106495,106549,339.9418,156.8108,324.994,155.9477 M,0,106549,106602,324.994,155.9477,310.0369,156.7589 M,0,106602,106656,310.0369,156.7589,295.2557,159.2361 M,0,106656,106710,295.2557,159.2361,280.9367,163.6309 M,0,106710,106763,280.9367,163.6309,267.125,169.3885
Sprite,Background,Centre,"sb\glow.png",237,206 C,0,106978,,110,110,110 F,2,106978,107178,1,0 S,2,106978,107178,0.3 P,0,106978,107178,A
Sprite,Background,Centre,"sb\glow.png",0,0 C,0,107192,,110,110,110 M,0,107192,107245,220,250,222.1923,264.8177 F,2,107192,107820,1,0 S,2,107192,107820,0.3 P,0,107192,107820,A M,0,107245,107299,222.1923,264.8177,225.7937,279.3422 M,0,107299,107352,225.7937,279.3422,231.0041,293.3729 M,0,107352,107406,231.0041,293.3729,237.7589,306.7332 M,0,107406,107459,237.7589,306.7332,245.9741,319.2546 M,0,107459,107513,245.9741,319.2546,255.5476,330.779 M,0,107513,107567,255.5476,330.779,266.3603,341.1606 M,0,107567,107620,266.3603,341.1606,278.4447,350.0111
Sprite,Background,Centre,"sb\glow.png",0,0 C,0,108050,,192,192,192 M,0,108050,108103,373,332,374.2254,317.0501 F,2,108050,108678,1,0 S,2,108050,108678,0.3 P,0,108050,108678,A M,0,108103,108157,374.2254,317.0501,375.4508,302.1003 M,0,108157,108210,375.4508,302.1003,376.6762,287.1504 M,0,108210,108264,376.6762,287.1504,377.9016,272.2006 M,0,108264,108317,377.9016,272.2006,379.127,257.2507 M,0,108317,108371,379.127,257.2507,380.3524,242.3008 M,0,108371,108425,380.3524,242.3008,381.5778,227.351 M,0,108425,108478,381.5778,227.351,382.8032,212.4011
Sprite,Background,Centre,"sb\glow.png",388,164 C,0,108692,,192,192,192 F,2,108692,108892,1,0 S,2,108692,108892,0.3 P,0,108692,108892,A
Sprite,Background,Centre,"sb\glow.png",0,0 C,0,108907,,192,192,192 M,0,108907,108960,391,115,376.8264,110.1969 F,2,108907,109535,1,0 S,2,108907,109535,0.3 P,0,108907,109535,A M,0,108960,109014,376.8264,110.1969,362.2125,107.0712 M,0,109014,109067,362.2125,107.0712,347.2964,105.9864 M,0,109067,109121,347.2964,105.9864,332.3563,106.9669 M,0,109121,109174,332.3563,106.9669,347.2964,105.9864 M,0,109174,109228,347.2964,105.9864,362.2125,107.0712 M,0,109228,109282,362.2125,107.0712,376.8264,110.1969 M,0,109282,109335,376.8264,110.1969,391,115
Sprite,Background,Centre,"sb\glow.png",0,0 C,0,109764,,192,192,192 M,0,109764,109817,474,162,475.2354,176.949 F,2,109764,110392,1,0 S,2,109764,110392,0.3 P,0,109764,110392,A M,0,109817,109871,475.2354,176.949,476.4709,191.8981 M,0,109871,109924,476.4709,191.8981,477.7064,206.8471 M,0,109924,109978,477.7064,206.8471,478.9418,221.7961 M,0,109978,110031,478.9418,221.7961,480.1773,236.7452 M,0,110031,110085,480.1773,236.7452,481.4128,251.6942 M,0,110085,110139,481.4128,251.6942,482.6482,266.6432 M,0,110139,110192,482.6482,266.6432,483.8837,281.5923
Sprite,Background,Centre,"sb\glow.png",486,330 C,0,110407,,192,192,192 F,2,110407,110607,1,0 S,2,110407,110607,0.3 P,0,110407,110607,A
Sprite,Background,Centre,"sb\glow.png",0,0 C,0,110622,,192,192,192 M,0,110622,110675,491,379,505.8719,380.7172 F,2,110622,111250,1,0 S,2,110622,111250,0.3 P,0,110622,111250,A M,0,110675,110729,505.8719,380.7172,520.8235,380.803 M,0,110729,110782,520.8235,380.803,535.6685,378.9618 M,0,110782,110836,535.6685,378.9618,550.1625,375.2215 M,0,110836,110889,550.1625,375.2215,535.6685,378.9618 M,0,110889,110943,535.6685,378.9618,520.8235,380.803 M,0,110943,110997,520.8235,380.803,505.8719,380.7172 M,0,110997,111050,505.8719,380.7172,491,379
Sprite,Background,Centre,"sb\glow.png",0,0 C,0,111478,,143,143,143 M,0,111478,111531,398,354,396.3939,339.0862 F,2,111478,112106,1,0 S,2,111478,112106,0.3 P,0,111478,112106,A M,0,111531,111585,396.3939,339.0862,394.7878,324.1725 M,0,111585,111638,394.7878,324.1725,393.1817,309.2587 M,0,111638,111692,393.1817,309.2587,391.5756,294.3449 M,0,111692,111745,391.5756,294.3449,393.1817,309.2587 M,0,111745,111799,393.1817,309.2587,394.7878,324.1725 M,0,111799,111853,394.7878,324.1725,396.3939,339.0862 M,0,111853,111906,396.3939,339.0862,398,354
Sprite,Background,Centre,"sb\glow.png",0,0 C,0,112335,,143,143,143 M,0,112335,112388,302,342,300.3691,356.9111 F,2,112335,112963,1,0 S,2,112335,112963,0.3 P,0,112335,112963,A M,0,112388,112442,300.3691,356.9111,298.7382,371.8221 M,0,112442,112495,298.7382,371.8221,297.1073,386.7332 M,0,112495,112549,297.1073,386.7332,295.4764,401.6443 M,0,112549,112602,295.4764,401.6443,297.1073,386.7332 M,0,112602,112656,297.1073,386.7332,298.7382,371.8221 M,0,112656,112710,298.7382,371.8221,300.3691,356.9111 M,0,112710,112763,300.3691,356.9111,302,342
Sprite,Background,Centre,"sb\glow.png",255,329 C,0,112978,,143,143,143 F,2,112978,113178,1,0 S,2,112978,113178,0.3 P,0,112978,113178,A
Sprite,Background,Centre,"sb\glow.png",0,0 C,0,113192,,143,143,143 M,0,113192,113245,208,318,201.2711,304.619 F,2,113192,113820,1,0 S,2,113192,113820,0.3 P,0,113192,113820,A M,0,113245,113299,201.2711,304.619,195.8434,290.6746 M,0,113299,113352,195.8434,290.6746,192.0105,276.2043 M,0,113352,113406,192.0105,276.2043,189.8216,261.3872 M,0,113406,113459,189.8216,261.3872,189.3062,246.4066 M,0,113459,113513,189.3062,246.4066,190.8309,231.5069 M,0,113513,113567,190.8309,231.5069,193.7604,216.8332 M,0,113567,113620,193.7604,216.8332,198.2168,202.5315
Sprite,Background,Centre,"sb\glow.png",239,178 C,0,113835,,143,143,143 F,2,113835,114035,1,0 S,2,113835,114035,0.3 P,0,113835,114035,A
Sprite,Background,Centre,"sb\glow.png",0,0 C,0,114050,,143,143,143 M,0,114050,114103,283,158,297.8024,160.4266 F,2,114050,114678,1,0 S,2,114050,114678,0.3 P,0,114050,114678,A M,0,114103,114157,297.8024,160.4266,312.6048,162.8532 M,0,114157,114210,312.6048,162.8532,327.4072,165.2799 M,0,114210,114264,327.4072,165.2799,342.2097,167.7065 M,0,114264,114317,342.2097,167.7065,357.0121,170.1331 M,0,114317,114371,357.0121,170.1331,371.8145,172.5598 M,0,114371,114425,371.8145,172.5598,386.6169,174.9864 M,0,114425,114478,386.6169,174.9864,401.4193,177.413
Sprite,Background,Centre,"sb\glow.png",0,0 C,0,114907,,110,110,110 M,0,114907,114960,490,142,494.2762,156.333 F,2,114907,115535,1,0 S,2,114907,115535,0.3 P,0,114907,115535,A M,0,114960,115014,494.2762,156.333,496.6347,171.0757 M,0,115014,115067,496.6347,171.0757,496.6821,186.0163 M,0,115067,115121,496.6821,186.0163,494.4129,200.7998 M,0,115121,115174,494.4129,200.7998,489.8747,215.0735 M,0,115174,115228,489.8747,215.0735,482.7629,228.2312 M,0,115228,115282,482.7629,228.2312,473.9901,240.3108 M,0,115282,115335,473.9901,240.3108,463.5435,251.0204
Sprite,Background,Centre,"sb\glow.png",424,278 C,0,115550,,110,110,110 F,2,115550,115750,1,0 S,2,115550,115750,0.3 P,0,115550,115750,A
Sprite,Background,Centre,"sb\glow.png",0,0 C,0,115764,,110,110,110 M,0,115764,115817,382,301,367.1407,298.9504 F,2,115764,116392,1,0 S,2,115764,116392,0.3 P,0,115764,116392,A M,0,115817,115871,367.1407,298.9504,352.2814,296.9009 M,0,115871,115924,352.2814,296.9009,337.4221,294.8513 M,0,115924,115978,337.4221,294.8513,322.5627,292.8018 M,0,115978,116031,322.5627,292.8018,337.4221,294.8513 M,0,116031,116085,337.4221,294.8513,352.2814,296.9009 M,0,116085,116139,352.2814,296.9009,367.1407,298.9504 M,0,116139,116192,367.1407,298.9504,382,301
Sprite,Background,Centre,"sb\glow.png",386,397 C,0,116621,,110,110,110 F,2,116621,116821,1,0 S,2,116621,116821,0.3 P,0,116621,116821,A
Sprite,Background,Centre,"sb\glow.png",0,0 C,0,117050,,110,110,110 M,0,117050,117103,291,382,276.2307,379.3796 F,2,117050,117678,1,0 S,2,117050,117678,0.3 P,0,117050,117678,A M,0,117103,117157,276.2307,379.3796,261.4613,376.7593 M,0,117157,117210,261.4613,376.7593,246.692,374.1389 M,0,117210,117264,246.692,374.1389,231.9226,371.5185 M,0,117264,117317,231.9226,371.5185,246.692,374.1389 M,0,117317,117371,246.692,374.1389,261.4613,376.7593 M,0,117371,117425,261.4613,376.7593,276.2307,379.3796 M,0,117425,117478,276.2307,379.3796,291,382
Sprite,Background,Centre,"sb\glow.png",320,343 C,0,117692,,110,110,110 F,2,117692,117892,1,0 S,2,117692,117892,0.3 P,0,117692,117892,A
Sprite,Background,Centre,"sb\glow.png",0,0 C,0,117907,,110,110,110 M,0,117907,117960,346,303,351.3803,289.0771 F,2,117907,118321,1,0 S,2,117907,118321,0.3 P,0,117907,118321,A M,0,117960,118014,351.3803,289.0771,354.3075,274.4871 M,0,118014,118067,354.3075,274.4871,354.2368,259.5855 M,0,118067,118121,354.2368,259.5855,351.159,244.9728
Sprite,Background,Centre,"sb\glow.png",0,0 C,0,118335,,192,192,192 M,0,118335,118388,325,204,310.1925,206.3953 F,2,118335,118963,1,0 S,2,118335,118963,0.3 P,0,118335,118963,A M,0,118388,118442,310.1925,206.3953,295.385,208.7907 M,0,118442,118495,295.385,208.7907,280.5775,211.186 M,0,118495,118549,280.5775,211.186,265.77,213.5813 M,0,118549,118602,265.77,213.5813,280.5775,211.186 M,0,118602,118656,280.5775,211.186,295.385,208.7907 M,0,118656,118710,295.385,208.7907,310.1925,206.3953 M,0,118710,118763,310.1925,206.3953,325,204
Sprite,Background,Centre,"sb\glow.png",0,0 C,0,119192,,192,192,192 M,0,119192,119245,378,124,392.765,121.3555 F,2,119192,119820,1,0 S,2,119192,119820,0.3 P,0,119192,119820,A M,0,119245,119299,392.765,121.3555,407.5301,118.711 M,0,119299,119352,407.5301,118.711,422.2951,116.0665 M,0,119352,119406,422.2951,116.0665,437.0602,113.4221 M,0,119406,119459,437.0602,113.4221,422.2951,116.0665 M,0,119459,119513,422.2951,116.0665,407.5301,118.711 M,0,119513,119567,407.5301,118.711,392.765,121.3555 M,0,119567,119620,392.765,121.3555,378,124
Sprite,Background,Centre,"sb\glow.png",336,100 C,0,119835,,192,192,192 F,2,119835,120035,1,0 S,2,119835,120035,0.3 P,0,119835,120035,A
Sprite,Background,Centre,"sb\glow.png",0,0 C,0,120050,,192,192,192 M,0,120050,120103,336,100,321.5867,95.9391 F,2,120050,120678,1,0 S,2,120050,120678,0.3 P,0,120050,120678,A M,0,120103,120157,321.5867,95.9391,306.8604,93.30533 M,0,120157,120210,306.8604,93.30533,291.9171,92.40679 M,0,120210,120264,291.9171,92.40679,276.9556,93.25894 M,0,120264,120317,276.9556,93.25894,262.283,96.24792 M,0,120317,120371,262.283,96.24792,247.9922,100.6685 M,0,120371,120425,247.9922,100.6685,234.3059,106.7298 M,0,120425,120478,234.3059,106.7298,221.3949,114.3378
Sprite,Background,Centre,"sb\glow.png",185,145 C,0,120692,,192,192,192 F,2,120692,120892,1,0 S,2,120692,120892,0.3 P,0,120692,120892,A
Sprite,Background,Centre,"sb\glow.png",0,0 C,0,120907,,192,192,192 M,0,120907,120960,148,176,150.3269,190.8184 F,2,120907,121535,1,0 S,2,120907,121535,0.3 P,0,120907,121535,A M,0,120960,121014,150.3269,190.8184,152.6537,205.6369 M,0,121014,121067,152.6537,205.6369,154.9806,220.4553 M,0,121067,121121,154.9806,220.4553,157.3074,235.2737 M,0,121121,121174,157.3074,235.2737,159.6343,250.0921 M,0,121174,121228,159.6343,250.0921,161.9612,264.9106 M,0,121228,121282,161.9612,264.9106,164.288,279.729 M,0,121282,121335,164.288,279.729,166.6149,294.5474
Sprite,Background,Centre,"sb\glow.png",0,0 C,0,121764,,143,143,143 M,0,121764,121817,242,354,256.8638,355.9359 F,2,121764,122392,1,0 S,2,121764,122392,0.3 P,0,121764,122392,A M,0,121817,121871,256.8638,355.9359,271.8454,355.696 M,0,121871,121924,271.8454,355.696,286.5438,352.8214 M,0,121924,121978,286.5438,352.8214,300.3769,347.09 M,0,121978,122031,300.3769,347.09,313.7202,340.2833 M,0,122031,122085,313.7202,340.2833,328.2156,336.5549 M,0,122085,122139,328.2156,336.5549,343.1808,335.997 M,0,122139,122192,343.1808,335.997,358.0218,338.068
Sprite,Background,Centre,"sb\glow.png",399,362 C,0,122407,,143,143,143 F,2,122407,122607,1,0 S,2,122407,122607,0.3 P,0,122407,122607,A
Sprite,Background,Centre,"sb\glow.png",0,0 C,0,122621,,143,143,143 M,0,122621,122674,441,383,455.9317,384.1893 F,2,122621,123249,1,0 S,2,122621,123249,0.3 P,0,122621,123249,A M,0,122674,122728,455.9317,384.1893,470.902,384.1403 M,0,122728,122781,470.902,384.1403,485.8065,382.5781 M,0,122781,122835,485.8065,382.5781,500.38,379.1198 M,0,122835,122888,500.38,379.1198,485.8065,382.5781 M,0,122888,122942,485.8065,382.5781,470.902,384.1403 M,0,122942,122996,470.902,384.1403,455.9317,384.1893 M,0,122996,123049,455.9317,384.1893,441,383
Sprite,Background,Centre,"sb\glow.png",460,288 C,0,123478,,143,143,143 F,2,123478,123678,1,0 S,2,123478,123678,0.3 P,0,123478,123678,A
Sprite,Background,Centre,"sb\glow.png",0,0 C,0,123907,,143,143,143 M,0,123907,123960,481,194,495.2998,198.3525 F,2,123907,124535,1,0 S,2,123907,124535,0.3 P,0,123907,124535,A M,0,123960,124014,495.2998,198.3525,508.8591,204.5818 M,0,124014,124067,508.8591,204.5818,521.2474,212.9534 M,0,124067,124121,521.2474,212.9534,531.7358,223.597 M,0,124121,124174,531.7358,223.597,521.2474,212.9534 M,0,124174,124228,521.2474,212.9534,508.8591,204.5818 M,0,124228,124282,508.8591,204.5818,495.2998,198.3525 M,0,124282,124335,495.2998,198.3525,481,194
Sprite,Background,Centre,"sb\glow.png",447,159 C,0,124550,,143,143,143 F,2,124550,124750,1,0 S,2,124550,124750,0.3 P,0,124550,124750,A
Sprite,Background,Centre,"sb\glow.png",0,0 C,0,124764,,143,143,143 M,0,124764,124817,447,159,432.0483,160.203 F,2,124764,125178,1,0 S,2,124764,125178,0.3 P,0,124764,125178,A M,0,124817,124871,432.0483,160.203,417.0966,161.406 M,0,124871,124924,417.0966,161.406,402.145,162.609 M,0,124924,124978,402.145,162.609,387.1933,163.812
Sprite,Background,Centre,"sb\glow.png",0,0 C,0,125192,,110,110,110 M,0,125192,125245,342,147,344.9579,132.3339 F,2,125192,125820,1,0 S,2,125192,125820,0.3 P,0,125192,125820,A M,0,125245,125299,344.9579,132.3339,345.9707,117.4337 M,0,125299,125352,345.9707,117.4337,344.6981,102.5495 M,0,125352,125406,344.6981,102.5495,341.3159,87.97221 M,0,125406,125459,341.3159,87.97221,344.6981,102.5495 M,0,125459,125513,344.6981,102.5495,345.9707,117.4337 M,0,125513,125567,345.9707,117.4337,344.9579,132.3339 M,0,125567,125620,344.9579,132.3339,342,147
Sprite,Background,Centre,"sb\glow.png",0,0 C,0,126050,,110,110,110 M,0,126050,126103,270,211,272.6987,225.7216 F,2,126050,126678,1,0 S,2,126050,126678,0.3 P,0,126050,126678,A M,0,126103,126157,272.6987,225.7216,273.7495,240.633 M,0,126157,126210,273.7495,240.633,272.8147,255.5655 M,0,126210,126264,272.8147,255.5655,270,270 M,0,126264,126317,270,270,272.8147,255.5655 M,0,126317,126371,272.8147,255.5655,273.7495,240.633 M,0,126371,126425,273.7495,240.633,272.6987,225.7216 M,0,126425,126478,272.6987,225.7216,270,211
Sprite,Background,Centre,"sb\glow.png",241,172 C,0,126692,,110,110,110 F,2,126692,126892,1,0 S,2,126692,126892,0.3 P,0,126692,126892,A
Sprite,Background,Centre,"sb\glow.png",0,0 C,0,126907,,110,110,110 M,0,126907,126960,206,137,220.8891,135.179 F,2,126907,127535,1,0 S,2,126907,127535,0.3 P,0,126907,127535,A M,0,126960,127014,220.8891,135.179,235.7781,133.3581 M,0,127014,127067,235.7781,133.3581,250.6672,131.5371 M,0,127067,127121,250.6672,131.5371,265.5562,129.7161 M,0,127121,127174,265.5562,129.7161,280.4453,127.8952 M,0,127174,127228,280.4453,127.8952,295.3344,126.0742 M,0,127228,127282,295.3344,126.0742,310.2234,124.2533 M,0,127282,127335,310.2234,124.2533,325.1125,122.4323
Sprite,Background,Centre,"sb\glow.png",371,136 C,0,127550,,110,110,110 F,2,127550,127750,1,0 S,2,127550,127750,0.3 P,0,127550,127750,A
Sprite,Background,Centre,"sb\glow.png",0,0 C,0,127764,,110,110,110 M,0,127764,127817,415,152,425.7341,162.4249 F,2,127764,128392,1,0 S,2,127764,128392,0.3 P,0,127764,128392,A M,0,127817,127871,425.7341,162.4249,435.0351,174.1135 M,0,127871,127924,435.0351,174.1135,442.4949,187.0596 M,0,127924,127978,442.4949,187.0596,447.9469,200.9771 M,0,127978,128031,447.9469,200.9771,451.2682,215.5588 M,0,128031,128085,451.2682,215.5588,452.3827,230.482 M,0,128085,128139,452.3827,230.482,451.2622,245.4165 M,0,128139,128192,451.2622,245.4165,447.5853,259.9198
Sprite,Background,Centre,"sb\glow.png",0,0 C,0,128621,,192,192,192 M,0,128621,128674,379,327,364.2913,324.0583 F,2,128621,129249,1,0 S,2,128621,129249,0.3 P,0,128621,129249,A M,0,128674,128728,364.2913,324.0583,349.5826,321.1165 M,0,128728,128781,349.5826,321.1165,334.8739,318.1748 M,0,128781,128835,334.8739,318.1748,320.1652,315.233 M,0,128835,128888,320.1652,315.233,305.4565,312.2913 M,0,128888,128942,305.4565,312.2913,290.7477,309.3495 M,0,128942,128996,290.7477,309.3495,276.039,306.4078 M,0,128996,129049,276.039,306.4078,261.3303,303.4661
Sprite,Background,Centre,"sb\glow.png",0,0 C,0,129478,,192,192,192 M,0,129478,129531,182,249,167.0832,250.2122 F,2,129478,130106,1,0 S,2,129478,130106,0.3 P,0,129478,130106,A M,0,129531,129585,167.0832,250.2122,152.3965,253.0086 M,0,129585,129638,152.3965,253.0086,138.1759,257.6957 M,0,129638,129692,138.1759,257.6957,124.9046,264.6087 M,0,129692,129745,124.9046,264.6087,138.1759,257.6957 M,0,129745,129799,138.1759,257.6957,152.3965,253.0086 M,0,129799,129853,152.3965,253.0086,167.0832,250.2122 M,0,129853,129906,167.0832,250.2122,182,249
Sprite,Background,Centre,"sb\glow.png",0,0 C,0,130335,,143,143,143 M,0,130335,130388,261,304,275.9541,304.461 F,2,130335,130963,1,0 S,2,130335,130963,0.3 P,0,130335,130963,A M,0,130388,130442,275.9541,304.461,290.8241,303.0529 M,0,130442,130495,290.8241,303.0529,305.3323,299.4619 M,0,130495,130549,305.3323,299.4619,319.1642,293.762 M,0,130549,130602,319.1642,293.762,332.0184,286.0713 M,0,130602,130656,332.0184,286.0713,343.2876,276.2314 M,0,130656,130710,343.2876,276.2314,353.2063,265.0651 M,0,130710,130763,353.2063,265.0651,361.3721,252.5492
Sprite,Background,Centre,"sb\glow.png",0,0 C,0,131192,,143,143,143 M,0,131192,131245,432,188,428.4135,173.4665 F,2,131192,131820,1,0 S,2,131192,131820,0.3 P,0,131192,131820,A M,0,131245,131299,428.4135,173.4665,426.3919,158.6513 M,0,131299,131352,426.3919,158.6513,426.2691,143.6867 M,0,131352,131406,426.2691,143.6867,428,129 M,0,131406,131459,428,129,426.2691,143.6867 M,0,131459,131513,426.2691,143.6867,426.3919,158.6513 M,0,131513,131566,426.3919,158.6513,428.4135,173.4665 M,0,131566,131620,428.4135,173.4665,432,188
Sprite,Background,Centre,"sb\glow.png",0,0 C,0,132050,,143,143,143 M,0,132050,132103,516,233,523.1767,246.1462 F,2,132050,132678,1,0 S,2,132050,132678,0.3 P,0,132050,132678,A M,0,132103,132157,523.1767,246.1462,529.0594,259.9044 M,0,132157,132210,529.0594,259.9044,533.3541,274.2433 M,0,132210,132264,533.3541,274.2433,536.0049,288.9829 M,0,132264,132317,536.0049,288.9829,536.9761,303.9377 M,0,132317,132371,536.9761,303.9377,535.927,318.8779 M,0,132371,132424,535.927,318.8779,533.4279,333.6298 M,0,132424,132478,533.4279,333.6298,529.3997,348.0567
Sprite,Background,Centre,"sb\glow.png",0,0 C,0,132907,,143,143,143 M,0,132907,132960,448,399,440.8233,385.8538 F,2,132907,133535,1,0 S,2,132907,133535,0.3 P,0,132907,133535,A M,0,132960,133014,440.8233,385.8538,434.9405,372.0956 M,0,133014,133067,434.9405,372.0956,430.6459,357.7566 M,0,133067,133121,430.6459,357.7566,427.9951,343.0171 M,0,133121,133174,427.9951,343.0171,427.0239,328.0623 M,0,133174,133228,427.0239,328.0623,428.0731,313.1221 M,0,133228,133281,428.0731,313.1221,430.5721,298.3702 M,0,133281,133335,430.5721,298.3702,434.6003,283.9433
Sprite,Background,Centre,"sb\glow.png",516,233 C,0,133764,,143,143,143 F,2,133764,133964,1,0 S,2,133764,133964,0.3 P,0,133764,133964,A
Sprite,Background,Centre,"sb\glow.png",491,140 C,0,134192,,143,143,143 F,2,134192,134392,1,0 S,2,134192,134392,0.3 P,0,134192,134392,A
Sprite,Background,Centre,"sb\glow.png",394,138 C,0,134621,,143,143,143 F,2,134621,134821,1,0 S,2,134621,134821,0.3 P,0,134621,134821,A
Sprite,Background,Centre,"sb\glow.png",358,227 C,0,135050,,143,143,143 F,2,135050,135250,1,0 S,2,135050,135250,0.3 P,0,135050,135250,A
Sprite,Background,Centre,"sb\glow.png",0,0 C,0,135478,,110,110,110 M,0,135478,135531,434,283,424.7697,294.7665 F,2,135478,136106,1,0 S,2,135478,136106,0.3 P,0,135478,136106,A M,0,135531,135585,424.7697,294.7665,414.0166,305.1157 M,0,135585,135638,414.0166,305.1157,401.7169,313.5804 M,0,135638,135692,401.7169,313.5804,388.1944,319.9341 M,0,135692,135745,388.1944,319.9341,373.8051,324.0052 M,0,135745,135799,373.8051,324.0052,358.9284,325.6806 M,0,135799,135852,358.9284,325.6806,344.0219,324.4963 M,0,135852,135906,344.0219,324.4963,329.4669,321.2059
Sprite,Background,Centre,"sb\glow.png",0,0 C,0,136335,,110,110,110 M,0,136335,136388,261,253,246.235,255.6445 F,2,136335,136963,1,0 S,2,136335,136963,0.3 P,0,136335,136963,A M,0,136388,136442,246.235,255.6445,231.4699,258.289 M,0,136442,136495,231.4699,258.289,216.7048,260.9335 M,0,136495,136549,216.7048,260.9335,201.9398,263.5779 M,0,136549,136602,201.9398,263.5779,216.7048,260.9335 M,0,136602,136656,216.7048,260.9335,231.4699,258.289 M,0,136656,136709,231.4699,258.289,246.235,255.6445 M,0,136709,136763,246.235,255.6445,261,253
Sprite,Background,Centre,"sb\glow.png",0,0 C,0,137192,,110,110,110 M,0,137192,137245,317,175,318.8542,160.142 F,2,137192,137820,1,0 S,2,137192,137820,0.3 P,0,137192,137820,A M,0,137245,137299,318.8542,160.142,319.1199,145.189 M,0,137299,137352,319.1199,145.189,317.517,130.3152 M,0,137352,137406,317.517,130.3152,314.0685,115.751 M,0,137406,137459,314.0685,115.751,308.826,101.7226 M,0,137459,137513,308.826,101.7226,301.8678,88.44818 M,0,137513,137566,301.8678,88.44818,293.0157,76.3719 M,0,137566,137620,293.0157,76.3719,282.94,65.32037
Sprite,Background,Centre,"sb\glow.png",0,0 C,0,138050,,110,110,110 M,0,138050,138103,191,93,176.3009,90.01036 F,2,138050,138678,1,0 S,2,138050,138678,0.3 P,0,138050,138678,A M,0,138103,138157,176.3009,90.01036,161.6019,87.02072 M,0,138157,138210,161.6019,87.02072,146.9028,84.03109 M,0,138210,138264,146.9028,84.03109,132.2038,81.04145 M,0,138264,138317,132.2038,81.04145,146.9028,84.03109 M,0,138317,138371,146.9028,84.03109,161.6019,87.02072 M,0,138371,138424,161.6019,87.02072,176.3009,90.01036 M,0,138424,138478,176.3009,90.01036,191,93
Sprite,Background,Centre,"sb\glow.png",225,182 C,0,138907,,192,192,192 F,2,138907,139107,1,0 S,2,138907,139107,0.3 P,0,138907,139107,A
Sprite,Background,Centre,"sb\glow.png",0,0 C,0,139764,,192,192,192 M,0,139764,139817,401,257,405.5849,271.2656 F,2,139764,140392,1,0 S,2,139764,140392,0.3 P,0,139764,140392,A M,0,139817,139871,405.5849,271.2656,409.0692,285.8302 M,0,139871,139924,409.0692,285.8302,411.2119,300.6584 M,0,139924,139978,411.2119,300.6584,411.9939,315.6302 M,0,139978,140031,411.9939,315.6302,411.0767,330.5863 M,0,140031,140085,411.0767,330.5863,409.0187,345.4195 M,0,140085,140138,409.0187,345.4195,405.6153,360.0095 M,0,140138,140192,405.6153,360.0095,401,374
Sprite,Background,Centre,"sb\glow.png",0,0 C,0,140621,,192,192,192 M,0,140621,140674,316,419,301.0551,417.7157 F,2,140621,141678,1,0 S,2,140621,141678,0.3 P,0,140621,141678,A M,0,140674,140728,301.0551,417.7157,286.1102,416.4313 M,0,140728,140781,286.1102,416.4313,271.1653,415.147 M,0,140781,140835,271.1653,415.147,256.2203,413.8627 M,0,140835,140888,256.2203,413.8627,241.2754,412.5784 M,0,140888,140942,241.2754,412.5784,226.3305,411.294 M,0,140942,140995,226.3305,411.294,211.3856,410.0097 M,0,140995,141049,211.3856,410.0097,196.4407,408.7254 M,0,141049,141103,196.4407,408.7254,211.3856,410.0097 M,0,141103,141156,211.3856,410.0097,226.3305,411.294 M,0,141156,141210,226.3305,411.294,241.2754,412.5784 M,0,141210,141263,241.2754,412.5784,256.2203,413.8627 M,0,141263,141317,256.2203,413.8627,271.1653,415.147 M,0,141317,141370,271.1653,415.147,286.1102,416.4313 M,0,141370,141424,286.1102,416.4313,301.0551,417.7157 M,0,141424,141478,301.0551,417.7157,316,419
Sprite,Background,Centre,"sb\glow.png",401,374 C,0,141907,,192,192,192 F,2,141907,142107,1,0 S,2,141907,142107,0.3 P,0,141907,142107,A
Sprite,Background,Centre,"sb\glow.png",0,0 C,0,87478,,192,192,192 M,0,87478,87531,292,318,278.6411,319.803 F,2,87478,88106,1,0 S,2,87478,88106,0.3 P,0,87478,88106,A M,0,87531,87585,278.6411,319.803,265.1855,320.5001 M,0,87585,87638,265.1855,320.5001,251.7419,319.5547 M,0,87638,87692,251.7419,319.5547,238.4598,317.3448 M,0,87692,87745,238.4598,317.3448,225.4611,313.7952 M,0,87745,87799,225.4611,313.7952,212.9934,308.6782 M,0,87799,87853,212.9934,308.6782,201.0699,302.4221 M,0,87853,87906,201.0699,302.4221,189.8343,294.9819
Sprite,Background,Centre,"sb\glow.png",0,0 C,0,88335,,192,192,192 M,0,88335,88388,156,215,158.0957,201.6637 F,2,88335,88963,1,0 S,2,88335,88963,0.3 P,0,88335,88963,A M,0,88388,88442,158.0957,201.6637,160.1914,188.3273 M,0,88442,88495,160.1914,188.3273,162.2871,174.991 M,0,88495,88549,162.2871,174.991,164.3828,161.6546 M,0,88549,88602,164.3828,161.6546,162.2871,174.991 M,0,88602,88656,162.2871,174.991,160.1914,188.3273 M,0,88656,88710,160.1914,188.3273,158.0957,201.6637 M,0,88710,88763,158.0957,201.6637,156,215
Sprite,Background,Centre,"sb\glow.png",0,0 C,0,89192,,192,192,192 M,0,89192,89245,189,295,202.2969,292.6672 F,2,89192,89820,1,0 S,2,89192,89820,0.3 P,0,89192,89820,A M,0,89245,89299,202.2969,292.6672,215.5938,290.3344 M,0,89299,89352,215.5938,290.3344,228.8908,288.0016 M,0,89352,89406,228.8908,288.0016,242.1877,285.6688 M,0,89406,89459,242.1877,285.6688,255.4846,283.336 M,0,89459,89513,255.4846,283.336,268.7815,281.0032 M,0,89513,89567,268.7815,281.0032,282.0784,278.6704 M,0,89567,89620,282.0784,278.6704,295.3754,276.3376
Sprite,Background,Centre,"sb\glow.png",0,0 C,0,90049,,192,192,192 M,0,90049,90102,372,238,378.15,249.9309 F,2,90049,90677,1,0 S,2,90049,90677,0.3 P,0,90049,90677,A M,0,90102,90156,378.15,249.9309,382.5997,262.616 M,0,90156,90209,382.5997,262.616,383.6823,275.9903 M,0,90209,90263,383.6823,275.9903,382.83,289.3885 M,0,90263,90316,382.83,289.3885,383.6823,275.9903 M,0,90316,90370,383.6823,275.9903,382.5997,262.616 M,0,90370,90424,382.5997,262.616,378.15,249.9309 M,0,90424,90477,378.15,249.9309,372,238
Sprite,Background,Centre,"sb\glow.png",0,0 C,0,90907,,143,143,143 M,0,90907,90960,300,189,313.2912,186.6346 F,2,90907,91535,1,0 S,2,90907,91535,0.3 P,0,90907,91535,A M,0,90960,91014,313.2912,186.6346,326.5823,184.2692 M,0,91014,91067,326.5823,184.2692,339.8735,181.9039 M,0,91067,91121,339.8735,181.9039,353.1646,179.5385 M,0,91121,91174,353.1646,179.5385,366.4558,177.1731 M,0,91174,91228,366.4558,177.1731,379.747,174.8077 M,0,91228,91282,379.747,174.8077,393.0381,172.4424 M,0,91282,91335,393.0381,172.4424,406.3293,170.077
Sprite,Background,Centre,"sb\glow.png",0,0 C,0,91764,,143,143,143 M,0,91764,91817,462,104,471.3528,113.6808 F,2,91764,92392,1,0 S,2,91764,92392,0.3 P,0,91764,92392,A M,0,91817,91871,471.3528,113.6808,479.5959,124.3162 M,0,91871,91924,479.5959,124.3162,485.8547,136.2273 M,0,91924,91978,485.8547,136.2273,490.6259,148.79 M,0,91978,92031,490.6259,148.79,493.6433,161.9249 M,0,92031,92085,493.6433,161.9249,494.1837,175.3738 M,0,92085,92139,494.1837,175.3738,493.2358,188.7931 M,0,92139,92192,493.2358,188.7931,489.9828,201.8485
Sprite,Background,Centre,"sb\glow.png",422,256 C,0,92621,,110,110,110 F,2,92621,92821,1,0 S,2,92621,92821,0.3 P,0,92621,92821,A
Sprite,Background,Centre,"sb\glow.png",454,336 C,0,93050,,110,110,110 F,2,93050,93250,1,0 S,2,93050,93250,0.3 P,0,93050,93250,A
Sprite,Background,Centre,"sb\glow.png",404,406 C,0,93478,,110,110,110 F,2,93478,93678,1,0 S,2,93478,93678,0.3 P,0,93478,93678,A
Sprite,Background,Centre,"sb\glow.png",368,327 C,0,93907,,110,110,110 F,2,93907,94107,1,0 S,2,93907,94107,0.3 P,0,93907,94107,A
Sprite,Background,Centre,"sb\glow.png",0,0 C,0,94335,,192,192,192 M,0,94335,94388,422,256,418.2382,243.075 F,2,94335,94963,1,0 S,2,94335,94963,0.3 P,0,94335,94963,A M,0,94388,94442,418.2382,243.075,413.0464,230.6666 M,0,94442,94495,413.0464,230.6666,405.8174,219.3184 M,0,94495,94549,405.8174,219.3184,397.2043,209.0103 M,0,94549,94602,397.2043,209.0103,387.2176,199.9913 M,0,94602,94656,387.2176,199.9913,375.8176,192.8421 M,0,94656,94710,375.8176,192.8421,363.6319,187.1831 M,0,94710,94763,363.6319,187.1831,350.7567,183.216
Sprite,Background,Centre,"sb\glow.png",0,0 C,0,95192,,192,192,192 M,0,95192,95245,266,202,252.7785,199.2718 F,2,95192,95820,1,0 S,2,95192,95820,0.3 P,0,95192,95820,A M,0,95245,95299,252.7785,199.2718,239.5571,196.5435 M,0,95299,95352,239.5571,196.5435,226.3356,193.8153 M,0,95352,95406,226.3356,193.8153,213.1142,191.0871 M,0,95406,95459,213.1142,191.0871,226.3356,193.8153 M,0,95459,95513,226.3356,193.8153,239.5571,196.5435 M,0,95513,95567,239.5571,196.5435,252.7785,199.2718 M,0,95567,95620,252.7785,199.2718,266,202
Sprite,Background,Centre,"sb\glow.png",0,0 C,0,96050,,143,143,143 M,0,96050,96103,350,183,363.36,184.9393 F,2,96050,96678,1,0 S,2,96050,96678,0.3 P,0,96050,96678,A M,0,96103,96157,363.36,184.9393,376.7199,186.8787 M,0,96157,96210,376.7199,186.8787,390.0799,188.8181 M,0,96210,96264,390.0799,188.8181,403.4399,190.7574 M,0,96264,96317,403.4399,190.7574,416.7999,192.6968 M,0,96317,96371,416.7999,192.6968,430.1599,194.6361 M,0,96371,96425,430.1599,194.6361,443.5198,196.5755 M,0,96425,96478,443.5198,196.5755,456.8798,198.5148
Sprite,Background,Centre,"sb\glow.png",0,0 C,0,96907,,143,143,143 M,0,96907,96960,533,238,539.2983,226.1346 F,2,96907,97535,1,0 S,2,96907,97535,0.3 P,0,96907,97535,A M,0,96960,97014,539.2983,226.1346,543.9058,213.5174 M,0,97014,97067,543.9058,213.5174,545.4954,200.1864 M,0,97067,97121,545.4954,200.1864,545.0693,186.7887 M,0,97121,97174,545.0693,186.7887,545.4954,200.1864 M,0,97174,97228,545.4954,200.1864,543.9058,213.5174 M,0,97228,97282,543.9058,213.5174,539.2983,226.1346 M,0,97282,97335,539.2983,226.1346,533,238
Sprite,Background,Centre,"sb\glow.png",456,290 C,0,97764,,110,110,110 F,2,97764,97964,1,0 S,2,97764,97964,0.3 P,0,97764,97964,A
Sprite,Background,Centre,"sb\glow.png",0,0 C,0,75907,,255,0,0 M,0,75907,75960,501,216,487.5741,216.7408 F,2,75907,76321,1,0 S,2,75907,76321,0.3 P,0,75907,76321,A M,0,75960,76014,487.5741,216.7408,474.1804,215.7103 M,0,76014,76067,474.1804,215.7103,461.262,212.0097 M,0,76067,76121,461.262,212.0097,449.0663,206.4376
Sprite,Background,Centre,"sb\glow.png",0,0 C,0,76335,,255,0,0 M,0,76335,76388,415,178,401.543,176.9234 F,2,76335,76963,1,0 S,2,76335,76963,0.3 P,0,76335,76963,A M,0,76388,76442,401.543,176.9234,388.086,175.8469 M,0,76442,76495,388.086,175.8469,374.629,174.7703 M,0,76495,76549,374.629,174.7703,361.172,173.6938 M,0,76549,76602,361.172,173.6938,347.715,172.6172 M,0,76602,76656,347.715,172.6172,334.258,171.5406 M,0,76656,76710,334.258,171.5406,320.801,170.4641 M,0,76710,76763,320.801,170.4641,307.344,169.3875
Sprite,Background,Centre,"sb\glow.png",0,0 C,0,77192,,255,0,0 M,0,77192,77245,239,115,233.9862,127.5344 F,2,77192,77820,1,0 S,2,77192,77820,0.3 P,0,77192,77820,A M,0,77245,77299,233.9862,127.5344,228.9725,140.0689 M,0,77299,77352,228.9725,140.0689,223.9587,152.6033 M,0,77352,77406,223.9587,152.6033,219.0332,165.1446 M,0,77406,77459,219.0332,165.1446,222.053,178.3025 M,0,77459,77513,222.053,178.3025,225.0729,191.4604 M,0,77513,77567,225.0729,191.4604,228.0927,204.6183 M,0,77567,77620,228.0927,204.6183,231.1126,217.7762
Sprite,Background,Centre,"sb\glow.png",242,259 C,0,77835,,255,0,0 F,2,77835,78035,1,0 S,2,77835,78035,0.3 P,0,77835,78035,A
Sprite,Background,Centre,"sb\glow.png",0,0 C,0,78050,,255,0,0 M,0,78050,78103,251,301,264.3011,303.3085 F,2,78050,78678,1,0 S,2,78050,78678,0.3 P,0,78050,78678,A M,0,78103,78157,264.3011,303.3085,277.6023,305.6169 M,0,78157,78210,277.6023,305.6169,290.9035,307.9254 M,0,78210,78264,290.9035,307.9254,304.2047,310.2339 M,0,78264,78317,304.2047,310.2339,317.5058,312.5423 M,0,78317,78371,317.5058,312.5423,330.807,314.8508 M,0,78371,78425,330.807,314.8508,344.1082,317.1593 M,0,78425,78478,344.1082,317.1593,357.4093,319.4677
Sprite,Background,Centre,"sb\glow.png",430,274 C,0,78907,,174,0,0 F,2,78907,79107,1,0 S,2,78907,79107,0.3 P,0,78907,79107,A
Sprite,Background,Centre,"sb\glow.png",0,0 C,0,79335,,174,0,0 M,0,79335,79388,501,226,492.1559,215.889 F,2,79335,79749,1,0 S,2,79335,79749,0.3 P,0,79335,79749,A M,0,79388,79442,492.1559,215.889,481.8083,207.3594 M,0,79442,79495,481.8083,207.3594,470.2754,200.573 M,0,79495,79549,470.2754,200.573,457.563,196.3006
Sprite,Background,Centre,"sb\glow.png",0,0 C,0,79764,,174,0,0 M,0,79764,79817,415,185,402.1928,189.2691 F,2,79764,80392,1,0 S,2,79764,80392,0.3 P,0,79764,80392,A M,0,79817,79871,402.1928,189.2691,389.3856,193.5381 M,0,79871,79924,389.3856,193.5381,376.5783,197.8072 M,0,79924,79978,376.5783,197.8072,363.4802,199.2238 M,0,79978,80031,363.4802,199.2238,350.0749,197.628 M,0,80031,80085,350.0749,197.628,336.6695,196.0321 M,0,80085,80139,336.6695,196.0321,323.2642,194.4362 M,0,80139,80192,323.2642,194.4362,309.8588,192.8403
Sprite,Background,Centre,"sb\glow.png",224,182 C,0,80621,,174,0,0 F,2,80621,80821,1,0 S,2,80621,80821,0.3 P,0,80621,80821,A
Sprite,Background,Centre,"sb\glow.png",0,0 C,0,81050,,174,0,0 M,0,81050,81103,147,222,154.0749,233.4467 F,2,81050,81678,1,0 S,2,81050,81678,0.3 P,0,81050,81678,A M,0,81103,81157,154.0749,233.4467,162.4723,243.9445 M,0,81157,81210,162.4723,243.9445,172.6186,252.7731 M,0,81210,81264,172.6186,252.7731,183.8678,260.0975 M,0,81264,81317,183.8678,260.0975,196.1037,265.6726 M,0,81317,81371,196.1037,265.6726,209.1499,268.9442 M,0,81371,81425,209.1499,268.9442,222.4956,270.3991 M,0,81425,81478,222.4956,270.3991,235.9527,269.9412
Sprite,Background,Centre,"sb\glow.png",278,262 C,0,81692,,174,0,0 F,2,81692,81892,1,0 S,2,81692,81892,0.3 P,0,81692,81892,A
Sprite,Background,Centre,"sb\glow.png",0,0 C,0,81907,,174,0,0 M,0,81907,81960,321,257,334.2757,259.4509 F,2,81907,82321,1,0 S,2,81907,82321,0.3 P,0,81907,82321,A M,0,81960,82014,334.2757,259.4509,347.5513,261.9018 M,0,82014,82067,347.5513,261.9018,360.827,264.3527 M,0,82067,82121,360.827,264.3527,374.1026,266.8036
Sprite,Background,Centre,"sb\glow.png",416,276 C,0,82335,,255,0,0 F,2,82335,82535,1,0 S,2,82335,82535,0.3 P,0,82335,82535,A
Sprite,Background,Centre,"sb\glow.png",0,0 C,0,82764,,255,0,0 M,0,82764,82817,486,226,488.2194,212.6837 F,2,82764,83178,1,0 S,2,82764,83178,0.3 P,0,82764,83178,A M,0,82817,82871,488.2194,212.6837,490.4388,199.3674 M,0,82871,82924,490.4388,199.3674,492.6582,186.051 M,0,82924,82978,492.6582,186.051,494.8775,172.7347
Sprite,Background,Centre,"sb\glow.png",0,0 C,0,83192,,255,0,0 M,0,83192,83245,468,139,455.2865,134.4595 F,2,83192,83606,1,0 S,2,83192,83606,0.3 P,0,83192,83606,A M,0,83245,83299,455.2865,134.4595,442.573,129.9189 M,0,83299,83352,442.573,129.9189,429.283,130.0456 M,0,83352,83406,429.283,130.0456,415.8468,131.3564
Sprite,Background,Centre,"sb\glow.png",376,149 C,0,83621,,255,0,0 F,2,83621,83821,1,0 S,2,83621,83821,0.3 P,0,83621,83821,A
Sprite,Background,Centre,"sb\glow.png",297,112 C,0,84050,,174,0,0 F,2,84050,84250,1,0 S,2,84050,84250,0.3 P,0,84050,84250,A
Sprite,Background,Centre,"sb\glow.png",0,0 C,0,84478,,174,0,0 M,0,84478,84531,220,72,214.93,84.45988 F,2,84478,85106,1,0 S,2,84478,85106,0.3 P,0,84478,85106,A M,0,84531,84585,214.93,84.45988,211.3368,97.42374 M,0,84585,84638,211.3368,97.42374,210.3565,110.8344 M,0,84638,84692,210.3565,110.8344,211.068,124.2491 M,0,84692,84745,211.068,124.2491,214.2701,137.3044 M,0,84745,84799,214.2701,137.3044,219.203,149.7846 M,0,84799,84853,219.203,149.7846,225.9501,161.4427 M,0,84853,84906,225.9501,161.4427,234.7296,171.669
Sprite,Background,Centre,"sb\glow.png",270,195 C,0,85121,,174,0,0 F,2,85121,85321,1,0 S,2,85121,85321,0.3 P,0,85121,85321,A
Sprite,Background,Centre,"sb\glow.png",0,0 C,0,85335,,174,0,0 M,0,85335,85388,309,212,306.5458,225.275 F,2,85335,85963,1,0 S,2,85335,85963,0.3 P,0,85335,85963,A M,0,85388,85442,306.5458,225.275,304.0916,238.5501 M,0,85442,85495,304.0916,238.5501,301.6374,251.8251 M,0,85495,85549,301.6374,251.8251,299.1832,265.1002 M,0,85549,85602,299.1832,265.1002,296.7289,278.3752 M,0,85602,85656,296.7289,278.3752,294.2747,291.6503 M,0,85656,85710,294.2747,291.6503,291.8205,304.9253 M,0,85710,85763,291.8205,304.9253,289.3663,318.2004
Sprite,Background,Centre,"sb\blood-1.png",278,352 C,0,72907,,174,0,0 F,2,72907,73749,1,0 S,2,72907,73749,0.5 P,0,72907,73749,A
Sprite,Background,Centre,"sb\blood-2.png",81,89 C,0,71192,,174,0,0 F,2,71192,72034,1,0 S,2,71192,72034,0.5 P,0,71192,72034,A
Sprite,Background,Centre,"sb\blood-1.png",416,230 C,0,69478,,255,0,0 F,2,69478,70320,1,0 S,2,69478,70320,0.5 P,0,69478,70320,A
Sprite,Background,Centre,"sb\blood-2.png",123,379 C,0,67764,,174,0,0 F,2,67764,68606,1,0 S,2,67764,68606,0.5 P,0,67764,68606,A
Sprite,Background,Centre,"sb\glow.png",192,221 C,0,66907,,110,110,110 F,2,66907,67107,1,0 S,2,66907,67107,0.3 P,0,66907,67107,A
Sprite,Background,Centre,"sb\glow.png",0,0 C,0,67764,,174,0,0 M,0,67764,67817,123,379,136.457,380.0766 F,2,67764,68606,1,0 S,2,67764,68606,0.3 P,0,67764,68606,A M,0,67817,67871,136.457,380.0766,149.4994,379.8005 M,0,67871,67924,149.4994,379.8005,159.9924,381.4436 M,0,67924,67978,159.9924,381.4436,173.4099,382.9344 M,0,67978,68031,173.4099,382.9344,186.8273,384.4253 M,0,68031,68085,186.8273,384.4253,198.3559,379.6693 M,0,68085,68139,198.3559,379.6693,208.6995,370.994 M,0,68139,68192,208.6995,370.994,219.0431,362.3187 M,0,68192,68246,219.0431,362.3187,231.2846,359.9205 M,0,68246,68299,231.2846,359.9205,244.7021,361.4113 M,0,68299,68353,244.7021,361.4113,256.0598,359.4131 M,0,68353,68406,256.0598,359.4131,268.1819,363.3138
Sprite,Background,Centre,"sb\glow.png",311,368 C,0,68621,,174,0,0 F,2,68621,68821,1,0 S,2,68621,68821,0.3 P,0,68621,68821,A
Sprite,Background,Centre,"sb\glow.png",0,0 C,0,69478,,255,0,0 M,0,69478,69531,416,230,402.7751,227.2972 F,2,69478,70320,1,0 S,2,69478,70320,0.3 P,0,69478,70320,A M,0,69531,69585,402.7751,227.2972,389.4261,225.2933 M,0,69585,69638,389.4261,225.2933,375.9952,223.9413 M,0,69638,69692,375.9952,223.9413,362.5169,223.1943 M,0,69692,69745,362.5169,223.1943,349.3337,221.9288 M,0,69745,69799,349.3337,221.9288,337.9778,214.6286 M,0,69799,69853,337.9778,214.6286,326.6219,207.3284 M,0,69853,69906,326.6219,207.3284,313.8969,206.2776 M,0,69906,69960,313.8969,206.2776,300.422,206.999 M,0,69960,70013,300.422,206.999,286.9414,206.3829 M,0,70013,70067,286.9414,206.3829,273.576,204.5142 M,0,70067,70120,273.576,204.5142,260.4189,201.5076
Sprite,Background,Centre,"sb\glow.png",217,196 C,0,70335,,255,0,0 F,2,70335,70535,1,0 S,2,70335,70535,0.3 P,0,70335,70535,A
Sprite,Background,Centre,"sb\glow.png",0,0 C,0,71192,,174,0,0 M,0,71192,71245,81,89,89.30615,99.64227 F,2,71192,72034,1,0 S,2,71192,72034,0.3 P,0,71192,72034,A M,0,71245,71299,89.30615,99.64227,97.61231,110.2845 M,0,71299,71352,97.61231,110.2845,105.9185,120.9268 M,0,71352,71406,105.9185,120.9268,113.1216,131.9867 M,0,71406,71459,113.1216,131.9867,113.9466,145.4614 M,0,71459,71513,113.9466,145.4614,114.7716,158.9362 M,0,71513,71567,114.7716,158.9362,115.5966,172.411 M,0,71567,71620,115.5966,172.411,114.0177,185.6077 M,0,71620,71674,114.0177,185.6077,116.6984,198.2461 M,0,71674,71727,116.6984,198.2461,117.5941,211.6741 M,0,71727,71781,117.5941,211.6741,118.2262,225.1593 M,0,71781,71834,118.2262,225.1593,118.8583,238.6445
Sprite,Background,Centre,"sb\glow.png",120,283 C,0,72050,,174,0,0 F,2,72050,72250,1,0 S,2,72050,72250,0.3 P,0,72050,72250,A
Sprite,Background,Centre,"sb\glow.png",0,0 C,0,72907,,174,0,0 M,0,72907,72960,278,352,274.5562,339.129 F,2,72907,73749,1,0 S,2,72907,73749,0.3 P,0,72907,73749,A M,0,72960,73014,274.5562,339.129,274.2396,325.8474 M,0,73014,73067,274.2396,325.8474,278.7328,313.3328 M,0,73067,73121,278.7328,313.3328,286.3301,302.5343 M,0,73121,73174,286.3301,302.5343,296.856,294.3502 M,0,73174,73228,296.856,294.3502,309.6439,290.6721 M,0,73228,73282,309.6439,290.6721,322.8706,290.3507 M,0,73282,73335,322.8706,290.3507,335.764,293.9614 M,0,73335,73389,335.764,293.9614,346.2358,302.1898 M,0,73389,73442,346.2358,302.1898,354.3863,312.6573 M,0,73442,73496,354.3863,312.6573,358.2974,325.3621 M,0,73496,73549,358.2974,325.3621,358.6207,338.5517
Sprite,Background,Centre,"sb\glow.png",344,379 C,0,73764,,192,192,192 F,2,73764,73964,1,0 S,2,73764,73964,0.3 P,0,73764,73964,A
Sprite,Background,Centre,"sb\glow.png",0,0 C,0,64335,,143,143,143 M,0,64335,64388,180,240,174.239,227.8241 F,2,64335,64963,1,0 S,2,64335,64963,0.3 P,0,64335,64963,A M,0,64388,64442,174.239,227.8241,169.6756,215.1558 M,0,64442,64495,169.6756,215.1558,167.0898,201.9407 M,0,64495,64549,167.0898,201.9407,165.939,188.5386 M,0,64549,64602,165.939,188.5386,166.411,175.0691 M,0,64602,64656,166.411,175.0691,169.0195,161.8558 M,0,64656,64709,169.0195,161.8558,172.9339,148.9781 M,0,64709,64763,172.9339,148.9781,178.7131,136.8168
Sprite,Background,Centre,"sb\glow.png",0,0 C,0,65192,,143,143,143 M,0,65192,65245,256,98,269.3573,99.95753 F,2,65192,66249,1,0 S,2,65192,66249,0.3 P,0,65192,66249,A M,0,65245,65299,269.3573,99.95753,282.7147,101.9151 M,0,65299,65352,282.7147,101.9151,296.072,103.8726 M,0,65352,65406,296.072,103.8726,309.4293,105.8302 M,0,65406,65459,309.4293,105.8302,322.7866,107.7877 M,0,65459,65513,322.7866,107.7877,336.1439,109.7452 M,0,65513,65567,336.1439,109.7452,349.5013,111.7028 M,0,65567,65620,349.5013,111.7028,362.8586,113.6603 M,0,65620,65674,362.8586,113.6603,349.5013,111.7028 M,0,65674,65727,349.5013,111.7028,336.1439,109.7452 M,0,65727,65781,336.1439,109.7452,322.7866,107.7877 M,0,65781,65834,322.7866,107.7877,309.4293,105.8302 M,0,65834,65888,309.4293,105.8302,296.072,103.8726 M,0,65888,65942,296.072,103.8726,282.7146,101.9151 M,0,65942,65995,282.7146,101.9151,269.3573,99.95753 M,0,65995,66049,269.3573,99.95753,256,98
Sprite,Background,Centre,"sb\glow.png",178,136 C,0,66478,,143,143,143 F,2,66478,66678,1,0 S,2,66478,66678,0.3 P,0,66478,66678,A
Sprite,Background,Centre,"sb\glow.png",0,0 C,0,54050,,174,0,0 M,0,54050,54103,509,275,496.5779,280.286 F,2,54050,54678,1,0 S,2,54050,54678,0.3 P,0,54050,54678,A M,0,54103,54157,496.5779,280.286,484.1558,285.572 M,0,54157,54210,484.1558,285.572,471.7337,290.858 M,0,54210,54264,471.7337,290.858,459.1813,294.2313 M,0,54264,54317,459.1813,294.2313,446.157,290.6792 M,0,54317,54371,446.157,290.6792,433.1327,287.1271 M,0,54371,54424,433.1327,287.1271,420.1084,283.575 M,0,54424,54478,420.1084,283.575,407.0841,280.0229
Sprite,Background,Centre,"sb\glow.png",366,267 C,0,54692,,174,0,0 F,2,54692,54892,1,0 S,2,54692,54892,0.3 P,0,54692,54892,A
Sprite,Background,Centre,"sb\glow.png",0,0 C,0,54907,,255,0,0 M,0,54907,54960,324,255,311.9725,260.9333 F,2,54907,55321,1,0 S,2,54907,55321,0.3 P,0,54907,55321,A M,0,54960,55014,311.9725,260.9333,299.1592,264.8902 M,0,55014,55067,299.1592,264.8902,285.7653,265.3214 M,0,55067,55121,285.7653,265.3214,272.4559,263.6252
Sprite,Background,Centre,"sb\glow.png",0,0 C,0,55335,,255,0,0 M,0,55335,55388,239,235,225.9757,231.4479 F,2,55335,56392,1,0 S,2,55335,56392,0.3 P,0,55335,56392,A M,0,55388,55442,225.9757,231.4479,212.9514,227.8958 M,0,55442,55495,212.9514,227.8958,199.9271,224.3438 M,0,55495,55549,199.9271,224.3438,186.9028,220.7917 M,0,55549,55602,186.9028,220.7917,174.3972,224.2252 M,0,55602,55656,174.3972,224.2252,162.0405,229.6622 M,0,55656,55709,162.0405,229.6622,149.6837,235.0992 M,0,55709,55763,149.6837,235.0992,137.327,240.5361 M,0,55763,55817,137.327,240.5361,149.6837,235.0992 M,0,55817,55870,149.6837,235.0992,162.0405,229.6622 M,0,55870,55924,162.0405,229.6622,174.3972,224.2252 M,0,55924,55977,174.3972,224.2252,186.9028,220.7917 M,0,55977,56031,186.9028,220.7917,199.9271,224.3438 M,0,56031,56084,199.9271,224.3438,212.9514,227.8958 M,0,56084,56138,212.9514,227.8958,225.9757,231.4479 M,0,56138,56192,225.9757,231.4479,239,235
Sprite,Background,Centre,"sb\glow.png",0,0 C,0,56621,,110,110,110 M,0,56621,56674,290,304,301.7859,310.578 F,2,56621,57678,1,0 S,2,56621,57678,0.3 P,0,56621,57678,A M,0,56674,56728,301.7859,310.578,314.0132,316.2924 M,0,56728,56781,314.0132,316.2924,326.6584,321.008 M,0,56781,56835,326.6584,321.008,339.6701,324.5876 M,0,56835,56888,339.6701,324.5876,352.9636,326.9074 M,0,56888,56942,352.9636,326.9074,366.4228,327.8736 M,0,56942,56995,366.4228,327.8736,379.9097,327.4422 M,0,56995,57049,379.9097,327.4422,393.2807,325.6237 M,0,57049,57103,393.2807,325.6237,406.4058,322.4872 M,0,57103,57156,406.4058,322.4872,419.1837,318.1454 M,0,57156,57210,419.1837,318.1454,431.5446,312.7271 M,0,57210,57263,431.5446,312.7271,433.6543,301.4575 M,0,57263,57317,433.6543,301.4575,431.7691,288.0898 M,0,57317,57370,431.7691,288.0898,429.8839,274.7221 M,0,57370,57424,429.8839,274.7221,427.9987,261.3544 M,0,57424,57478,427.9987,261.3544,426.1135,247.9866
Sprite,Background,Centre,"sb\glow.png",0,0 C,0,57907,,255,0,0 M,0,57907,57960,413,162,409.8131,149.0173 F,2,57907,58321,1,0 S,2,57907,58321,0.3 P,0,57907,58321,A M,0,57960,58014,409.8131,149.0173,404.3549,136.7666 M,0,58014,58067,404.3549,136.7666,395.181,127.0509 M,0,58067,58121,395.181,127.0509,384.3875,119.0891
Sprite,Background,Centre,"sb\glow.png",0,0 C,0,58335,,255,0,0 M,0,58335,58388,342,112,329.3694,116.7663 F,2,58335,58963,1,0 S,2,58335,58963,0.3 P,0,58335,58963,A M,0,58388,58442,329.3694,116.7663,316.7388,121.5325 M,0,58442,58495,316.7388,121.5325,304.1081,126.2988 M,0,58495,58549,304.1081,126.2988,291.4775,131.0651 M,0,58549,58602,291.4775,131.0651,278.5374,129.119 M,0,58602,58656,278.5374,129.119,265.5219,125.535 M,0,58656,58709,265.5219,125.535,252.5063,121.951 M,0,58709,58763,252.5063,121.951,239.4908,118.367
Sprite,Background,Centre,"sb\glow.png",197,107 C,0,58978,,255,0,0 F,2,58978,59178,1,0 S,2,58978,59178,0.3 P,0,58978,59178,A
Sprite,Background,Centre,"sb\glow.png",0,0 C,0,59192,,255,0,0 M,0,59192,59245,155,98,147.7072,109.3254 F,2,59192,59820,1,0 S,2,59192,59820,0.3 P,0,59192,59820,A M,0,59245,59299,147.7072,109.3254,141.5843,121.3137 M,0,59299,59352,141.5843,121.3137,137.3074,134.082 M,0,59352,59406,137.3074,134.082,134.5203,147.2379 M,0,59406,59459,134.5203,147.2379,133.3739,160.6528 M,0,59459,59513,133.3739,160.6528,134.2559,174.0899 M,0,59513,59566,134.2559,174.0899,136.6395,187.3259 M,0,59566,59620,136.6395,187.3259,140.5742,200.2153
Sprite,Background,Centre,"sb\glow.png",0,0 C,0,60050,,110,110,110 M,0,60050,60103,202,261,214.9229,264.8979 F,2,60050,61107,1,0 S,2,60050,61107,0.3 P,0,60050,61107,A M,0,60103,60157,214.9229,264.8979,228.0667,267.9671 M,0,60157,60210,228.0667,267.9671,241.4006,270.0552 M,0,60210,60264,241.4006,270.0552,254.8633,270.9894 M,0,60264,60317,254.8633,270.9894,268.351,270.587 M,0,60317,60371,268.351,270.587,281.7068,268.6748 M,0,60371,60424,281.7068,268.6748,294.7244,265.1334 M,0,60424,60478,294.7244,265.1334,307.1714,259.9319 M,0,60478,60532,307.1714,259.9319,319.5642,254.599 M,0,60532,60585,319.5642,254.599,332.4649,250.6459 M,0,60585,60639,332.4649,250.6459,345.7431,248.2593 M,0,60639,60692,345.7431,248.2593,359.218,247.6348 M,0,60692,60746,359.218,247.6348,372.6502,248.8722 M,0,60746,60799,372.6502,248.8722,385.7862,251.9413 M,0,60799,60853,385.7862,251.9413,398.4181,256.6793 M,0,60853,60907,398.4181,256.6793,410.4144,262.8564
Sprite,Background,Centre,"sb\glow.png",437,296 C,0,61121,,255,0,0 F,2,61121,61321,1,0 S,2,61121,61321,0.3 P,0,61121,61321,A
Sprite,Background,Centre,"sb\glow.png",0,0 C,0,61335,,255,0,0 M,0,61335,61388,465,329,474.6846,319.6586 F,2,61335,61963,1,0 S,2,61335,61963,0.3 P,0,61335,61963,A M,0,61388,61442,474.6846,319.6586,483.1501,309.2169 M,0,61442,61495,483.1501,309.2169,489.5819,297.4063 M,0,61495,61549,489.5819,297.4063,494.2948,284.8389 M,0,61549,61602,494.2948,284.8389,497.0668,271.6815 M,0,61602,61656,497.0668,271.6815,497.3716,258.2358 M,0,61656,61709,497.3716,258.2358,495.8337,244.9005 M,0,61709,61763,495.8337,244.9005,492.3773,231.8864
Sprite,Background,Centre,"sb\glow.png",0,0 C,0,62192,,255,0,0 M,0,62192,62245,430,171,432.503,157.7341 F,2,62192,63249,1,0 S,2,62192,63249,0.3 P,0,62192,63249,A M,0,62245,62299,432.503,157.7341,435.006,144.4681 M,0,62299,62352,435.006,144.4681,437.509,131.2022 M,0,62352,62406,437.509,131.2022,440.012,117.9363 M,0,62406,62459,440.012,117.9363,442.515,104.6703 M,0,62459,62513,442.515,104.6703,445.018,91.4044 M,0,62513,62566,445.018,91.4044,447.5211,78.13847 M,0,62566,62620,447.5211,78.13847,450,65 M,0,62620,62674,450,65,447.5211,78.13848 M,0,62674,62727,447.5211,78.13848,445.018,91.40441 M,0,62727,62781,445.018,91.40441,442.515,104.6703 M,0,62781,62834,442.515,104.6703,440.012,117.9363 M,0,62834,62888,440.012,117.9363,437.509,131.2022 M,0,62888,62941,437.509,131.2022,435.006,144.4681 M,0,62941,62995,435.006,144.4681,432.503,157.7341 M,0,62995,63049,432.503,157.7341,430,171
Sprite,Background,Centre,"sb\glow.png",0,0 C,0,34335,,192,192,192 M,0,34335,34388,116,192,102.6081,191.0079 F,2,34335,34963,1,0 S,2,34335,34963,0.3 P,0,34335,34963,A M,0,34388,34442,102.6081,191.0079,89.54497,187.982 M,0,34442,34495,89.54497,187.982,77.52298,182.0244 M,0,34495,34549,77.52298,182.0244,66.55023,174.2904 M,0,34549,34602,66.55023,174.2904,77.52298,182.0244 M,0,34602,34656,77.52298,182.0244,89.54497,187.982 M,0,34656,34709,89.54497,187.982,102.6081,191.0079 M,0,34709,34763,102.6081,191.0079,116,192
Sprite,Background,Centre,"sb\glow.png",0,0 C,0,35192,,192,192,192 M,0,35192,35245,189,237,186.7421,250.3098 F,2,35192,35820,1,0 S,2,35192,35820,0.3 P,0,35192,35820,A M,0,35245,35299,186.7421,250.3098,184.4842,263.6197 M,0,35299,35352,184.4842,263.6197,182.2262,276.9295 M,0,35352,35406,182.2262,276.9295,179.9683,290.2393 M,0,35406,35459,179.9683,290.2393,177.7104,303.5492 M,0,35459,35513,177.7104,303.5492,175.4525,316.859 M,0,35513,35566,175.4525,316.859,173.1946,330.1689 M,0,35566,35620,173.1946,330.1689,170.9366,343.4787
Sprite,Background,Centre,"sb\glow.png",0,0 C,0,36050,,143,143,143 M,0,36050,36103,225,410,238.3919,410.9921 F,2,36050,36678,1,0 S,2,36050,36678,0.3 P,0,36050,36678,A M,0,36103,36157,238.3919,410.9921,251.455,414.018 M,0,36157,36210,251.455,414.018,263.477,419.9756 M,0,36210,36264,263.477,419.9756,274.4498,427.7096 M,0,36264,36317,274.4498,427.7096,263.477,419.9756 M,0,36317,36371,263.477,419.9756,251.455,414.018 M,0,36371,36424,251.455,414.018,238.3919,410.9921 M,0,36424,36478,238.3919,410.9921,225,410
Sprite,Background,Centre,"sb\glow.png",0,0 C,0,36907,,143,143,143 M,0,36907,36960,171,343,173.2601,329.6905 F,2,36907,37535,1,0 S,2,36907,37535,0.3 P,0,36907,37535,A M,0,36960,37014,173.2601,329.6905,175.5202,316.3811 M,0,37014,37067,175.5202,316.3811,177.7803,303.0716 M,0,37067,37121,177.7803,303.0716,180.0404,289.7621 M,0,37121,37174,180.0404,289.7621,182.3005,276.4527 M,0,37174,37228,182.3005,276.4527,184.5606,263.1432 M,0,37228,37281,184.5606,263.1432,186.8207,249.8337 M,0,37281,37335,186.8207,249.8337,189,237
Sprite,Background,Centre,"sb\glow.png",0,0 C,0,37764,,143,143,143 M,0,37764,37817,258,185,270.5008,180.0015 F,2,37764,38821,1,0 S,2,37764,38821,0.3 P,0,37764,38821,A M,0,37817,37871,270.5008,180.0015,283.4559,176.3581 M,0,37871,37924,283.4559,176.3581,296.8406,174.9568 M,0,37924,37978,296.8406,174.9568,310.2801,175.1465 M,0,37978,38031,310.2801,175.1465,323.6086,177.1295 M,0,38031,38085,323.6086,177.1295,336.3591,181.4465 M,0,38085,38138,336.3591,181.4465,348.5536,187.1265 M,0,38138,38192,348.5536,187.1265,359.6407,194.7528 M,0,38192,38246,359.6407,194.7528,348.5536,187.1265 M,0,38246,38299,348.5536,187.1265,336.3591,181.4465 M,0,38299,38353,336.3591,181.4465,323.6086,177.1295 M,0,38353,38406,323.6086,177.1295,310.2801,175.1465 M,0,38406,38460,310.2801,175.1465,296.8406,174.9568 M,0,38460,38513,296.8406,174.9568,283.4559,176.3581 M,0,38513,38567,283.4559,176.3581,270.5008,180.0015 M,0,38567,38621,270.5008,180.0015,258,185
Sprite,Background,Centre,"sb\blood-1.png",319,194 C,0,25335,,255,0,0 F,2,25335,25535,1,0 S,2,25335,25535,0.5 P,0,25335,25535,A
Sprite,Background,Centre,"sb\glow.png",0,0 C,0,30907,,255,0,0 M,0,30907,30960,507,148,514.4885,159.2327 F,2,30907,31964,1,0 S,2,30907,31964,0.3 P,0,30907,31964,A M,0,30960,31014,514.4885,159.2327,521.9769,170.4654 M,0,31014,31067,521.9769,170.4654,529.4653,181.698 M,0,31067,31121,529.4653,181.698,536.9538,192.9307 M,0,31121,31174,536.9538,192.9307,534.5502,206.1912 M,0,31174,31228,534.5502,206.1912,532.0852,219.4642 M,0,31228,31281,532.0852,219.4642,529.6202,232.7373 M,0,31281,31335,529.6202,232.7373,527.1552,246.0103 M,0,31335,31389,527.1552,246.0103,529.6202,232.7373 M,0,31389,31442,529.6202,232.7373,532.0852,219.4642 M,0,31442,31496,532.0852,219.4642,534.5502,206.1912 M,0,31496,31549,534.5502,206.1912,536.9538,192.9307 M,0,31549,31603,536.9538,192.9307,529.4653,181.698 M,0,31603,31656,529.4653,181.698,521.9769,170.4653 M,0,31656,31710,521.9769,170.4653,514.4884,159.2327 M,0,31710,31764,514.4884,159.2327,507,148
Sprite,Background,Centre,"sb\blood-2.png",427,116 C,0,32192,,255,0,0 F,2,32192,32392,1,0 S,2,32192,32392,0.5 P,0,32192,32392,A
Sprite,Background,Centre,"sb\glow.png",0,0 C,0,24050,,255,0,0 M,0,24050,24103,373,127,386.2556,129.4319 F,2,24050,25107,1,0 S,2,24050,25107,0.3 P,0,24050,25107,A M,0,24103,24157,386.2556,129.4319,399.6651,130.7489 M,0,24157,24210,399.6651,130.7489,413.1296,130.2521 M,0,24210,24264,413.1296,130.2521,426.4801,128.5113 M,0,24264,24317,426.4801,128.5113,439.5961,125.3717 M,0,24317,24371,439.5961,125.3717,452.1234,120.4043 M,0,24371,24424,452.1234,120.4043,464.1803,114.3935 M,0,24424,24478,464.1803,114.3935,475.3319,106.8324 M,0,24478,24532,475.3319,106.8324,464.1803,114.3935 M,0,24532,24585,464.1803,114.3935,452.1234,120.4043 M,0,24585,24639,452.1234,120.4043,439.5961,125.3717 M,0,24639,24692,439.5961,125.3717,426.4801,128.5113 M,0,24692,24746,426.4801,128.5113,413.1296,130.2521 M,0,24746,24799,413.1296,130.2521,399.6651,130.7489 M,0,24799,24853,399.6651,130.7489,386.2556,129.4319 M,0,24853,24907,386.2556,129.4319,373,127
Sprite,Background,Centre,"sb\spook.png",321,319 C,0,142335,,174,0,0 F,2,142335,143085,1,0 S,2,142335,143085,0.55 P,0,142335,143085,A
//Storyboard Layer 1 (Fail)
//Storyboard Layer 2 (Pass)
//Storyboard Layer 3 (Foreground)
//Storyboard Layer 4 (Overlay)
//Storyboard Sound Samples

[TimingPoints]
50,428.571428571429,4,2,0,100,1,0
1764,-83.3333333333333,4,2,0,100,0,1
3478,-111.111111111111,4,2,2,50,0,0
10335,-111.111111111111,4,2,2,90,0,0
17192,-111.111111111111,4,2,21,90,0,0
17442,-111.111111111111,4,2,2,90,0,0
18907,-111.111111111111,4,2,3,100,0,0
32621,-111.111111111111,4,2,2,50,0,0
34335,-111.111111111111,4,2,4,80,0,0
39478,-111.111111111111,4,2,21,100,0,0
42907,-111.111111111111,4,2,4,100,0,0
44621,-111.111111111111,4,2,2,100,0,0
44835,-111.111111111111,4,2,2,25,0,0
46335,-111.111111111111,4,2,21,100,0,0
46389,-111.111111111111,4,2,3,50,0,0
53192,-111.111111111111,4,2,3,100,0,0
64335,-111.111111111111,4,2,2,35,0,0
66907,-111.111111111111,4,2,3,100,0,0
68907,-111.111111111111,4,2,2,50,0,0
69478,-111.111111111111,4,2,3,100,0,0
70621,-111.111111111111,4,2,2,50,0,0
71192,-111.111111111111,4,2,3,100,0,0
72335,-111.111111111111,4,2,2,50,0,0
72906,-111.111111111111,4,2,3,100,0,0
73764,-111.111111111111,4,2,3,50,0,0
75478,-111.111111111111,4,2,3,100,0,0
87478,-111.111111111111,4,2,3,50,0,0
87692,-111.111111111111,4,2,3,25,0,0
88335,-111.111111111111,4,2,2,25,0,0
89192,-111.111111111111,4,2,3,50,0,0
89406,-111.111111111111,4,2,3,25,0,0
90050,-111.111111111111,4,2,2,25,0,0
90907,-111.111111111111,4,2,3,50,0,0
91121,-111.111111111111,4,2,3,25,0,0
91764,-111.111111111111,4,2,2,25,0,0
92621,-111.111111111111,4,2,3,50,0,0
92835,-111.111111111111,4,2,3,25,0,0
93478,-111.111111111111,4,2,2,25,0,0
94335,-111.111111111111,4,2,3,50,0,0
94549,-111.111111111111,4,2,3,25,0,0
95192,-111.111111111111,4,2,2,25,0,0
96050,-111.111111111111,4,2,3,50,0,0
96264,-111.111111111111,4,2,3,25,0,0
96907,-111.111111111111,4,2,2,25,0,0
97764,-111.111111111111,4,2,3,50,0,0
97978,-111.111111111111,4,2,3,25,0,0
99478,-83.3333333333333,4,2,0,100,0,1
101192,-100,4,2,3,100,0,0
101406,-100,4,2,3,75,0,0
101621,-100,4,2,2,50,0,0
102907,-100,4,2,3,100,0,0
103121,-100,4,2,3,75,0,0
103336,-100,4,2,2,50,0,0
104621,-100,4,2,3,100,0,0
104835,-100,4,2,3,75,0,0
105050,-100,4,2,2,50,0,0
106335,-100,4,2,3,100,0,0
106549,-100,4,2,3,75,0,0
106764,-100,4,2,2,50,0,0
108050,-100,4,2,3,100,0,0
108264,-100,4,2,3,75,0,0
108479,-100,4,2,2,50,0,0
109764,-100,4,2,3,100,0,0
109978,-100,4,2,3,75,0,0
110193,-100,4,2,2,50,0,0
111478,-100,4,2,3,100,0,0
111692,-100,4,2,3,75,0,0
111907,-100,4,2,2,50,0,0
113192,-100,4,2,3,100,0,0
113406,-100,4,2,3,75,0,0
113621,-100,4,2,2,50,0,0
114907,-100,4,2,3,100,0,0
115121,-100,4,2,3,75,0,0
115336,-100,4,2,2,50,0,0
116621,-100,4,2,3,100,0,0
116835,-100,4,2,3,75,0,0
117050,-100,4,2,2,50,0,0
118335,-100,4,2,3,100,0,0
118549,-100,4,2,3,75,0,0
118764,-100,4,2,2,50,0,0
120050,-100,4,2,3,100,0,0
120264,-100,4,2,3,75,0,0
120479,-100,4,2,2,50,0,0
121764,-100,4,2,3,100,0,0
121978,-100,4,2,3,75,0,0
122193,-100,4,2,2,50,0,0
123478,-100,4,2,3,100,0,0
123692,-100,4,2,3,75,0,0
123907,-100,4,2,2,50,0,0
125192,-100,4,2,3,100,0,0
125406,-100,4,2,3,75,0,0
125621,-100,4,2,2,50,0,0
126907,-100,4,2,3,100,0,0
127121,-100,4,2,3,75,0,0
127336,-100,4,2,2,50,0,0
128621,-100,4,2,2,25,0,0
142335,-100,4,2,81,60,0,0

[Colours]
Combo1 : 174,0,0
Combo2 : 255,0,0
Combo3 : 192,192,192
Combo4 : 143,143,143
Combo5 : 110,110,110

[HitObjects]
212,208,1764,6,0,B|211:137|285:116|329:153|352:236|256:302|256:302|264:306|264:306|273:303|273:303|280:308|280:308|288:305|288:305|296:309|296:309|304:306|304:306|312:311|312:311|320:307|320:307|328:312|328:312|336:309|336:309|344:313|344:313|352:310|352:310|360:315|360:315|368:312|368:312|406:291|425:212|406:154,1,575.999982421876,0|0,0:0|0:0,0:0:0:0:
345,37,5192,6,0,L|220:26,1,107.999996704102,8|8,0:0|0:0,0:0:0:0:
154,53,6050,2,0,P|133:108|148:171,1,107.999996704102,8|8,0:0|0:0,0:0:0:0:
208,208,6907,2,0,L|333:218,1,107.999996704102,8|8,0:0|0:0,0:0:0:0:
393,257,7765,2,0,P|404:314|378:374,1,107.999996704102,8|0,0:0|0:0,0:0:0:0:
346,370,8407,1,2,0:0:0:0:
303,375,8621,6,0,L|182:352,1,107.999996704102,8|8,0:0|0:0,0:0:0:0:
213,270,9478,2,0,L|333:292,1,107.999996704102,8|8,0:0|0:0,0:0:0:0:
390,240,10335,38,0,P|419:247|445:245,2,53.9999983520508,8|2|4,0:0|0:0|0:0,0:0:0:0:
368,202,10978,1,2,0:0:0:0:
348,164,11192,2,0,L|231:143,1,107.999996704102,8|4,0:0|0:0,0:0:0:0:
211,114,11835,1,2,0:0:0:0:
182,81,12050,2,0,P|151:136|165:193,1,107.999996704102,8|4,0:0|0:0,0:0:0:0:
223,233,12907,1,8,0:0:0:0:
279,168,13335,1,8,0:0:0:0:
333,99,13764,54,0,P|395:88|451:116,1,107.999996704102,8|4,0:0|0:0,0:0:0:0:
443,146,14407,1,2,0:0:0:0:
451,188,14621,2,0,L|514:199,2,53.9999983520508,8|2|4,0:0|0:0|0:0,0:0:0:0:
377,233,15478,2,0,B|322:255|276:222|276:222|233:194|163:212,1,215.999993408203,8|8,0:0|0:0,0:0:0:0:
47,332,17192,53,2,0:0:0:0:
277,74,18907,6,0,L|335:82,1,53.9999983520508,8|2,0:0|0:0,0:0:0:0:
363,109,19335,2,0,B|375:164|375:164|348:214,1,107.999996704102,4|8,0:0|0:0,0:0:0:0:
299,279,20192,1,4,0:0:0:0:
251,351,20621,2,0,L|128:334,1,107.999996704102,8|4,0:0|0:0,0:0:0:0:
109,310,21264,1,2,0:0:0:0:
78,279,21478,2,0,L|67:215,2,53.9999983520508,8|2|4,0:0|0:0|0:0,0:0:0:0:
156,243,22335,6,0,P|181:182|170:134,1,107.999996704102,8|4,0:0|0:0,0:0:0:0:
122,72,23192,2,0,B|156:51|156:51|228:57,1,107.999996704102,8|4,0:0|0:0,0:0:0:0:
267,63,23835,1,2,0:0:0:0:
309,71,24050,2,0,P|370:71|419:45,2,107.999996704102,8|4|8,0:0|0:0|0:0,0:0:0:0:
255,138,25335,1,4,0:0:0:0:
203,207,25764,54,0,L|139:195,1,53.9999983520508,8|2,0:0|0:0,0:0:0:0:
112,175,26192,2,0,B|124:220|124:220|111:284,1,107.999996704102,4|8,0:0|0:0,0:0:0:0:
97,365,27050,1,4,0:0:0:0:
177,334,27478,2,0,L|242:345,2,53.9999983520508,8|2|4,0:0|0:0|0:0,0:0:0:0:
111,280,28335,2,0,P|111:238|124:215,1,53.9999983520508,8|2,0:0|0:0,0:0:0:0:
143,194,28764,2,0,B|180:180|180:180|252:190,1,107.999996704102,4|8,0:0|0:0,0:0:0:0:
323,231,29621,6,0,P|334:194|333:172,1,53.9999983520508,4|2,0:0|0:0,0:0:0:0:
318,138,30050,2,0,P|319:111|328:85,1,53.9999983520508,8|2,0:0|0:0,0:0:0:0:
363,60,30478,1,4,0:0:0:0:
443,92,30907,2,0,B|473:137|473:137|460:207,2,107.999996704102,8|4|8,0:0|0:0|0:0,0:0:0:0:
363,60,32192,1,4,0:0:0:0:
318,138,32621,6,0,P|259:150|211:123,1,107.999996704102,2|2,0:0|0:0,0:0:0:0:
167,59,33478,2,0,P|118:37|66:50,1,107.999996704102,2|2,0:0|0:0,0:0:0:0:
52,136,34335,2,0,P|20:130|0:116,2,53.9999983520508,12|8|2,0:0|0:0|0:0,0:0:0:0:
125,181,35192,2,0,L|106:293,1,107.999996704102,8|8,0:0|0:0,0:0:0:0:
161,354,36050,6,0,P|193:360|213:374,2,53.9999983520508,12|8|2,0:0|0:0|0:0,0:0:0:0:
107,287,36907,2,0,L|125:181,1,107.999996704102,8|8,0:0|0:0,0:0:0:0:
194,129,37764,2,0,P|281:129|314:157,2,107.999996704102,12|2|8,0:0|0:0|0:0,0:0:0:0:
256,192,39478,12,8,44621,0:0:0:0:
385,67,53192,53,8,0:0:0:0:
392,151,53621,1,0,0:0:0:0:
445,219,54050,38,0,B|398:239|398:239|343:224,1,107.999996704102,6|0,0:0|0:0,0:0:0:0:
302,211,54692,1,2,0:0:0:0:
260,199,54907,6,0,P|214:209|203:206,1,53.9999983520508,8|0,0:0|0:0,0:0:0:0:
175,179,55335,2,0,B|120:164|120:164|70:186,2,107.999996704102,2|4|2,0:0|0:0|0:0,0:0:0:0:
226,248,56621,38,0,B|299:292|371:255|371:255|360:177,1,215.999993408203,8|4,0:0|0:0,0:0:0:0:
349,106,57907,22,0,P|336:75|313:60,1,53.9999983520508,2|2,0:0|0:0,0:0:0:0:
278,56,58335,2,0,B|225:76|225:76|156:57,1,107.999996704102,8|0,0:0|0:0,0:0:0:0:
133,51,58978,1,2,0:0:0:0:
91,42,59192,2,0,P|73:78|79:150,1,107.999996704102,4|2,0:0|0:0,0:0:0:0:
138,205,60050,38,0,B|201:226|245:203|245:203|303:176|356:213,1,215.999993408203,8|4,0:0|0:0,0:0:0:0:
373,240,61121,21,2,0:0:0:0:
401,273,61335,2,0,P|430:231|426:170,1,107.999996704102,0|8,0:0|0:0,0:0:0:0:
366,115,62192,2,0,L|386:9,2,107.999996704102,0|4|0,0:0|0:0|0:0,0:0:0:0:
283,139,63478,21,8,0:0:0:0:
116,184,64335,2,0,P|102:139|119:73,1,107.999996704102,2|2,0:0|0:0,0:0:0:0:
192,42,65192,2,0,L|308:59,2,107.999996704102,2|2|2,0:0|0:0|0:0,0:0:0:0:
114,80,66478,1,2,0:0:0:0:
128,165,66907,5,8,0:0:0:0:
59,323,67764,6,0,B|84:325|84:325|89:321|89:321|92:325|92:325|128:329|128:329|159:303|159:303|186:306|186:306|191:302|191:302|194:306|194:306|225:310,1,161.999995056153,4|0,0:0|0:0,0:0:0:0:
247,312,68621,1,8,0:0:0:0:
352,174,69478,6,0,B|322:167|287:167|287:167|259:149|259:149|225:155|188:143,1,161.999995056153,4|0,0:0|0:0,0:0:0:0:
153,140,70335,1,8,0:0:0:0:
17,33,71192,54,0,B|49:74|49:74|52:123|52:123|49:133|49:133|53:143|53:143|56:207,1,161.999995056153,4|0,0:0|0:0,0:0:0:0:
56,227,72050,1,8,0:0:0:0:
214,296,72907,2,0,P|217:252|292:294,1,161.999995056153,4|0,0:0|0:0,0:0:0:0:
280,323,73764,21,8,0:0:0:0:
428,75,75478,5,8,0:0:0:0:
437,160,75907,38,0,P|396:156|375:144,1,53.9999983520508,8|0,0:0|0:0,0:0:0:0:
351,122,76335,2,0,L|226:112,1,107.999996704102,6|8,0:0|0:0,0:0:0:0:
175,59,77192,2,0,B|155:109|155:109|169:170,1,107.999996704102,8|8,0:0|0:0,0:0:0:0:
178,203,77835,1,8,0:0:0:0:
187,245,78050,2,0,L|308:266,1,107.999996704102,6|0,0:0|0:0,0:0:0:0:
366,218,78907,53,8,0:0:0:0:
437,170,79335,2,0,P|401:142|384:138,1,53.9999983520508,8|0,0:0|0:0,0:0:0:0:
351,129,79764,2,0,B|306:144|306:144|222:134,1,107.999996704102,6|8,0:0|0:0,0:0:0:0:
160,126,80621,1,8,0:0:0:0:
83,166,81050,2,0,P|107:196|178:213,1,107.999996704102,8|6,0:0|0:0,0:0:0:0:
214,206,81692,1,8,0:0:0:0:
257,201,81907,2,0,B|322:213,1,53.9999983520508,8|0,0:0|0:0,0:0:0:0:
352,220,82335,5,8,0:0:0:0:
422,170,82764,2,0,L|433:104,1,53.9999983520508,8|8,0:0|0:0,0:0:0:0:
404,83,83192,2,0,B|376:73|376:73|335:77,1,53.9999983520508,6|8,0:0|0:0,0:0:0:0:
312,93,83621,1,8,0:0:0:0:
233,56,84050,53,8,0:0:0:0:
156,16,84478,2,0,P|146:53|173:118,1,107.999996704102,8|6,0:0|0:0,0:0:0:0:
206,139,85121,1,8,0:0:0:0:
245,156,85335,2,0,L|223:275,1,107.999996704102,8|8,0:0|0:0,0:0:0:0:
228,262,87478,22,0,P|172:261|115:230,1,107.999996704102,8|0,0:0|0:0,0:0:0:0:
92,159,88335,2,0,L|103:89,2,53.9999983520508,2|0|0,0:0|0:0|0:0,0:0:0:0:
125,239,89192,2,0,L|239:219,1,107.999996704102,8|0,0:0|0:0,0:0:0:0:
308,182,90049,2,0,P|320:216|314:249,2,53.9999983520508,2|0|0,0:0|0:0|0:0,0:0:0:0:
236,133,90907,6,0,L|354:112,1,107.999996704102,8|0,0:0|0:0,0:0:0:0:
398,48,91764,2,0,P|428:97|423:155,1,107.999996704102,2|0,0:0|0:0,0:0:0:0:
358,200,92621,5,8,0:0:0:0:
390,280,93050,1,0,0:0:0:0:
340,350,93478,1,2,0:0:0:0:
304,271,93907,1,0,0:0:0:0:
358,200,94335,38,0,P|326:146|280:126,1,107.999996704102,8|0,0:0|0:0,0:0:0:0:
202,146,95192,2,0,L|139:133,2,53.9999983520508,2|0|0,0:0|0:0|0:0,0:0:0:0:
286,127,96050,6,0,L|410:145,1,107.999996704102,8|0,0:0|0:0,0:0:0:0:
469,182,96907,2,0,P|481:153|478:117,2,53.9999983520508,2|0|0,0:0|0:0|0:0,0:0:0:0:
392,234,97764,5,8,0:0:0:0:
223,56,99478,6,0,B|113:48|113:48|51:43|46:134|109:136|109:136|117:140|117:140|126:137|126:137|133:142|133:142|141:139|141:139|149:143|149:143|157:140|157:140|165:145|165:145|173:141|173:141|181:146|181:146|189:143|189:143|197:147|197:147|205:144|205:144|213:149|213:149|221:146|221:146|285:153|278:245|215:241|215:241|151:236,1,575.999982421876,0|8,0:0|0:0,0:0:0:0:
73,234,101621,38,0,P|58:281|83:357,1,120,2|0,0:0|0:0,0:0:0:0:
122,360,102264,1,2,0:0:0:0:
168,371,102478,2,0,L|232:359,1,60,0|0,0:0|0:0,0:0:0:0:
268,335,102907,2,0,L|337:342,2,60,8|8|2,0:0|0:0|0:0,0:0:0:0:
210,257,103764,2,0,P|203:196|235:136,1,120,0|2,0:0|0:0,0:0:0:0:
319,113,104621,6,0,L|329:53,2,60,8|8|2,0:0|0:0|0:0,0:0:0:0:
408,148,105478,2,0,L|418:207,2,60,0|0|2,0:0|0:0|0:0,0:0:0:0:
362,130,106121,1,2,0:0:0:0:
319,113,106335,2,0,P|218:107|194:118,1,120,8|2,0:0|0:0,0:0:0:0:
173,150,106978,1,2,0:0:0:0:
156,194,107192,2,0,P|201:284|222:299,1,120,2|2,0:0|0:0,0:0:0:0:
309,276,108050,38,0,L|319:154,1,120,8|2,0:0|0:0,0:0:0:0:
324,108,108692,1,2,0:0:0:0:
327,59,108907,2,0,P|277:50|245:57,2,60,0|2|0,0:0|0:0|0:0,0:0:0:0:
410,106,109764,2,0,L|420:227,1,120,8|2,0:0|0:0,0:0:0:0:
422,274,110407,1,2,0:0:0:0:
427,323,110622,2,0,P|477:322|507:310,2,60,0|0|2,0:0|0:0|0:0,0:0:0:0:
334,298,111478,6,0,L|327:233,2,60,8|8|2,0:0|0:0|0:0,0:0:0:0:
238,286,112335,2,0,L|231:350,2,60,0|0|2,0:0|0:0|0:0,0:0:0:0:
191,273,112978,1,2,0:0:0:0:
144,262,113192,2,0,P|128:221|136:142,1,120,8|2,0:0|0:0,0:0:0:0:
175,122,113835,1,2,0:0:0:0:
219,102,114050,2,0,L|341:122,1,120,2|2,0:0|0:0,0:0:0:0:
426,86,114907,6,0,P|430:147|396:198,1,120,8|2,0:0|0:0,0:0:0:0:
360,222,115550,1,2,0:0:0:0:
318,245,115764,2,0,L|231:233,2,60,0|2|0,0:0|0:0|0:0,0:0:0:0:
322,341,116621,1,8,0:0:0:0:
227,326,117050,2,0,L|165:315,2,60,2|2|0,0:0|0:0|0:0,0:0:0:0:
256,287,117692,1,2,0:0:0:0:
282,247,117907,2,0,P|291:211|281:175,1,60,2|0,0:0|0:0,0:0:0:0:
261,148,118335,38,0,L|193:159,2,60,8|8|2,0:0|0:0|0:0,0:0:0:0:
314,68,119192,2,0,L|381:56,2,60,0|0|2,0:0|0:0|0:0,0:0:0:0:
272,44,119835,1,2,0:0:0:0:
272,44,120050,2,0,P|215:37|151:63,1,120,8|2,0:0|0:0,0:0:0:0:
121,89,120692,1,2,0:0:0:0:
84,120,120907,2,0,L|103:241,1,120,2|2,0:0|0:0,0:0:0:0:
178,298,121764,6,0,B|214:305|240:289|240:289|267:273|305:285,1,120,8|2,0:0|0:0,0:0:0:0:
335,306,122407,1,2,0:0:0:0:
377,327,122621,2,0,P|411:328|447:320,2,60,0|2|0,0:0|0:0|0:0,0:0:0:0:
396,232,123478,1,8,0:0:0:0:
417,138,123907,2,0,P|455:155|474:175,2,60,2|2|0,0:0|0:0|0:0,0:0:0:0:
383,103,124550,1,2,0:0:0:0:
383,103,124764,2,0,L|296:110,1,60,2|0,0:0|0:0,0:0:0:0:
278,91,125192,6,0,P|282:55|276:28,2,60,8|8|2,0:0|0:0|0:0,0:0:0:0:
206,155,126050,2,0,P|210:184|206:214,2,60,0|0|2,0:0|0:0|0:0,0:0:0:0:
177,116,126692,1,2,0:0:0:0:
142,81,126907,2,0,L|281:64,1,120,8|2,0:0|0:0,0:0:0:0:
307,80,127550,1,2,0:0:0:0:
351,96,127764,2,0,P|388:164|381:212,1,120,2|2,0:0|0:0,0:0:0:0:
315,271,128621,38,0,L|195:247,1,120,2|2,0:0|0:0,0:0:0:0:
118,193,129478,2,0,P|71:203|52:214,2,60,2|0|2,0:0|0:0|0:0,0:0:0:0:
197,248,130335,6,0,P|255:238|303:185,1,120,2|2,0:0|0:0,0:0:0:0:
368,132,131192,2,0,P|362:90|364:73,2,60,2|0|2,0:0|0:0|0:0,0:0:0:0:
452,177,132050,2,0,P|472:232|464:296,1,120,2|2,0:0|0:0,0:0:0:0:
384,343,132907,2,0,P|364:288|372:224,1,120,2|2,0:0|0:0,0:0:0:0:
452,177,133764,1,2,0:0:0:0:
427,84,134192,1,2,0:0:0:0:
330,82,134621,1,2,0:0:0:0:
294,171,135050,1,2,0:0:0:0:
370,227,135478,6,0,P|344:254|256:262,1,120,2|2,0:0|0:0,0:0:0:0:
197,197,136335,2,0,L|130:209,2,60,2|0|2,0:0|0:0|0:0,0:0:0:0:
253,119,137192,2,0,P|250:59|211:2,1,120,2|2,0:0|0:0,0:0:0:0:
127,37,138050,2,0,L|68:25,2,60,2|0|2,0:0|0:0|0:0,0:0:0:0:
161,126,138907,37,2,0:0:0:0:
337,201,139764,2,0,P|348:259|337:318,1,120,2|2,0:0|0:0,0:0:0:0:
252,363,140621,2,0,L|124:352,2,120,2|2|2,0:0|0:0|0:0,0:0:0:0:
337,318,141907,1,2,0:0:0:0:
257,263,142335,37,2,0:0:0:0:
